0
SECTION
2
HEADER
9
$ACADVER
1
AC1015
9
$ACADMAINTVER
70
20
9
$DWGCODEPAGE
3
ANSI_1252
9
$INSBASE
10
0.0
20
0.0
30
0.0
9
$EXTMIN
10
-150.000000000000
20
-105.000000000000
30
0.0
9
$EXTMAX
10
150.000000000000
20
105.000000000000
30
0.0
9
$LIMMIN
10
0.0
20
0.0
9
$LIMMAX
10
12.0
20
9.0
9
$ORTHOMODE
70
0
9
$REGENMODE
70
1
9
$FILLMODE
70
1
9
$QTEXTMODE
70
0
9
$MIRRTEXT
70
1
9
$LTSCALE
40
1.0
9
$ATTMODE
70
1
9
$TEXTSIZE
40
0.2
9
$TRACEWID
40
0.05
9
$TEXTSTYLE
7
Standard
9
$CLAYER
8
0
9
$CELTYPE
6
ByLayer
9
$CECOLOR
62
256
9
$CELTSCALE
40
1.0
9
$DISPSILH
70
0
9
$DIMSCALE
40
1.0
9
$DIMASZ
40
2.5
9
$DIMEXO
40
0.625
9
$DIMDLI
40
0.38
9
$DIMRND
40
0.0
9
$DIMDLE
40
0.0
9
$DIMEXE
40
1.25
9
$DIMTP
40
0.0
9
$DIMTM
40
0.000000001
9
$DIMTXT
40
2.5
9
$DIMCEN
40
0.09
9
$DIMTSZ
40
0.0
9
$DIMTOL
70
1
9
$DIMLIM
70
0
9
$DIMTIH
70
0
9
$DIMTOH
70
0
9
$DIMSE1
70
0
9
$DIMSE2
70
0
9
$DIMTAD
70
1
9
$DIMZIN
70
0
9
$DIMBLK
1
VDDIM_DEFAULT
9
$DIMASO
70
1
9
$DIMSHO
70
1
9
$DIMPOST
1

9
$DIMAPOST
1

9
$DIMALT
70
0
9
$DIMALTD
70
2
9
$DIMALTF
40
25.4
9
$DIMLFAC
40
1.00000000000000
9
$DIMTOFL
70
0
9
$DIMTVP
40
0.0
9
$DIMTIX
70
0
9
$DIMSOXD
70
0
9
$DIMSAH
70
0
9
$DIMBLK1
1

9
$DIMBLK2
1

9
$DIMSTYLE
2
BEM-ISBE
9
$DIMCLRD
70
0
9
$DIMCLRE
70
0
9
$DIMCLRT
70
0
9
$DIMTFAC
40
0.5
9
$DIMGAP
40
0.625
9
$DIMJUST
70
0
9
$DIMSD1
70
0
9
$DIMSD2
70
0
9
$DIMTOLJ
70
1
9
$DIMTZIN
70
0
9
$DIMALTZ
70
0
9
$DIMALTTZ
70
0
9
$DIMUPT
70
0
9
$DIMDEC
70
3
9
$DIMTDEC
70
3
9
$DIMALTU
70
2
9
$DIMALTTD
70
2
9
$DIMTXSTY
7
Standard
9
$DIMAUNIT
70
0
9
$DIMADEC
70
3
9
$DIMALTRND
40
0.0
9
$DIMAZIN
70
0
9
$DIMDSEP
70
46
9
$DIMATFIT
70
3
9
$DIMFRAC
70
0
9
$DIMLDRBLK
1

9
$DIMLUNIT
70
2
9
$DIMLWD
70
-2
9
$DIMLWE
70
-2
9
$DIMTMOVE
70
0
9
$LUNITS
70
2
9
$LUPREC
70
4
9
$SKETCHINC
40
0.1
9
$FILLETRAD
40
0.5
9
$AUNITS
70
0
9
$AUPREC
70
0
9
$MENU
1
.
9
$ELEVATION
40
0.0
9
$PELEVATION
40
0.0
9
$THICKNESS
40
0.0
9
$LIMCHECK
70
0
9
$CHAMFERA
40
0.5
9
$CHAMFERB
40
0.5
9
$CHAMFERC
40
1.0
9
$CHAMFERD
40
0.0
9
$SKPOLY
70
0
9
$TDCREATE
40
0.0
9
$TDUCREATE
40
0.0
9
$TDUPDATE
40
0.0
9
$TDUUPDATE
40
0.0
9
$TDINDWG
40
0.0
9
$TDUSRTIMER
40
0.0
9
$USRTIMER
70
1
9
$ANGBASE
50
0.0
9
$ANGDIR
70
0
9
$PDMODE
70
0
9
$PDSIZE
40
0.0
9
$PLINEWID
40
0.0
9
$SPLFRAME
70
0
9
$SPLINETYPE
70
6
9
$SPLINESEGS
70
8
9
$HANDSEED
5
10AB
9
$SURFTAB1
70
6
9
$SURFTAB2
70
6
9
$SURFTYPE
70
6
9
$SURFU
70
6
9
$SURFV
70
6
9
$UCSBASE
2

9
$UCSNAME
2

9
$UCSORG
10
0.0
20
0.0
30
0.0
9
$UCSXDIR
10
1.0
20
0.0
30
0.0
9
$UCSYDIR
10
0.0
20
1.0
30
0.0
9
$UCSORTHOREF
2

9
$UCSORTHOVIEW
70
0
9
$UCSORGTOP
10
0.0
20
0.0
30
0.0
9
$UCSORGBOTTOM
10
0.0
20
0.0
30
0.0
9
$UCSORGLEFT
10
0.0
20
0.0
30
0.0
9
$UCSORGRIGHT
10
0.0
20
0.0
30
0.0
9
$UCSORGFRONT
10
0.0
20
0.0
30
0.0
9
$UCSORGBACK
10
0.0
20
0.0
30
0.0
9
$PUCSBASE
2

9
$PUCSNAME
2

9
$PUCSORG
10
0.0
20
0.0
30
0.0
9
$PUCSXDIR
10
1.0
20
0.0
30
0.0
9
$PUCSYDIR
10
0.0
20
1.0
30
0.0
9
$PUCSORTHOREF
2

9
$PUCSORTHOVIEW
70
0
9
$PUCSORGTOP
10
0.0
20
0.0
30
0.0
9
$PUCSORGBOTTOM
10
0.0
20
0.0
30
0.0
9
$PUCSORGLEFT
10
0.0
20
0.0
30
0.0
9
$PUCSORGRIGHT
10
0.0
20
0.0
30
0.0
9
$PUCSORGFRONT
10
0.0
20
0.0
30
0.0
9
$PUCSORGBACK
10
0.0
20
0.0
30
0.0
9
$USERI1
70
0
9
$USERI2
70
0
9
$USERI3
70
0
9
$USERI4
70
0
9
$USERI5
70
0
9
$USERR1
40
0.0
9
$USERR2
40
0.0
9
$USERR3
40
0.0
9
$USERR4
40
0.0
9
$USERR5
40
0.0
9
$WORLDVIEW
70
1
9
$SHADEDGE
70
3
9
$SHADEDIF
70
70
9
$TILEMODE
70
1
9
$MAXACTVP
70
64
9
$PINSBASE
10
0.0
20
0.0
30
0.0
9
$PLIMCHECK
70
0
9
$PEXTMIN
10
1.000000000000000E+20
20
1.000000000000000E+20
30
1.000000000000000E+20
9
$PEXTMAX
10
-1.000000000000000E+20
20
-1.000000000000000E+20
30
-1.000000000000000E+20
9
$PLIMMIN
10
0.0
20
0.0
9
$PLIMMAX
10
12.0
20
9.0
9
$UNITMODE
70
0
9
$VISRETAIN
70
1
9
$PLINEGEN
70
0
9
$PSLTSCALE
70
1
9
$TREEDEPTH
70
3020
9
$CMLSTYLE
2
Standard
9
$CMLJUST
70
0
9
$CMLSCALE
40
1.0
9
$PROXYGRAPHICS
70
1
9
$MEASUREMENT
70
0
9
$CELWEIGHT
370
-1
9
$ENDCAPS
280
0
9
$JOINSTYLE
280
0
9
$LWDISPLAY
290
0
9
$INSUNITS
70
4
9
$HYPERLINKBASE
1

9
$STYLESHEET
1

9
$XEDIT
290
1
9
$CEPSNTYPE
380
0
9
$PSTYLEMODE
290
0
9
$FINGERPRINTGUID
2
{FAEB1C30-E019-11D5-929B-00C0DF256EC4}
9
$VERSIONGUID
2
{04C5C4E4-4947-4D90-8812-D401569E61F7}
9
$EXTNAMES
290
1
9
$PSVPSCALE
40
0.0
9
$OLESTARTUP
290
0
0
ENDSEC
0
SECTION
2
TABLES
0
TABLE
2
VPORT
5
24A
330
0
100
AcDbSymbolTable
70
1
0
VPORT
5
26B
330
24A
100
AcDbSymbolTableRecord
100
AcDbViewportTableRecord
2
*Active
70
0
10
0.0
20
0.0
11
1.0
21
1.0
12
0.000000000000000
22
0.000000000000000
13
0.0
23
0.0
14
10.0
24
10.0
15
10.0
25
10.0
16
0.0
26
0.0
36
1.0
17
0.0
27
0.0
37
0.0
40
210.000000000000
41
1.42857142857143
42
1.0
43
0.0
44
0.0
50
0.0
51
0.0000000000007958
71
0
72
100
73
1
74
3
75
0
76
0
77
0
78
1
281
0
65
1
110
0.0
120
0.0
130
0.0
111
1.0
121
0.0
131
0.0
112
0.0
122
1.0
132
0.0
79
0
146
0.0
0
ENDTAB
0
TABLE
2
LTYPE
5
247
330
0
100
AcDbSymbolTable
70
25
0
LTYPE
5
256
330
247
100
AcDbSymbolTableRecord
100
AcDbLinetypeTableRecord
2
ByBlock
70
0
3

72
65
73
0
40
0.0
0
LTYPE
5
257
330
247
100
AcDbSymbolTableRecord
100
AcDbLinetypeTableRecord
2
ByLayer
70
0
3

72
65
73
0
40
0.0
0
LTYPE
5
258
330
247
100
AcDbSymbolTableRecord
100
AcDbLinetypeTableRecord
2
Continuous
70
0
3
Solid line
72
65
73
0
40
0.0
0
LTYPE
5
273
330
247
100
AcDbSymbolTableRecord
100
AcDbLinetypeTableRecord
2
CENTER
70
0
3
Center ____ _ ____ _ ____ _ ____ _ ____ _ ____
72
65
73
4
40
2.0
49
1.25
74
0
49
-0.25
74
0
49
0.25
74
0
49
-0.25
74
0
0
LTYPE
5
274
330
247
100
AcDbSymbolTableRecord
100
AcDbLinetypeTableRecord
2
DASHDOT
70
0
3
Dashdot __ . __ . __ . __ . __ . __ . __ . __
72
65
73
4
40
1.0
49
0.5
74
0
49
-0.25
74
0
49
0.0
74
0
49
-0.25
74
0
0
LTYPE
5
275
330
247
100
AcDbSymbolTableRecord
100
AcDbLinetypeTableRecord
2
DASHED
70
0
3
Dashed __ __ __ __ __ __ __ __ __ __ __ __ __ _
72
65
73
2
40
0.75
49
0.5
74
0
49
-0.25
74
0
0
LTYPE
5
276
330
247
100
AcDbSymbolTableRecord
100
AcDbLinetypeTableRecord
2
HIDDEN
70
0
3
Hidden __ __ __ __ __ __ __ __ __ __ __ __ __ __
72
65
73
2
40
0.375
49
0.25
74
0
49
-0.125
74
0
0
LTYPE
5
277
330
247
100
AcDbSymbolTableRecord
100
AcDbLinetypeTableRecord
2
HIDDEN2
70
0
3
Hidden2 _ _ _ _ _ _ _ _ _ _ _ _ _ _ _ _ _
72
65
73
2
40
0.1875
49
0.125
74
0
49
-0.0625
74
0
0
LTYPE
5
278
330
247
100
AcDbSymbolTableRecord
100
AcDbLinetypeTableRecord
2
BORDER
70
0
3
Border __ __ . __ __ . __ __ . __ __ . __ __ .
72
65
73
6
40
1.75
49
0.5
74
0
49
-0.25
74
0
49
0.5
74
0
49
-0.25
74
0
49
0.0
74
0
49
-0.25
74
0
0
LTYPE
5
279
330
247
100
AcDbSymbolTableRecord
100
AcDbLinetypeTableRecord
2
BORDER2
70
0
3
Border2 __.__.__.__.__.__.__.__.__.__.__.
72
65
73
6
40
0.875
49
0.25
74
0
49
-0.125
74
0
49
0.25
74
0
49
-0.125
74
0
49
0.0
74
0
49
-0.125
74
0
0
LTYPE
5
27A
330
247
100
AcDbSymbolTableRecord
100
AcDbLinetypeTableRecord
2
BORDERX2
70
0
3
Borderx2  ____  ____  .  ____  ____  .  ___
72
65
73
6
40
3.5
49
1.0
74
0
49
-0.5
74
0
49
1.0
74
0
49
-0.5
74
0
49
0.0
74
0
49
-0.5
74
0
0
LTYPE
5
27B
330
247
100
AcDbSymbolTableRecord
100
AcDbLinetypeTableRecord
2
CENTER2
70
0
3
Center2  ___ _ ___ _ ___ _ ___ _ ___ _ ___
72
65
73
4
40
1.125
49
0.75
74
0
49
-0.125
74
0
49
0.125
74
0
49
-0.125
74
0
0
LTYPE
5
27C
330
247
100
AcDbSymbolTableRecord
100
AcDbLinetypeTableRecord
2
CENTERX2
70
0
3
Centerx2  ________  __  ________  __  _____
72
65
73
4
40
4.0
49
2.5
74
0
49
-0.5
74
0
49
0.5
74
0
49
-0.5
74
0
0
LTYPE
5
27D
330
247
100
AcDbSymbolTableRecord
100
AcDbLinetypeTableRecord
2
DASHDOT2
70
0
3
Dashdot2  _._._._._._._._._._._._._._._.
72
65
73
4
40
0.5
49
0.25
74
0
49
-0.125
74
0
49
0.0
74
0
49
-0.125
74
0
0
LTYPE
5
27E
330
247
100
AcDbSymbolTableRecord
100
AcDbLinetypeTableRecord
2
DASHDOTX2
70
0
3
Dashdotx2 ____  .  ____  .  ____  .  ___
72
65
73
4
40
2.0
49
1.0
74
0
49
-0.5
74
0
49
0.0
74
0
49
-0.5
74
0
0
LTYPE
5
27F
330
247
100
AcDbSymbolTableRecord
100
AcDbLinetypeTableRecord
2
DASHED2
70
0
3
Dashed2 _ _ _ _ _ _ _ _ _ _ _ _ _ _ _ _ _
72
65
73
2
40
0.375
49
0.25
74
0
49
-0.125
74
0
0
LTYPE
5
280
330
247
100
AcDbSymbolTableRecord
100
AcDbLinetypeTableRecord
2
DASHEDX2
70
0
3
Dashedx2 ____  ____  ____  ____  ____  ___
72
65
73
2
40
1.5
49
1.0
74
0
49
-0.5
74
0
0
LTYPE
5
281
330
247
100
AcDbSymbolTableRecord
100
AcDbLinetypeTableRecord
2
DIVIDE
70
0
3
Divide ____ . . ____ . . ____ . . ____ . . ____
72
65
73
6
40
1.25
49
0.5
74
0
49
-0.25
74
0
49
0.0
74
0
49
-0.25
74
0
49
0.0
74
0
49
-0.25
74
0
0
LTYPE
5
282
330
247
100
AcDbSymbolTableRecord
100
AcDbLinetypeTableRecord
2
DIVIDE2
70
0
3
Divide2 __..__..__..__..__..__..__..__.._
72
65
73
6
40
0.625
49
0.25
74
0
49
-0.125
74
0
49
0.0
74
0
49
-0.125
74
0
49
0.0
74
0
49
-0.125
74
0
0
LTYPE
5
283
330
247
100
AcDbSymbolTableRecord
100
AcDbLinetypeTableRecord
2
DIVIDEX2
70
0
3
Dividex2 ________  .  .  ________  .  .  _
72
65
73
6
40
2.5
49
1.0
74
0
49
-0.5
74
0
49
0.0
74
0
49
-0.5
74
0
49
0.0
74
0
49
-0.5
74
0
0
LTYPE
5
284
330
247
100
AcDbSymbolTableRecord
100
AcDbLinetypeTableRecord
2
DOT
70
0
3
Dot . . . . . . . . . . . . . . . . . . . . . . . .
72
65
73
2
40
0.25
49
0.0
74
0
49
-0.25
74
0
0
LTYPE
5
285
330
247
100
AcDbSymbolTableRecord
100
AcDbLinetypeTableRecord
2
DOT2
70
0
3
Dot2 ........................................
72
65
73
2
40
0.125
49
0.0
74
0
49
-0.125
74
0
0
LTYPE
5
286
330
247
100
AcDbSymbolTableRecord
100
AcDbLinetypeTableRecord
2
DOTX2
70
0
3
Dotx2 .  .  .  .  .  .  .  .  .  .  .  .  .  .
72
65
73
2
40
0.5
49
0.0
74
0
49
-0.5
74
0
0
LTYPE
5
287
330
247
100
AcDbSymbolTableRecord
100
AcDbLinetypeTableRecord
2
HIDDENX2
70
0
3
Hiddenx2 ____ ____ ____ ____ ____ ____ ____
72
65
73
2
40
0.75
49
0.5
74
0
49
-0.25
74
0
0
LTYPE
5
288
330
247
100
AcDbSymbolTableRecord
100
AcDbLinetypeTableRecord
2
PHANTOM
70
0
3
Phantom ______  __  __  ______  __  __  ______
72
65
73
6
40
2.5
49
1.25
74
0
49
-0.25
74
0
49
0.25
74
0
49
-0.25
74
0
49
0.25
74
0
49
-0.25
74
0
0
LTYPE
5
289
330
247
100
AcDbSymbolTableRecord
100
AcDbLinetypeTableRecord
2
PHANTOM2
70
0
3
Phantom2 ___ _ _ ___ _ _ ___ _ _ ___ _ _
72
65
73
6
40
1.25
49
0.625
74
0
49
-0.125
74
0
49
0.125
74
0
49
-0.125
74
0
49
0.125
74
0
49
-0.125
74
0
0
LTYPE
5
28A
330
247
100
AcDbSymbolTableRecord
100
AcDbLinetypeTableRecord
2
PHANTOMX2
70
0
3
Phantomx2 ____________    ____    ____   _
72
65
73
6
40
5.0
49
2.5
74
0
49
-0.5
74
0
49
0.5
74
0
49
-0.5
74
0
49
0.5
74
0
49
-0.5
74
0
0
ENDTAB
0
TABLE
2
LAYER
5
244
330
0
100
AcDbSymbolTable
70
6
0
LAYER
5
252
330
244
100
AcDbSymbolTableRecord
100
AcDbLayerTableRecord
2
0
70
0
62
7
6
Continuous
370
0
390
251
0
LAYER
5
23F
330
244
100
AcDbSymbolTableRecord
100
AcDbLayerTableRecord
2
Bemassung
70
0
 62
   7
6
Continuous
370
0
390
251
0
LAYER
5
240
330
244
100
AcDbSymbolTableRecord
100
AcDbLayerTableRecord
2
Rahmen
70
0
 62
   7
6
Continuous
370
0
390
251
0
LAYER
5
241
330
244
100
AcDbSymbolTableRecord
100
AcDbLayerTableRecord
2
Geo
70
0
 62
   7
6
Continuous
370
0
390
251
0
LAYER
5
33A
330
244
100
AcDbSymbolTableRecord
100
AcDbLayerTableRecord
2
Defpoints
70
0
62
7
6
Continuous
290
0
370
-3
390
251
0
LAYER
5
57E
330
244
100
AcDbSymbolTableRecord
100
AcDbLayerTableRecord
2
Text
70
0
 62
   7
6
Continuous
370
0
390
251
1001
AcAecLayerStandard
1000

1000

0
ENDTAB
0
TABLE
2
STYLE
5
245
330
0
100
AcDbSymbolTable
70
2
0
STYLE
5
253
330
245
100
AcDbSymbolTableRecord
100
AcDbTextStyleTableRecord
2
Standard
70
0
40
0.0
41
1.0
50
0.0
71
0
42
0.2
3
Arial
4

1001
ACAD
1000
Arial
1071
0
0
STYLE
5
132
330
245
100
AcDbSymbolTableRecord
100
AcDbTextStyleTableRecord
2
Beschriftung
70
0
40
0.0
41
1.0
50
0.0
71
0
42
0.2
3
Arial
4

1001
ACAD
1000
Arial
1071
0
1001
AcadAnnotative
1000
AnnotativeData
1070
1
1070
1
0
ENDTAB
0
TABLE
2
VIEW
5
248
330
0
100
AcDbSymbolTable
70
0
0
ENDTAB
0
TABLE
2
UCS
5
249
330
0
100
AcDbSymbolTable
70
0
0
ENDTAB
0
TABLE
2
APPID
5
24B
330
0
100
AcDbSymbolTable
70
13
0
APPID
5
254
330
24B
100
AcDbSymbolTableRecord
100
AcDbRegAppTableRecord
2
ACAD
70
0
0
APPID
5
26C
330
24B
100
AcDbSymbolTableRecord
100
AcDbRegAppTableRecord
2
VD_INVISIBLE_NOT_FOR_READ
70
0
0
APPID
5
26D
330
24B
100
AcDbSymbolTableRecord
100
AcDbRegAppTableRecord
2
VD_TEMPHATCH
70
0
0
APPID
5
26E
330
24B
100
AcDbSymbolTableRecord
100
AcDbRegAppTableRecord
2
VDEXTRAPARAM
70
0
0
APPID
5
26F
330
24B
100
AcDbSymbolTableRecord
100
AcDbRegAppTableRecord
2
PE_URL
70
0
0
APPID
5
270
330
24B
100
AcDbSymbolTableRecord
100
AcDbRegAppTableRecord
2
VD_UNKNOWN
70
0
0
APPID
5
28F
330
24B
100
AcDbSymbolTableRecord
100
AcDbRegAppTableRecord
2
AcadAnnotative
70
0
0
APPID
5
290
330
24B
100
AcDbSymbolTableRecord
100
AcDbRegAppTableRecord
2
ACAD_DSTYLE_DIMJAG
70
0
0
APPID
5
291
330
24B
100
AcDbSymbolTableRecord
100
AcDbRegAppTableRecord
2
ACAD_DSTYLE_DIMTALN
70
0
0
APPID
5
293
330
24B
100
AcDbSymbolTableRecord
100
AcDbRegAppTableRecord
2
ACAD_PSEXT
70
0
0
APPID
5
42A
330
24B
100
AcDbSymbolTableRecord
100
AcDbRegAppTableRecord
2
ACAD_MLEADERVER
70
0
0
APPID
5
532
330
24B
100
AcDbSymbolTableRecord
100
AcDbRegAppTableRecord
2
ACAD_EXEMPT_FROM_CAD_STANDARDS
70
0
0
APPID
5
57F
330
24B
100
AcDbSymbolTableRecord
100
AcDbRegAppTableRecord
2
AcAecLayerStandard
70
0
0
ENDTAB
0
TABLE
2
DIMSTYLE
5
24C
330
0
100
AcDbSymbolTable
70
3
100
AcDbDimStyleTable
71
2
340
27
340
269
0
DIMSTYLE
105
269
330
24C
100
AcDbSymbolTableRecord
100
AcDbDimStyleTableRecord
2
Standard
70
0
172
1
174
1
288
1
340
253
342
23C
0
DIMSTYLE
105
137
330
24C
100
AcDbSymbolTableRecord
100
AcDbDimStyleTableRecord
2
Beschriftung
70
0
41
2.5
42
0.625
44
1.25
73
0
74
0
77
1
140
2.5
147
0.625
172
1
174
1
271
2
288
1
340
253
342
23C
1001
AcadAnnotative
1000
AnnotativeData
1070
1
1070
1
1001
ACAD_DSTYLE_DIMJAG
1070
388
1040
1.5
1001
ACAD_DSTYLE_DIMTALN
1070
392
1070
0
0
DIMSTYLE
105
27
102
{ACAD_REACTORS
330
F1000D
330
F10017
330
F1001C
330
F10008
330
F10003
330
F10012
102
}
330
24C
100
AcDbSymbolTableRecord
100
AcDbDimStyleTableRecord
2
BEM-ISBE
70
0
41
2.5
42
0.625
44
1.25
48
0.000000001
71
1
73
0
74
0
77
1
140
2.5
144
1.00000000000000
146
0.5
147
0.625
171
 3
172
 1
179
 3
271
 3
272
 3
274
 3
340
253
342
23C
1001
ACAD_DSTYLE_DIMJAG
1070
388
1040
1.5
1001
ACAD_DSTYLE_DIMTALN
1070
392
1070
1
0
ENDTAB
0
TABLE
2
BLOCK_RECORD
5
243
330
0
100
AcDbSymbolTable
70
5
0
BLOCK_RECORD
5
261
330
243
100
AcDbSymbolTableRecord
100
AcDbBlockTableRecord
2
*Model_Space
340
FD0
0
BLOCK_RECORD
5
25D
330
243
100
AcDbSymbolTableRecord
100
AcDbBlockTableRecord
2
*Paper_Space
340
FD1
0
BLOCK_RECORD
5
265
330
243
100
AcDbSymbolTableRecord
100
AcDbBlockTableRecord
2
*Paper_Space0
340
0
0
BLOCK_RECORD
5
23C
330
243
100
AcDbSymbolTableRecord
100
AcDbBlockTableRecord
2
VDDIM_DEFAULT
340
0
102
{BLKREFS
102
}
0
BLOCK_RECORD
5
23E
330
243
100
AcDbSymbolTableRecord
100
AcDbBlockTableRecord
2
VDDIM_NONE
340
0
0
BLOCK_RECORD
5
F1000C
330
243
100
AcDbSymbolTableRecord
100
AcDbBlockTableRecord
2
*D5
340
0
0
BLOCK_RECORD
5
F10016
330
243
100
AcDbSymbolTableRecord
100
AcDbBlockTableRecord
2
*D7
340
0
0
BLOCK_RECORD
5
F1001B
330
243
100
AcDbSymbolTableRecord
100
AcDbBlockTableRecord
2
*D8
340
0
0
BLOCK_RECORD
5
F10007
330
243
100
AcDbSymbolTableRecord
100
AcDbBlockTableRecord
2
*D4
340
0
0
BLOCK_RECORD
5
F10002
330
243
100
AcDbSymbolTableRecord
100
AcDbBlockTableRecord
2
*D3
340
0
0
BLOCK_RECORD
5
F10011
330
243
100
AcDbSymbolTableRecord
100
AcDbBlockTableRecord
2
*D6
340
0
0
ENDTAB
0
ENDSEC
0
SECTION
2
BLOCKS
0
BLOCK
5
262
330
261
100
AcDbEntity
8
0
100
AcDbBlockBegin
2
*Model_Space
70
0
10
0.0
20
0.0
30
0.0
3
*Model_Space
1

0
ENDBLK
5
263
330
261
100
AcDbEntity
8
0
100
AcDbBlockEnd
0
BLOCK
5
25E
330
25D
100
AcDbEntity
67
1
8
0
100
AcDbBlockBegin
2
*Paper_Space
70
0
10
0.0
20
0.0
30
0.0
3
*Paper_Space
1

0
ENDBLK
5
25F
330
25D
100
AcDbEntity
67
1
8
0
100
AcDbBlockEnd
0
BLOCK
5
266
330
265
100
AcDbEntity
8
0
100
AcDbBlockBegin
2
*Paper_Space0
70
0
10
0.0
20
0.0
30
0.0
3
*Paper_Space0
1

0
VIEWPORT
5
296
102
{ACAD_XDICTIONARY
360
58E
102
}
330
265
100
AcDbEntity
8
0
60
1
100
AcDbViewport
10
0.0
20
0.0
30
0.0
40
10.0
41
10.0
69
0
12
0.0
22
0.0
13
0.0
23
0.0
14
1.0
24
1.0
15
0.0
25
0.0
16
0.0
26
0.0
36
1.0
17
0.0
27
0.0
37
0.0
42
0.0
43
0.0
44
0.0
45
10.0
50
0.0
51
0.0000000000007958
72
100
90
163872
1

281
0
71
0
74
0
110
0.0
120
0.0
130
0.0
111
1.0
121
0.0
131
0.0
112
0.0
122
1.0
132
0.0
79
0
146
0.0
1001
VD_INVISIBLE_NOT_FOR_READ
1000
VD_INVISIBLE_NOT_FOR_READ
0
VIEWPORT
5
297
102
{ACAD_XDICTIONARY
360
590
102
}
330
265
100
AcDbEntity
8
0
60
1
100
AcDbViewport
10
0.0
20
0.0
30
0.0
40
10.0
41
10.0
69
0
12
0.0
22
0.0
13
0.0
23
0.0
14
1.0
24
1.0
15
0.0
25
0.0
16
0.0
26
0.0
36
1.0
17
0.0
27
0.0
37
0.0
42
0.0
43
0.0
44
0.0
45
10.0
50
0.0
51
0.0000000000007958
72
100
90
163872
1

281
0
71
0
74
0
110
0.0
120
0.0
130
0.0
111
1.0
121
0.0
131
0.0
112
0.0
122
1.0
132
0.0
79
0
146
0.0
1001
VD_INVISIBLE_NOT_FOR_READ
1000
VD_INVISIBLE_NOT_FOR_READ
0
ENDBLK
5
267
330
265
100
AcDbEntity
8
0
100
AcDbBlockEnd
0
BLOCK
5
28B
330
23C
100
AcDbEntity
8
0
100
AcDbBlockBegin
2
VDDIM_DEFAULT
70
0
10
0.0
20
0.0
30
0.0
3
VDDIM_DEFAULT
1

0
LWPOLYLINE
5
23D
330
23C
100
AcDbEntity
8
0
6
Continuous
62
0
100
AcDbPolyline
90
4
70
0
43
0.0
10
0.0
20
0.0
10
-1.0
20
-0.1665
10
-1.0
20
0.1665
10
0.0
20
0.0
1001
VDEXTRAPARAM
1071
1
1071
0
1071
0
1040
1.0
1000

1000

1040
0.0
1040
0.0
0
HATCH
5
292
330
23C
100
AcDbEntity
8
0
6
Continuous
62
0
100
AcDbHatch
10
0.0
20
0.0
30
0.0
210
0.0
220
0.0
230
1.0
2
SOLID
70
1
71
0
91
1
92
2
72
0
73
1
93
3
10
0.0
20
0.0
10
-1.0
20
-0.1665
10
-1.0
20
0.1665
97
0
75
0
76
1
98
1
10
0.0
20
0.0
1001
VDEXTRAPARAM
1071
1
1071
0
1071
0
1040
1.0
1000

1000

1040
0.0
1040
0.0
1001
VD_TEMPHATCH
1000
VD_TEMPHATCH
0
ENDBLK
5
28C
330
23C
100
AcDbEntity
8
0
100
AcDbBlockEnd
0
BLOCK
5
28D
330
23E
100
AcDbEntity
8
0
100
AcDbBlockBegin
2
VDDIM_NONE
70
0
10
0.0
20
0.0
30
0.0
3
VDDIM_NONE
1

0
ENDBLK
5
28E
330
23E
100
AcDbEntity
8
0
100
AcDbBlockEnd
  0
BLOCK
  5
F10020
330
F1000C
100
AcDbEntity
  8
0
100
AcDbBlockBegin
  2
*D5
 70
     1
 10
0.0
 20
0.0
 30
0.0
  3
*D5
  1

  0
LINE
  5
F10021
330
F1000C
100
AcDbEntity
  8
Bemassung
 62
     0
370
    -2
100
AcDbLine
10
-58.1078886310903
20
-0.758700696055627
30
0.000000000000000
11
-58.1078886310903
21
11.2412993039444
31
0.000000000000000
  0
LINE
  5
F10022
330
F1000C
100
AcDbEntity
  8
Bemassung
 62
     0
370
    -2
100
AcDbLine
10
-18.1078886310903
20
-1.05870069605563
30
0.000000000000000
11
-18.1078886310903
21
26.2412993039444
31
0.000000000000000
  0
LINE
  5
F10023
330
F1000C
100
AcDbEntity
  8
Bemassung
 62
     0
370
    -2
100
AcDbLine
10
-58.1078886310903
20
9.24129930394437
30
0.000000000000000
11
44.1020881670534
21
9.24129930394437
31
0.000000000000000
  0
INSERT
  5
F10024
330
F1000C
100
AcDbEntity
  8
Bemassung
 62
     0
370
    -2
100
AcDbBlockReference
  2
VDDIM_DEFAULT
10
-58.1078886310903
20
9.24129930394437
30
0.000000000000000
 41
2.50000000000000
 42
2.50000000000000
 43
2.50000000000000
 50
180.000000000000
  0
INSERT
  5
F10025
330
F1000C
100
AcDbEntity
  8
Bemassung
 62
     0
370
    -2
100
AcDbBlockReference
  2
VDDIM_DEFAULT
10
-18.1078886310903
20
9.24129930394437
30
0.000000000000000
 41
2.50000000000000
 42
2.50000000000000
 43
2.50000000000000
  0
MTEXT
  5
F10026
330
F1000C
100
AcDbEntity
  8
Bemassung
 62
     0
100
AcDbMText
10
-38.1078886310903
20
9.90796597061104
30
0.000000000000000
 40
2.50000000000000
 41
0.0
 71
     8
 72
     1
  1
40
 11
1.00000000000000
 21
0.000000000000000
 31
0.0
 73
     1
 44
1.0
1001
ACAD
1000
MTEXTBEGIN
1070
73
1070
1
1070
44
1040
1.0
1070
74
1070
0
1000
MTEXTEND
  0
POINT
  5
F10027
330
F1000C
100
AcDbEntity
  8
Bemassung
 62
     0
100
AcDbPoint
10
-58.1078886310903
20
-0.758700696055627
30
0.000000000000000
  0
POINT
  5
F10028
330
F1000C
100
AcDbEntity
  8
Bemassung
 62
     0
100
AcDbPoint
10
-18.1078886310903
20
-1.05870069605563
30
0.000000000000000
  0
ENDBLK
  5
F10029
330
F1000C
100
AcDbEntity
  8
0
100
AcDbBlockEnd
  0
BLOCK
  5
F1002A
330
F10016
100
AcDbEntity
  8
0
100
AcDbBlockBegin
  2
*D7
 70
     1
 10
0.0
 20
0.0
 30
0.0
  3
*D7
  1

  0
LINE
  5
F1002B
330
F10016
100
AcDbEntity
  8
Bemassung
 62
     0
370
    -2
100
AcDbLine
10
-58.1078886310903
20
-6.75870069605563
30
0.000000000000000
11
-58.1078886310903
21
-18.7587006960556
31
0.000000000000000
  0
LINE
  5
F1002C
330
F10016
100
AcDbEntity
  8
Bemassung
 62
     0
370
    -2
100
AcDbLine
10
-78.1078886310903
20
-18.7587006960556
30
0.000000000000000
11
-78.1078886310903
21
26.2412993039444
31
0.000000000000000
  0
LINE
  5
F1002D
330
F10016
100
AcDbEntity
  8
Bemassung
 62
     0
370
    -2
100
AcDbLine
10
-48.6125290023201
20
-16.7587006960556
30
0.000000000000000
11
-78.1078886310903
21
-16.7587006960556
31
0.000000000000000
  0
INSERT
  5
F1002E
330
F10016
100
AcDbEntity
  8
Bemassung
 62
     0
370
    -2
100
AcDbBlockReference
  2
VDDIM_DEFAULT
10
-58.1078886310903
20
-16.7587006960556
30
0.000000000000000
 41
2.50000000000000
 42
2.50000000000000
 43
2.50000000000000
  0
INSERT
  5
F1002F
330
F10016
100
AcDbEntity
  8
Bemassung
 62
     0
370
    -2
100
AcDbBlockReference
  2
VDDIM_DEFAULT
10
-78.1078886310903
20
-16.7587006960556
30
0.000000000000000
 41
2.50000000000000
 42
2.50000000000000
 43
2.50000000000000
 50
180.000000000000
  0
MTEXT
  5
F10030
330
F10016
100
AcDbEntity
  8
Bemassung
 62
     0
100
AcDbMText
10
-69.0278422273781
20
-16.0920340293890
30
0.000000000000000
 40
2.50000000000000
 41
0.0
 71
     8
 72
     1
  1
20
 11
1.00000000000000
 21
0.000000000000000
 31
0.0
 73
     1
 44
1.0
1001
ACAD
1000
MTEXTBEGIN
1070
73
1070
1
1070
44
1040
1.0
1070
74
1070
0
1000
MTEXTEND
  0
POINT
  5
F10031
330
F10016
100
AcDbEntity
  8
Bemassung
 62
     0
100
AcDbPoint
10
-58.1078886310903
20
-6.75870069605563
30
0.000000000000000
  0
POINT
  5
F10032
330
F10016
100
AcDbEntity
  8
Bemassung
 62
     0
100
AcDbPoint
10
-78.1078886310903
20
-18.7587006960556
30
0.000000000000000
  0
ENDBLK
  5
F10033
330
F10016
100
AcDbEntity
  8
0
100
AcDbBlockEnd
  0
BLOCK
  5
F10034
330
F1001B
100
AcDbEntity
  8
0
100
AcDbBlockBegin
  2
*D8
 70
     1
 10
0.0
 20
0.0
 30
0.0
  3
*D8
  1

  0
LINE
  5
F10035
330
F1001B
100
AcDbEntity
  8
Bemassung
 62
     0
370
    -2
100
AcDbLine
10
-18.1078886310903
20
-1.05870069605563
30
0.000000000000000
11
-18.1078886310903
21
26.2412993039444
31
0.000000000000000
  0
LINE
  5
F10036
330
F1001B
100
AcDbEntity
  8
Bemassung
 62
     0
370
    -2
100
AcDbLine
10
-78.1078886310903
20
-18.7587006960556
30
0.000000000000000
11
-78.1078886310903
21
26.2412993039444
31
0.000000000000000
  0
LINE
  5
F10037
330
F1001B
100
AcDbEntity
  8
Bemassung
 62
     0
370
    -2
100
AcDbLine
10
29.5684454756381
20
24.2412993039444
30
0.000000000000000
11
-78.1078886310903
21
24.2412993039444
31
0.000000000000000
  0
INSERT
  5
F10038
330
F1001B
100
AcDbEntity
  8
Bemassung
 62
     0
370
    -2
100
AcDbBlockReference
  2
VDDIM_DEFAULT
10
-18.1078886310903
20
24.2412993039444
30
0.000000000000000
 41
2.50000000000000
 42
2.50000000000000
 43
2.50000000000000
  0
INSERT
  5
F10039
330
F1001B
100
AcDbEntity
  8
Bemassung
 62
     0
370
    -2
100
AcDbBlockReference
  2
VDDIM_DEFAULT
10
-78.1078886310903
20
24.2412993039444
30
0.000000000000000
 41
2.50000000000000
 42
2.50000000000000
 43
2.50000000000000
 50
180.000000000000
  0
MTEXT
  5
F1003A
330
F1001B
100
AcDbEntity
  8
Bemassung
 62
     0
100
AcDbMText
10
-42.9245939675173
20
24.9079659706110
30
0.000000000000000
 40
2.50000000000000
 41
0.0
 71
     8
 72
     1
  1
60
 11
1.00000000000000
 21
0.000000000000000
 31
0.0
 73
     1
 44
1.0
1001
ACAD
1000
MTEXTBEGIN
1070
73
1070
1
1070
44
1040
1.0
1070
74
1070
0
1000
MTEXTEND
  0
POINT
  5
F1003B
330
F1001B
100
AcDbEntity
  8
Bemassung
 62
     0
100
AcDbPoint
10
-18.1078886310903
20
-1.05870069605563
30
0.000000000000000
  0
POINT
  5
F1003C
330
F1001B
100
AcDbEntity
  8
Bemassung
 62
     0
100
AcDbPoint
10
-78.1078886310903
20
-18.7587006960556
30
0.000000000000000
  0
ENDBLK
  5
F1003D
330
F1001B
100
AcDbEntity
  8
0
100
AcDbBlockEnd
  0
BLOCK
  5
F1003E
330
F10007
100
AcDbEntity
  8
0
100
AcDbBlockBegin
  2
*D4
 70
     1
 10
0.0
 20
0.0
 30
0.0
  3
*D4
  1

  0
LINE
  5
F1003F
330
F10007
100
AcDbEntity
  8
Bemassung
 62
     0
370
    -2
100
AcDbLine
10
-77.4946794000102
20
-0.836533194417012
30
0.000000000000000
11
-93.5233180374290
21
14.9093136533508
31
0.000000000000000
  0
INSERT
  5
F10040
330
F10007
100
AcDbEntity
  8
Bemassung
 62
     0
370
    -2
100
AcDbBlockReference
  2
VDDIM_DEFAULT
10
-77.4946794000102
20
-0.836533194417012
30
0.000000000000000
 41
2.50000000000000
 42
2.50000000000000
 43
2.50000000000000
 50
315.509916934830
  0
MTEXT
  5
F10041
330
F10007
100
AcDbEntity
  8
Bemassung
 62
     0
100
AcDbMText
10
-89.2187471242688
20
10.6806878868590
30
0.000000000000000
 40
2.50000000000000
 41
0.0
 71
     8
 72
     1
  1
R1
 11
0.713371754063361
 21
-0.700785802156810
 31
0.0
 73
     1
 44
1.0
1001
ACAD
1000
MTEXTBEGIN
1070
73
1070
1
1070
44
1040
1.0
1070
74
1070
0
1000
MTEXTEND
  0
POINT
  5
F10042
330
F10007
100
AcDbEntity
  8
Bemassung
 62
     0
100
AcDbPoint
10
-77.4946794000102
20
-0.836533194417012
30
0.000000000000000
  0
POINT
  5
F10043
330
F10007
100
AcDbEntity
  8
Bemassung
 62
     0
100
AcDbPoint
10
-77.1078886310903
20
-1.75870069605563
30
0.000000000000000
  0
ENDBLK
  5
F10044
330
F10007
100
AcDbEntity
  8
0
100
AcDbBlockEnd
  0
BLOCK
  5
F10045
330
F10002
100
AcDbEntity
  8
0
100
AcDbBlockBegin
  2
*D3
 70
     1
 10
0.0
 20
0.0
 30
0.0
  3
*D3
  1

  0
LINE
  5
F10046
330
F10002
100
AcDbEntity
  8
Bemassung
 62
     0
370
    -2
100
AcDbLine
10
-77.1078886310903
20
-6.75870069605563
30
0.000000000000000
11
-90.1078886310903
21
-6.75870069605563
31
0.000000000000000
  0
LINE
  5
F10047
330
F10002
100
AcDbEntity
  8
Bemassung
 62
     0
370
    -2
100
AcDbLine
10
-77.1078886310903
20
-0.758700696055626
30
0.000000000000000
11
-90.1078886310903
21
-0.758700696055626
31
0.000000000000000
  0
LINE
  5
F10048
330
F10002
100
AcDbEntity
  8
Bemassung
 62
     0
370
    -2
100
AcDbLine
10
-88.1078886310903
20
-6.75870069605563
30
0.000000000000000
11
-88.1078886310903
21
-0.758700696055626
31
0.000000000000000
  0
INSERT
  5
F10049
330
F10002
100
AcDbEntity
  8
Bemassung
 62
     0
370
    -2
100
AcDbBlockReference
  2
VDDIM_DEFAULT
10
-88.1078886310903
20
-6.75870069605563
30
0.000000000000000
 41
2.50000000000000
 42
2.50000000000000
 43
2.50000000000000
 50
270.000000000000
  0
INSERT
  5
F1004A
330
F10002
100
AcDbEntity
  8
Bemassung
 62
     0
370
    -2
100
AcDbBlockReference
  2
VDDIM_DEFAULT
10
-88.1078886310903
20
-0.758700696055626
30
0.000000000000000
 41
2.50000000000000
 42
2.50000000000000
 43
2.50000000000000
 50
90.0000000000000
  0
MTEXT
  5
F1004B
330
F10002
100
AcDbEntity
  8
Bemassung
 62
     0
100
AcDbMText
10
-87.4412219644237
20
-3.75870069605563
30
0.000000000000000
 40
2.50000000000000
 41
0.0
 71
     8
 72
     1
  1
6
 11
6.12323399573677e-017
 21
1.00000000000000
 31
0.0
 73
     1
 44
1.0
1001
ACAD
1000
MTEXTBEGIN
1070
73
1070
1
1070
44
1040
1.0
1070
74
1070
0
1000
MTEXTEND
  0
POINT
  5
F1004C
330
F10002
100
AcDbEntity
  8
Bemassung
 62
     0
100
AcDbPoint
10
-77.1078886310903
20
-6.75870069605563
30
0.000000000000000
  0
POINT
  5
F1004D
330
F10002
100
AcDbEntity
  8
Bemassung
 62
     0
100
AcDbPoint
10
-77.1078886310903
20
-0.758700696055626
30
0.000000000000000
  0
ENDBLK
  5
F1004E
330
F10002
100
AcDbEntity
  8
0
100
AcDbBlockEnd
  0
BLOCK
  5
F1004F
330
F10011
100
AcDbEntity
  8
0
100
AcDbBlockBegin
  2
*D6
 70
     1
 10
0.0
 20
0.0
 30
0.0
  3
*D6
  1

  0
LINE
  5
F10050
330
F10011
100
AcDbEntity
  8
Bemassung
 62
     0
370
    -2
100
AcDbLine
10
-18.4078886310903
20
-6.75870069605563
30
0.000000000000000
11
-6.10788863109033
21
-6.75870069605563
31
0.000000000000000
  0
LINE
  5
F10051
330
F10011
100
AcDbEntity
  8
Bemassung
 62
     0
370
    -2
100
AcDbLine
10
-18.4078886310903
20
-0.758700696055627
30
0.000000000000000
11
-6.10788863109033
21
-0.758700696055627
31
0.000000000000000
  0
LINE
  5
F10052
330
F10011
100
AcDbEntity
  8
Bemassung
 62
     0
370
    -2
100
AcDbLine
10
-8.10788863109033
20
-8.01856148491879
30
0.000000000000000
11
-8.10788863109033
21
0.501160092807410
31
0.000000000000000
  0
INSERT
  5
F10053
330
F10011
100
AcDbEntity
  8
Bemassung
 62
     0
370
    -2
100
AcDbBlockReference
  2
VDDIM_DEFAULT
10
-8.10788863109033
20
-6.75870069605563
30
0.000000000000000
 41
2.50000000000000
 42
2.50000000000000
 43
2.50000000000000
 50
270.000000000000
  0
INSERT
  5
F10054
330
F10011
100
AcDbEntity
  8
Bemassung
 62
     0
370
    -2
100
AcDbBlockReference
  2
VDDIM_DEFAULT
10
-8.10788863109033
20
-0.758700696055627
30
0.000000000000000
 41
2.50000000000000
 42
2.50000000000000
 43
2.50000000000000
 50
90.0000000000000
  0
MTEXT
  5
F10055
330
F10011
100
AcDbEntity
  8
Bemassung
 62
     0
100
AcDbMText
10
-7.44122196442367
20
-3.75870069605563
30
0.000000000000000
 40
2.50000000000000
 41
0.0
 71
     8
 72
     1
  1
6h5
 11
6.12323399573677e-017
 21
1.00000000000000
 31
0.0
 73
     1
 44
1.0
  0
POINT
  5
F10056
330
F10011
100
AcDbEntity
  8
Bemassung
 62
     0
100
AcDbPoint
10
-18.4078886310903
20
-6.75870069605563
30
0.000000000000000
  0
POINT
  5
F10057
330
F10011
100
AcDbEntity
  8
Bemassung
 62
     0
100
AcDbPoint
10
-18.4078886310903
20
-0.758700696055627
30
0.000000000000000
  0
ENDBLK
  5
F10058
330
F10011
100
AcDbEntity
  8
0
100
AcDbBlockEnd
0
ENDSEC
0
SECTION
2
ENTITIES
  0
DIMENSION
  5
F1000D
330
261
100
AcDbEntity
  8
Bemassung
100
AcDbDimension
  2
*D5
10
-18.1078886310903
20
9.24129930394437
30
0.000000000000000
11
-38.1078886310903
21
9.90796597061104
31
0.000000000000000
 70
32
 1
40
 71
     8
  3
BEM-ISBE
100
AcDbAlignedDimension
13
-58.1078886310903
23
-0.758700696055627
33
0.000000000000000
14
-18.1078886310903
24
-1.05870069605563
34
0.000000000000000
100
AcDbRotatedDimension
1001
ACAD
1000
DSTYLE
1002
{
1070
284
1070
8
1070
78
1070
8
1070
144
1040
1.00000000000000
1070
147
1040
0.625
1070
 72
1070
 0
1070
 71
1070
 0
1002
}
  0
DIMENSION
  5
F10017
330
261
100
AcDbEntity
  8
Bemassung
100
AcDbDimension
  2
*D7
10
-78.1078886310903
20
-16.7587006960556
30
0.000000000000000
11
-69.0278422273781
21
-16.0920340293890
31
0.000000000000000
 70
32
 1
20
 71
     8
  3
BEM-ISBE
100
AcDbAlignedDimension
13
-58.1078886310903
23
-6.75870069605563
33
0.000000000000000
14
-78.1078886310903
24
-18.7587006960556
34
0.000000000000000
100
AcDbRotatedDimension
1001
ACAD
1000
DSTYLE
1002
{
1070
284
1070
8
1070
78
1070
8
1070
144
1040
1.00000000000000
1070
147
1040
0.625
1070
 72
1070
 0
1070
 71
1070
 0
1002
}
  0
DIMENSION
  5
F1001C
330
261
100
AcDbEntity
  8
Bemassung
100
AcDbDimension
  2
*D8
10
-78.1078886310903
20
24.2412993039444
30
0.000000000000000
11
-42.9245939675173
21
24.9079659706110
31
0.000000000000000
 70
32
 1
60
 71
     8
  3
BEM-ISBE
100
AcDbAlignedDimension
13
-18.1078886310903
23
-1.05870069605563
33
0.000000000000000
14
-78.1078886310903
24
-18.7587006960556
34
0.000000000000000
100
AcDbRotatedDimension
1001
ACAD
1000
DSTYLE
1002
{
1070
284
1070
8
1070
78
1070
8
1070
144
1040
1.00000000000000
1070
147
1040
0.625
1070
 72
1070
 0
1070
 71
1070
 0
1002
}
  0
DIMENSION
  5
F10008
330
261
100
AcDbEntity
  8
Bemassung
100
AcDbDimension
  2
*D4
10
-77.1078886310903
20
-1.75870069605563
30
0.000000000000000
11
-89.2187471242688
21
10.6806878868590
31
0.000000000000000
 70
164
 1
R1
 71
     8
  3
BEM-ISBE
100
AcDbRadialDimension
15
-77.4946794000102
25
-0.836533194417012
35
0.000000000000000
40
0.0
1001
ACAD
1000
DSTYLE
1002
{
1070
284
1070
8
1070
78
1070
8
1070
144
1040
1.00000000000000
1070
147
1040
0.625
1070
 72
1070
 0
1070
 71
1070
 0
1002
}
  0
DIMENSION
  5
F10003
330
261
100
AcDbEntity
  8
Bemassung
100
AcDbDimension
  2
*D3
10
-88.1078886310903
20
-0.758700696055626
30
0.000000000000000
11
-87.4412219644237
21
-3.75870069605563
31
0.000000000000000
 70
32
 1
6
 71
     8
  3
BEM-ISBE
100
AcDbAlignedDimension
13
-77.1078886310903
23
-6.75870069605563
33
0.000000000000000
14
-77.1078886310903
24
-0.758700696055626
34
0.000000000000000
50
90.0000000000000
100
AcDbRotatedDimension
1001
ACAD
1000
DSTYLE
1002
{
1070
284
1070
8
1070
78
1070
8
1070
144
1040
1.00000000000000
1070
147
1040
0.625
1070
 72
1070
 0
1070
 71
1070
 0
1002
}
  0
DIMENSION
  5
F10012
330
261
100
AcDbEntity
  8
Bemassung
100
AcDbDimension
  2
*D6
10
-8.10788863109033
20
-0.758700696055627
30
0.000000000000000
11
-7.44122196442367
21
-3.75870069605563
31
0.000000000000000
 70
32
 1
6h5
 71
     8
  3
BEM-ISBE
100
AcDbAlignedDimension
13
-18.4078886310903
23
-6.75870069605563
33
0.000000000000000
14
-18.4078886310903
24
-0.758700696055627
34
0.000000000000000
50
90.0000000000000
100
AcDbRotatedDimension
1001
ACAD
1000
DSTYLE
1002
{
1070
284
1070
8
1070
78
1070
8
1070
144
1040
1.00000000000000
1070
147
1040
0.625
1070
 72
1070
 0
1070
 71
1070
 0
1002
}
  0
LINE
  5
F10059
330
F1005A
100
AcDbEntity
8
Geo
100
AcDbLine
10
-78.0386566364057
20
-3.75870069605563
30
0.000000000000000
11
-78.1072794581094
21
-1.79360019275813
31
0.000000000000000
  0
ARC
  5
F1005B
330
F1005C
100
AcDbEntity
8
Geo
100
AcDbCircle
10
-77.1078886310903
20
-1.75870069605563
30
0.000000000000000
 40
1.00000000000000
100
AcDbArc
 50
90.0000000000000
 51
182.000000000000
  0
LINE
  5
F1005D
330
F1005E
100
AcDbEntity
8
Geo
100
AcDbLine
10
-77.1078886310903
20
-0.758700696055627
30
0.000000000000000
11
-58.1078886310903
21
-0.758700696055627
31
0.000000000000000
  0
LINE
  5
F1005F
330
F10060
100
AcDbEntity
8
Geo
100
AcDbLine
10
-58.1078886310903
20
-0.758700696055627
30
0.000000000000000
11
-18.4078886310903
21
-0.758700696055627
31
0.000000000000000
  0
LINE
  5
F10061
330
F10062
100
AcDbEntity
8
Geo
100
AcDbLine
10
-18.4078886310903
20
-0.758700696055627
30
0.000000000000000
11
-18.1078886310903
21
-1.05870069605563
31
0.000000000000000
  0
LINE
  5
F10063
330
F10064
100
AcDbEntity
8
Geo
100
AcDbLine
10
-74.9078886310903
20
-0.759634886944970
30
0.000000000000000
11
-74.8078886310903
21
-0.758975426545477
31
0.000000000000000
  0
LINE
  5
F10065
330
F10066
100
AcDbEntity
8
Geo
100
AcDbLine
10
-74.8078886310903
20
-0.758975426545477
30
0.000000000000000
11
-74.7078886310903
21
-0.762759454962792
31
0.000000000000000
  0
LINE
  5
F10067
330
F10068
100
AcDbEntity
8
Geo
100
AcDbLine
10
-74.7078886310903
20
-0.762759454962792
30
0.000000000000000
11
-74.6078886310903
21
-0.770981366920950
31
0.000000000000000
  0
LINE
  5
F10069
330
F1006A
100
AcDbEntity
8
Geo
100
AcDbLine
10
-74.6078886310903
20
-0.770981366920950
30
0.000000000000000
11
-74.5078886310903
21
-0.783628983313345
31
0.000000000000000
  0
LINE
  5
F1006B
330
F1006C
100
AcDbEntity
8
Geo
100
AcDbLine
10
-74.5078886310903
20
-0.783628983313345
30
0.000000000000000
11
-74.4078886310903
21
-0.800683569243630
31
0.000000000000000
  0
LINE
  5
F1006D
330
F1006E
100
AcDbEntity
8
Geo
100
AcDbLine
10
-74.4078886310903
20
-0.800683569243630
30
0.000000000000000
11
-74.3078886310903
21
-0.822119861777688
31
0.000000000000000
  0
LINE
  5
F1006F
330
F10070
100
AcDbEntity
8
Geo
100
AcDbLine
10
-74.3078886310903
20
-0.822119861777688
30
0.000000000000000
11
-74.2078886310903
21
-0.847906107365578
31
0.000000000000000
  0
LINE
  5
F10071
330
F10072
100
AcDbEntity
8
Geo
100
AcDbLine
10
-74.2078886310903
20
-0.847906107365578
30
0.000000000000000
11
-74.1078886310903
21
-0.878004108878029
31
0.000000000000000
  0
LINE
  5
F10073
330
F10074
100
AcDbEntity
8
Geo
100
AcDbLine
10
-74.1078886310903
20
-0.878004108878029
30
0.000000000000000
11
-74.0078886310903
21
-0.912369282187792
31
0.000000000000000
  0
LINE
  5
F10075
330
F10076
100
AcDbEntity
8
Geo
100
AcDbLine
10
-74.0078886310903
20
-0.912369282187792
30
0.000000000000000
11
-73.9078886310903
21
-0.950950722212045
31
0.000000000000000
  0
LINE
  5
F10077
330
F10078
100
AcDbEntity
8
Geo
100
AcDbLine
10
-73.9078886310903
20
-0.950950722212045
30
0.000000000000000
11
-73.8078886310903
21
-0.993691278318019
31
0.000000000000000
  0
LINE
  5
F10079
330
F1007A
100
AcDbEntity
8
Geo
100
AcDbLine
10
-73.8078886310903
20
-0.993691278318019
30
0.000000000000000
11
-73.7078886310903
21
-1.04052763898015
31
0.000000000000000
  0
LINE
  5
F1007B
330
F1007C
100
AcDbEntity
8
Geo
100
AcDbLine
10
-73.7078886310903
20
-1.04052763898015
30
0.000000000000000
11
-73.6078886310903
21
-1.09139042556336
31
0.000000000000000
  0
LINE
  5
F1007D
330
F1007E
100
AcDbEntity
8
Geo
100
AcDbLine
10
-73.6078886310903
20
-1.09139042556336
30
0.000000000000000
11
-73.5078886310903
21
-1.14620429509351
31
0.000000000000000
  0
LINE
  5
F1007F
330
F10080
100
AcDbEntity
8
Geo
100
AcDbLine
10
-73.5078886310903
20
-1.14620429509351
30
0.000000000000000
11
-73.4078886310903
21
-1.20488805186288
31
0.000000000000000
  0
LINE
  5
F10081
330
F10082
100
AcDbEntity
8
Geo
100
AcDbLine
10
-73.4078886310903
20
-1.20488805186288
30
0.000000000000000
11
-73.3078886310903
21
-1.26735476770521
31
0.000000000000000
  0
LINE
  5
F10083
330
F10084
100
AcDbEntity
8
Geo
100
AcDbLine
10
-73.3078886310903
20
-1.26735476770521
30
0.000000000000000
11
-73.2078886310903
21
-1.33351191076231
31
0.000000000000000
  0
LINE
  5
F10085
330
F10086
100
AcDbEntity
8
Geo
100
AcDbLine
10
-73.2078886310903
20
-1.33351191076231
30
0.000000000000000
11
-73.1078886310903
21
-1.40326148255135
31
0.000000000000000
  0
LINE
  5
F10087
330
F10088
100
AcDbEntity
8
Geo
100
AcDbLine
10
-73.1078886310903
20
-1.40326148255135
30
0.000000000000000
11
-73.0078886310903
21
-1.47650016312986
31
0.000000000000000
  0
LINE
  5
F10089
330
F1008A
100
AcDbEntity
8
Geo
100
AcDbLine
10
-73.0078886310903
20
-1.47650016312986
30
0.000000000000000
11
-72.9078886310903
21
-1.55311946414346
31
0.000000000000000
  0
LINE
  5
F1008B
330
F1008C
100
AcDbEntity
8
Geo
100
AcDbLine
10
-72.9078886310903
20
-1.55311946414346
30
0.000000000000000
11
-72.8078886310903
21
-1.63300588952948
31
0.000000000000000
  0
LINE
  5
F1008D
330
F1008E
100
AcDbEntity
8
Geo
100
AcDbLine
10
-72.8078886310903
20
-1.63300588952948
30
0.000000000000000
11
-72.7078886310903
21
-1.71604110363851
31
0.000000000000000
  0
LINE
  5
F1008F
330
F10090
100
AcDbEntity
8
Geo
100
AcDbLine
10
-72.7078886310903
20
-1.71604110363851
30
0.000000000000000
11
-72.6078886310903
21
-1.80210210652482
31
0.000000000000000
  0
LINE
  5
F10091
330
F10092
100
AcDbEntity
8
Geo
100
AcDbLine
10
-72.6078886310903
20
-1.80210210652482
30
0.000000000000000
11
-72.5078886310903
21
-1.89106141614607
31
0.000000000000000
  0
LINE
  5
F10093
330
F10094
100
AcDbEntity
8
Geo
100
AcDbLine
10
-72.5078886310903
20
-1.89106141614607
30
0.000000000000000
11
-72.4078886310903
21
-1.98278725720220
31
0.000000000000000
  0
LINE
  5
F10095
330
F10096
100
AcDbEntity
8
Geo
100
AcDbLine
10
-72.4078886310903
20
-1.98278725720220
30
0.000000000000000
11
-72.3078886310903
21
-2.07714375633404
31
0.000000000000000
  0
LINE
  5
F10097
330
F10098
100
AcDbEntity
8
Geo
100
AcDbLine
10
-72.3078886310903
20
-2.07714375633404
30
0.000000000000000
11
-72.2078886310903
21
-2.17399114339233
31
0.000000000000000
  0
LINE
  5
F10099
330
F1009A
100
AcDbEntity
8
Geo
100
AcDbLine
10
-72.2078886310903
20
-2.17399114339233
30
0.000000000000000
11
-72.1078886310903
21
-2.27318595847902
31
0.000000000000000
  0
LINE
  5
F1009B
330
F1009C
100
AcDbEntity
8
Geo
100
AcDbLine
10
-72.1078886310903
20
-2.27318595847902
30
0.000000000000000
11
-72.0078886310903
21
-2.37458126445423
31
0.000000000000000
  0
LINE
  5
F1009D
330
F1009E
100
AcDbEntity
8
Geo
100
AcDbLine
10
-72.0078886310903
20
-2.37458126445423
30
0.000000000000000
11
-71.9078886310903
21
-2.47802686459403
31
0.000000000000000
  0
LINE
  5
F1009F
330
F100A0
100
AcDbEntity
8
Geo
100
AcDbLine
10
-71.9078886310903
20
-2.47802686459403
30
0.000000000000000
11
-71.8078886310903
21
-2.58336952507663
31
0.000000000000000
  0
LINE
  5
F100A1
330
F100A2
100
AcDbEntity
8
Geo
100
AcDbLine
10
-71.8078886310903
20
-2.58336952507663
30
0.000000000000000
11
-71.7078886310903
21
-2.69045320196742
31
0.000000000000000
  0
LINE
  5
F100A3
330
F100A4
100
AcDbEntity
8
Geo
100
AcDbLine
10
-71.7078886310903
20
-2.69045320196742
30
0.000000000000000
11
-71.6078886310903
21
-2.79911927236664
31
0.000000000000000
  0
LINE
  5
F100A5
330
F100A6
100
AcDbEntity
8
Geo
100
AcDbLine
10
-71.6078886310903
20
-2.79911927236664
30
0.000000000000000
11
-71.5078886310903
21
-2.90920676937727
31
0.000000000000000
  0
LINE
  5
F100A7
330
F100A8
100
AcDbEntity
8
Geo
100
AcDbLine
10
-71.5078886310903
20
-2.90920676937727
30
0.000000000000000
11
-71.4078886310903
21
-3.02055262054503
31
0.000000000000000
  0
LINE
  5
F100A9
330
F100AA
100
AcDbEntity
8
Geo
100
AcDbLine
10
-71.4078886310903
20
-3.02055262054503
30
0.000000000000000
11
-71.3078886310903
21
-3.13299188941741
31
0.000000000000000
  0
LINE
  5
F100AB
330
F100AC
100
AcDbEntity
8
Geo
100
AcDbLine
10
-71.3078886310903
20
-3.13299188941741
30
0.000000000000000
11
-71.2078886310903
21
-3.24635801986379
31
0.000000000000000
  0
LINE
  5
F100AD
330
F100AE
100
AcDbEntity
8
Geo
100
AcDbLine
10
-71.2078886310903
20
-3.24635801986379
30
0.000000000000000
11
-71.1078886310903
21
-3.36048308279482
31
0.000000000000000
  0
LINE
  5
F100AF
330
F100B0
100
AcDbEntity
8
Geo
100
AcDbLine
10
-71.1078886310903
20
-3.36048308279482
30
0.000000000000000
11
-71.0078886310903
21
-3.47519802491550
31
0.000000000000000
  0
LINE
  5
F100B1
330
F100B2
100
AcDbEntity
8
Geo
100
AcDbLine
10
-71.0078886310903
20
-3.47519802491550
30
0.000000000000000
11
-70.9078886310903
21
-3.59033291914365
31
0.000000000000000
  0
LINE
  5
F100B3
330
F100B4
100
AcDbEntity
8
Geo
100
AcDbLine
10
-70.9078886310903
20
-3.59033291914365
30
0.000000000000000
11
-70.8078886310904
21
-3.70571721632261
31
0.000000000000000
  0
LINE
  5
F100B5
330
F100B6
100
AcDbEntity
8
Geo
100
AcDbLine
10
-70.8078886310904
20
-3.70571721632261
30
0.000000000000000
11
-70.7078886310903
21
-3.82117999785546
31
0.000000000000000
  0
LINE
  5
F100B7
330
F100B8
100
AcDbEntity
8
Geo
100
AcDbLine
10
-70.7078886310903
20
-3.82117999785546
30
0.000000000000000
11
-70.6078886310903
21
-3.93655022888656
31
0.000000000000000
  0
LINE
  5
F100B9
330
F100BA
100
AcDbEntity
8
Geo
100
AcDbLine
10
-70.6078886310903
20
-3.93655022888656
30
0.000000000000000
11
-70.5078886310903
21
-4.05165701165517
31
0.000000000000000
  0
LINE
  5
F100BB
330
F100BC
100
AcDbEntity
8
Geo
100
AcDbLine
10
-70.5078886310903
20
-4.05165701165517
30
0.000000000000000
11
-70.4078886310903
21
-4.16632983864609
31
0.000000000000000
  0
LINE
  5
F100BD
330
F100BE
100
AcDbEntity
8
Geo
100
AcDbLine
10
-70.4078886310903
20
-4.16632983864609
30
0.000000000000000
11
-70.3078886310904
21
-4.28039884516221
31
0.000000000000000
  0
LINE
  5
F100BF
330
F100C0
100
AcDbEntity
8
Geo
100
AcDbLine
10
-70.3078886310904
20
-4.28039884516221
30
0.000000000000000
11
-70.2078886310903
21
-4.39369506094484
31
0.000000000000000
  0
LINE
  5
F100C1
330
F100C2
100
AcDbEntity
8
Geo
100
AcDbLine
10
-70.2078886310903
20
-4.39369506094484
30
0.000000000000000
11
-70.1078886310903
21
-4.50605066046910
31
0.000000000000000
  0
LINE
  5
F100C3
330
F100C4
100
AcDbEntity
8
Geo
100
AcDbLine
10
-70.1078886310903
20
-4.50605066046910
30
0.000000000000000
11
-70.0078886310903
21
-4.61729921154367
31
0.000000000000000
  0
LINE
  5
F100C5
330
F100C6
100
AcDbEntity
8
Geo
100
AcDbLine
10
-70.0078886310903
20
-4.61729921154367
30
0.000000000000000
11
-69.9078886310903
21
-4.72727592184654
31
0.000000000000000
  0
LINE
  5
F100C7
330
F100C8
100
AcDbEntity
8
Geo
100
AcDbLine
10
-69.9078886310903
20
-4.72727592184654
30
0.000000000000000
11
-69.8078886310904
21
-4.83581788303161
31
0.000000000000000
  0
LINE
  5
F100C9
330
F100CA
100
AcDbEntity
8
Geo
100
AcDbLine
10
-69.8078886310904
20
-4.83581788303161
30
0.000000000000000
11
-69.7078886310903
21
-4.94276431204466
31
0.000000000000000
  0
LINE
  5
F100CB
330
F100CC
100
AcDbEntity
8
Geo
100
AcDbLine
10
-69.7078886310903
20
-4.94276431204466
30
0.000000000000000
11
-69.6078886310903
21
-5.04795678929103
31
0.000000000000000
  0
LINE
  5
F100CD
330
F100CE
100
AcDbEntity
8
Geo
100
AcDbLine
10
-69.6078886310903
20
-5.04795678929103
30
0.000000000000000
11
-69.5078886310904
21
-5.15123949330231
31
0.000000000000000
  0
LINE
  5
F100CF
330
F100D0
100
AcDbEntity
8
Geo
100
AcDbLine
10
-69.5078886310904
20
-5.15123949330231
30
0.000000000000000
11
-69.4078886310903
21
-5.25245943155454
31
0.000000000000000
  0
LINE
  5
F100D1
330
F100D2
100
AcDbEntity
8
Geo
100
AcDbLine
10
-69.4078886310903
20
-5.25245943155454
30
0.000000000000000
11
-69.3078886310904
21
-5.35146666709574
31
0.000000000000000
  0
LINE
  5
F100D3
330
F100D4
100
AcDbEntity
8
Geo
100
AcDbLine
10
-69.3078886310904
20
-5.35146666709574
30
0.000000000000000
11
-69.2078886310904
21
-5.44811454064734
31
0.000000000000000
  0
LINE
  5
F100D5
330
F100D6
100
AcDbEntity
8
Geo
100
AcDbLine
10
-69.2078886310904
20
-5.44811454064734
30
0.000000000000000
11
-69.1078886310903
21
-5.54225988785038
31
0.000000000000000
  0
LINE
  5
F100D7
330
F100D8
100
AcDbEntity
8
Geo
100
AcDbLine
10
-69.1078886310903
20
-5.54225988785038
30
0.000000000000000
11
-69.0078886310904
21
-5.63376325133464
31
0.000000000000000
  0
LINE
  5
F100D9
330
F100DA
100
AcDbEntity
8
Geo
100
AcDbLine
10
-69.0078886310904
20
-5.63376325133464
30
0.000000000000000
11
-68.9078886310903
21
-5.72248908729667
31
0.000000000000000
  0
LINE
  5
F100DB
330
F100DC
100
AcDbEntity
8
Geo
100
AcDbLine
10
-68.9078886310903
20
-5.72248908729667
30
0.000000000000000
11
-68.8078886310904
21
-5.80830596628062
31
0.000000000000000
  0
LINE
  5
F100DD
330
F100DE
100
AcDbEntity
8
Geo
100
AcDbLine
10
-68.8078886310904
20
-5.80830596628062
30
0.000000000000000
11
-68.7078886310904
21
-5.89108676786452
31
0.000000000000000
  0
LINE
  5
F100DF
330
F100E0
100
AcDbEntity
8
Geo
100
AcDbLine
10
-68.7078886310904
20
-5.89108676786452
30
0.000000000000000
11
-68.6078886310903
21
-5.97070886896358
31
0.000000000000000
  0
LINE
  5
F100E1
330
F100E2
100
AcDbEntity
8
Geo
100
AcDbLine
10
-68.6078886310903
20
-5.97070886896358
30
0.000000000000000
11
-68.5078886310904
21
-6.04705432547158
31
0.000000000000000
  0
LINE
  5
F100E3
330
F100E4
100
AcDbEntity
8
Geo
100
AcDbLine
10
-68.5078886310904
20
-6.04705432547158
30
0.000000000000000
11
-68.4078886310903
21
-6.12001004697133
31
0.000000000000000
  0
LINE
  5
F100E5
330
F100E6
100
AcDbEntity
8
Geo
100
AcDbLine
10
-68.4078886310903
20
-6.12001004697133
30
0.000000000000000
11
-68.3078886310904
21
-6.18946796425531
31
0.000000000000000
  0
LINE
  5
F100E7
330
F100E8
100
AcDbEntity
8
Geo
100
AcDbLine
10
-68.3078886310904
20
-6.18946796425531
30
0.000000000000000
11
-68.2078886310904
21
-6.25532518940849
31
0.000000000000000
  0
LINE
  5
F100E9
330
F100EA
100
AcDbEntity
8
Geo
100
AcDbLine
10
-68.2078886310904
20
-6.25532518940849
30
0.000000000000000
11
-68.1078886310903
21
-6.31748416821600
31
0.000000000000000
  0
LINE
  5
F100EB
330
F100EC
100
AcDbEntity
8
Geo
100
AcDbLine
10
-68.1078886310903
20
-6.31748416821600
30
0.000000000000000
11
-68.0078886310904
21
-6.37585282467007
31
0.000000000000000
  0
LINE
  5
F100ED
330
F100EE
100
AcDbEntity
8
Geo
100
AcDbLine
10
-68.0078886310904
20
-6.37585282467007
30
0.000000000000000
11
-67.9078886310904
21
-6.43034469736212
31
0.000000000000000
  0
LINE
  5
F100EF
330
F100F0
100
AcDbEntity
8
Geo
100
AcDbLine
10
-67.9078886310904
20
-6.43034469736212
30
0.000000000000000
11
-67.8078886310904
21
-6.48087906755787
31
0.000000000000000
  0
LINE
  5
F100F1
330
F100F2
100
AcDbEntity
8
Geo
100
AcDbLine
10
-67.8078886310904
20
-6.48087906755787
30
0.000000000000000
11
-67.7078886310904
21
-6.52738107876593
31
0.000000000000000
  0
LINE
  5
F100F3
330
F100F4
100
AcDbEntity
8
Geo
100
AcDbLine
10
-67.7078886310904
20
-6.52738107876593
30
0.000000000000000
11
-67.6078886310904
21
-6.56978184762258
31
0.000000000000000
  0
LINE
  5
F100F5
330
F100F6
100
AcDbEntity
8
Geo
100
AcDbLine
10
-67.6078886310904
20
-6.56978184762258
30
0.000000000000000
11
-67.5078886310904
21
-6.60801856592865
31
0.000000000000000
  0
LINE
  5
F100F7
330
F100F8
100
AcDbEntity
8
Geo
100
AcDbLine
10
-67.5078886310904
20
-6.60801856592865
30
0.000000000000000
11
-67.4078886310904
21
-6.64203459368714
31
0.000000000000000
  0
LINE
  5
F100F9
330
F100FA
100
AcDbEntity
8
Geo
100
AcDbLine
10
-67.4078886310904
20
-6.64203459368714
30
0.000000000000000
11
-67.3078886310904
21
-6.67177954300407
31
0.000000000000000
  0
LINE
  5
F100FB
330
F100FC
100
AcDbEntity
8
Geo
100
AcDbLine
10
-67.3078886310904
20
-6.67177954300407
30
0.000000000000000
11
-67.2078886310904
21
-6.69720935272789
31
0.000000000000000
  0
LINE
  5
F100FD
330
F100FE
100
AcDbEntity
8
Geo
100
AcDbLine
10
-67.2078886310904
20
-6.69720935272789
30
0.000000000000000
11
-67.1078886310904
21
-6.71828635371729
31
0.000000000000000
  0
LINE
  5
F100FF
330
F10100
100
AcDbEntity
8
Geo
100
AcDbLine
10
-67.1078886310904
20
-6.71828635371729
30
0.000000000000000
11
-67.0078886310904
21
-6.73497932464037
31
0.000000000000000
  0
LINE
  5
F10101
330
F10102
100
AcDbEntity
8
Geo
100
AcDbLine
10
-67.0078886310904
20
-6.73497932464037
30
0.000000000000000
11
-66.9078886310904
21
-6.74726353822283
31
0.000000000000000
  0
LINE
  5
F10103
330
F10104
100
AcDbEntity
8
Geo
100
AcDbLine
10
-66.9078886310904
20
-6.74726353822283
30
0.000000000000000
11
-66.8078886310904
21
-6.75512079787638
31
0.000000000000000
  0
LINE
  5
F10105
330
F10106
100
AcDbEntity
8
Geo
100
AcDbLine
10
-66.8078886310904
20
-6.75512079787638
30
0.000000000000000
11
-66.7078886310904
21
-6.75853946465336
31
0.000000000000000
  0
LINE
  5
F10107
330
F10108
100
AcDbEntity
8
Geo
100
AcDbLine
10
-78.1078886310903
20
-1.75870069605563
30
0.000000000000000
11
-78.0078886310903
21
-1.32461494183642
31
0.000000000000000
  0
LINE
  5
F10109
330
F1010A
100
AcDbEntity
8
Geo
100
AcDbLine
10
-78.0078886310903
20
-1.32461494183642
30
0.000000000000000
11
-77.9078886310903
21
-1.16640059621259
31
0.000000000000000
  0
LINE
  5
F1010B
330
F1010C
100
AcDbEntity
8
Geo
100
AcDbLine
10
-77.9078886310903
20
-1.16640059621259
30
0.000000000000000
11
-77.8078886310903
21
-1.06263204299189
31
0.000000000000000
  0
LINE
  5
F1010D
330
F1010E
100
AcDbEntity
8
Geo
100
AcDbLine
10
-77.8078886310903
20
-1.06263204299189
30
0.000000000000000
11
-77.7078886310903
21
-0.991820382029181
31
0.000000000000000
  0
LINE
  5
F1010F
330
F10110
100
AcDbEntity
8
Geo
100
AcDbLine
10
-77.7078886310903
20
-0.991820382029181
30
0.000000000000000
11
-77.6078886310903
21
-0.945586228564406
31
0.000000000000000
  0
LINE
  5
F10111
330
F10112
100
AcDbEntity
8
Geo
100
AcDbLine
10
-77.6078886310903
20
-0.945586228564406
30
0.000000000000000
11
-77.5078886310903
21
-0.919614246974352
31
0.000000000000000
  0
LINE
  5
F10113
330
F10114
100
AcDbEntity
8
Geo
100
AcDbLine
10
-77.5078886310903
20
-0.919614246974352
30
0.000000000000000
11
-77.4078886310903
21
-0.911331517562050
31
0.000000000000000
  0
LINE
  5
F10115
330
F10116
100
AcDbEntity
8
Geo
100
AcDbLine
10
-77.4078886310903
20
-0.911331517562050
30
0.000000000000000
11
-77.3078886310903
21
-0.919056555542676
31
0.000000000000000
  0
LINE
  5
F10117
330
F10118
100
AcDbEntity
8
Geo
100
AcDbLine
10
-77.3078886310903
20
-0.919056555542676
30
0.000000000000000
11
-77.2078886310903
21
-0.941622685300714
31
0.000000000000000
  0
LINE
  5
F10119
330
F1011A
100
AcDbEntity
8
Geo
100
AcDbLine
10
-77.2078886310903
20
-0.941622685300714
30
0.000000000000000
11
-77.1078886310903
21
-0.978192946340605
31
0.000000000000000
  0
LINE
  5
F1011B
330
F1011C
100
AcDbEntity
8
Geo
100
AcDbLine
10
-77.1078886310903
20
-0.978192946340605
30
0.000000000000000
11
-77.0078886310903
21
-1.02359677424709
31
0.000000000000000
  0
LINE
  5
F1011D
330
F1011E
100
AcDbEntity
8
Geo
100
AcDbLine
10
-77.0078886310903
20
-1.02359677424709
30
0.000000000000000
11
-76.9078886310903
21
-1.07305210774074
31
0.000000000000000
  0
LINE
  5
F1011F
330
F10120
100
AcDbEntity
8
Geo
100
AcDbLine
10
-76.9078886310903
20
-1.07305210774074
30
0.000000000000000
11
-76.8078886310903
21
-1.12648568870569
31
0.000000000000000
  0
LINE
  5
F10121
330
F10122
100
AcDbEntity
8
Geo
100
AcDbLine
10
-76.8078886310903
20
-1.12648568870569
30
0.000000000000000
11
-76.7078886310903
21
-1.18381836605373
31
0.000000000000000
  0
LINE
  5
F10123
330
F10124
100
AcDbEntity
8
Geo
100
AcDbLine
10
-76.7078886310903
20
-1.18381836605373
30
0.000000000000000
11
-76.6078886310903
21
-1.24496521297065
31
0.000000000000000
  0
LINE
  5
F10125
330
F10126
100
AcDbEntity
8
Geo
100
AcDbLine
10
-76.6078886310903
20
-1.24496521297065
30
0.000000000000000
11
-76.5078886310903
21
-1.30983565271822
31
0.000000000000000
  0
LINE
  5
F10127
330
F10128
100
AcDbEntity
8
Geo
100
AcDbLine
10
-76.5078886310903
20
-1.30983565271822
30
0.000000000000000
11
-76.4078886310903
21
-1.37833359280543
31
0.000000000000000
  0
LINE
  5
F10129
330
F1012A
100
AcDbEntity
8
Geo
100
AcDbLine
10
-76.4078886310903
20
-1.37833359280543
30
0.000000000000000
11
-76.3078886310903
21
-1.45035756733009
31
0.000000000000000
  0
LINE
  5
F1012B
330
F1012C
100
AcDbEntity
8
Geo
100
AcDbLine
10
-76.3078886310903
20
-1.45035756733009
30
0.000000000000000
11
-76.2078886310903
21
-1.52580088728017
31
0.000000000000000
  0
LINE
  5
F1012D
330
F1012E
100
AcDbEntity
8
Geo
100
AcDbLine
10
-76.2078886310903
20
-1.52580088728017
30
0.000000000000000
11
-76.1078886310903
21
-1.60455179857210
31
0.000000000000000
  0
LINE
  5
F1012F
330
F10130
100
AcDbEntity
8
Geo
100
AcDbLine
10
-76.1078886310903
20
-1.60455179857210
30
0.000000000000000
11
-76.0078886310903
21
-1.68649364759190
31
0.000000000000000
  0
LINE
  5
F10131
330
F10132
100
AcDbEntity
8
Geo
100
AcDbLine
10
-76.0078886310903
20
-1.68649364759190
30
0.000000000000000
11
-75.9078886310903
21
-1.77150505399401
31
0.000000000000000
  0
LINE
  5
F10133
330
F10134
100
AcDbEntity
8
Geo
100
AcDbLine
10
-75.9078886310903
20
-1.77150505399401
30
0.000000000000000
11
-75.8078886310903
21
-1.85946009050188
31
0.000000000000000
  0
LINE
  5
F10135
330
F10136
100
AcDbEntity
8
Geo
100
AcDbLine
10
-75.8078886310903
20
-1.85946009050188
30
0.000000000000000
11
-75.7078886310903
21
-1.95022846944379
31
0.000000000000000
  0
LINE
  5
F10137
330
F10138
100
AcDbEntity
8
Geo
100
AcDbLine
10
-75.7078886310903
20
-1.95022846944379
30
0.000000000000000
11
-75.6078886310903
21
-2.04367573574787
31
0.000000000000000
  0
LINE
  5
F10139
330
F1013A
100
AcDbEntity
8
Geo
100
AcDbLine
10
-75.6078886310903
20
-2.04367573574787
30
0.000000000000000
11
-75.5078886310903
21
-2.13966346611016
31
0.000000000000000
  0
LINE
  5
F1013B
330
F1013C
100
AcDbEntity
8
Geo
100
AcDbLine
10
-75.5078886310903
20
-2.13966346611016
30
0.000000000000000
11
-75.4078886310903
21
-2.23804947404085
31
0.000000000000000
  0
LINE
  5
F1013D
330
F1013E
100
AcDbEntity
8
Geo
100
AcDbLine
10
-75.4078886310903
20
-2.23804947404085
30
0.000000000000000
11
-75.3078886310903
21
-2.33868802048497
31
0.000000000000000
  0
LINE
  5
F1013F
330
F10140
100
AcDbEntity
8
Geo
100
AcDbLine
10
-75.3078886310903
20
-2.33868802048497
30
0.000000000000000
11
-75.2078886310903
21
-2.44143002970542
31
0.000000000000000
  0
LINE
  5
F10141
330
F10142
100
AcDbEntity
8
Geo
100
AcDbLine
10
-75.2078886310903
20
-2.44143002970542
30
0.000000000000000
11
-75.1078886310903
21
-2.54612331010865
31
0.000000000000000
  0
LINE
  5
F10143
330
F10144
100
AcDbEntity
8
Geo
100
AcDbLine
10
-75.1078886310903
20
-2.54612331010865
30
0.000000000000000
11
-75.0078886310903
21
-2.65261277968584
31
0.000000000000000
  0
LINE
  5
F10145
330
F10146
100
AcDbEntity
8
Geo
100
AcDbLine
10
-75.0078886310903
20
-2.65261277968584
30
0.000000000000000
11
-74.9078886310903
21
-2.76074069573570
31
0.000000000000000
  0
LINE
  5
F10147
330
F10148
100
AcDbEntity
8
Geo
100
AcDbLine
10
-74.9078886310903
20
-2.76074069573570
30
0.000000000000000
11
-74.8078886310903
21
-2.87034688852847
31
0.000000000000000
  0
LINE
  5
F10149
330
F1014A
100
AcDbEntity
8
Geo
100
AcDbLine
10
-74.8078886310903
20
-2.87034688852847
30
0.000000000000000
11
-74.7078886310903
21
-2.98126899856514
31
0.000000000000000
  0
LINE
  5
F1014B
330
F1014C
100
AcDbEntity
8
Geo
100
AcDbLine
10
-74.7078886310903
20
-2.98126899856514
30
0.000000000000000
11
-74.6078886310903
21
-3.09334271708034
31
0.000000000000000
  0
LINE
  5
F1014D
330
F1014E
100
AcDbEntity
8
Geo
100
AcDbLine
10
-74.6078886310903
20
-3.09334271708034
30
0.000000000000000
11
-74.5078886310903
21
-3.20640202943268
31
0.000000000000000
  0
LINE
  5
F1014F
330
F10150
100
AcDbEntity
8
Geo
100
AcDbLine
10
-74.5078886310903
20
-3.20640202943268
30
0.000000000000000
11
-74.4078886310903
21
-3.32027946102202
31
0.000000000000000
  0
LINE
  5
F10151
330
F10152
100
AcDbEntity
8
Geo
100
AcDbLine
10
-74.4078886310903
20
-3.32027946102202
30
0.000000000000000
11
-74.3078886310903
21
-3.43480632536932
31
0.000000000000000
  0
LINE
  5
F10153
330
F10154
100
AcDbEntity
8
Geo
100
AcDbLine
10
-74.3078886310903
20
-3.43480632536932
30
0.000000000000000
11
-74.2078886310903
21
-3.54981297399174
31
0.000000000000000
  0
LINE
  5
F10155
330
F10156
100
AcDbEntity
8
Geo
100
AcDbLine
10
-74.2078886310903
20
-3.54981297399174
30
0.000000000000000
11
-74.1078886310903
21
-3.66512904770264
31
0.000000000000000
  0
LINE
  5
F10157
330
F10158
100
AcDbEntity
8
Geo
100
AcDbLine
10
-74.1078886310903
20
-3.66512904770264
30
0.000000000000000
11
-74.0078886310903
21
-3.78058372896446
31
0.000000000000000
  0
LINE
  5
F10159
330
F1015A
100
AcDbEntity
8
Geo
100
AcDbLine
10
-74.0078886310903
20
-3.78058372896446
30
0.000000000000000
11
-73.9078886310903
21
-3.89600599492046
31
0.000000000000000
  0
LINE
  5
F1015B
330
F1015C
100
AcDbEntity
8
Geo
100
AcDbLine
10
-73.9078886310903
20
-3.89600599492046
30
0.000000000000000
11
-73.8078886310903
21
-4.01122487073063
31
0.000000000000000
  0
LINE
  5
F1015D
330
F1015E
100
AcDbEntity
8
Geo
100
AcDbLine
10
-73.8078886310903
20
-4.01122487073063
30
0.000000000000000
11
-73.7078886310903
21
-4.12606968283652
31
0.000000000000000
  0
LINE
  5
F1015F
330
F10160
100
AcDbEntity
8
Geo
100
AcDbLine
10
-73.7078886310903
20
-4.12606968283652
30
0.000000000000000
11
-73.6078886310903
21
-4.24037031177970
31
0.000000000000000
  0
LINE
  5
F10161
330
F10162
100
AcDbEntity
8
Geo
100
AcDbLine
10
-73.6078886310903
20
-4.24037031177970
30
0.000000000000000
11
-73.5078886310903
21
-4.35395744419951
31
0.000000000000000
  0
LINE
  5
F10163
330
F10164
100
AcDbEntity
8
Geo
100
AcDbLine
10
-73.5078886310903
20
-4.35395744419951
30
0.000000000000000
11
-73.4078886310903
21
-4.46666282363668
31
0.000000000000000
  0
LINE
  5
F10165
330
F10166
100
AcDbEntity
8
Geo
100
AcDbLine
10
-73.4078886310903
20
-4.46666282363668
30
0.000000000000000
11
-73.3078886310903
21
-4.57831949977138
31
0.000000000000000
  0
LINE
  5
F10167
330
F10168
100
AcDbEntity
8
Geo
100
AcDbLine
10
-73.3078886310903
20
-4.57831949977138
30
0.000000000000000
11
-73.2078886310903
21
-4.68876207572652
31
0.000000000000000
  0
LINE
  5
F10169
330
F1016A
100
AcDbEntity
8
Geo
100
AcDbLine
10
-73.2078886310903
20
-4.68876207572652
30
0.000000000000000
11
-73.1078886310903
21
-4.79782695306988
31
0.000000000000000
  0
LINE
  5
F1016B
330
F1016C
100
AcDbEntity
8
Geo
100
AcDbLine
10
-73.1078886310903
20
-4.79782695306988
30
0.000000000000000
11
-73.0078886310903
21
-4.90535257415227
31
0.000000000000000
  0
LINE
  5
F1016D
330
F1016E
100
AcDbEntity
8
Geo
100
AcDbLine
10
-73.0078886310903
20
-4.90535257415227
30
0.000000000000000
11
-72.9078886310903
21
-5.01117966142262
31
0.000000000000000
  0
LINE
  5
F1016F
330
F10170
100
AcDbEntity
8
Geo
100
AcDbLine
10
-72.9078886310903
20
-5.01117966142262
30
0.000000000000000
11
-72.8078886310903
21
-5.11515145336560
31
0.000000000000000
  0
LINE
  5
F10171
330
F10172
100
AcDbEntity
8
Geo
100
AcDbLine
10
-72.8078886310903
20
-5.11515145336560
30
0.000000000000000
11
-72.7078886310903
21
-5.21711393671226
31
0.000000000000000
  0
LINE
  5
F10173
330
F10174
100
AcDbEntity
8
Geo
100
AcDbLine
10
-72.7078886310903
20
-5.21711393671226
30
0.000000000000000
11
-72.6078886310903
21
-5.31691607457961
31
0.000000000000000
  0
LINE
  5
F10175
330
F10176
100
AcDbEntity
8
Geo
100
AcDbLine
10
-72.6078886310903
20
-5.31691607457961
30
0.000000000000000
11
-72.5078886310903
21
-5.41441003020140
31
0.000000000000000
  0
LINE
  5
F10177
330
F10178
100
AcDbEntity
8
Geo
100
AcDbLine
10
-72.5078886310903
20
-5.41441003020140
30
0.000000000000000
11
-72.4078886310903
21
-5.50945138591848
31
0.000000000000000
  0
LINE
  5
F10179
330
F1017A
100
AcDbEntity
8
Geo
100
AcDbLine
10
-72.4078886310903
20
-5.50945138591848
30
0.000000000000000
11
-72.3078886310903
21
-5.60189935710448
31
0.000000000000000
  0
LINE
  5
F1017B
330
F1017C
100
AcDbEntity
8
Geo
100
AcDbLine
10
-72.3078886310903
20
-5.60189935710448
30
0.000000000000000
11
-72.2078886310903
21
-5.69161700070989
31
0.000000000000000
  0
LINE
  5
F1017D
330
F1017E
100
AcDbEntity
8
Geo
100
AcDbLine
10
-72.2078886310903
20
-5.69161700070989
30
0.000000000000000
11
-72.1078886310903
21
-5.77847141811561
31
0.000000000000000
  0
LINE
  5
F1017F
330
F10180
100
AcDbEntity
8
Geo
100
AcDbLine
10
-72.1078886310903
20
-5.77847141811561
30
0.000000000000000
11
-72.0078886310903
21
-5.86233395199546
31
0.000000000000000
  0
LINE
  5
F10181
330
F10182
100
AcDbEntity
8
Geo
100
AcDbLine
10
-72.0078886310903
20
-5.86233395199546
30
0.000000000000000
11
-71.9078886310903
21
-5.94308037689611
31
0.000000000000000
  0
LINE
  5
F10183
330
F10184
100
AcDbEntity
8
Geo
100
AcDbLine
10
-71.9078886310903
20
-5.94308037689611
30
0.000000000000000
11
-71.8078886310903
21
-6.02059108325209
31
0.000000000000000
  0
LINE
  5
F10185
330
F10186
100
AcDbEntity
8
Geo
100
AcDbLine
10
-71.8078886310903
20
-6.02059108325209
30
0.000000000000000
11
-71.7078886310903
21
-6.09475125456325
31
0.000000000000000
  0
LINE
  5
F10187
330
F10188
100
AcDbEntity
8
Geo
100
AcDbLine
10
-71.7078886310903
20
-6.09475125456325
30
0.000000000000000
11
-71.6078886310903
21
-6.16545103747226
31
0.000000000000000
  0
LINE
  5
F10189
330
F1018A
100
AcDbEntity
8
Geo
100
AcDbLine
10
-71.6078886310903
20
-6.16545103747226
30
0.000000000000000
11
-71.5078886310903
21
-6.23258570449028
31
0.000000000000000
  0
LINE
  5
F1018B
330
F1018C
100
AcDbEntity
8
Geo
100
AcDbLine
10
-71.5078886310903
20
-6.23258570449028
30
0.000000000000000
11
-71.4078886310903
21
-6.29605580912962
31
0.000000000000000
  0
LINE
  5
F1018D
330
F1018E
100
AcDbEntity
8
Geo
100
AcDbLine
10
-71.4078886310903
20
-6.29605580912962
30
0.000000000000000
11
-71.3078886310903
21
-6.35576733321366
31
0.000000000000000
  0
LINE
  5
F1018F
330
F10190
100
AcDbEntity
8
Geo
100
AcDbLine
10
-71.3078886310903
20
-6.35576733321366
30
0.000000000000000
11
-71.2078886310903
21
-6.41163182614587
31
0.000000000000000
  0
LINE
  5
F10191
330
F10192
100
AcDbEntity
8
Geo
100
AcDbLine
10
-71.2078886310903
20
-6.41163182614587
30
0.000000000000000
11
-71.1078886310903
21
-6.46356653593157
31
0.000000000000000
  0
LINE
  5
F10193
330
F10194
100
AcDbEntity
8
Geo
100
AcDbLine
10
-71.1078886310903
20
-6.46356653593157
30
0.000000000000000
11
-71.0078886310903
21
-6.51149453175828
31
0.000000000000000
  0
LINE
  5
F10195
330
F10196
100
AcDbEntity
8
Geo
100
AcDbLine
10
-71.0078886310903
20
-6.51149453175828
30
0.000000000000000
11
-70.9078886310903
21
-6.55534481795330
31
0.000000000000000
  0
LINE
  5
F10197
330
F10198
100
AcDbEntity
8
Geo
100
AcDbLine
10
-70.9078886310903
20
-6.55534481795330
30
0.000000000000000
11
-70.8078886310904
21
-6.59505243914944
31
0.000000000000000
  0
LINE
  5
F10199
330
F1019A
100
AcDbEntity
8
Geo
100
AcDbLine
10
-70.8078886310904
20
-6.59505243914944
30
0.000000000000000
11
-70.7078886310903
21
-6.63055857650336
31
0.000000000000000
  0
LINE
  5
F1019B
330
F1019C
100
AcDbEntity
8
Geo
100
AcDbLine
10
-70.7078886310903
20
-6.63055857650336
30
0.000000000000000
11
-70.6078886310903
21
-6.66181063482379
31
0.000000000000000
  0
LINE
  5
F1019D
330
F1019E
100
AcDbEntity
8
Geo
100
AcDbLine
10
-70.6078886310903
20
-6.66181063482379
30
0.000000000000000
11
-70.5078886310903
21
-6.68876232048077
31
0.000000000000000
  0
LINE
  5
F1019F
330
F101A0
100
AcDbEntity
8
Geo
100
AcDbLine
10
-70.5078886310903
20
-6.68876232048077
30
0.000000000000000
11
-70.4078886310903
21
-6.71137370998029
31
0.000000000000000
  0
LINE
  5
F101A1
330
F101A2
100
AcDbEntity
8
Geo
100
AcDbLine
10
-70.4078886310903
20
-6.71137370998029
30
0.000000000000000
11
-70.3078886310904
21
-6.72961130910293
31
0.000000000000000
  0
LINE
  5
F101A3
330
F101A4
100
AcDbEntity
8
Geo
100
AcDbLine
10
-70.3078886310904
20
-6.72961130910293
30
0.000000000000000
11
-70.2078886310903
21
-6.74344810251880
31
0.000000000000000
  0
LINE
  5
F101A5
330
F101A6
100
AcDbEntity
8
Geo
100
AcDbLine
10
-70.2078886310903
20
-6.74344810251880
30
0.000000000000000
11
-70.1078886310903
21
-6.75286359380530
31
0.000000000000000
  0
LINE
  5
F101A7
330
F101A8
100
AcDbEntity
8
Geo
100
AcDbLine
10
-70.1078886310903
20
-6.75286359380530
30
0.000000000000000
11
-70.0078886310903
21
-6.75784383580844
31
0.000000000000000
  0
LINE
  5
F101A9
330
F101AA
100
AcDbEntity
8
Geo
100
AcDbLine
10
-78.1078886310903
20
-1.85658766346532
30
0.000000000000000
11
-78.0078886310903
21
-1.47271306916021
31
0.000000000000000
  0
LINE
  5
F101AB
330
F101AC
100
AcDbEntity
8
Geo
100
AcDbLine
10
-78.0078886310903
20
-1.47271306916021
30
0.000000000000000
11
-77.9078886310903
21
-1.35506488863923
31
0.000000000000000
  0
LINE
  5
F101AD
330
F101AE
100
AcDbEntity
8
Geo
100
AcDbLine
10
-77.9078886310903
20
-1.35506488863923
30
0.000000000000000
11
-77.8078886310903
21
-1.29121857603060
31
0.000000000000000
  0
LINE
  5
F101AF
330
F101B0
100
AcDbEntity
8
Geo
100
AcDbLine
10
-77.8078886310903
20
-1.29121857603060
30
0.000000000000000
11
-77.7078886310903
21
-1.25992907128409
31
0.000000000000000
  0
LINE
  5
F101B1
330
F101B2
100
AcDbEntity
8
Geo
100
AcDbLine
10
-77.7078886310903
20
-1.25992907128409
30
0.000000000000000
11
-77.6078886310903
21
-1.25266320575562
31
0.000000000000000
  0
LINE
  5
F101B3
330
F101B4
100
AcDbEntity
8
Geo
100
AcDbLine
10
-77.6078886310903
20
-1.25266320575562
30
0.000000000000000
11
-77.5078886310903
21
-1.26485926850931
31
0.000000000000000
  0
LINE
  5
F101B5
330
F101B6
100
AcDbEntity
8
Geo
100
AcDbLine
10
-77.5078886310903
20
-1.26485926850931
30
0.000000000000000
11
-77.4078886310903
21
-1.29366740001098
31
0.000000000000000
  0
LINE
  5
F101B7
330
F101B8
100
AcDbEntity
8
Geo
100
AcDbLine
10
-77.4078886310903
20
-1.29366740001098
30
0.000000000000000
11
-77.3078886310903
21
-1.33711446904649
31
0.000000000000000
  0
LINE
  5
F101B9
330
F101BA
100
AcDbEntity
8
Geo
100
AcDbLine
10
-77.3078886310903
20
-1.33711446904649
30
0.000000000000000
11
-77.2078886310903
21
-1.39372989646244
31
0.000000000000000
  0
LINE
  5
F101BB
330
F101BC
100
AcDbEntity
8
Geo
100
AcDbLine
10
-77.2078886310903
20
-1.39372989646244
30
0.000000000000000
11
-77.1078886310903
21
-1.46235738253895
31
0.000000000000000
  0
LINE
  5
F101BD
330
F101BE
100
AcDbEntity
8
Geo
100
AcDbLine
10
-77.1078886310903
20
-1.46235738253895
30
0.000000000000000
11
-77.0078886310903
21
-1.53834457382320
31
0.000000000000000
  0
LINE
  5
F101BF
330
F101C0
100
AcDbEntity
8
Geo
100
AcDbLine
10
-77.0078886310903
20
-1.53834457382320
30
0.000000000000000
11
-76.9078886310903
21
-1.61762077550409
31
0.000000000000000
  0
LINE
  5
F101C1
330
F101C2
100
AcDbEntity
8
Geo
100
AcDbLine
10
-76.9078886310903
20
-1.61762077550409
30
0.000000000000000
11
-76.8078886310903
21
-1.70006855585572
31
0.000000000000000
  0
LINE
  5
F101C3
330
F101C4
100
AcDbEntity
8
Geo
100
AcDbLine
10
-76.8078886310903
20
-1.70006855585572
30
0.000000000000000
11
-76.7078886310903
21
-1.78556578509718
31
0.000000000000000
  0
LINE
  5
F101C5
330
F101C6
100
AcDbEntity
8
Geo
100
AcDbLine
10
-76.7078886310903
20
-1.78556578509718
30
0.000000000000000
11
-76.6078886310903
21
-1.87398581630321
31
0.000000000000000
  0
LINE
  5
F101C7
330
F101C8
100
AcDbEntity
8
Geo
100
AcDbLine
10
-76.6078886310903
20
-1.87398581630321
30
0.000000000000000
11
-76.5078886310903
21
-1.96519767300612
31
0.000000000000000
  0
LINE
  5
F101C9
330
F101CA
100
AcDbEntity
8
Geo
100
AcDbLine
10
-76.5078886310903
20
-1.96519767300612
30
0.000000000000000
11
-76.4078886310903
21
-2.05906624321103
31
0.000000000000000
  0
LINE
  5
F101CB
330
F101CC
100
AcDbEntity
8
Geo
100
AcDbLine
10
-76.4078886310903
20
-2.05906624321103
30
0.000000000000000
11
-76.3078886310903
21
-2.15545247953713
31
0.000000000000000
  0
LINE
  5
F101CD
330
F101CE
100
AcDbEntity
8
Geo
100
AcDbLine
10
-76.3078886310903
20
-2.15545247953713
30
0.000000000000000
11
-76.2078886310903
21
-2.25421360518828
31
0.000000000000000
  0
LINE
  5
F101CF
330
F101D0
100
AcDbEntity
8
Geo
100
AcDbLine
10
-76.2078886310903
20
-2.25421360518828
30
0.000000000000000
11
-76.1078886310903
21
-2.35520332544816
31
0.000000000000000
  0
LINE
  5
F101D1
330
F101D2
100
AcDbEntity
8
Geo
100
AcDbLine
10
-76.1078886310903
20
-2.35520332544816
30
0.000000000000000
11
-76.0078886310903
21
-2.45827204438638
31
0.000000000000000
  0
LINE
  5
F101D3
330
F101D4
100
AcDbEntity
8
Geo
100
AcDbLine
10
-76.0078886310903
20
-2.45827204438638
30
0.000000000000000
11
-75.9078886310903
21
-2.56326708645476
31
0.000000000000000
  0
LINE
  5
F101D5
330
F101D6
100
AcDbEntity
8
Geo
100
AcDbLine
10
-75.9078886310903
20
-2.56326708645476
30
0.000000000000000
11
-75.8078886310903
21
-2.67003292264534
31
0.000000000000000
  0
LINE
  5
F101D7
330
F101D8
100
AcDbEntity
8
Geo
100
AcDbLine
10
-75.8078886310903
20
-2.67003292264534
30
0.000000000000000
11
-75.7078886310903
21
-2.77841140087536
31
0.000000000000000
  0
LINE
  5
F101D9
330
F101DA
100
AcDbEntity
8
Geo
100
AcDbLine
10
-75.7078886310903
20
-2.77841140087536
30
0.000000000000000
11
-75.6078886310903
21
-2.88824198025766
31
0.000000000000000
  0
LINE
  5
F101DB
330
F101DC
100
AcDbEntity
8
Geo
100
AcDbLine
10
-75.6078886310903
20
-2.88824198025766
30
0.000000000000000
11
-75.5078886310903
21
-2.99936196890968
31
0.000000000000000
  0
LINE
  5
F101DD
330
F101DE
100
AcDbEntity
8
Geo
100
AcDbLine
10
-75.5078886310903
20
-2.99936196890968
30
0.000000000000000
11
-75.4078886310903
21
-3.11160676494875
31
0.000000000000000
  0
LINE
  5
F101DF
330
F101E0
100
AcDbEntity
8
Geo
100
AcDbLine
10
-75.4078886310903
20
-3.11160676494875
30
0.000000000000000
11
-75.3078886310903
21
-3.22481010031657
31
0.000000000000000
  0
LINE
  5
F101E1
330
F101E2
100
AcDbEntity
8
Geo
100
AcDbLine
10
-75.3078886310903
20
-3.22481010031657
30
0.000000000000000
11
-75.2078886310903
21
-3.33880428707192
31
0.000000000000000
  0
LINE
  5
F101E3
330
F101E4
100
AcDbEntity
8
Geo
100
AcDbLine
10
-75.2078886310903
20
-3.33880428707192
30
0.000000000000000
11
-75.1078886310903
21
-3.45342046578649
31
0.000000000000000
  0
LINE
  5
F101E5
330
F101E6
100
AcDbEntity
8
Geo
100
AcDbLine
10
-75.1078886310903
20
-3.45342046578649
30
0.000000000000000
11
-75.0078886310903
21
-3.56848885567619
31
0.000000000000000
  0
LINE
  5
F101E7
330
F101E8
100
AcDbEntity
8
Geo
100
AcDbLine
10
-75.0078886310903
20
-3.56848885567619
30
0.000000000000000
11
-74.9078886310903
21
-3.68383900609715
31
0.000000000000000
  0
LINE
  5
F101E9
330
F101EA
100
AcDbEntity
8
Geo
100
AcDbLine
10
-74.9078886310903
20
-3.68383900609715
30
0.000000000000000
11
-74.8078886310903
21
-3.79930004903401
31
0.000000000000000
  0
LINE
  5
F101EB
330
F101EC
100
AcDbEntity
8
Geo
100
AcDbLine
10
-74.8078886310903
20
-3.79930004903401
30
0.000000000000000
11
-74.7078886310903
21
-3.91470095220647
31
0.000000000000000
  0
LINE
  5
F101ED
330
F101EE
100
AcDbEntity
8
Geo
100
AcDbLine
10
-74.7078886310903
20
-3.91470095220647
30
0.000000000000000
11
-74.6078886310903
21
-4.02987077241922
31
0.000000000000000
  0
LINE
  5
F101EF
330
F101F0
100
AcDbEntity
8
Geo
100
AcDbLine
10
-74.6078886310903
20
-4.02987077241922
30
0.000000000000000
11
-74.5078886310903
21
-4.14463890877978
31
0.000000000000000
  0
LINE
  5
F101F1
330
F101F2
100
AcDbEntity
8
Geo
100
AcDbLine
10
-74.5078886310903
20
-4.14463890877978
30
0.000000000000000
11
-74.4078886310903
21
-4.25883535540940
31
0.000000000000000
  0
LINE
  5
F101F3
330
F101F4
100
AcDbEntity
8
Geo
100
AcDbLine
10
-74.4078886310903
20
-4.25883535540940
30
0.000000000000000
11
-74.3078886310903
21
-4.37229095327252
31
0.000000000000000
  0
LINE
  5
F101F5
330
F101F6
100
AcDbEntity
8
Geo
100
AcDbLine
10
-74.3078886310903
20
-4.37229095327252
30
0.000000000000000
11
-74.2078886310903
21
-4.48483764075183
31
0.000000000000000
  0
LINE
  5
F101F7
330
F101F8
100
AcDbEntity
8
Geo
100
AcDbLine
10
-74.2078886310903
20
-4.48483764075183
30
0.000000000000000
11
-74.1078886310903
21
-4.59630870259768
31
0.000000000000000
  0
LINE
  5
F101F9
330
F101FA
100
AcDbEntity
8
Geo
100
AcDbLine
10
-74.1078886310903
20
-4.59630870259768
30
0.000000000000000
11
-74.0078886310903
21
-4.70653901688316
31
0.000000000000000
  0
LINE
  5
F101FB
330
F101FC
100
AcDbEntity
8
Geo
100
AcDbLine
10
-74.0078886310903
20
-4.70653901688316
30
0.000000000000000
11
-73.9078886310903
21
-4.81536529959896
31
0.000000000000000
  0
LINE
  5
F101FD
330
F101FE
100
AcDbEntity
8
Geo
100
AcDbLine
10
-73.9078886310903
20
-4.81536529959896
30
0.000000000000000
11
-73.8078886310903
21
-4.92262634652577
31
0.000000000000000
  0
LINE
  5
F101FF
330
F10200
100
AcDbEntity
8
Geo
100
AcDbLine
10
-73.8078886310903
20
-4.92262634652577
30
0.000000000000000
11
-73.7078886310903
21
-5.02816327202586
31
0.000000000000000
  0
LINE
  5
F10201
330
F10202
100
AcDbEntity
8
Geo
100
AcDbLine
10
-73.7078886310903
20
-5.02816327202586
30
0.000000000000000
11
-73.6078886310903
21
-5.13181974440012
31
0.000000000000000
  0
LINE
  5
F10203
330
F10204
100
AcDbEntity
8
Geo
100
AcDbLine
10
-73.6078886310903
20
-5.13181974440012
30
0.000000000000000
11
-73.5078886310903
21
-5.23344221746202
31
0.000000000000000
  0
LINE
  5
F10205
330
F10206
100
AcDbEntity
8
Geo
100
AcDbLine
10
-73.5078886310903
20
-5.23344221746202
30
0.000000000000000
11
-73.4078886310903
21
-5.33288015798533
31
0.000000000000000
  0
LINE
  5
F10207
330
F10208
100
AcDbEntity
8
Geo
100
AcDbLine
10
-73.4078886310903
20
-5.33288015798533
30
0.000000000000000
11
-73.3078886310903
21
-5.42998626868882
31
0.000000000000000
  0
LINE
  5
F10209
330
F1020A
100
AcDbEntity
8
Geo
100
AcDbLine
10
-73.3078886310903
20
-5.42998626868882
30
0.000000000000000
11
-73.2078886310903
21
-5.52461670642746
31
0.000000000000000
  0
LINE
  5
F1020B
330
F1020C
100
AcDbEntity
8
Geo
100
AcDbLine
10
-73.2078886310903
20
-5.52461670642746
30
0.000000000000000
11
-73.1078886310903
21
-5.61663129526712
31
0.000000000000000
  0
LINE
  5
F1020D
330
F1020E
100
AcDbEntity
8
Geo
100
AcDbLine
10
-73.1078886310903
20
-5.61663129526712
30
0.000000000000000
11
-73.0078886310903
21
-5.70589373412693
31
0.000000000000000
  0
LINE
  5
F1020F
330
F10210
100
AcDbEntity
8
Geo
100
AcDbLine
10
-73.0078886310903
20
-5.70589373412693
30
0.000000000000000
11
-72.9078886310903
21
-5.79227179868195
31
0.000000000000000
  0
LINE
  5
F10211
330
F10212
100
AcDbEntity
8
Geo
100
AcDbLine
10
-72.9078886310903
20
-5.79227179868195
30
0.000000000000000
11
-72.8078886310903
21
-5.87563753722681
31
0.000000000000000
  0
LINE
  5
F10213
330
F10214
100
AcDbEntity
8
Geo
100
AcDbLine
10
-72.8078886310903
20
-5.87563753722681
30
0.000000000000000
11
-72.7078886310903
21
-5.95586746021040
31
0.000000000000000
  0
LINE
  5
F10215
330
F10216
100
AcDbEntity
8
Geo
100
AcDbLine
10
-72.7078886310903
20
-5.95586746021040
30
0.000000000000000
11
-72.6078886310903
21
-6.03284272316082
31
0.000000000000000
  0
LINE
  5
F10217
330
F10218
100
AcDbEntity
8
Geo
100
AcDbLine
10
-72.6078886310903
20
-6.03284272316082
30
0.000000000000000
11
-72.5078886310903
21
-6.10644930272946
31
0.000000000000000
  0
LINE
  5
F10219
330
F1021A
100
AcDbEntity
8
Geo
100
AcDbLine
10
-72.5078886310903
20
-6.10644930272946
30
0.000000000000000
11
-72.4078886310903
21
-6.17657816559370
31
0.000000000000000
  0
LINE
  5
F1021B
330
F1021C
100
AcDbEntity
8
Geo
100
AcDbLine
10
-72.4078886310903
20
-6.17657816559370
30
0.000000000000000
11
-72.3078886310903
21
-6.24312542996773
31
0.000000000000000
  0
LINE
  5
F1021D
330
F1021E
100
AcDbEntity
8
Geo
100
AcDbLine
10
-72.3078886310903
20
-6.24312542996773
30
0.000000000000000
11
-72.2078886310903
21
-6.30599251948256
31
0.000000000000000
  0
LINE
  5
F1021F
330
F10220
100
AcDbEntity
8
Geo
100
AcDbLine
10
-72.2078886310903
20
-6.30599251948256
30
0.000000000000000
11
-72.1078886310903
21
-6.36508630920705
31
0.000000000000000
  0
LINE
  5
F10221
330
F10222
100
AcDbEntity
8
Geo
100
AcDbLine
10
-72.1078886310903
20
-6.36508630920705
30
0.000000000000000
11
-72.0078886310903
21
-6.42031926359370
31
0.000000000000000
  0
LINE
  5
F10223
330
F10224
100
AcDbEntity
8
Geo
100
AcDbLine
10
-72.0078886310903
20
-6.42031926359370
30
0.000000000000000
11
-71.9078886310903
21
-6.47160956614498
31
0.000000000000000
  0
LINE
  5
F10225
330
F10226
100
AcDbEntity
8
Geo
100
AcDbLine
10
-71.9078886310903
20
-6.47160956614498
30
0.000000000000000
11
-71.8078886310903
21
-6.51888124060795
31
0.000000000000000
  0
LINE
  5
F10227
330
F10228
100
AcDbEntity
8
Geo
100
AcDbLine
10
-71.8078886310903
20
-6.51888124060795
30
0.000000000000000
11
-71.7078886310903
21
-6.56206426351781
31
0.000000000000000
  0
LINE
  5
F10229
330
F1022A
100
AcDbEntity
8
Geo
100
AcDbLine
10
-71.7078886310903
20
-6.56206426351781
30
0.000000000000000
11
-71.6078886310903
21
-6.60109466792354
31
0.000000000000000
  0
LINE
  5
F1022B
330
F1022C
100
AcDbEntity
8
Geo
100
AcDbLine
10
-71.6078886310903
20
-6.60109466792354
30
0.000000000000000
11
-71.5078886310903
21
-6.63591463814207
31
0.000000000000000
  0
LINE
  5
F1022D
330
F1022E
100
AcDbEntity
8
Geo
100
AcDbLine
10
-71.5078886310903
20
-6.63591463814207
30
0.000000000000000
11
-71.4078886310903
21
-6.66647259540056
31
0.000000000000000
  0
LINE
  5
F1022F
330
F10230
100
AcDbEntity
8
Geo
100
AcDbLine
10
-71.4078886310903
20
-6.66647259540056
30
0.000000000000000
11
-71.3078886310903
21
-6.69272327423995
31
0.000000000000000
  0
LINE
  5
F10231
330
F10232
100
AcDbEntity
8
Geo
100
AcDbLine
10
-71.3078886310903
20
-6.69272327423995
30
0.000000000000000
11
-71.2078886310903
21
-6.71462778956666
31
0.000000000000000
  0
LINE
  5
F10233
330
F10234
100
AcDbEntity
8
Geo
100
AcDbLine
10
-71.2078886310903
20
-6.71462778956666
30
0.000000000000000
11
-71.1078886310903
21
-6.73215369425299
31
0.000000000000000
  0
LINE
  5
F10235
330
F10236
100
AcDbEntity
8
Geo
100
AcDbLine
10
-71.1078886310903
20
-6.73215369425299
30
0.000000000000000
11
-71.0078886310903
21
-6.74527502720100
31
0.000000000000000
  0
LINE
  5
F10237
330
F10238
100
AcDbEntity
8
Geo
100
AcDbLine
10
-71.0078886310903
20
-6.74527502720100
30
0.000000000000000
11
-70.9078886310903
21
-6.75397235179868
31
0.000000000000000
  0
LINE
  5
F10239
330
F1023A
100
AcDbEntity
8
Geo
100
AcDbLine
10
-70.9078886310903
20
-6.75397235179868
30
0.000000000000000
11
-70.8078886310904
21
-6.75823278471135
31
0.000000000000000
  0
LINE
  5
F1023B
330
F1023C
100
AcDbEntity
8
Geo
100
AcDbLine
10
-62.7078886310903
20
-0.758700696055627
30
0.000000000000000
11
-62.6078886310903
21
-0.758905212240461
31
0.000000000000000
  0
LINE
  5
F1023D
330
F1023E
100
AcDbEntity
8
Geo
100
AcDbLine
10
-62.6078886310903
20
-0.758905212240461
30
0.000000000000000
11
-62.5078886310903
21
-0.762541527754661
31
0.000000000000000
  0
LINE
  5
F1023F
330
F10240
100
AcDbEntity
8
Geo
100
AcDbLine
10
-62.5078886310903
20
-0.762541527754661
30
0.000000000000000
11
-62.4078886310903
21
-0.770494883512004
31
0.000000000000000
  0
LINE
  5
F10241
330
F10242
100
AcDbEntity
8
Geo
100
AcDbLine
10
-62.4078886310903
20
-0.770494883512004
30
0.000000000000000
11
-62.3078886310903
21
-0.782467801059759
31
0.000000000000000
  0
LINE
  5
F10243
330
F10244
100
AcDbEntity
8
Geo
100
AcDbLine
10
-62.3078886310903
20
-0.782467801059759
30
0.000000000000000
11
-62.2078886310903
21
-0.798164925059726
31
0.000000000000000
  0
LINE
  5
F10245
330
F10246
100
AcDbEntity
8
Geo
100
AcDbLine
10
-62.2078886310903
20
-0.798164925059726
30
0.000000000000000
11
-62.1078886310903
21
-0.817294211828203
31
0.000000000000000
  0
LINE
  5
F10247
330
F10248
100
AcDbEntity
8
Geo
100
AcDbLine
10
-62.1078886310903
20
-0.817294211828203
30
0.000000000000000
11
-62.0078886310903
21
-0.839567992873540
31
0.000000000000000
  0
LINE
  5
F10249
330
F1024A
100
AcDbEntity
8
Geo
100
AcDbLine
10
-62.0078886310903
20
-0.839567992873540
30
0.000000000000000
11
-61.9078886310903
21
-0.864703918199487
31
0.000000000000000
  0
LINE
  5
F1024B
330
F1024C
100
AcDbEntity
8
Geo
100
AcDbLine
10
-61.9078886310903
20
-0.864703918199487
30
0.000000000000000
11
-61.8078886310903
21
-0.892425784585551
31
0.000000000000000
  0
LINE
  5
F1024D
330
F1024E
100
AcDbEntity
8
Geo
100
AcDbLine
10
-61.8078886310903
20
-0.892425784585551
30
0.000000000000000
11
-61.7078886310903
21
-0.922464254407672
31
0.000000000000000
  0
LINE
  5
F1024F
330
F10250
100
AcDbEntity
8
Geo
100
AcDbLine
10
-61.7078886310903
20
-0.922464254407672
30
0.000000000000000
11
-61.6078886310903
21
-0.954557470831171
31
0.000000000000000
  0
LINE
  5
F10251
330
F10252
100
AcDbEntity
8
Geo
100
AcDbLine
10
-61.6078886310903
20
-0.954557470831171
30
0.000000000000000
11
-61.5078886310903
21
-0.988451575400235
31
0.000000000000000
  0
LINE
  5
F10253
330
F10254
100
AcDbEntity
8
Geo
100
AcDbLine
10
-61.5078886310903
20
-0.988451575400235
30
0.000000000000000
11
-61.4078886310903
21
-1.02390113417152
31
0.000000000000000
  0
LINE
  5
F10255
330
F10256
100
AcDbEntity
8
Geo
100
AcDbLine
10
-61.4078886310903
20
-1.02390113417152
30
0.000000000000000
11
-61.3078886310903
21
-1.06066947860064
31
0.000000000000000
  0
LINE
  5
F10257
330
F10258
100
AcDbEntity
8
Geo
100
AcDbLine
10
-61.3078886310903
20
-1.06066947860064
30
0.000000000000000
11
-61.2078886310903
21
-1.09852896739608
31
0.000000000000000
  0
LINE
  5
F10259
330
F1025A
100
AcDbEntity
8
Geo
100
AcDbLine
10
-61.2078886310903
20
-1.09852896739608
30
0.000000000000000
11
-61.1078886310903
21
-1.13726117551235
31
0.000000000000000
  0
LINE
  5
F1025B
330
F1025C
100
AcDbEntity
8
Geo
100
AcDbLine
10
-61.1078886310903
20
-1.13726117551235
30
0.000000000000000
11
-61.0078886310903
21
-1.17665701636824
31
0.000000000000000
  0
LINE
  5
F1025D
330
F1025E
100
AcDbEntity
8
Geo
100
AcDbLine
10
-61.0078886310903
20
-1.17665701636824
30
0.000000000000000
11
-60.9078886310903
21
-1.21651680325371
31
0.000000000000000
  0
LINE
  5
F1025F
330
F10260
100
AcDbEntity
8
Geo
100
AcDbLine
10
-60.9078886310903
20
-1.21651680325371
30
0.000000000000000
11
-60.8078886310903
21
-1.25665025573534
31
0.000000000000000
  0
LINE
  5
F10261
330
F10262
100
AcDbEntity
8
Geo
100
AcDbLine
10
-60.8078886310903
20
-1.25665025573534
30
0.000000000000000
11
-60.7078886310903
21
-1.29687645668980
31
0.000000000000000
  0
LINE
  5
F10263
330
F10264
100
AcDbEntity
8
Geo
100
AcDbLine
10
-60.7078886310903
20
-1.29687645668980
30
0.000000000000000
11
-60.6078886310903
21
-1.33702376539374
31
0.000000000000000
  0
LINE
  5
F10265
330
F10266
100
AcDbEntity
8
Geo
100
AcDbLine
10
-60.6078886310903
20
-1.33702376539374
30
0.000000000000000
11
-60.5078886310903
21
-1.37692969187944
31
0.000000000000000
  0
LINE
  5
F10267
330
F10268
100
AcDbEntity
8
Geo
100
AcDbLine
10
-60.5078886310903
20
-1.37692969187944
30
0.000000000000000
11
-60.4078886310903
21
-1.41644073753402
31
0.000000000000000
  0
LINE
  5
F10269
330
F1026A
100
AcDbEntity
8
Geo
100
AcDbLine
10
-60.4078886310903
20
-1.41644073753402
30
0.000000000000000
11
-60.3078886310903
21
-1.45541220667847
31
0.000000000000000
  0
LINE
  5
F1026B
330
F1026C
100
AcDbEntity
8
Geo
100
AcDbLine
10
-60.3078886310903
20
-1.45541220667847
30
0.000000000000000
11
-60.2078886310903
21
-1.49370799361520
31
0.000000000000000
  0
LINE
  5
F1026D
330
F1026E
100
AcDbEntity
8
Geo
100
AcDbLine
10
-60.2078886310903
20
-1.49370799361520
30
0.000000000000000
11
-60.1078886310903
21
-1.53120034938152
31
0.000000000000000
  0
LINE
  5
F1026F
330
F10270
100
AcDbEntity
8
Geo
100
AcDbLine
10
-60.1078886310903
20
-1.53120034938152
30
0.000000000000000
11
-60.0078886310903
21
-1.56776963219480
31
0.000000000000000
  0
LINE
  5
F10271
330
F10272
100
AcDbEntity
8
Geo
100
AcDbLine
10
-60.0078886310903
20
-1.56776963219480
30
0.000000000000000
11
-59.9078886310903
21
-1.60330404532424
31
0.000000000000000
  0
LINE
  5
F10273
330
F10274
100
AcDbEntity
8
Geo
100
AcDbLine
10
-59.9078886310903
20
-1.60330404532424
30
0.000000000000000
11
-59.8078886310903
21
-1.63769936587699
31
0.000000000000000
  0
LINE
  5
F10275
330
F10276
100
AcDbEntity
8
Geo
100
AcDbLine
10
-59.8078886310903
20
-1.63769936587699
30
0.000000000000000
11
-59.7078886310903
21
-1.67085866774412
31
0.000000000000000
  0
LINE
  5
F10277
330
F10278
100
AcDbEntity
8
Geo
100
AcDbLine
10
-59.7078886310903
20
-1.67085866774412
30
0.000000000000000
11
-59.6078886310903
21
-1.70269204171581
31
0.000000000000000
  0
LINE
  5
F10279
330
F1027A
100
AcDbEntity
8
Geo
100
AcDbLine
10
-59.6078886310903
20
-1.70269204171581
30
0.000000000000000
11
-59.5078886310903
21
-1.73311631554670
31
0.000000000000000
  0
LINE
  5
F1027B
330
F1027C
100
AcDbEntity
8
Geo
100
AcDbLine
10
-59.5078886310903
20
-1.73311631554670
30
0.000000000000000
11
-59.4078886310903
21
-1.76205477653190
31
0.000000000000000
  0
LINE
  5
F1027D
330
F1027E
100
AcDbEntity
8
Geo
100
AcDbLine
10
-59.4078886310903
20
-1.76205477653190
30
0.000000000000000
11
-59.3078886310903
21
-1.78943689894315
31
0.000000000000000
  0
LINE
  5
F1027F
330
F10280
100
AcDbEntity
8
Geo
100
AcDbLine
10
-59.3078886310903
20
-1.78943689894315
30
0.000000000000000
11
-59.2078886310903
21
-1.81519807847254
31
0.000000000000000
  0
LINE
  5
F10281
330
F10282
100
AcDbEntity
8
Geo
100
AcDbLine
10
-59.2078886310903
20
-1.81519807847254
30
0.000000000000000
11
-59.1078886310903
21
-1.83927937563934
31
0.000000000000000
  0
LINE
  5
F10283
330
F10284
100
AcDbEntity
8
Geo
100
AcDbLine
10
-59.1078886310903
20
-1.83927937563934
30
0.000000000000000
11
-59.0078886310903
21
-1.86162726993315
31
0.000000000000000
  0
LINE
  5
F10285
330
F10286
100
AcDbEntity
8
Geo
100
AcDbLine
10
-59.0078886310903
20
-1.86162726993315
30
0.000000000000000
11
-58.9078886310903
21
-1.88219342629426
31
0.000000000000000
  0
LINE
  5
F10287
330
F10288
100
AcDbEntity
8
Geo
100
AcDbLine
10
-58.9078886310903
20
-1.88219342629426
30
0.000000000000000
11
-58.8078886310903
21
-1.90093447536932
31
0.000000000000000
  0
LINE
  5
F10289
330
F1028A
100
AcDbEntity
8
Geo
100
AcDbLine
10
-58.8078886310903
20
-1.90093447536932
30
0.000000000000000
11
-58.7078886310903
21
-1.91781180882729
31
0.000000000000000
  0
LINE
  5
F1028B
330
F1028C
100
AcDbEntity
8
Geo
100
AcDbLine
10
-58.7078886310903
20
-1.91781180882729
30
0.000000000000000
11
-58.6078886310903
21
-1.93279139087587
31
0.000000000000000
  0
LINE
  5
F1028D
330
F1028E
100
AcDbEntity
8
Geo
100
AcDbLine
10
-58.6078886310903
20
-1.93279139087587
30
0.000000000000000
11
-58.5078886310903
21
-1.94584358698332
31
0.000000000000000
  0
LINE
  5
F1028F
330
F10290
100
AcDbEntity
8
Geo
100
AcDbLine
10
-58.5078886310903
20
-1.94584358698332
30
0.000000000000000
11
-58.4078886310903
21
-1.95694301068219
31
0.000000000000000
  0
LINE
  5
F10291
330
F10292
100
AcDbEntity
8
Geo
100
AcDbLine
10
-58.4078886310903
20
-1.95694301068219
30
0.000000000000000
11
-58.3078886310903
21
-1.96606838921102
31
0.000000000000000
  0
LINE
  5
F10293
330
F10294
100
AcDbEntity
8
Geo
100
AcDbLine
10
-58.3078886310903
20
-1.96606838921102
30
0.000000000000000
11
-58.2078886310903
21
-1.97320244863596
31
0.000000000000000
  0
LINE
  5
F10295
330
F10296
100
AcDbEntity
8
Geo
100
AcDbLine
10
-58.2078886310903
20
-1.97320244863596
30
0.000000000000000
11
-58.1078886310903
21
-1.97833181898609
31
0.000000000000000
  0
LINE
  5
F10297
330
F10298
100
AcDbEntity
8
Geo
100
AcDbLine
10
-78.1078886310903
20
-3.75870069605563
30
0.000000000000000
11
-78.0078886310903
21
-3.85243499353189
31
0.000000000000000
  0
LINE
  5
F10299
330
F1029A
100
AcDbEntity
8
Geo
100
AcDbLine
10
-78.0078886310903
20
-3.85243499353189
30
0.000000000000000
11
-77.9078886310903
21
-3.95865117080824
31
0.000000000000000
  0
LINE
  5
F1029B
330
F1029C
100
AcDbEntity
8
Geo
100
AcDbLine
10
-77.9078886310903
20
-3.95865117080824
30
0.000000000000000
11
-77.8078886310903
21
-4.07140693101786
31
0.000000000000000
  0
LINE
  5
F1029D
330
F1029E
100
AcDbEntity
8
Geo
100
AcDbLine
10
-77.8078886310903
20
-4.07140693101786
30
0.000000000000000
11
-77.7078886310903
21
-4.18808784986083
31
0.000000000000000
  0
LINE
  5
F1029F
330
F102A0
100
AcDbEntity
8
Geo
100
AcDbLine
10
-77.7078886310903
20
-4.18808784986083
30
0.000000000000000
11
-77.6078886310903
21
-4.30686910806909
31
0.000000000000000
  0
LINE
  5
F102A1
330
F102A2
100
AcDbEntity
8
Geo
100
AcDbLine
10
-77.6078886310903
20
-4.30686910806909
30
0.000000000000000
11
-77.5078886310903
21
-4.42626993636540
31
0.000000000000000
  0
LINE
  5
F102A3
330
F102A4
100
AcDbEntity
8
Geo
100
AcDbLine
10
-77.5078886310903
20
-4.42626993636540
30
0.000000000000000
11
-77.4078886310903
21
-4.54498662816469
31
0.000000000000000
  0
LINE
  5
F102A5
330
F102A6
100
AcDbEntity
8
Geo
100
AcDbLine
10
-77.4078886310903
20
-4.54498662816469
30
0.000000000000000
11
-77.3078886310903
21
-4.66180907476971
31
0.000000000000000
  0
LINE
  5
F102A7
330
F102A8
100
AcDbEntity
8
Geo
100
AcDbLine
10
-77.3078886310903
20
-4.66180907476971
30
0.000000000000000
11
-77.2078886310903
21
-4.77556904040884
31
0.000000000000000
  0
LINE
  5
F102A9
330
F102AA
100
AcDbEntity
8
Geo
100
AcDbLine
10
-77.2078886310903
20
-4.77556904040884
30
0.000000000000000
11
-77.1078886310903
21
-4.88510056012466
31
0.000000000000000
  0
LINE
  5
F102AB
330
F102AC
100
AcDbEntity
8
Geo
100
AcDbLine
10
-77.1078886310903
20
-4.88510056012466
30
0.000000000000000
11
-77.0078886310903
21
-4.99126166286725
31
0.000000000000000
  0
LINE
  5
F102AD
330
F102AE
100
AcDbEntity
8
Geo
100
AcDbLine
10
-77.0078886310903
20
-4.99126166286725
30
0.000000000000000
11
-76.9078886310903
21
-5.09559697478568
31
0.000000000000000
  0
LINE
  5
F102AF
330
F102B0
100
AcDbEntity
8
Geo
100
AcDbLine
10
-76.9078886310903
20
-5.09559697478568
30
0.000000000000000
11
-76.8078886310903
21
-5.19795194412937
31
0.000000000000000
  0
LINE
  5
F102B1
330
F102B2
100
AcDbEntity
8
Geo
100
AcDbLine
10
-76.8078886310903
20
-5.19795194412937
30
0.000000000000000
11
-76.7078886310903
21
-5.29817495262637
31
0.000000000000000
  0
LINE
  5
F102B3
330
F102B4
100
AcDbEntity
8
Geo
100
AcDbLine
10
-76.7078886310903
20
-5.29817495262637
30
0.000000000000000
11
-76.6078886310903
21
-5.39611754007536
31
0.000000000000000
  0
LINE
  5
F102B5
330
F102B6
100
AcDbEntity
8
Geo
100
AcDbLine
10
-76.6078886310903
20
-5.39611754007536
30
0.000000000000000
11
-76.5078886310903
21
-5.49163462425951
31
0.000000000000000
  0
LINE
  5
F102B7
330
F102B8
100
AcDbEntity
8
Geo
100
AcDbLine
10
-76.5078886310903
20
-5.49163462425951
30
0.000000000000000
11
-76.4078886310903
21
-5.58458471585653
31
0.000000000000000
  0
LINE
  5
F102B9
330
F102BA
100
AcDbEntity
8
Geo
100
AcDbLine
10
-76.4078886310903
20
-5.58458471585653
30
0.000000000000000
11
-76.3078886310903
21
-5.67483012802665
31
0.000000000000000
  0
LINE
  5
F102BB
330
F102BC
100
AcDbEntity
8
Geo
100
AcDbLine
10
-76.3078886310903
20
-5.67483012802665
30
0.000000000000000
11
-76.2078886310903
21
-5.76223718036795
31
0.000000000000000
  0
LINE
  5
F102BD
330
F102BE
100
AcDbEntity
8
Geo
100
AcDbLine
10
-76.2078886310903
20
-5.76223718036795
30
0.000000000000000
11
-76.1078886310903
21
-5.84667639693688
31
0.000000000000000
  0
LINE
  5
F102BF
330
F102C0
100
AcDbEntity
8
Geo
100
AcDbLine
10
-76.1078886310903
20
-5.84667639693688
30
0.000000000000000
11
-76.0078886310903
21
-5.92802269804087
31
0.000000000000000
  0
LINE
  5
F102C1
330
F102C2
100
AcDbEntity
8
Geo
100
AcDbLine
10
-76.0078886310903
20
-5.92802269804087
30
0.000000000000000
11
-75.9078886310903
21
-6.00615558551868
31
0.000000000000000
  0
LINE
  5
F102C3
330
F102C4
100
AcDbEntity
8
Geo
100
AcDbLine
10
-75.9078886310903
20
-6.00615558551868
30
0.000000000000000
11
-75.8078886310903
21
-6.08095932123411
31
0.000000000000000
  0
LINE
  5
F102C5
330
F102C6
100
AcDbEntity
8
Geo
100
AcDbLine
10
-75.8078886310903
20
-6.08095932123411
30
0.000000000000000
11
-75.7078886310903
21
-6.15232309851882
31
0.000000000000000
  0
LINE
  5
F102C7
330
F102C8
100
AcDbEntity
8
Geo
100
AcDbLine
10
-75.7078886310903
20
-6.15232309851882
30
0.000000000000000
11
-75.6078886310903
21
-6.22014120631002
31
0.000000000000000
  0
LINE
  5
F102C9
330
F102CA
100
AcDbEntity
8
Geo
100
AcDbLine
10
-75.6078886310903
20
-6.22014120631002
30
0.000000000000000
11
-75.5078886310903
21
-6.28431318574016
31
0.000000000000000
  0
LINE
  5
F102CB
330
F102CC
100
AcDbEntity
8
Geo
100
AcDbLine
10
-75.5078886310903
20
-6.28431318574016
30
0.000000000000000
11
-75.4078886310903
21
-6.34474397894650
31
0.000000000000000
  0
LINE
  5
F102CD
330
F102CE
100
AcDbEntity
8
Geo
100
AcDbLine
10
-75.4078886310903
20
-6.34474397894650
30
0.000000000000000
11
-75.3078886310903
21
-6.40134406988016
31
0.000000000000000
  0
LINE
  5
F102CF
330
F102D0
100
AcDbEntity
8
Geo
100
AcDbLine
10
-75.3078886310903
20
-6.40134406988016
30
0.000000000000000
11
-75.2078886310903
21
-6.45402961690616
31
0.000000000000000
  0
LINE
  5
F102D1
330
F102D2
100
AcDbEntity
8
Geo
100
AcDbLine
10
-75.2078886310903
20
-6.45402961690616
30
0.000000000000000
11
-75.1078886310903
21
-6.50272257699791
31
0.000000000000000
  0
LINE
  5
F102D3
330
F102D4
100
AcDbEntity
8
Geo
100
AcDbLine
10
-75.1078886310903
20
-6.50272257699791
30
0.000000000000000
11
-75.0078886310903
21
-6.54735082134219
31
0.000000000000000
  0
LINE
  5
F102D5
330
F102D6
100
AcDbEntity
8
Geo
100
AcDbLine
10
-75.0078886310903
20
-6.54735082134219
30
0.000000000000000
11
-74.9078886310903
21
-6.58784824218352
31
0.000000000000000
  0
LINE
  5
F102D7
330
F102D8
100
AcDbEntity
8
Geo
100
AcDbLine
10
-74.9078886310903
20
-6.58784824218352
30
0.000000000000000
11
-74.8078886310903
21
-6.62415485074944
31
0.000000000000000
  0
LINE
  5
F102D9
330
F102DA
100
AcDbEntity
8
Geo
100
AcDbLine
10
-74.8078886310903
20
-6.62415485074944
30
0.000000000000000
11
-74.7078886310903
21
-6.65621686611181
31
0.000000000000000
  0
LINE
  5
F102DB
330
F102DC
100
AcDbEntity
8
Geo
100
AcDbLine
10
-74.7078886310903
20
-6.65621686611181
30
0.000000000000000
11
-74.6078886310903
21
-6.68398679485245
31
0.000000000000000
  0
LINE
  5
F102DD
330
F102DE
100
AcDbEntity
8
Geo
100
AcDbLine
10
-74.6078886310903
20
-6.68398679485245
30
0.000000000000000
11
-74.5078886310903
21
-6.70742350141501
31
0.000000000000000
  0
LINE
  5
F102DF
330
F102E0
100
AcDbEntity
8
Geo
100
AcDbLine
10
-74.5078886310903
20
-6.70742350141501
30
0.000000000000000
11
-74.4078886310903
21
-6.72649226903908
31
0.000000000000000
  0
LINE
  5
F102E1
330
F102E2
100
AcDbEntity
8
Geo
100
AcDbLine
10
-74.4078886310903
20
-6.72649226903908
30
0.000000000000000
11
-74.3078886310903
21
-6.74116485118603
31
0.000000000000000
  0
LINE
  5
F102E3
330
F102E4
100
AcDbEntity
8
Geo
100
AcDbLine
10
-74.3078886310903
20
-6.74116485118603
30
0.000000000000000
11
-74.2078886310903
21
-6.75141951338060
31
0.000000000000000
  0
LINE
  5
F102E5
330
F102E6
100
AcDbEntity
8
Geo
100
AcDbLine
10
-74.2078886310903
20
-6.75141951338060
30
0.000000000000000
11
-74.1078886310903
21
-6.75724106540611
31
0.000000000000000
  0
LINE
  5
F102E7
330
F102E8
100
AcDbEntity
8
Geo
100
AcDbLine
10
-65.9078886310904
20
-0.759114364808276
30
0.000000000000000
11
-65.8078886310904
21
-0.759418980824798
31
0.000000000000000
  0
LINE
  5
F102E9
330
F102EA
100
AcDbEntity
8
Geo
100
AcDbLine
10
-65.8078886310904
20
-0.759418980824798
30
0.000000000000000
11
-65.7078886310904
21
-0.764166428621798
31
0.000000000000000
  0
LINE
  5
F102EB
330
F102EC
100
AcDbEntity
8
Geo
100
AcDbLine
10
-65.7078886310904
20
-0.764166428621798
30
0.000000000000000
11
-65.6078886310904
21
-0.773349675811540
31
0.000000000000000
  0
LINE
  5
F102ED
330
F102EE
100
AcDbEntity
8
Geo
100
AcDbLine
10
-65.6078886310904
20
-0.773349675811540
30
0.000000000000000
11
-65.5078886310904
21
-0.786955119262897
31
0.000000000000000
  0
LINE
  5
F102EF
330
F102F0
100
AcDbEntity
8
Geo
100
AcDbLine
10
-65.5078886310904
20
-0.786955119262897
30
0.000000000000000
11
-65.4078886310904
21
-0.804962605251646
31
0.000000000000000
  0
LINE
  5
F102F1
330
F102F2
100
AcDbEntity
8
Geo
100
AcDbLine
10
-65.4078886310904
20
-0.804962605251646
30
0.000000000000000
11
-65.3078886310904
21
-0.827345459314154
31
0.000000000000000
  0
LINE
  5
F102F3
330
F102F4
100
AcDbEntity
8
Geo
100
AcDbLine
10
-65.3078886310904
20
-0.827345459314154
30
0.000000000000000
11
-65.2078886310904
21
-0.854070525760225
31
0.000000000000000
  0
LINE
  5
F102F5
330
F102F6
100
AcDbEntity
8
Geo
100
AcDbLine
10
-65.2078886310904
20
-0.854070525760225
30
0.000000000000000
11
-65.1078886310904
21
-0.885098216786571
31
0.000000000000000
  0
LINE
  5
F102F7
330
F102F8
100
AcDbEntity
8
Geo
100
AcDbLine
10
-65.1078886310904
20
-0.885098216786571
30
0.000000000000000
11
-65.0078886310904
21
-0.920382571118177
31
0.000000000000000
  0
LINE
  5
F102F9
330
F102FA
100
AcDbEntity
8
Geo
100
AcDbLine
10
-65.0078886310904
20
-0.920382571118177
30
0.000000000000000
11
-64.9078886310904
21
-0.959871322090665
31
0.000000000000000
  0
LINE
  5
F102FB
330
F102FC
100
AcDbEntity
8
Geo
100
AcDbLine
10
-64.9078886310904
20
-0.959871322090665
30
0.000000000000000
11
-64.8078886310904
21
-1.00350597507284
31
0.000000000000000
  0
LINE
  5
F102FD
330
F102FE
100
AcDbEntity
8
Geo
100
AcDbLine
10
-64.8078886310904
20
-1.00350597507284
30
0.000000000000000
11
-64.7078886310904
21
-1.05122189411469
31
0.000000000000000
  0
LINE
  5
F102FF
330
F10300
100
AcDbEntity
8
Geo
100
AcDbLine
10
-64.7078886310904
20
-1.05122189411469
30
0.000000000000000
11
-64.6078886310904
21
-1.10294839769255
31
0.000000000000000
  0
LINE
  5
F10301
330
F10302
100
AcDbEntity
8
Geo
100
AcDbLine
10
-64.6078886310904
20
-1.10294839769255
30
0.000000000000000
11
-64.5078886310904
21
-1.15860886340952
31
0.000000000000000
  0
LINE
  5
F10303
330
F10304
100
AcDbEntity
8
Geo
100
AcDbLine
10
-64.5078886310904
20
-1.15860886340952
30
0.000000000000000
11
-64.4078886310904
21
-1.21812084149613
31
0.000000000000000
  0
LINE
  5
F10305
330
F10306
100
AcDbEntity
8
Geo
100
AcDbLine
10
-64.4078886310904
20
-1.21812084149613
30
0.000000000000000
11
-64.3078886310904
21
-1.28139617694305
31
0.000000000000000
  0
LINE
  5
F10307
330
F10308
100
AcDbEntity
8
Geo
100
AcDbLine
10
-64.3078886310904
20
-1.28139617694305
30
0.000000000000000
11
-64.2078886310904
21
-1.34834114008502
31
0.000000000000000
  0
LINE
  5
F10309
330
F1030A
100
AcDbEntity
8
Geo
100
AcDbLine
10
-64.2078886310904
20
-1.34834114008502
30
0.000000000000000
11
-64.1078886310904
21
-1.41885656544240
31
0.000000000000000
  0
LINE
  5
F1030B
330
F1030C
100
AcDbEntity
8
Geo
100
AcDbLine
10
-64.1078886310904
20
-1.41885656544240
30
0.000000000000000
11
-64.0078886310904
21
-1.49283799861495
31
0.000000000000000
  0
LINE
  5
F1030D
330
F1030E
100
AcDbEntity
8
Geo
100
AcDbLine
10
-64.0078886310904
20
-1.49283799861495
30
0.000000000000000
11
-63.9078886310904
21
-1.57017585100990
31
0.000000000000000
  0
LINE
  5
F1030F
330
F10310
100
AcDbEntity
8
Geo
100
AcDbLine
10
-63.9078886310904
20
-1.57017585100990
30
0.000000000000000
11
-63.8078886310904
21
-1.65075556217542
31
0.000000000000000
  0
LINE
  5
F10311
330
F10312
100
AcDbEntity
8
Geo
100
AcDbLine
10
-63.8078886310904
20
-1.65075556217542
30
0.000000000000000
11
-63.7078886310904
21
-1.73445776949885
31
0.000000000000000
  0
LINE
  5
F10313
330
F10314
100
AcDbEntity
8
Geo
100
AcDbLine
10
-63.7078886310904
20
-1.73445776949885
30
0.000000000000000
11
-63.6078886310904
21
-1.82115848501837
31
0.000000000000000
  0
LINE
  5
F10315
330
F10316
100
AcDbEntity
8
Geo
100
AcDbLine
10
-63.6078886310904
20
-1.82115848501837
30
0.000000000000000
11
-63.5078886310904
21
-1.91072927908620
31
0.000000000000000
  0
LINE
  5
F10317
330
F10318
100
AcDbEntity
8
Geo
100
AcDbLine
10
-63.5078886310904
20
-1.91072927908620
30
0.000000000000000
11
-63.4078886310904
21
-2.00303747061124
31
0.000000000000000
  0
LINE
  5
F10319
330
F1031A
100
AcDbEntity
8
Geo
100
AcDbLine
10
-63.4078886310904
20
-2.00303747061124
30
0.000000000000000
11
-63.3078886310904
21
-2.09794632359939
31
0.000000000000000
  0
LINE
  5
F1031B
330
F1031C
100
AcDbEntity
8
Geo
100
AcDbLine
10
-63.3078886310904
20
-2.09794632359939
30
0.000000000000000
11
-63.2078886310904
21
-2.19531524970040
31
0.000000000000000
  0
LINE
  5
F1031D
330
F1031E
100
AcDbEntity
8
Geo
100
AcDbLine
10
-63.2078886310904
20
-2.19531524970040
30
0.000000000000000
11
-63.1078886310903
21
-2.29500001646120
31
0.000000000000000
  0
LINE
  5
F1031F
330
F10320
100
AcDbEntity
8
Geo
100
AcDbLine
10
-63.1078886310903
20
-2.29500001646120
30
0.000000000000000
11
-63.0078886310903
21
-2.28247243545637
31
0.000000000000000
  0
LINE
  5
F10321
330
F10322
100
AcDbEntity
8
Geo
100
AcDbLine
10
-63.0078886310903
20
-2.28247243545637
30
0.000000000000000
11
-62.9078886310903
21
-2.27022080604519
31
0.000000000000000
  0
LINE
  5
F10323
330
F10324
100
AcDbEntity
8
Geo
100
AcDbLine
10
-62.9078886310903
20
-2.27022080604519
30
0.000000000000000
11
-62.8078886310903
21
-2.25824345723725
31
0.000000000000000
  0
LINE
  5
F10325
330
F10326
100
AcDbEntity
8
Geo
100
AcDbLine
10
-62.8078886310903
20
-2.25824345723725
30
0.000000000000000
11
-62.7078886310903
21
-2.24653872449227
31
0.000000000000000
  0
LINE
  5
F10327
330
F10328
100
AcDbEntity
8
Geo
100
AcDbLine
10
-62.7078886310903
20
-2.24653872449227
30
0.000000000000000
11
-62.6078886310903
21
-2.23510495140222
31
0.000000000000000
  0
LINE
  5
F10329
330
F1032A
100
AcDbEntity
8
Geo
100
AcDbLine
10
-62.6078886310903
20
-2.23510495140222
30
0.000000000000000
11
-62.5078886310903
21
-2.22394049133172
31
0.000000000000000
  0
LINE
  5
F1032B
330
F1032C
100
AcDbEntity
8
Geo
100
AcDbLine
10
-62.5078886310903
20
-2.22394049133172
30
0.000000000000000
11
-62.4078886310903
21
-2.21304370901693
31
0.000000000000000
  0
LINE
  5
F1032D
330
F1032E
100
AcDbEntity
8
Geo
100
AcDbLine
10
-62.4078886310903
20
-2.21304370901693
30
0.000000000000000
11
-62.3078886310903
21
-2.20241298212330
31
0.000000000000000
  0
LINE
  5
F1032F
330
F10330
100
AcDbEntity
8
Geo
100
AcDbLine
10
-62.3078886310903
20
-2.20241298212330
30
0.000000000000000
11
-62.2078886310903
21
-2.19204670276261
31
0.000000000000000
  0
LINE
  5
F10331
330
F10332
100
AcDbEntity
8
Geo
100
AcDbLine
10
-62.2078886310903
20
-2.19204670276261
30
0.000000000000000
11
-62.1078886310903
21
-2.18194327896960
31
0.000000000000000
  0
LINE
  5
F10333
330
F10334
100
AcDbEntity
8
Geo
100
AcDbLine
10
-62.1078886310903
20
-2.18194327896960
30
0.000000000000000
11
-62.0078886310903
21
-2.17210113613863
31
0.000000000000000
  0
LINE
  5
F10335
330
F10336
100
AcDbEntity
8
Geo
100
AcDbLine
10
-62.0078886310903
20
-2.17210113613863
30
0.000000000000000
11
-61.9078886310903
21
-2.16251871842063
31
0.000000000000000
  0
LINE
  5
F10337
330
F10338
100
AcDbEntity
8
Geo
100
AcDbLine
10
-61.9078886310903
20
-2.16251871842063
30
0.000000000000000
11
-61.8078886310903
21
-2.15319449008088
31
0.000000000000000
  0
LINE
  5
F10339
330
F1033A
100
AcDbEntity
8
Geo
100
AcDbLine
10
-61.8078886310903
20
-2.15319449008088
30
0.000000000000000
11
-61.7078886310903
21
-2.14412693681788
31
0.000000000000000
  0
LINE
  5
F1033B
330
F1033C
100
AcDbEntity
8
Geo
100
AcDbLine
10
-61.7078886310903
20
-2.14412693681788
30
0.000000000000000
11
-61.6078886310903
21
-2.13531456704365
31
0.000000000000000
  0
LINE
  5
F1033D
330
F1033E
100
AcDbEntity
8
Geo
100
AcDbLine
10
-61.6078886310903
20
-2.13531456704365
30
0.000000000000000
11
-61.5078886310903
21
-2.12675591312605
31
0.000000000000000
  0
LINE
  5
F1033F
330
F10340
100
AcDbEntity
8
Geo
100
AcDbLine
10
-61.5078886310903
20
-2.12675591312605
30
0.000000000000000
11
-61.4078886310903
21
-2.11844953259325
31
0.000000000000000
  0
LINE
  5
F10341
330
F10342
100
AcDbEntity
8
Geo
100
AcDbLine
10
-61.4078886310903
20
-2.11844953259325
30
0.000000000000000
11
-61.3078886310903
21
-2.11039400930086
31
0.000000000000000
  0
LINE
  5
F10343
330
F10344
100
AcDbEntity
8
Geo
100
AcDbLine
10
-61.3078886310903
20
-2.11039400930086
30
0.000000000000000
11
-61.2078886310903
21
-2.10258795456209
31
0.000000000000000
  0
LINE
  5
F10345
330
F10346
100
AcDbEntity
8
Geo
100
AcDbLine
10
-61.2078886310903
20
-2.10258795456209
30
0.000000000000000
11
-61.1078886310903
21
-2.09503000824129
31
0.000000000000000
  0
LINE
  5
F10347
330
F10348
100
AcDbEntity
8
Geo
100
AcDbLine
10
-61.1078886310903
20
-2.09503000824129
30
0.000000000000000
11
-61.0078886310903
21
-2.08771883981125
31
0.000000000000000
  0
LINE
  5
F10349
330
F1034A
100
AcDbEntity
8
Geo
100
AcDbLine
10
-61.0078886310903
20
-2.08771883981125
30
0.000000000000000
11
-60.9078886310903
21
-2.08065314937456
31
0.000000000000000
  0
LINE
  5
F1034B
330
F1034C
100
AcDbEntity
8
Geo
100
AcDbLine
10
-60.9078886310903
20
-2.08065314937456
30
0.000000000000000
11
-60.8078886310903
21
-2.07383166864953
31
0.000000000000000
  0
LINE
  5
F1034D
330
F1034E
100
AcDbEntity
8
Geo
100
AcDbLine
10
-60.8078886310903
20
-2.07383166864953
30
0.000000000000000
11
-60.7078886310903
21
-2.06725316192087
31
0.000000000000000
  0
LINE
  5
F1034F
330
F10350
100
AcDbEntity
8
Geo
100
AcDbLine
10
-60.7078886310903
20
-2.06725316192087
30
0.000000000000000
11
-60.6078886310903
21
-2.06091642695559
31
0.000000000000000
  0
LINE
  5
F10351
330
F10352
100
AcDbEntity
8
Geo
100
AcDbLine
10
-60.6078886310903
20
-2.06091642695559
30
0.000000000000000
11
-60.5078886310903
21
-2.05482029588440
31
0.000000000000000
  0
LINE
  5
F10353
330
F10354
100
AcDbEntity
8
Geo
100
AcDbLine
10
-60.5078886310903
20
-2.05482029588440
30
0.000000000000000
11
-60.4078886310903
21
-2.04896363604896
31
0.000000000000000
  0
LINE
  5
F10355
330
F10356
100
AcDbEntity
8
Geo
100
AcDbLine
10
-60.4078886310903
20
-2.04896363604896
30
0.000000000000000
11
-60.3078886310903
21
-2.04334535081534
31
0.000000000000000
  0
LINE
  5
F10357
330
F10358
100
AcDbEntity
8
Geo
100
AcDbLine
10
-60.3078886310903
20
-2.04334535081534
30
0.000000000000000
11
-60.2078886310903
21
-2.03796438035396
31
0.000000000000000
  0
LINE
  5
F10359
330
F1035A
100
AcDbEntity
8
Geo
100
AcDbLine
10
-60.2078886310903
20
-2.03796438035396
30
0.000000000000000
11
-60.1078886310903
21
-2.03281970238631
31
0.000000000000000
  0
LINE
  5
F1035B
330
F1035C
100
AcDbEntity
8
Geo
100
AcDbLine
10
-60.1078886310903
20
-2.03281970238631
30
0.000000000000000
11
-60.0078886310903
21
-2.02791033289889
31
0.000000000000000
  0
LINE
  5
F1035D
330
F1035E
100
AcDbEntity
8
Geo
100
AcDbLine
10
-60.0078886310903
20
-2.02791033289889
30
0.000000000000000
11
-59.9078886310903
21
-2.02323532682444
31
0.000000000000000
  0
LINE
  5
F1035F
330
F10360
100
AcDbEntity
8
Geo
100
AcDbLine
10
-59.9078886310903
20
-2.02323532682444
30
0.000000000000000
11
-59.8078886310903
21
-2.01879377869091
31
0.000000000000000
  0
LINE
  5
F10361
330
F10362
100
AcDbEntity
8
Geo
100
AcDbLine
10
-59.8078886310903
20
-2.01879377869091
30
0.000000000000000
11
-59.7078886310903
21
-2.01458482323843
31
0.000000000000000
  0
LINE
  5
F10363
330
F10364
100
AcDbEntity
8
Geo
100
AcDbLine
10
-59.7078886310903
20
-2.01458482323843
30
0.000000000000000
11
-59.6078886310903
21
-2.01060763600447
31
0.000000000000000
  0
LINE
  5
F10365
330
F10366
100
AcDbEntity
8
Geo
100
AcDbLine
10
-59.6078886310903
20
-2.01060763600447
30
0.000000000000000
11
-59.5078886310903
21
-2.00686143387748
31
0.000000000000000
  0
LINE
  5
F10367
330
F10368
100
AcDbEntity
8
Geo
100
AcDbLine
10
-59.5078886310903
20
-2.00686143387748
30
0.000000000000000
11
-59.4078886310903
21
-2.00334547561925
31
0.000000000000000
  0
LINE
  5
F10369
330
F1036A
100
AcDbEntity
8
Geo
100
AcDbLine
10
-59.4078886310903
20
-2.00334547561925
30
0.000000000000000
11
-59.3078886310903
21
-2.00005906235628
31
0.000000000000000
  0
LINE
  5
F1036B
330
F1036C
100
AcDbEntity
8
Geo
100
AcDbLine
10
-59.3078886310903
20
-2.00005906235628
30
0.000000000000000
11
-59.2078886310903
21
-1.99700153804024
31
0.000000000000000
  0
LINE
  5
F1036D
330
F1036E
100
AcDbEntity
8
Geo
100
AcDbLine
10
-59.2078886310903
20
-1.99700153804024
30
0.000000000000000
11
-59.1078886310903
21
-1.99417228987788
31
0.000000000000000
  0
LINE
  5
F1036F
330
F10370
100
AcDbEntity
8
Geo
100
AcDbLine
10
-59.1078886310903
20
-1.99417228987788
30
0.000000000000000
11
-59.0078886310903
21
-1.99157074873044
31
0.000000000000000
  0
LINE
  5
F10371
330
F10372
100
AcDbEntity
8
Geo
100
AcDbLine
10
-59.0078886310903
20
-1.99157074873044
30
0.000000000000000
11
-58.9078886310903
21
-1.98919638948293
31
0.000000000000000
  0
LINE
  5
F10373
330
F10374
100
AcDbEntity
8
Geo
100
AcDbLine
10
-58.9078886310903
20
-1.98919638948293
30
0.000000000000000
11
-58.8078886310903
21
-1.98704873138317
31
0.000000000000000
  0
LINE
  5
F10375
330
F10376
100
AcDbEntity
8
Geo
100
AcDbLine
10
-58.8078886310903
20
-1.98704873138317
30
0.000000000000000
11
-58.7078886310903
21
-1.98512733835110
31
0.000000000000000
  0
LINE
  5
F10377
330
F10378
100
AcDbEntity
8
Geo
100
AcDbLine
10
-58.7078886310903
20
-1.98512733835110
30
0.000000000000000
11
-58.6078886310903
21
-1.98343181925815
31
0.000000000000000
  0
LINE
  5
F10379
330
F1037A
100
AcDbEntity
8
Geo
100
AcDbLine
10
-58.6078886310903
20
-1.98343181925815
30
0.000000000000000
11
-58.5078886310903
21
-1.98196182817711
31
0.000000000000000
  0
LINE
  5
F1037B
330
F1037C
100
AcDbEntity
8
Geo
100
AcDbLine
10
-58.5078886310903
20
-1.98196182817711
30
0.000000000000000
11
-58.4078886310903
21
-1.98071706460234
31
0.000000000000000
  0
LINE
  5
F1037D
330
F1037E
100
AcDbEntity
8
Geo
100
AcDbLine
10
-58.4078886310903
20
-1.98071706460234
30
0.000000000000000
11
-58.3078886310903
21
-1.97969727364067
31
0.000000000000000
  0
LINE
  5
F1037F
330
F10380
100
AcDbEntity
8
Geo
100
AcDbLine
10
-58.3078886310903
20
-1.97969727364067
30
0.000000000000000
11
-58.2078886310903
21
-1.97890224617290
31
0.000000000000000
  0
LINE
  5
F10381
330
F10382
100
AcDbEntity
8
Geo
100
AcDbLine
10
-58.2078886310903
20
-1.97890224617290
30
0.000000000000000
11
-58.1078886310903
21
-1.97833181898609
31
0.000000000000000
  0
LINE
  5
F10383
330
F10384
100
AcDbEntity
8
Geo
100
AcDbLine
10
-78.1078886310903
20
-4.37673468480552
30
0.000000000000000
11
-78.0078886310903
21
-4.60002117429046
31
0.000000000000000
  0
LINE
  5
F10385
330
F10386
100
AcDbEntity
8
Geo
100
AcDbLine
10
-78.0078886310903
20
-4.60002117429046
30
0.000000000000000
11
-77.9078886310903
21
-4.74992968337676
31
0.000000000000000
  0
LINE
  5
F10387
330
F10388
100
AcDbEntity
8
Geo
100
AcDbLine
10
-77.9078886310903
20
-4.74992968337676
30
0.000000000000000
11
-77.8078886310903
21
-4.88923303030083
31
0.000000000000000
  0
LINE
  5
F10389
330
F1038A
100
AcDbEntity
8
Geo
100
AcDbLine
10
-77.8078886310903
20
-4.88923303030083
30
0.000000000000000
11
-77.7078886310903
21
-5.02208518513114
31
0.000000000000000
  0
LINE
  5
F1038B
330
F1038C
100
AcDbEntity
8
Geo
100
AcDbLine
10
-77.7078886310903
20
-5.02208518513114
30
0.000000000000000
11
-77.6078886310903
21
-5.14934001390499
31
0.000000000000000
  0
LINE
  5
F1038D
330
F1038E
100
AcDbEntity
8
Geo
100
AcDbLine
10
-77.6078886310903
20
-5.14934001390499
30
0.000000000000000
11
-77.5078886310903
21
-5.27092273339616
31
0.000000000000000
  0
LINE
  5
F1038F
330
F10390
100
AcDbEntity
8
Geo
100
AcDbLine
10
-77.5078886310903
20
-5.27092273339616
30
0.000000000000000
11
-77.4078886310903
21
-5.38638852087309
31
0.000000000000000
  0
LINE
  5
F10391
330
F10392
100
AcDbEntity
8
Geo
100
AcDbLine
10
-77.4078886310903
20
-5.38638852087309
30
0.000000000000000
11
-77.3078886310903
21
-5.49510610194813
31
0.000000000000000
  0
LINE
  5
F10393
330
F10394
100
AcDbEntity
8
Geo
100
AcDbLine
10
-77.3078886310903
20
-5.49510610194813
30
0.000000000000000
11
-77.2078886310903
21
-5.59632494097024
31
0.000000000000000
  0
LINE
  5
F10395
330
F10396
100
AcDbEntity
8
Geo
100
AcDbLine
10
-77.2078886310903
20
-5.59632494097024
30
0.000000000000000
11
-77.1078886310903
21
-5.68919477438562
31
0.000000000000000
  0
LINE
  5
F10397
330
F10398
100
AcDbEntity
8
Geo
100
AcDbLine
10
-77.1078886310903
20
-5.68919477438562
30
0.000000000000000
11
-77.0078886310903
21
-5.77612942849326
31
0.000000000000000
  0
LINE
  5
F10399
330
F1039A
100
AcDbEntity
8
Geo
100
AcDbLine
10
-77.0078886310903
20
-5.77612942849326
30
0.000000000000000
11
-76.9078886310903
21
-5.86007566826096
31
0.000000000000000
  0
LINE
  5
F1039B
330
F1039C
100
AcDbEntity
8
Geo
100
AcDbLine
10
-76.9078886310903
20
-5.86007566826096
30
0.000000000000000
11
-76.8078886310903
21
-5.94090914424198
31
0.000000000000000
  0
LINE
  5
F1039D
330
F1039E
100
AcDbEntity
8
Geo
100
AcDbLine
10
-76.8078886310903
20
-5.94090914424198
30
0.000000000000000
11
-76.7078886310903
21
-6.01851011792220
31
0.000000000000000
  0
LINE
  5
F1039F
330
F103A0
100
AcDbEntity
8
Geo
100
AcDbLine
10
-76.7078886310903
20
-6.01851011792220
30
0.000000000000000
11
-76.6078886310903
21
-6.09276363908861
31
0.000000000000000
  0
LINE
  5
F103A1
330
F103A2
100
AcDbEntity
8
Geo
100
AcDbLine
10
-76.6078886310903
20
-6.09276363908861
30
0.000000000000000
11
-76.5078886310903
21
-6.16355971610487
31
0.000000000000000
  0
LINE
  5
F103A3
330
F103A4
100
AcDbEntity
8
Geo
100
AcDbLine
10
-76.5078886310903
20
-6.16355971610487
30
0.000000000000000
11
-76.4078886310903
21
-6.23079347884183
31
0.000000000000000
  0
LINE
  5
F103A5
330
F103A6
100
AcDbEntity
8
Geo
100
AcDbLine
10
-76.4078886310903
20
-6.23079347884183
30
0.000000000000000
11
-76.3078886310903
21
-6.29436533402142
31
0.000000000000000
  0
LINE
  5
F103A7
330
F103A8
100
AcDbEntity
8
Geo
100
AcDbLine
10
-76.3078886310903
20
-6.29436533402142
30
0.000000000000000
11
-76.2078886310903
21
-6.35418111274412
31
0.000000000000000
  0
LINE
  5
F103A9
330
F103AA
100
AcDbEntity
8
Geo
100
AcDbLine
10
-76.2078886310903
20
-6.35418111274412
30
0.000000000000000
11
-76.1078886310903
21
-6.41015220998113
31
0.000000000000000
  0
LINE
  5
F103AB
330
F103AC
100
AcDbEntity
8
Geo
100
AcDbLine
10
-76.1078886310903
20
-6.41015220998113
30
0.000000000000000
11
-76.0078886310903
21
-6.46219571582497
31
0.000000000000000
  0
LINE
  5
F103AD
330
F103AE
100
AcDbEntity
8
Geo
100
AcDbLine
10
-76.0078886310903
20
-6.46219571582497
30
0.000000000000000
11
-75.9078886310903
21
-6.51023453830373
31
0.000000000000000
  0
LINE
  5
F103AF
330
F103B0
100
AcDbEntity
8
Geo
100
AcDbLine
10
-75.9078886310903
20
-6.51023453830373
30
0.000000000000000
11
-75.8078886310903
21
-6.55419751757731
31
0.000000000000000
  0
LINE
  5
F103B1
330
F103B2
100
AcDbEntity
8
Geo
100
AcDbLine
10
-75.8078886310903
20
-6.55419751757731
30
0.000000000000000
11
-75.7078886310903
21
-6.59401953134646
31
0.000000000000000
  0
LINE
  5
F103B3
330
F103B4
100
AcDbEntity
8
Geo
100
AcDbLine
10
-75.7078886310903
20
-6.59401953134646
30
0.000000000000000
11
-75.6078886310903
21
-6.62964159131824
31
0.000000000000000
  0
LINE
  5
F103B5
330
F103B6
100
AcDbEntity
8
Geo
100
AcDbLine
10
-75.6078886310903
20
-6.62964159131824
30
0.000000000000000
11
-75.5078886310903
21
-6.66101093058541
31
0.000000000000000
  0
LINE
  5
F103B7
330
F103B8
100
AcDbEntity
8
Geo
100
AcDbLine
10
-75.5078886310903
20
-6.66101093058541
30
0.000000000000000
11
-75.4078886310903
21
-6.68808108178989
31
0.000000000000000
  0
LINE
  5
F103B9
330
F103BA
100
AcDbEntity
8
Geo
100
AcDbLine
10
-75.4078886310903
20
-6.68808108178989
30
0.000000000000000
11
-75.3078886310903
21
-6.71081194595482
31
0.000000000000000
  0
LINE
  5
F103BB
330
F103BC
100
AcDbEntity
8
Geo
100
AcDbLine
10
-75.3078886310903
20
-6.71081194595482
30
0.000000000000000
11
-75.2078886310903
21
-6.72916985188313
31
0.000000000000000
  0
LINE
  5
F103BD
330
F103BE
100
AcDbEntity
8
Geo
100
AcDbLine
10
-75.2078886310903
20
-6.72916985188313
30
0.000000000000000
11
-75.1078886310903
21
-6.74312760603463
31
0.000000000000000
  0
LINE
  5
F103BF
330
F103C0
100
AcDbEntity
8
Geo
100
AcDbLine
10
-75.1078886310903
20
-6.74312760603463
30
0.000000000000000
11
-75.0078886310903
21
-6.75266453280774
31
0.000000000000000
  0
LINE
  5
F103C1
330
F103C2
100
AcDbEntity
8
Geo
100
AcDbLine
10
-75.0078886310903
20
-6.75266453280774
30
0.000000000000000
11
-74.9078886310903
21
-6.75776650516628
31
0.000000000000000
  0
LINE
  5
F103C3
330
F103C4
100
AcDbEntity
8
Geo
100
AcDbLine
10
-66.7078886310904
20
-0.758861927457889
30
0.000000000000000
11
-66.6078886310904
21
-0.759886917623747
31
0.000000000000000
  0
LINE
  5
F103C5
330
F103C6
100
AcDbEntity
8
Geo
100
AcDbLine
10
-66.6078886310904
20
-0.759886917623747
30
0.000000000000000
11
-66.5078886310904
21
-0.765354046415963
31
0.000000000000000
  0
LINE
  5
F103C7
330
F103C8
100
AcDbEntity
8
Geo
100
AcDbLine
10
-66.5078886310904
20
-0.765354046415963
30
0.000000000000000
11
-66.4078886310904
21
-0.775255215384356
31
0.000000000000000
  0
LINE
  5
F103C9
330
F103CA
100
AcDbEntity
8
Geo
100
AcDbLine
10
-66.4078886310904
20
-0.775255215384356
30
0.000000000000000
11
-66.3078886310904
21
-0.789575757941278
31
0.000000000000000
  0
LINE
  5
F103CB
330
F103CC
100
AcDbEntity
8
Geo
100
AcDbLine
10
-66.3078886310904
20
-0.789575757941278
30
0.000000000000000
11
-66.2078886310904
21
-0.808294461087208
31
0.000000000000000
  0
LINE
  5
F103CD
330
F103CE
100
AcDbEntity
8
Geo
100
AcDbLine
10
-66.2078886310904
20
-0.808294461087208
30
0.000000000000000
11
-66.1078886310904
21
-0.831383596833542
31
0.000000000000000
  0
LINE
  5
F103CF
330
F103D0
100
AcDbEntity
8
Geo
100
AcDbLine
10
-66.1078886310904
20
-0.831383596833542
30
0.000000000000000
11
-66.0078886310904
21
-0.858808963276018
31
0.000000000000000
  0
LINE
  5
F103D1
330
F103D2
100
AcDbEntity
8
Geo
100
AcDbLine
10
-66.0078886310904
20
-0.858808963276018
30
0.000000000000000
11
-65.9078886310904
21
-0.890529935257951
31
0.000000000000000
  0
LINE
  5
F103D3
330
F103D4
100
AcDbEntity
8
Geo
100
AcDbLine
10
-65.9078886310904
20
-0.890529935257951
30
0.000000000000000
11
-65.8078886310904
21
-0.926499524548221
31
0.000000000000000
  0
LINE
  5
F103D5
330
F103D6
100
AcDbEntity
8
Geo
100
AcDbLine
10
-65.8078886310904
20
-0.926499524548221
30
0.000000000000000
11
-65.7078886310904
21
-0.966664449444874
31
0.000000000000000
  0
LINE
  5
F103D7
330
F103D8
100
AcDbEntity
8
Geo
100
AcDbLine
10
-65.7078886310904
20
-0.966664449444874
30
0.000000000000000
11
-65.6078886310904
21
-1.01096521370123
31
0.000000000000000
  0
LINE
  5
F103D9
330
F103DA
100
AcDbEntity
8
Geo
100
AcDbLine
10
-65.6078886310904
20
-1.01096521370123
30
0.000000000000000
11
-65.5078886310904
21
-1.05933619465759
31
0.000000000000000
  0
LINE
  5
F103DB
330
F103DC
100
AcDbEntity
8
Geo
100
AcDbLine
10
-65.5078886310904
20
-1.05933619465759
30
0.000000000000000
11
-65.4078886310904
21
-1.11170574044799
31
0.000000000000000
  0
LINE
  5
F103DD
330
F103DE
100
AcDbEntity
8
Geo
100
AcDbLine
10
-65.4078886310904
20
-1.11170574044799
30
0.000000000000000
11
-65.3078886310904
21
-1.16799627613801
31
0.000000000000000
  0
LINE
  5
F103DF
330
F103E0
100
AcDbEntity
8
Geo
100
AcDbLine
10
-65.3078886310904
20
-1.16799627613801
30
0.000000000000000
11
-65.2078886310904
21
-1.22812441863642
31
0.000000000000000
  0
LINE
  5
F103E1
330
F103E2
100
AcDbEntity
8
Geo
100
AcDbLine
10
-65.2078886310904
20
-1.22812441863642
30
0.000000000000000
11
-65.1078886310904
21
-1.29200110021042
31
0.000000000000000
  0
LINE
  5
F103E3
330
F103E4
100
AcDbEntity
8
Geo
100
AcDbLine
10
-65.1078886310904
20
-1.29200110021042
30
0.000000000000000
11
-65.0078886310904
21
-1.35953170042155
31
0.000000000000000
  0
LINE
  5
F103E5
330
F103E6
100
AcDbEntity
8
Geo
100
AcDbLine
10
-65.0078886310904
20
-1.35953170042155
30
0.000000000000000
11
-64.9078886310904
21
-1.43061618628685
31
0.000000000000000
  0
LINE
  5
F103E7
330
F103E8
100
AcDbEntity
8
Geo
100
AcDbLine
10
-64.9078886310904
20
-1.43061618628685
30
0.000000000000000
11
-64.8078886310904
21
-1.50514926045751
31
0.000000000000000
  0
LINE
  5
F103E9
330
F103EA
100
AcDbEntity
8
Geo
100
AcDbLine
10
-64.8078886310904
20
-1.50514926045751
30
0.000000000000000
11
-64.7078886310904
21
-1.58302051719574
31
0.000000000000000
  0
LINE
  5
F103EB
330
F103EC
100
AcDbEntity
8
Geo
100
AcDbLine
10
-64.7078886310904
20
-1.58302051719574
30
0.000000000000000
11
-64.6078886310904
21
-1.66411460591861
31
0.000000000000000
  0
LINE
  5
F103ED
330
F103EE
100
AcDbEntity
8
Geo
100
AcDbLine
10
-64.6078886310904
20
-1.66411460591861
30
0.000000000000000
11
-64.5078886310904
21
-1.74831140206671
31
0.000000000000000
  0
LINE
  5
F103EF
330
F103F0
100
AcDbEntity
8
Geo
100
AcDbLine
10
-64.5078886310904
20
-1.74831140206671
30
0.000000000000000
11
-64.4078886310904
21
-1.83548618504450
31
0.000000000000000
  0
LINE
  5
F103F1
330
F103F2
100
AcDbEntity
8
Geo
100
AcDbLine
10
-64.4078886310904
20
-1.83548618504450
30
0.000000000000000
11
-64.3078886310904
21
-1.92550982296872
31
0.000000000000000
  0
LINE
  5
F103F3
330
F103F4
100
AcDbEntity
8
Geo
100
AcDbLine
10
-64.3078886310904
20
-1.92550982296872
30
0.000000000000000
11
-64.2078886310904
21
-2.01824896395132
31
0.000000000000000
  0
LINE
  5
F103F5
330
F103F6
100
AcDbEntity
8
Geo
100
AcDbLine
10
-64.2078886310904
20
-2.01824896395132
30
0.000000000000000
11
-64.1078886310904
21
-2.11356623363337
31
0.000000000000000
  0
LINE
  5
F103F7
330
F103F8
100
AcDbEntity
8
Geo
100
AcDbLine
10
-64.1078886310904
20
-2.11356623363337
30
0.000000000000000
11
-64.0078886310904
21
-2.21132043867754
31
0.000000000000000
  0
LINE
  5
F103F9
330
F103FA
100
AcDbEntity
8
Geo
100
AcDbLine
10
-64.0078886310904
20
-2.21132043867754
30
0.000000000000000
11
-63.9078886310904
21
-2.31136677591758
31
0.000000000000000
  0
LINE
  5
F103FB
330
F103FC
100
AcDbEntity
8
Geo
100
AcDbLine
10
-63.9078886310904
20
-2.31136677591758
30
0.000000000000000
11
-63.8078886310904
21
-2.41355704685505
31
0.000000000000000
  0
LINE
  5
F103FD
330
F103FE
100
AcDbEntity
8
Geo
100
AcDbLine
10
-63.8078886310904
20
-2.41355704685505
30
0.000000000000000
11
-63.7078886310904
21
-2.51773987718552
31
0.000000000000000
  0
LINE
  5
F103FF
330
F10400
100
AcDbEntity
8
Geo
100
AcDbLine
10
-63.7078886310904
20
-2.51773987718552
30
0.000000000000000
11
-63.6078886310904
21
-2.62376094102918
31
0.000000000000000
  0
LINE
  5
F10401
330
F10402
100
AcDbEntity
8
Geo
100
AcDbLine
10
-63.6078886310904
20
-2.62376094102918
30
0.000000000000000
11
-63.5078886310904
21
-2.73146318953347
31
0.000000000000000
  0
LINE
  5
F10403
330
F10404
100
AcDbEntity
8
Geo
100
AcDbLine
10
-63.5078886310904
20
-2.73146318953347
30
0.000000000000000
11
-63.4078886310904
21
-2.84068708350937
31
0.000000000000000
  0
LINE
  5
F10405
330
F10406
100
AcDbEntity
8
Geo
100
AcDbLine
10
-63.4078886310904
20
-2.84068708350937
30
0.000000000000000
11
-63.3078886310904
21
-2.95127082975658
31
0.000000000000000
  0
LINE
  5
F10407
330
F10408
100
AcDbEntity
8
Geo
100
AcDbLine
10
-63.3078886310904
20
-2.95127082975658
30
0.000000000000000
11
-63.2078886310904
21
-3.06305062072752
31
0.000000000000000
  0
LINE
  5
F10409
330
F1040A
100
AcDbEntity
8
Geo
100
AcDbLine
10
-63.2078886310904
20
-3.06305062072752
30
0.000000000000000
11
-63.1078886310903
21
-3.17586087717531
31
0.000000000000000
  0
LINE
  5
F1040B
330
F1040C
100
AcDbEntity
8
Geo
100
AcDbLine
10
-63.1078886310903
20
-3.17586087717531
30
0.000000000000000
11
-63.0078886310903
21
-3.30323760787619
31
0.000000000000000
  0
LINE
  5
F1040D
330
F1040E
100
AcDbEntity
8
Geo
100
AcDbLine
10
-63.0078886310903
20
-3.30323760787619
30
0.000000000000000
11
-62.9078886310903
21
-3.42896647110167
31
0.000000000000000
  0
LINE
  5
F1040F
330
F10410
100
AcDbEntity
8
Geo
100
AcDbLine
10
-62.9078886310903
20
-3.42896647110167
30
0.000000000000000
11
-62.8078886310903
21
-3.55278102140165
31
0.000000000000000
  0
LINE
  5
F10411
330
F10412
100
AcDbEntity
8
Geo
100
AcDbLine
10
-62.8078886310903
20
-3.55278102140165
30
0.000000000000000
11
-62.7078886310903
21
-3.67444069642181
31
0.000000000000000
  0
LINE
  5
F10413
330
F10414
100
AcDbEntity
8
Geo
100
AcDbLine
10
-62.7078886310903
20
-3.67444069642181
30
0.000000000000000
11
-62.6078886310903
21
-3.79373004492388
31
0.000000000000000
  0
LINE
  5
F10415
330
F10416
100
AcDbEntity
8
Geo
100
AcDbLine
10
-62.6078886310903
20
-3.79373004492388
30
0.000000000000000
11
-62.5078886310903
21
-3.91045786460477
31
0.000000000000000
  0
LINE
  5
F10417
330
F10418
100
AcDbEntity
8
Geo
100
AcDbLine
10
-62.5078886310903
20
-3.91045786460477
30
0.000000000000000
11
-62.4078886310903
21
-4.02445626397565
31
0.000000000000000
  0
LINE
  5
F10419
330
F1041A
100
AcDbEntity
8
Geo
100
AcDbLine
10
-62.4078886310903
20
-4.02445626397565
30
0.000000000000000
11
-62.3078886310903
21
-4.13557966169911
31
0.000000000000000
  0
LINE
  5
F1041B
330
F1041C
100
AcDbEntity
8
Geo
100
AcDbLine
10
-62.3078886310903
20
-4.13557966169911
30
0.000000000000000
11
-62.2078886310903
21
-4.24370373589526
31
0.000000000000000
  0
LINE
  5
F1041D
330
F1041E
100
AcDbEntity
8
Geo
100
AcDbLine
10
-62.2078886310903
20
-4.24370373589526
30
0.000000000000000
11
-62.1078886310903
21
-4.34872433502685
31
0.000000000000000
  0
LINE
  5
F1041F
330
F10420
100
AcDbEntity
8
Geo
100
AcDbLine
10
-62.1078886310903
20
-4.34872433502685
30
0.000000000000000
11
-62.0078886310903
21
-4.45055636107024
31
0.000000000000000
  0
LINE
  5
F10421
330
F10422
100
AcDbEntity
8
Geo
100
AcDbLine
10
-62.0078886310903
20
-4.45055636107024
30
0.000000000000000
11
-61.9078886310903
21
-4.54913263478169
31
0.000000000000000
  0
LINE
  5
F10423
330
F10424
100
AcDbEntity
8
Geo
100
AcDbLine
10
-61.9078886310903
20
-4.54913263478169
30
0.000000000000000
11
-61.8078886310903
21
-4.64440275198481
31
0.000000000000000
  0
LINE
  5
F10425
330
F10426
100
AcDbEntity
8
Geo
100
AcDbLine
10
-61.8078886310903
20
-4.64440275198481
30
0.000000000000000
11
-61.7078886310903
21
-4.73633193894228
31
0.000000000000000
  0
LINE
  5
F10427
330
F10428
100
AcDbEntity
8
Geo
100
AcDbLine
10
-61.7078886310903
20
-4.73633193894228
30
0.000000000000000
11
-61.6078886310903
21
-4.82489991403871
31
0.000000000000000
  0
LINE
  5
F10429
330
F1042A
100
AcDbEntity
8
Geo
100
AcDbLine
10
-61.6078886310903
20
-4.82489991403871
30
0.000000000000000
11
-61.5078886310903
21
-4.91009976219559
31
0.000000000000000
  0
LINE
  5
F1042B
330
F1042C
100
AcDbEntity
8
Geo
100
AcDbLine
10
-61.5078886310903
20
-4.91009976219559
30
0.000000000000000
11
-61.4078886310903
21
-4.99193682766971
31
0.000000000000000
  0
LINE
  5
F1042D
330
F1042E
100
AcDbEntity
8
Geo
100
AcDbLine
10
-61.4078886310903
20
-4.99193682766971
30
0.000000000000000
11
-61.3078886310903
21
-5.07042763015369
31
0.000000000000000
  0
LINE
  5
F1042F
330
F10430
100
AcDbEntity
8
Geo
100
AcDbLine
10
-61.3078886310903
20
-5.07042763015369
30
0.000000000000000
11
-61.2078886310903
21
-5.14559880840578
31
0.000000000000000
  0
LINE
  5
F10431
330
F10432
100
AcDbEntity
8
Geo
100
AcDbLine
10
-61.2078886310903
20
-5.14559880840578
30
0.000000000000000
11
-61.1078886310903
21
-5.21748609498647
31
0.000000000000000
  0
LINE
  5
F10433
330
F10434
100
AcDbEntity
8
Geo
100
AcDbLine
10
-61.1078886310903
20
-5.21748609498647
30
0.000000000000000
11
-61.0078886310903
21
-5.28613332507282
31
0.000000000000000
  0
LINE
  5
F10435
330
F10436
100
AcDbEntity
8
Geo
100
AcDbLine
10
-61.0078886310903
20
-5.28613332507282
30
0.000000000000000
11
-60.9078886310903
21
-5.35159148175892
31
0.000000000000000
  0
LINE
  5
F10437
330
F10438
100
AcDbEntity
8
Geo
100
AcDbLine
10
-60.9078886310903
20
-5.35159148175892
30
0.000000000000000
11
-60.8078886310903
21
-5.41391777973166
31
0.000000000000000
  0
LINE
  5
F10439
330
F1043A
100
AcDbEntity
8
Geo
100
AcDbLine
10
-60.8078886310903
20
-5.41391777973166
30
0.000000000000000
11
-60.7078886310903
21
-5.47317478873560
31
0.000000000000000
  0
LINE
  5
F1043B
330
F1043C
100
AcDbEntity
8
Geo
100
AcDbLine
10
-60.7078886310903
20
-5.47317478873560
30
0.000000000000000
11
-60.6078886310903
21
-5.52942959780767
31
0.000000000000000
  0
LINE
  5
F1043D
330
F1043E
100
AcDbEntity
8
Geo
100
AcDbLine
10
-60.6078886310903
20
-5.52942959780767
30
0.000000000000000
11
-60.5078886310903
21
-5.58275302087131
31
0.000000000000000
  0
LINE
  5
F1043F
330
F10440
100
AcDbEntity
8
Geo
100
AcDbLine
10
-60.5078886310903
20
-5.58275302087131
30
0.000000000000000
11
-60.4078886310903
21
-5.63321884392891
31
0.000000000000000
  0
LINE
  5
F10441
330
F10442
100
AcDbEntity
8
Geo
100
AcDbLine
10
-60.4078886310903
20
-5.63321884392891
30
0.000000000000000
11
-60.3078886310903
21
-5.68090311377928
31
0.000000000000000
  0
LINE
  5
F10443
330
F10444
100
AcDbEntity
8
Geo
100
AcDbLine
10
-60.3078886310903
20
-5.68090311377928
30
0.000000000000000
11
-60.2078886310903
21
-5.72588346791277
31
0.000000000000000
  0
LINE
  5
F10445
330
F10446
100
AcDbEntity
8
Geo
100
AcDbLine
10
-60.2078886310903
20
-5.72588346791277
30
0.000000000000000
11
-60.1078886310903
21
-5.76823850499744
31
0.000000000000000
  0
LINE
  5
F10447
330
F10448
100
AcDbEntity
8
Geo
100
AcDbLine
10
-60.1078886310903
20
-5.76823850499744
30
0.000000000000000
11
-60.0078886310903
21
-5.80804719516446
31
0.000000000000000
  0
LINE
  5
F10449
330
F1044A
100
AcDbEntity
8
Geo
100
AcDbLine
10
-60.0078886310903
20
-5.80804719516446
30
0.000000000000000
11
-59.9078886310903
21
-5.84538832912768
31
0.000000000000000
  0
LINE
  5
F1044B
330
F1044C
100
AcDbEntity
8
Geo
100
AcDbLine
10
-59.9078886310903
20
-5.84538832912768
30
0.000000000000000
11
-59.8078886310903
21
-5.88034000502885
31
0.000000000000000
  0
LINE
  5
F1044D
330
F1044E
100
AcDbEntity
8
Geo
100
AcDbLine
10
-59.8078886310903
20
-5.88034000502885
30
0.000000000000000
11
-59.7078886310903
21
-5.91297915178414
31
0.000000000000000
  0
LINE
  5
F1044F
330
F10450
100
AcDbEntity
8
Geo
100
AcDbLine
10
-59.7078886310903
20
-5.91297915178414
30
0.000000000000000
11
-59.6078886310903
21
-5.94338108761859
31
0.000000000000000
  0
LINE
  5
F10451
330
F10452
100
AcDbEntity
8
Geo
100
AcDbLine
10
-59.6078886310903
20
-5.94338108761859
30
0.000000000000000
11
-59.5078886310903
21
-5.97161911240951
31
0.000000000000000
  0
LINE
  5
F10453
330
F10454
100
AcDbEntity
8
Geo
100
AcDbLine
10
-59.5078886310903
20
-5.97161911240951
30
0.000000000000000
11
-59.4078886310903
21
-5.99776413241673
31
0.000000000000000
  0
LINE
  5
F10455
330
F10456
100
AcDbEntity
8
Geo
100
AcDbLine
10
-59.4078886310903
20
-5.99776413241673
30
0.000000000000000
11
-59.3078886310903
21
-6.02188431595528
31
0.000000000000000
  0
LINE
  5
F10457
330
F10458
100
AcDbEntity
8
Geo
100
AcDbLine
10
-59.3078886310903
20
-6.02188431595528
30
0.000000000000000
11
-59.2078886310903
21
-6.04404477856216
31
0.000000000000000
  0
LINE
  5
F10459
330
F1045A
100
AcDbEntity
8
Geo
100
AcDbLine
10
-59.2078886310903
20
-6.04404477856216
30
0.000000000000000
11
-59.1078886310903
21
-6.06430729622213
31
0.000000000000000
  0
LINE
  5
F1045B
330
F1045C
100
AcDbEntity
8
Geo
100
AcDbLine
10
-59.1078886310903
20
-6.06430729622213
30
0.000000000000000
11
-59.0078886310903
21
-6.08273004524635
31
0.000000000000000
  0
LINE
  5
F1045D
330
F1045E
100
AcDbEntity
8
Geo
100
AcDbLine
10
-59.0078886310903
20
-6.08273004524635
30
0.000000000000000
11
-58.9078886310903
21
-6.09936736744065
31
0.000000000000000
  0
LINE
  5
F1045F
330
F10460
100
AcDbEntity
8
Geo
100
AcDbLine
10
-58.9078886310903
20
-6.09936736744065
30
0.000000000000000
11
-58.8078886310903
21
-6.11426955925553
31
0.000000000000000
  0
LINE
  5
F10461
330
F10462
100
AcDbEntity
8
Geo
100
AcDbLine
10
-58.8078886310903
20
-6.11426955925553
30
0.000000000000000
11
-58.7078886310903
21
-6.12748268367693
31
0.000000000000000
  0
LINE
  5
F10463
330
F10464
100
AcDbEntity
8
Geo
100
AcDbLine
10
-58.7078886310903
20
-6.12748268367693
30
0.000000000000000
11
-58.6078886310903
21
-6.13904840369372
31
0.000000000000000
  0
LINE
  5
F10465
330
F10466
100
AcDbEntity
8
Geo
100
AcDbLine
10
-58.6078886310903
20
-6.13904840369372
30
0.000000000000000
11
-58.5078886310903
21
-6.14900383626315
31
0.000000000000000
  0
LINE
  5
F10467
330
F10468
100
AcDbEntity
8
Geo
100
AcDbLine
10
-58.5078886310903
20
-6.14900383626315
30
0.000000000000000
11
-58.4078886310903
21
-6.15738142578973
31
0.000000000000000
  0
LINE
  5
F10469
330
F1046A
100
AcDbEntity
8
Geo
100
AcDbLine
10
-58.4078886310903
20
-6.15738142578973
30
0.000000000000000
11
-58.3078886310903
21
-6.16420883623244
31
0.000000000000000
  0
LINE
  5
F1046B
330
F1046C
100
AcDbEntity
8
Geo
100
AcDbLine
10
-58.3078886310903
20
-6.16420883623244
30
0.000000000000000
11
-58.2078886310903
21
-6.16950886106197
31
0.000000000000000
  0
LINE
  5
F1046D
330
F1046E
100
AcDbEntity
8
Geo
100
AcDbLine
10
-58.2078886310903
20
-6.16950886106197
30
0.000000000000000
11
-58.1078886310903
21
-6.17329935040009
31
0.000000000000000
  0
LINE
  5
F1046F
330
F10470
100
AcDbEntity
8
Geo
100
AcDbLine
10
-70.0078886310903
20
-0.759557556302813
30
0.000000000000000
11
-69.9078886310903
21
-0.759019940808486
31
0.000000000000000
  0
LINE
  5
F10471
330
F10472
100
AcDbEntity
8
Geo
100
AcDbLine
10
-69.9078886310903
20
-0.759019940808486
30
0.000000000000000
11
-69.8078886310904
21
-0.762925748192051
31
0.000000000000000
  0
LINE
  5
F10473
330
F10474
100
AcDbEntity
8
Geo
100
AcDbLine
10
-69.8078886310904
20
-0.762925748192051
30
0.000000000000000
11
-69.7078886310903
21
-0.771269192786531
31
0.000000000000000
  0
LINE
  5
F10475
330
F10476
100
AcDbEntity
8
Geo
100
AcDbLine
10
-69.7078886310903
20
-0.771269192786531
30
0.000000000000000
11
-69.6078886310903
21
-0.784037915459201
31
0.000000000000000
  0
LINE
  5
F10477
330
F10478
100
AcDbEntity
8
Geo
100
AcDbLine
10
-69.6078886310903
20
-0.784037915459201
30
0.000000000000000
11
-69.5078886310904
21
-0.801213001919149
31
0.000000000000000
  0
LINE
  5
F10479
330
F1047A
100
AcDbEntity
8
Geo
100
AcDbLine
10
-69.5078886310904
20
-0.801213001919149
30
0.000000000000000
11
-69.4078886310903
21
-0.822769010734992
31
0.000000000000000
  0
LINE
  5
F1047B
330
F1047C
100
AcDbEntity
8
Geo
100
AcDbLine
10
-69.4078886310903
20
-0.822769010734992
30
0.000000000000000
11
-69.3078886310904
21
-0.848674011021231
31
0.000000000000000
  0
LINE
  5
F1047D
330
F1047E
100
AcDbEntity
8
Geo
100
AcDbLine
10
-69.3078886310904
20
-0.848674011021231
30
0.000000000000000
11
-69.2078886310904
21
-0.878889629737428
31
0.000000000000000
  0
LINE
  5
F1047F
330
F10480
100
AcDbEntity
8
Geo
100
AcDbLine
10
-69.2078886310904
20
-0.878889629737428
30
0.000000000000000
11
-69.1078886310903
21
-0.913371108530136
31
0.000000000000000
  0
LINE
  5
F10481
330
F10482
100
AcDbEntity
8
Geo
100
AcDbLine
10
-69.1078886310903
20
-0.913371108530136
30
0.000000000000000
11
-69.0078886310904
21
-0.952067370033383
31
0.000000000000000
  0
LINE
  5
F10483
330
F10484
100
AcDbEntity
8
Geo
100
AcDbLine
10
-69.0078886310904
20
-0.952067370033383
30
0.000000000000000
11
-68.9078886310903
21
-0.994921093529506
31
0.000000000000000
  0
LINE
  5
F10485
330
F10486
100
AcDbEntity
8
Geo
100
AcDbLine
10
-68.9078886310903
20
-0.994921093529506
30
0.000000000000000
11
-68.8078886310904
21
-1.04186879985825
31
0.000000000000000
  0
LINE
  5
F10487
330
F10488
100
AcDbEntity
8
Geo
100
AcDbLine
10
-68.8078886310904
20
-1.04186879985825
30
0.000000000000000
11
-68.7078886310904
21
-1.09284094544834
31
0.000000000000000
  0
LINE
  5
F10489
330
F1048A
100
AcDbEntity
8
Geo
100
AcDbLine
10
-68.7078886310904
20
-1.09284094544834
30
0.000000000000000
11
-68.6078886310903
21
-1.14776202533232
31
0.000000000000000
  0
LINE
  5
F1048B
330
F1048C
100
AcDbEntity
8
Geo
100
AcDbLine
10
-68.6078886310903
20
-1.14776202533232
30
0.000000000000000
11
-68.5078886310904
21
-1.20655068499191
31
0.000000000000000
  0
LINE
  5
F1048D
330
F1048E
100
AcDbEntity
8
Geo
100
AcDbLine
10
-68.5078886310904
20
-1.20655068499191
30
0.000000000000000
11
-68.4078886310903
21
-1.26911984086835
31
0.000000000000000
  0
LINE
  5
F1048F
330
F10490
100
AcDbEntity
8
Geo
100
AcDbLine
10
-68.4078886310903
20
-1.26911984086835
30
0.000000000000000
11
-68.3078886310904
21
-1.33537680935916
31
0.000000000000000
  0
LINE
  5
F10491
330
F10492
100
AcDbEntity
8
Geo
100
AcDbLine
10
-68.3078886310904
20
-1.33537680935916
30
0.000000000000000
11
-68.2078886310904
21
-1.40522344411024
31
0.000000000000000
  0
LINE
  5
F10493
330
F10494
100
AcDbEntity
8
Geo
100
AcDbLine
10
-68.2078886310904
20
-1.40522344411024
30
0.000000000000000
11
-68.1078886310903
21
-1.47855628139991
31
0.000000000000000
  0
LINE
  5
F10495
330
F10496
100
AcDbEntity
8
Geo
100
AcDbLine
10
-68.1078886310903
20
-1.47855628139991
30
0.000000000000000
11
-68.0078886310904
21
-1.55526669339958
31
0.000000000000000
  0
LINE
  5
F10497
330
F10498
100
AcDbEntity
8
Geo
100
AcDbLine
10
-68.0078886310904
20
-1.55526669339958
30
0.000000000000000
11
-67.9078886310904
21
-1.63524104908398
31
0.000000000000000
  0
LINE
  5
F10499
330
F1049A
100
AcDbEntity
8
Geo
100
AcDbLine
10
-67.9078886310904
20
-1.63524104908398
30
0.000000000000000
11
-67.8078886310904
21
-1.71836088255269
31
0.000000000000000
  0
LINE
  5
F1049B
330
F1049C
100
AcDbEntity
8
Geo
100
AcDbLine
10
-67.8078886310904
20
-1.71836088255269
30
0.000000000000000
11
-67.7078886310904
21
-1.80450306851345
31
0.000000000000000
  0
LINE
  5
F1049D
330
F1049E
100
AcDbEntity
8
Geo
100
AcDbLine
10
-67.7078886310904
20
-1.80450306851345
30
0.000000000000000
11
-67.6078886310904
21
-1.89354000466753
31
0.000000000000000
  0
LINE
  5
F1049F
330
F104A0
100
AcDbEntity
8
Geo
100
AcDbLine
10
-67.6078886310904
20
-1.89354000466753
30
0.000000000000000
11
-67.5078886310904
21
-1.98533980072681
31
0.000000000000000
  0
LINE
  5
F104A1
330
F104A2
100
AcDbEntity
8
Geo
100
AcDbLine
10
-67.5078886310904
20
-1.98533980072681
30
0.000000000000000
11
-67.4078886310904
21
-2.07976647378268
31
0.000000000000000
  0
LINE
  5
F104A3
330
F104A4
100
AcDbEntity
8
Geo
100
AcDbLine
10
-67.4078886310904
20
-2.07976647378268
30
0.000000000000000
11
-67.3078886310904
21
-2.17668014973732
31
0.000000000000000
  0
LINE
  5
F104A5
330
F104A6
100
AcDbEntity
8
Geo
100
AcDbLine
10
-67.3078886310904
20
-2.17668014973732
30
0.000000000000000
11
-67.2078886310904
21
-2.27593727049906
31
0.000000000000000
  0
LINE
  5
F104A7
330
F104A8
100
AcDbEntity
8
Geo
100
AcDbLine
10
-67.2078886310904
20
-2.27593727049906
30
0.000000000000000
11
-67.1078886310904
21
-2.37739080663469
31
0.000000000000000
  0
LINE
  5
F104A9
330
F104AA
100
AcDbEntity
8
Geo
100
AcDbLine
10
-67.1078886310904
20
-2.37739080663469
30
0.000000000000000
11
-67.0078886310904
21
-2.48089047516404
31
0.000000000000000
  0
LINE
  5
F104AB
330
F104AC
100
AcDbEntity
8
Geo
100
AcDbLine
10
-67.0078886310904
20
-2.48089047516404
30
0.000000000000000
11
-66.9078886310904
21
-2.58628296217389
31
0.000000000000000
  0
LINE
  5
F104AD
330
F104AE
100
AcDbEntity
8
Geo
100
AcDbLine
10
-66.9078886310904
20
-2.58628296217389
30
0.000000000000000
11
-66.8078886310904
21
-2.69341214992166
31
0.000000000000000
  0
LINE
  5
F104AF
330
F104B0
100
AcDbEntity
8
Geo
100
AcDbLine
10
-66.8078886310904
20
-2.69341214992166
30
0.000000000000000
11
-66.7078886310904
21
-2.80211934809243
31
0.000000000000000
  0
LINE
  5
F104B1
330
F104B2
100
AcDbEntity
8
Geo
100
AcDbLine
10
-66.7078886310904
20
-2.80211934809243
30
0.000000000000000
11
-66.6078886310904
21
-2.91224352886665
31
0.000000000000000
  0
LINE
  5
F104B3
330
F104B4
100
AcDbEntity
8
Geo
100
AcDbLine
10
-66.6078886310904
20
-2.91224352886665
30
0.000000000000000
11
-66.5078886310904
21
-3.02362156545045
31
0.000000000000000
  0
LINE
  5
F104B5
330
F104B6
100
AcDbEntity
8
Geo
100
AcDbLine
10
-66.5078886310904
20
-3.02362156545045
30
0.000000000000000
11
-66.4078886310904
21
-3.13608847371510
31
0.000000000000000
  0
LINE
  5
F104B7
330
F104B8
100
AcDbEntity
8
Geo
100
AcDbLine
10
-66.4078886310904
20
-3.13608847371510
30
0.000000000000000
11
-66.3078886310904
21
-3.24947765658780
31
0.000000000000000
  0
LINE
  5
F104B9
330
F104BA
100
AcDbEntity
8
Geo
100
AcDbLine
10
-66.3078886310904
20
-3.24947765658780
30
0.000000000000000
11
-66.2078886310904
21
-3.36362115083166
31
0.000000000000000
  0
LINE
  5
F104BB
330
F104BC
100
AcDbEntity
8
Geo
100
AcDbLine
10
-66.2078886310904
20
-3.36362115083166
30
0.000000000000000
11
-66.1078886310904
21
-3.47834987584941
31
0.000000000000000
  0
LINE
  5
F104BD
330
F104BE
100
AcDbEntity
8
Geo
100
AcDbLine
10
-66.1078886310904
20
-3.47834987584941
30
0.000000000000000
11
-66.0078886310904
21
-3.59349388414227
31
0.000000000000000
  0
LINE
  5
F104BF
330
F104C0
100
AcDbEntity
8
Geo
100
AcDbLine
10
-66.0078886310904
20
-3.59349388414227
30
0.000000000000000
11
-65.9078886310904
21
-3.70888261305294
31
0.000000000000000
  0
LINE
  5
F104C1
330
F104C2
100
AcDbEntity
8
Geo
100
AcDbLine
10
-65.9078886310904
20
-3.70888261305294
30
0.000000000000000
11
-65.8078886310904
21
-3.82434513741980
31
0.000000000000000
  0
LINE
  5
F104C3
330
F104C4
100
AcDbEntity
8
Geo
100
AcDbLine
10
-65.8078886310904
20
-3.82434513741980
30
0.000000000000000
11
-65.7078886310904
21
-3.93971042276812
31
0.000000000000000
  0
LINE
  5
F104C5
330
F104C6
100
AcDbEntity
8
Geo
100
AcDbLine
10
-65.7078886310904
20
-3.93971042276812
30
0.000000000000000
11
-65.6078886310904
21
-4.05480757866320
31
0.000000000000000
  0
LINE
  5
F104C7
330
F104C8
100
AcDbEntity
8
Geo
100
AcDbLine
10
-65.6078886310904
20
-4.05480757866320
30
0.000000000000000
11
-65.5078886310904
21
-4.16946611185012
31
0.000000000000000
  0
LINE
  5
F104C9
330
F104CA
100
AcDbEntity
8
Geo
100
AcDbLine
10
-65.5078886310904
20
-4.16946611185012
30
0.000000000000000
11
-65.4078886310904
21
-4.28351617880517
31
0.000000000000000
  0
LINE
  5
F104CB
330
F104CC
100
AcDbEntity
8
Geo
100
AcDbLine
10
-65.4078886310904
20
-4.28351617880517
30
0.000000000000000
11
-65.3078886310904
21
-4.39678883732478
31
0.000000000000000
  0
LINE
  5
F104CD
330
F104CE
100
AcDbEntity
8
Geo
100
AcDbLine
10
-65.3078886310904
20
-4.39678883732478
30
0.000000000000000
11
-65.2078886310904
21
-4.50911629677944
31
0.000000000000000
  0
LINE
  5
F104CF
330
F104D0
100
AcDbEntity
8
Geo
100
AcDbLine
10
-65.2078886310904
20
-4.50911629677944
30
0.000000000000000
11
-65.1078886310904
21
-4.62033216666165
31
0.000000000000000
  0
LINE
  5
F104D1
330
F104D2
100
AcDbEntity
8
Geo
100
AcDbLine
10
-65.1078886310904
20
-4.62033216666165
30
0.000000000000000
11
-65.0078886310904
21
-4.73027170306001
31
0.000000000000000
  0
LINE
  5
F104D3
330
F104D4
100
AcDbEntity
8
Geo
100
AcDbLine
10
-65.0078886310904
20
-4.73027170306001
30
0.000000000000000
11
-64.9078886310904
21
-4.83877205269409
31
0.000000000000000
  0
LINE
  5
F104D5
330
F104D6
100
AcDbEntity
8
Geo
100
AcDbLine
10
-64.9078886310904
20
-4.83877205269409
30
0.000000000000000
11
-64.8078886310904
21
-4.94567249414879
31
0.000000000000000
  0
LINE
  5
F104D7
330
F104D8
100
AcDbEntity
8
Geo
100
AcDbLine
10
-64.8078886310904
20
-4.94567249414879
30
0.000000000000000
11
-64.7078886310904
21
-5.05081467595075
31
0.000000000000000
  0
LINE
  5
F104D9
330
F104DA
100
AcDbEntity
8
Geo
100
AcDbLine
10
-64.7078886310904
20
-5.05081467595075
30
0.000000000000000
11
-64.6078886310904
21
-5.15404285113415
31
0.000000000000000
  0
LINE
  5
F104DB
330
F104DC
100
AcDbEntity
8
Geo
100
AcDbLine
10
-64.6078886310904
20
-5.15404285113415
30
0.000000000000000
11
-64.5078886310904
21
-5.25520410794848
31
0.000000000000000
  0
LINE
  5
F104DD
330
F104DE
100
AcDbEntity
8
Geo
100
AcDbLine
10
-64.5078886310904
20
-5.25520410794848
30
0.000000000000000
11
-64.4078886310904
21
-5.35414859636650
31
0.000000000000000
  0
LINE
  5
F104DF
330
F104E0
100
AcDbEntity
8
Geo
100
AcDbLine
10
-64.4078886310904
20
-5.35414859636650
30
0.000000000000000
11
-64.3078886310904
21
-5.45072975005687
31
0.000000000000000
  0
LINE
  5
F104E1
330
F104E2
100
AcDbEntity
8
Geo
100
AcDbLine
10
-64.3078886310904
20
-5.45072975005687
30
0.000000000000000
11
-64.2078886310904
21
-5.54480450349267
31
0.000000000000000
  0
LINE
  5
F104E3
330
F104E4
100
AcDbEntity
8
Geo
100
AcDbLine
10
-64.2078886310904
20
-5.54480450349267
30
0.000000000000000
11
-64.1078886310904
21
-5.63623350387412
31
0.000000000000000
  0
LINE
  5
F104E5
330
F104E6
100
AcDbEntity
8
Geo
100
AcDbLine
10
-64.1078886310904
20
-5.63623350387412
30
0.000000000000000
11
-64.0078886310904
21
-5.72488131755173
31
0.000000000000000
  0
LINE
  5
F104E7
330
F104E8
100
AcDbEntity
8
Geo
100
AcDbLine
10
-64.0078886310904
20
-5.72488131755173
30
0.000000000000000
11
-63.9078886310904
21
-5.81061663064396
31
0.000000000000000
  0
LINE
  5
F104E9
330
F104EA
100
AcDbEntity
8
Geo
100
AcDbLine
10
-63.9078886310904
20
-5.81061663064396
30
0.000000000000000
11
-63.8078886310904
21
-5.89331244355227
31
0.000000000000000
  0
LINE
  5
F104EB
330
F104EC
100
AcDbEntity
8
Geo
100
AcDbLine
10
-63.8078886310904
20
-5.89331244355227
30
0.000000000000000
11
-63.7078886310904
21
-5.97284625908548
31
0.000000000000000
  0
LINE
  5
F104ED
330
F104EE
100
AcDbEntity
8
Geo
100
AcDbLine
10
-63.7078886310904
20
-5.97284625908548
30
0.000000000000000
11
-63.6078886310904
21
-6.04910026391465
31
0.000000000000000
  0
LINE
  5
F104EF
330
F104F0
100
AcDbEntity
8
Geo
100
AcDbLine
10
-63.6078886310904
20
-6.04910026391465
30
0.000000000000000
11
-63.5078886310904
21
-6.12196150308983
31
0.000000000000000
  0
LINE
  5
F104F1
330
F104F2
100
AcDbEntity
8
Geo
100
AcDbLine
10
-63.5078886310904
20
-6.12196150308983
30
0.000000000000000
11
-63.4078886310904
21
-6.19132204736005
31
0.000000000000000
  0
LINE
  5
F104F3
330
F104F4
100
AcDbEntity
8
Geo
100
AcDbLine
10
-63.4078886310904
20
-6.19132204736005
30
0.000000000000000
11
-63.3078886310904
21
-6.25707915304877
31
0.000000000000000
  0
LINE
  5
F104F5
330
F104F6
100
AcDbEntity
8
Geo
100
AcDbLine
10
-63.3078886310904
20
-6.25707915304877
30
0.000000000000000
11
-63.2078886310904
21
-6.31913541424795
31
0.000000000000000
  0
LINE
  5
F104F7
330
F104F8
100
AcDbEntity
8
Geo
100
AcDbLine
10
-63.2078886310904
20
-6.31913541424795
30
0.000000000000000
11
-63.1078886310903
21
-6.37739890710530
31
0.000000000000000
  0
LINE
  5
F104F9
330
F104FA
100
AcDbEntity
8
Geo
100
AcDbLine
10
-63.1078886310903
20
-6.37739890710530
30
0.000000000000000
11
-63.0078886310903
21
-6.37035728194284
31
0.000000000000000
  0
LINE
  5
F104FB
330
F104FC
100
AcDbEntity
8
Geo
100
AcDbLine
10
-63.0078886310903
20
-6.37035728194284
30
0.000000000000000
11
-62.9078886310903
21
-6.36339407859309
31
0.000000000000000
  0
LINE
  5
F104FD
330
F104FE
100
AcDbEntity
8
Geo
100
AcDbLine
10
-62.9078886310903
20
-6.36339407859309
30
0.000000000000000
11
-62.8078886310903
21
-6.35651286680190
31
0.000000000000000
  0
LINE
  5
F104FF
330
F10500
100
AcDbEntity
8
Geo
100
AcDbLine
10
-62.8078886310903
20
-6.35651286680190
30
0.000000000000000
11
-62.7078886310903
21
-6.34971713208176
31
0.000000000000000
  0
LINE
  5
F10501
330
F10502
100
AcDbEntity
8
Geo
100
AcDbLine
10
-62.7078886310903
20
-6.34971713208176
30
0.000000000000000
11
-62.6078886310903
21
-6.34301027636406
31
0.000000000000000
  0
LINE
  5
F10503
330
F10504
100
AcDbEntity
8
Geo
100
AcDbLine
10
-62.6078886310903
20
-6.34301027636406
30
0.000000000000000
11
-62.5078886310903
21
-6.33639561865523
31
0.000000000000000
  0
LINE
  5
F10505
330
F10506
100
AcDbEntity
8
Geo
100
AcDbLine
10
-62.5078886310903
20
-6.33639561865523
30
0.000000000000000
11
-62.4078886310903
21
-6.32987639569546
31
0.000000000000000
  0
LINE
  5
F10507
330
F10508
100
AcDbEntity
8
Geo
100
AcDbLine
10
-62.4078886310903
20
-6.32987639569546
30
0.000000000000000
11
-62.3078886310903
21
-6.32345576261914
31
0.000000000000000
  0
LINE
  5
F10509
330
F1050A
100
AcDbEntity
8
Geo
100
AcDbLine
10
-62.3078886310903
20
-6.32345576261914
30
0.000000000000000
11
-62.2078886310903
21
-6.31713679361581
31
0.000000000000000
  0
LINE
  5
F1050B
330
F1050C
100
AcDbEntity
8
Geo
100
AcDbLine
10
-62.2078886310903
20
-6.31713679361581
30
0.000000000000000
11
-62.1078886310903
21
-6.31092248259067
31
0.000000000000000
  0
LINE
  5
F1050D
330
F1050E
100
AcDbEntity
8
Geo
100
AcDbLine
10
-62.1078886310903
20
-6.31092248259067
30
0.000000000000000
11
-62.0078886310903
21
-6.30481574382372
31
0.000000000000000
  0
LINE
  5
F1050F
330
F10510
100
AcDbEntity
8
Geo
100
AcDbLine
10
-62.0078886310903
20
-6.30481574382372
30
0.000000000000000
11
-61.9078886310903
21
-6.29881941262640
31
0.000000000000000
  0
LINE
  5
F10511
330
F10512
100
AcDbEntity
8
Geo
100
AcDbLine
10
-61.9078886310903
20
-6.29881941262640
30
0.000000000000000
11
-61.8078886310903
21
-6.29293624599500
31
0.000000000000000
  0
LINE
  5
F10513
330
F10514
100
AcDbEntity
8
Geo
100
AcDbLine
10
-61.8078886310903
20
-6.29293624599500
30
0.000000000000000
11
-61.7078886310903
21
-6.28716892325976
31
0.000000000000000
  0
LINE
  5
F10515
330
F10516
100
AcDbEntity
8
Geo
100
AcDbLine
10
-61.7078886310903
20
-6.28716892325976
30
0.000000000000000
11
-61.6078886310903
21
-6.28152004672889
31
0.000000000000000
  0
LINE
  5
F10517
330
F10518
100
AcDbEntity
8
Geo
100
AcDbLine
10
-61.6078886310903
20
-6.28152004672889
30
0.000000000000000
11
-61.5078886310903
21
-6.27599214232658
31
0.000000000000000
  0
LINE
  5
F10519
330
F1051A
100
AcDbEntity
8
Geo
100
AcDbLine
10
-61.5078886310903
20
-6.27599214232658
30
0.000000000000000
11
-61.4078886310903
21
-6.27058766022425
31
0.000000000000000
  0
LINE
  5
F1051B
330
F1051C
100
AcDbEntity
8
Geo
100
AcDbLine
10
-61.4078886310903
20
-6.27058766022425
30
0.000000000000000
11
-61.3078886310903
21
-6.26530897546417
31
0.000000000000000
  0
LINE
  5
F1051D
330
F1051E
100
AcDbEntity
8
Geo
100
AcDbLine
10
-61.3078886310903
20
-6.26530897546417
30
0.000000000000000
11
-61.2078886310903
21
-6.26015838857467
31
0.000000000000000
  0
LINE
  5
F1051F
330
F10520
100
AcDbEntity
8
Geo
100
AcDbLine
10
-61.2078886310903
20
-6.26015838857467
30
0.000000000000000
11
-61.1078886310903
21
-6.25513812617626
31
0.000000000000000
  0
LINE
  5
F10521
330
F10522
100
AcDbEntity
8
Geo
100
AcDbLine
10
-61.1078886310903
20
-6.25513812617626
30
0.000000000000000
11
-61.0078886310903
21
-6.25025034157787
31
0.000000000000000
  0
LINE
  5
F10523
330
F10524
100
AcDbEntity
8
Geo
100
AcDbLine
10
-61.0078886310903
20
-6.25025034157787
30
0.000000000000000
11
-60.9078886310903
21
-6.24549711536252
31
0.000000000000000
  0
LINE
  5
F10525
330
F10526
100
AcDbEntity
8
Geo
100
AcDbLine
10
-60.9078886310903
20
-6.24549711536252
30
0.000000000000000
11
-60.8078886310903
21
-6.24088045596174
31
0.000000000000000
  0
LINE
  5
F10527
330
F10528
100
AcDbEntity
8
Geo
100
AcDbLine
10
-60.8078886310903
20
-6.24088045596174
30
0.000000000000000
11
-60.7078886310903
21
-6.23640230021812
31
0.000000000000000
  0
LINE
  5
F10529
330
F1052A
100
AcDbEntity
8
Geo
100
AcDbLine
10
-60.7078886310903
20
-6.23640230021812
30
0.000000000000000
11
-60.6078886310903
21
-6.23206451393532
31
0.000000000000000
  0
LINE
  5
F1052B
330
F1052C
100
AcDbEntity
8
Geo
100
AcDbLine
10
-60.6078886310903
20
-6.23206451393532
30
0.000000000000000
11
-60.5078886310903
21
-6.22786889241493
31
0.000000000000000
  0
LINE
  5
F1052D
330
F1052E
100
AcDbEntity
8
Geo
100
AcDbLine
10
-60.5078886310903
20
-6.22786889241493
30
0.000000000000000
11
-60.4078886310903
21
-6.22381716097969
31
0.000000000000000
  0
LINE
  5
F1052F
330
F10530
100
AcDbEntity
8
Geo
100
AcDbLine
10
-60.4078886310903
20
-6.22381716097969
30
0.000000000000000
11
-60.3078886310903
21
-6.21991097548230
31
0.000000000000000
  0
LINE
  5
F10531
330
F10532
100
AcDbEntity
8
Geo
100
AcDbLine
10
-60.3078886310903
20
-6.21991097548230
30
0.000000000000000
11
-60.2078886310903
21
-6.21615192279958
31
0.000000000000000
  0
LINE
  5
F10533
330
F10534
100
AcDbEntity
8
Geo
100
AcDbLine
10
-60.2078886310903
20
-6.21615192279958
30
0.000000000000000
11
-60.1078886310903
21
-6.21254152131120
31
0.000000000000000
  0
LINE
  5
F10535
330
F10536
100
AcDbEntity
8
Geo
100
AcDbLine
10
-60.1078886310903
20
-6.21254152131120
30
0.000000000000000
11
-60.0078886310903
21
-6.20908122136261
31
0.000000000000000
  0
LINE
  5
F10537
330
F10538
100
AcDbEntity
8
Geo
100
AcDbLine
10
-60.0078886310903
20
-6.20908122136261
30
0.000000000000000
11
-59.9078886310903
21
-6.20577240571172
31
0.000000000000000
  0
LINE
  5
F10539
330
F1053A
100
AcDbEntity
8
Geo
100
AcDbLine
10
-59.9078886310903
20
-6.20577240571172
30
0.000000000000000
11
-59.8078886310903
21
-6.20261638995882
31
0.000000000000000
  0
LINE
  5
F1053B
330
F1053C
100
AcDbEntity
8
Geo
100
AcDbLine
10
-59.8078886310903
20
-6.20261638995882
30
0.000000000000000
11
-59.7078886310903
21
-6.19961442295936
31
0.000000000000000
  0
LINE
  5
F1053D
330
F1053E
100
AcDbEntity
8
Geo
100
AcDbLine
10
-59.7078886310903
20
-6.19961442295936
30
0.000000000000000
11
-59.6078886310903
21
-6.19676768721910
31
0.000000000000000
  0
LINE
  5
F1053F
330
F10540
100
AcDbEntity
8
Geo
100
AcDbLine
10
-59.6078886310903
20
-6.19676768721910
30
0.000000000000000
11
-59.5078886310903
21
-6.19407729927145
31
0.000000000000000
  0
LINE
  5
F10541
330
F10542
100
AcDbEntity
8
Geo
100
AcDbLine
10
-59.5078886310903
20
-6.19407729927145
30
0.000000000000000
11
-59.4078886310903
21
-6.19154431003633
31
0.000000000000000
  0
LINE
  5
F10543
330
F10544
100
AcDbEntity
8
Geo
100
AcDbLine
10
-59.4078886310903
20
-6.19154431003633
30
0.000000000000000
11
-59.3078886310903
21
-6.18916970516050
31
0.000000000000000
  0
LINE
  5
F10545
330
F10546
100
AcDbEntity
8
Geo
100
AcDbLine
10
-59.3078886310903
20
-6.18916970516050
30
0.000000000000000
11
-59.2078886310903
21
-6.18695440533887
31
0.000000000000000
  0
LINE
  5
F10547
330
F10548
100
AcDbEntity
8
Geo
100
AcDbLine
10
-59.2078886310903
20
-6.18695440533887
30
0.000000000000000
11
-59.1078886310903
21
-6.18489926661653
31
0.000000000000000
  0
LINE
  5
F10549
330
F1054A
100
AcDbEntity
8
Geo
100
AcDbLine
10
-59.1078886310903
20
-6.18489926661653
30
0.000000000000000
11
-59.0078886310903
21
-6.18300508067123
31
0.000000000000000
  0
LINE
  5
F1054B
330
F1054C
100
AcDbEntity
8
Geo
100
AcDbLine
10
-59.0078886310903
20
-6.18300508067123
30
0.000000000000000
11
-58.9078886310903
21
-6.18127257507606
31
0.000000000000000
  0
LINE
  5
F1054D
330
F1054E
100
AcDbEntity
8
Geo
100
AcDbLine
10
-58.9078886310903
20
-6.18127257507606
30
0.000000000000000
11
-58.8078886310903
21
-6.17970241354204
31
0.000000000000000
  0
LINE
  5
F1054F
330
F10550
100
AcDbEntity
8
Geo
100
AcDbLine
10
-58.8078886310903
20
-6.17970241354204
30
0.000000000000000
11
-58.7078886310903
21
-6.17829519614043
31
0.000000000000000
  0
LINE
  5
F10551
330
F10552
100
AcDbEntity
8
Geo
100
AcDbLine
10
-58.7078886310903
20
-6.17829519614043
30
0.000000000000000
11
-58.6078886310903
21
-6.17705145950459
31
0.000000000000000
  0
LINE
  5
F10553
330
F10554
100
AcDbEntity
8
Geo
100
AcDbLine
10
-58.6078886310903
20
-6.17705145950459
30
0.000000000000000
11
-58.5078886310903
21
-6.17597167701116
31
0.000000000000000
  0
LINE
  5
F10555
330
F10556
100
AcDbEntity
8
Geo
100
AcDbLine
10
-58.5078886310903
20
-6.17597167701116
30
0.000000000000000
11
-58.4078886310903
21
-6.17505625894039
31
0.000000000000000
  0
LINE
  5
F10557
330
F10558
100
AcDbEntity
8
Geo
100
AcDbLine
10
-58.4078886310903
20
-6.17505625894039
30
0.000000000000000
11
-58.3078886310903
21
-6.17430555261553
31
0.000000000000000
  0
LINE
  5
F10559
330
F1055A
100
AcDbEntity
8
Geo
100
AcDbLine
10
-58.3078886310903
20
-6.17430555261553
30
0.000000000000000
11
-58.2078886310903
21
-6.17371984252113
31
0.000000000000000
  0
LINE
  5
F1055B
330
F1055C
100
AcDbEntity
8
Geo
100
AcDbLine
10
-58.2078886310903
20
-6.17371984252113
30
0.000000000000000
11
-58.1078886310903
21
-6.17329935040009
31
0.000000000000000
  0
LINE
  5
F1055D
330
F1055E
100
AcDbEntity
8
Geo
100
AcDbLine
10
-70.8078886310904
20
-0.759168607399901
30
0.000000000000000
11
-70.7078886310903
21
-0.759351377145506
31
0.000000000000000
  0
LINE
  5
F1055F
330
F10560
100
AcDbEntity
8
Geo
100
AcDbLine
10
-70.7078886310903
20
-0.759351377145506
30
0.000000000000000
11
-70.6078886310903
21
-0.763977078812824
31
0.000000000000000
  0
LINE
  5
F10561
330
F10562
100
AcDbEntity
8
Geo
100
AcDbLine
10
-70.6078886310903
20
-0.763977078812824
30
0.000000000000000
11
-70.5078886310903
21
-0.773038860356490
31
0.000000000000000
  0
LINE
  5
F10563
330
F10564
100
AcDbEntity
8
Geo
100
AcDbLine
10
-70.5078886310903
20
-0.773038860356490
30
0.000000000000000
11
-70.4078886310903
21
-0.786523298572266
31
0.000000000000000
  0
LINE
  5
F10565
330
F10566
100
AcDbEntity
8
Geo
100
AcDbLine
10
-70.4078886310903
20
-0.786523298572266
30
0.000000000000000
11
-70.3078886310904
21
-0.804410418980816
31
0.000000000000000
  0
LINE
  5
F10567
330
F10568
100
AcDbEntity
8
Geo
100
AcDbLine
10
-70.3078886310904
20
-0.804410418980816
30
0.000000000000000
11
-70.2078886310903
21
-0.826673725415870
31
0.000000000000000
  0
LINE
  5
F10569
330
F1056A
100
AcDbEntity
8
Geo
100
AcDbLine
10
-70.2078886310903
20
-0.826673725415870
30
0.000000000000000
11
-70.1078886310903
21
-0.853280239272964
31
0.000000000000000
  0
LINE
  5
F1056B
330
F1056C
100
AcDbEntity
8
Geo
100
AcDbLine
10
-70.1078886310903
20
-0.853280239272964
30
0.000000000000000
11
-70.0078886310903
21
-0.884190548360594
31
0.000000000000000
  0
LINE
  5
F1056D
330
F1056E
100
AcDbEntity
8
Geo
100
AcDbLine
10
-70.0078886310903
20
-0.884190548360594
30
0.000000000000000
11
-69.9078886310903
21
-0.919358865281444
31
0.000000000000000
  0
LINE
  5
F1056F
330
F10570
100
AcDbEntity
8
Geo
100
AcDbLine
10
-69.9078886310903
20
-0.919358865281444
30
0.000000000000000
11
-69.8078886310904
21
-0.958733095257191
31
0.000000000000000
  0
LINE
  5
F10571
330
F10572
100
AcDbEntity
8
Geo
100
AcDbLine
10
-69.8078886310904
20
-0.958733095257191
30
0.000000000000000
11
-69.7078886310903
21
-1.00225491329643
31
0.000000000000000
  0
LINE
  5
F10573
330
F10574
100
AcDbEntity
8
Geo
100
AcDbLine
10
-69.7078886310903
20
-1.00225491329643
30
0.000000000000000
11
-69.6078886310903
21
-1.04985985059139
31
0.000000000000000
  0
LINE
  5
F10575
330
F10576
100
AcDbEntity
8
Geo
100
AcDbLine
10
-69.6078886310903
20
-1.04985985059139
30
0.000000000000000
11
-69.5078886310904
21
-1.10147739001551
31
0.000000000000000
  0
LINE
  5
F10577
330
F10578
100
AcDbEntity
8
Geo
100
AcDbLine
10
-69.5078886310904
20
-1.10147739001551
30
0.000000000000000
11
-69.4078886310903
21
-1.15703107058035
31
0.000000000000000
  0
LINE
  5
F10579
330
F1057A
100
AcDbEntity
8
Geo
100
AcDbLine
10
-69.4078886310903
20
-1.15703107058035
30
0.000000000000000
11
-69.3078886310904
21
-1.21643860069712
31
0.000000000000000
  0
LINE
  5
F1057B
330
F1057C
100
AcDbEntity
8
Geo
100
AcDbLine
10
-69.3078886310904
20
-1.21643860069712
30
0.000000000000000
11
-69.2078886310904
21
-1.27961198007513
31
0.000000000000000
  0
LINE
  5
F1057D
330
F1057E
100
AcDbEntity
8
Geo
100
AcDbLine
10
-69.2078886310904
20
-1.27961198007513
30
0.000000000000000
11
-69.1078886310903
21
-1.34645763007648
31
0.000000000000000
  0
LINE
  5
F1057F
330
F10580
100
AcDbEntity
8
Geo
100
AcDbLine
10
-69.1078886310903
20
-1.34645763007648
30
0.000000000000000
11
-69.0078886310904
21
-1.41687653233399
31
0.000000000000000
  0
LINE
  5
F10581
330
F10582
100
AcDbEntity
8
Geo
100
AcDbLine
10
-69.0078886310904
20
-1.41687653233399
30
0.000000000000000
11
-68.9078886310903
21
-1.49076437542691
31
0.000000000000000
  0
LINE
  5
F10583
330
F10584
100
AcDbEntity
8
Geo
100
AcDbLine
10
-68.9078886310903
20
-1.49076437542691
30
0.000000000000000
11
-68.8078886310904
21
-1.56801170939733
31
0.000000000000000
  0
LINE
  5
F10585
330
F10586
100
AcDbEntity
8
Geo
100
AcDbLine
10
-68.8078886310904
20
-1.56801170939733
30
0.000000000000000
11
-68.7078886310904
21
-1.64850410787825
31
0.000000000000000
  0
LINE
  5
F10587
330
F10588
100
AcDbEntity
8
Geo
100
AcDbLine
10
-68.7078886310904
20
-1.64850410787825
30
0.000000000000000
11
-68.6078886310903
21
-1.73212233759316
31
0.000000000000000
  0
LINE
  5
F10589
330
F1058A
100
AcDbEntity
8
Geo
100
AcDbLine
10
-68.6078886310903
20
-1.73212233759316
30
0.000000000000000
11
-68.5078886310904
21
-1.81874253497616
31
0.000000000000000
  0
LINE
  5
F1058B
330
F1058C
100
AcDbEntity
8
Geo
100
AcDbLine
10
-68.5078886310904
20
-1.81874253497616
30
0.000000000000000
11
-68.4078886310903
21
-1.90823638965086
31
0.000000000000000
  0
LINE
  5
F1058D
330
F1058E
100
AcDbEntity
8
Geo
100
AcDbLine
10
-68.4078886310903
20
-1.90823638965086
30
0.000000000000000
11
-68.3078886310904
21
-2.00047133449638
31
0.000000000000000
  0
LINE
  5
F1058F
330
F10590
100
AcDbEntity
8
Geo
100
AcDbLine
10
-68.3078886310904
20
-2.00047133449638
30
0.000000000000000
11
-68.2078886310904
21
-2.09531074201882
31
0.000000000000000
  0
LINE
  5
F10591
330
F10592
100
AcDbEntity
8
Geo
100
AcDbLine
10
-68.2078886310904
20
-2.09531074201882
30
0.000000000000000
11
-68.1078886310903
21
-2.19261412673740
31
0.000000000000000
  0
LINE
  5
F10593
330
F10594
100
AcDbEntity
8
Geo
100
AcDbLine
10
-68.1078886310903
20
-2.19261412673740
30
0.000000000000000
11
-68.0078886310904
21
-2.29223735328539
31
0.000000000000000
  0
LINE
  5
F10595
330
F10596
100
AcDbEntity
8
Geo
100
AcDbLine
10
-68.0078886310904
20
-2.29223735328539
30
0.000000000000000
11
-67.9078886310904
21
-2.39403284991760
31
0.000000000000000
  0
LINE
  5
F10597
330
F10598
100
AcDbEntity
8
Geo
100
AcDbLine
10
-67.9078886310904
20
-2.39403284991760
30
0.000000000000000
11
-67.8078886310904
21
-2.49784982710824
31
0.000000000000000
  0
LINE
  5
F10599
330
F1059A
100
AcDbEntity
8
Geo
100
AcDbLine
10
-67.8078886310904
20
-2.49784982710824
30
0.000000000000000
11
-67.7078886310904
21
-2.60353450091523
31
0.000000000000000
  0
LINE
  5
F1059B
330
F1059C
100
AcDbEntity
8
Geo
100
AcDbLine
10
-67.7078886310904
20
-2.60353450091523
30
0.000000000000000
11
-67.6078886310904
21
-2.71093032078011
31
0.000000000000000
  0
LINE
  5
F1059D
330
F1059E
100
AcDbEntity
8
Geo
100
AcDbLine
10
-67.6078886310904
20
-2.71093032078011
30
0.000000000000000
11
-67.5078886310904
21
-2.81987820142617
31
0.000000000000000
  0
LINE
  5
F1059F
330
F105A0
100
AcDbEntity
8
Geo
100
AcDbLine
10
-67.5078886310904
20
-2.81987820142617
30
0.000000000000000
11
-67.4078886310904
21
-2.93021675851125
31
0.000000000000000
  0
LINE
  5
F105A1
330
F105A2
100
AcDbEntity
8
Geo
100
AcDbLine
10
-67.4078886310904
20
-2.93021675851125
30
0.000000000000000
11
-67.3078886310904
21
-3.04178254768615
31
0.000000000000000
  0
LINE
  5
F105A3
330
F105A4
100
AcDbEntity
8
Geo
100
AcDbLine
10
-67.3078886310904
20
-3.04178254768615
30
0.000000000000000
11
-67.2078886310904
21
-3.15441030670449
31
0.000000000000000
  0
LINE
  5
F105A5
330
F105A6
100
AcDbEntity
8
Geo
100
AcDbLine
10
-67.2078886310904
20
-3.15441030670449
30
0.000000000000000
11
-67.1078886310904
21
-3.26793320022548
31
0.000000000000000
  0
LINE
  5
F105A7
330
F105A8
100
AcDbEntity
8
Geo
100
AcDbLine
10
-67.1078886310904
20
-3.26793320022548
30
0.000000000000000
11
-67.0078886310904
21
-3.38218306694683
31
0.000000000000000
  0
LINE
  5
F105A9
330
F105AA
100
AcDbEntity
8
Geo
100
AcDbLine
10
-67.0078886310904
20
-3.38218306694683
30
0.000000000000000
11
-66.9078886310904
21
-3.49699066870187
31
0.000000000000000
  0
LINE
  5
F105AB
330
F105AC
100
AcDbEntity
8
Geo
100
AcDbLine
10
-66.9078886310904
20
-3.49699066870187
30
0.000000000000000
11
-66.8078886310904
21
-3.61218594115184
31
0.000000000000000
  0
LINE
  5
F105AD
330
F105AE
100
AcDbEntity
8
Geo
100
AcDbLine
10
-66.8078886310904
20
-3.61218594115184
30
0.000000000000000
11
-66.7078886310904
21
-3.72759824570188
31
0.000000000000000
  0
LINE
  5
F105AF
330
F105B0
100
AcDbEntity
8
Geo
100
AcDbLine
10
-66.7078886310904
20
-3.72759824570188
30
0.000000000000000
11
-66.6078886310904
21
-3.84305662226783
31
0.000000000000000
  0
LINE
  5
F105B1
330
F105B2
100
AcDbEntity
8
Geo
100
AcDbLine
10
-66.6078886310904
20
-3.84305662226783
30
0.000000000000000
11
-66.5078886310904
21
-3.95839004251909
31
0.000000000000000
  0
LINE
  5
F105B3
330
F105B4
100
AcDbEntity
8
Geo
100
AcDbLine
10
-66.5078886310904
20
-3.95839004251909
30
0.000000000000000
11
-66.4078886310904
21
-4.07342766322269
31
0.000000000000000
  0
LINE
  5
F105B5
330
F105B6
100
AcDbEntity
8
Geo
100
AcDbLine
10
-66.4078886310904
20
-4.07342766322269
30
0.000000000000000
11
-66.3078886310904
21
-4.18799907931309
31
0.000000000000000
  0
LINE
  5
F105B7
330
F105B8
100
AcDbEntity
8
Geo
100
AcDbLine
10
-66.3078886310904
20
-4.18799907931309
30
0.000000000000000
11
-66.2078886310904
21
-4.30193457631301
31
0.000000000000000
  0
LINE
  5
F105B9
330
F105BA
100
AcDbEntity
8
Geo
100
AcDbLine
10
-66.2078886310904
20
-4.30193457631301
30
0.000000000000000
11
-66.1078886310904
21
-4.41506538173121
31
0.000000000000000
  0
LINE
  5
F105BB
330
F105BC
100
AcDbEntity
8
Geo
100
AcDbLine
10
-66.1078886310904
20
-4.41506538173121
30
0.000000000000000
11
-66.0078886310904
21
-4.52722391506497
31
0.000000000000000
  0
LINE
  5
F105BD
330
F105BE
100
AcDbEntity
8
Geo
100
AcDbLine
10
-66.0078886310904
20
-4.52722391506497
30
0.000000000000000
11
-65.9078886310904
21
-4.63824403603683
31
0.000000000000000
  0
LINE
  5
F105BF
330
F105C0
100
AcDbEntity
8
Geo
100
AcDbLine
10
-65.9078886310904
20
-4.63824403603683
30
0.000000000000000
11
-65.8078886310904
21
-4.74796129069796
31
0.000000000000000
  0
LINE
  5
F105C1
330
F105C2
100
AcDbEntity
8
Geo
100
AcDbLine
10
-65.8078886310904
20
-4.74796129069796
30
0.000000000000000
11
-65.7078886310904
21
-4.85621315503355
31
0.000000000000000
  0
LINE
  5
F105C3
330
F105C4
100
AcDbEntity
8
Geo
100
AcDbLine
10
-65.7078886310904
20
-4.85621315503355
30
0.000000000000000
11
-65.6078886310904
21
-4.96283927570943
31
0.000000000000000
  0
LINE
  5
F105C5
330
F105C6
100
AcDbEntity
8
Geo
100
AcDbLine
10
-65.6078886310904
20
-4.96283927570943
30
0.000000000000000
11
-65.5078886310904
21
-5.06768170760322
31
0.000000000000000
  0
LINE
  5
F105C7
330
F105C8
100
AcDbEntity
8
Geo
100
AcDbLine
10
-65.5078886310904
20
-5.06768170760322
30
0.000000000000000
11
-65.4078886310904
21
-5.17058514776821
31
0.000000000000000
  0
LINE
  5
F105C9
330
F105CA
100
AcDbEntity
8
Geo
100
AcDbLine
10
-65.4078886310904
20
-5.17058514776821
30
0.000000000000000
11
-65.3078886310904
21
-5.27139716548344
31
0.000000000000000
  0
LINE
  5
F105CB
330
F105CC
100
AcDbEntity
8
Geo
100
AcDbLine
10
-65.3078886310904
20
-5.27139716548344
30
0.000000000000000
11
-65.2078886310904
21
-5.36996842804904
31
0.000000000000000
  0
LINE
  5
F105CD
330
F105CE
100
AcDbEntity
8
Geo
100
AcDbLine
10
-65.2078886310904
20
-5.36996842804904
30
0.000000000000000
11
-65.1078886310904
21
-5.46615292199260
31
0.000000000000000
  0
LINE
  5
F105CF
330
F105D0
100
AcDbEntity
8
Geo
100
AcDbLine
10
-65.1078886310904
20
-5.46615292199260
30
0.000000000000000
11
-65.0078886310904
21
-5.55980816935871
31
0.000000000000000
  0
LINE
  5
F105D1
330
F105D2
100
AcDbEntity
8
Geo
100
AcDbLine
10
-65.0078886310904
20
-5.55980816935871
30
0.000000000000000
11
-64.9078886310904
21
-5.65079543876136
31
0.000000000000000
  0
LINE
  5
F105D3
330
F105D4
100
AcDbEntity
8
Geo
100
AcDbLine
10
-64.9078886310904
20
-5.65079543876136
30
0.000000000000000
11
-64.8078886310904
21
-5.73897995088655
31
0.000000000000000
  0
LINE
  5
F105D5
330
F105D6
100
AcDbEntity
8
Geo
100
AcDbLine
10
-64.8078886310904
20
-5.73897995088655
30
0.000000000000000
11
-64.7078886310904
21
-5.82423107814064
31
0.000000000000000
  0
LINE
  5
F105D7
330
F105D8
100
AcDbEntity
8
Geo
100
AcDbLine
10
-64.7078886310904
20
-5.82423107814064
30
0.000000000000000
11
-64.6078886310904
21
-5.90642253814891
31
0.000000000000000
  0
LINE
  5
F105D9
330
F105DA
100
AcDbEntity
8
Geo
100
AcDbLine
10
-64.6078886310904
20
-5.90642253814891
30
0.000000000000000
11
-64.5078886310904
21
-5.98543258081742
31
0.000000000000000
  0
LINE
  5
F105DB
330
F105DC
100
AcDbEntity
8
Geo
100
AcDbLine
10
-64.5078886310904
20
-5.98543258081742
30
0.000000000000000
11
-64.4078886310904
21
-6.06114416868123
31
0.000000000000000
  0
LINE
  5
F105DD
330
F105DE
100
AcDbEntity
8
Geo
100
AcDbLine
10
-64.4078886310904
20
-6.06114416868123
30
0.000000000000000
11
-64.3078886310904
21
-6.13344515027189
31
0.000000000000000
  0
LINE
  5
F105DF
330
F105E0
100
AcDbEntity
8
Geo
100
AcDbLine
10
-64.3078886310904
20
-6.13344515027189
30
0.000000000000000
11
-64.2078886310904
21
-6.20222842624719
31
0.000000000000000
  0
LINE
  5
F105E1
330
F105E2
100
AcDbEntity
8
Geo
100
AcDbLine
10
-64.2078886310904
20
-6.20222842624719
30
0.000000000000000
11
-64.1078886310904
21
-6.26739210803731
31
0.000000000000000
  0
LINE
  5
F105E3
330
F105E4
100
AcDbEntity
8
Geo
100
AcDbLine
10
-64.1078886310904
20
-6.26739210803731
30
0.000000000000000
11
-64.0078886310904
21
-6.32883966877219
31
0.000000000000000
  0
LINE
  5
F105E5
330
F105E6
100
AcDbEntity
8
Geo
100
AcDbLine
10
-64.0078886310904
20
-6.32883966877219
30
0.000000000000000
11
-63.9078886310904
21
-6.38648008626666
31
0.000000000000000
  0
LINE
  5
F105E7
330
F105E8
100
AcDbEntity
8
Geo
100
AcDbLine
10
-63.9078886310904
20
-6.38648008626666
30
0.000000000000000
11
-63.8078886310904
21
-6.44022797785146
31
0.000000000000000
  0
LINE
  5
F105E9
330
F105EA
100
AcDbEntity
8
Geo
100
AcDbLine
10
-63.8078886310904
20
-6.44022797785146
30
0.000000000000000
11
-63.7078886310904
21
-6.49000372685050
31
0.000000000000000
  0
LINE
  5
F105EB
330
F105EC
100
AcDbEntity
8
Geo
100
AcDbLine
10
-63.7078886310904
20
-6.49000372685050
30
0.000000000000000
11
-63.6078886310904
21
-6.53573360051688
31
0.000000000000000
  0
LINE
  5
F105ED
330
F105EE
100
AcDbEntity
8
Geo
100
AcDbLine
10
-63.6078886310904
20
-6.53573360051688
30
0.000000000000000
11
-63.5078886310904
21
-6.57734985925316
31
0.000000000000000
  0
LINE
  5
F105EF
330
F105F0
100
AcDbEntity
8
Geo
100
AcDbLine
10
-63.5078886310904
20
-6.57734985925316
30
0.000000000000000
11
-63.4078886310904
21
-6.61479085695388
31
0.000000000000000
  0
LINE
  5
F105F1
330
F105F2
100
AcDbEntity
8
Geo
100
AcDbLine
10
-63.4078886310904
20
-6.61479085695388
30
0.000000000000000
11
-63.3078886310904
21
-6.64800113232187
31
0.000000000000000
  0
LINE
  5
F105F3
330
F105F4
100
AcDbEntity
8
Geo
100
AcDbLine
10
-63.3078886310904
20
-6.64800113232187
30
0.000000000000000
11
-63.2078886310904
21
-6.67693149102302
31
0.000000000000000
  0
LINE
  5
F105F5
330
F105F6
100
AcDbEntity
8
Geo
100
AcDbLine
10
-63.2078886310904
20
-6.67693149102302
30
0.000000000000000
11
-63.1078886310903
21
-6.70153907855773
31
0.000000000000000
  0
LINE
  5
F105F7
330
F105F8
100
AcDbEntity
8
Geo
100
AcDbLine
10
-63.1078886310903
20
-6.70153907855773
30
0.000000000000000
11
-63.0078886310903
21
-6.72392469692066
31
0.000000000000000
  0
LINE
  5
F105F9
330
F105FA
100
AcDbEntity
8
Geo
100
AcDbLine
10
-63.0078886310903
20
-6.72392469692066
30
0.000000000000000
11
-62.9078886310903
21
-6.74052485936473
31
0.000000000000000
  0
LINE
  5
F105FB
330
F105FC
100
AcDbEntity
8
Geo
100
AcDbLine
10
-62.9078886310903
20
-6.74052485936473
30
0.000000000000000
11
-62.8078886310903
21
-6.75162520021379
31
0.000000000000000
  0
LINE
  5
F105FD
330
F105FE
100
AcDbEntity
8
Geo
100
AcDbLine
10
-62.8078886310903
20
-6.75162520021379
30
0.000000000000000
11
-62.7078886310903
21
-6.75751717134412
31
0.000000000000000
  0
LINE
  5
F105FF
330
F10600
100
AcDbEntity
8
Geo
100
AcDbLine
10
-62.7078886310903
20
-6.75751717134412
30
0.000000000000000
11
-62.6078886310903
21
-6.75870069605563
31
0.000000000000000
  0
LINE
  5
F10601
330
F10602
100
AcDbEntity
8
Geo
100
AcDbLine
10
-74.1078886310903
20
-0.760160326705148
30
0.000000000000000
11
-74.0078886310903
21
-0.758780508305507
31
0.000000000000000
  0
LINE
  5
F10603
330
F10604
100
AcDbEntity
8
Geo
100
AcDbLine
10
-74.0078886310903
20
-0.758780508305507
30
0.000000000000000
11
-73.9078886310903
21
-0.761844467454788
31
0.000000000000000
  0
LINE
  5
F10605
330
F10606
100
AcDbEntity
8
Geo
100
AcDbLine
10
-73.9078886310903
20
-0.761844467454788
30
0.000000000000000
11
-73.8078886310903
21
-0.769347665514618
31
0.000000000000000
  0
LINE
  5
F10607
330
F10608
100
AcDbEntity
8
Geo
100
AcDbLine
10
-73.8078886310903
20
-0.769347665514618
30
0.000000000000000
11
-73.7078886310903
21
-0.781278988008280
31
0.000000000000000
  0
LINE
  5
F10609
330
F1060A
100
AcDbEntity
8
Geo
100
AcDbLine
10
-73.7078886310903
20
-0.781278988008280
30
0.000000000000000
11
-73.6078886310903
21
-0.797620761084566
31
0.000000000000000
  0
LINE
  5
F1060B
330
F1060C
100
AcDbEntity
8
Geo
100
AcDbLine
10
-73.6078886310903
20
-0.797620761084566
30
0.000000000000000
11
-73.5078886310903
21
-0.818348777698036
31
0.000000000000000
  0
LINE
  5
F1060D
330
F1060E
100
AcDbEntity
8
Geo
100
AcDbLine
10
-73.5078886310903
20
-0.818348777698036
30
0.000000000000000
11
-73.4078886310903
21
-0.843432333466875
31
0.000000000000000
  0
LINE
  5
F1060F
330
F10610
100
AcDbEntity
8
Geo
100
AcDbLine
10
-73.4078886310903
20
-0.843432333466875
30
0.000000000000000
11
-73.3078886310903
21
-0.872834272155250
31
0.000000000000000
  0
LINE
  5
F10611
330
F10612
100
AcDbEntity
8
Geo
100
AcDbLine
10
-73.3078886310903
20
-0.872834272155250
30
0.000000000000000
11
-73.2078886310903
21
-0.906511040712793
31
0.000000000000000
  0
LINE
  5
F10613
330
F10614
100
AcDbEntity
8
Geo
100
AcDbLine
10
-73.2078886310903
20
-0.906511040712793
30
0.000000000000000
11
-73.1078886310903
21
-0.944412753789672
31
0.000000000000000
  0
LINE
  5
F10615
330
F10616
100
AcDbEntity
8
Geo
100
AcDbLine
10
-73.1078886310903
20
-0.944412753789672
30
0.000000000000000
11
-73.0078886310903
21
-0.986483267631687
31
0.000000000000000
  0
LINE
  5
F10617
330
F10618
100
AcDbEntity
8
Geo
100
AcDbLine
10
-73.0078886310903
20
-0.986483267631687
30
0.000000000000000
11
-72.9078886310903
21
-1.03266026324594
31
0.000000000000000
  0
LINE
  5
F10619
330
F1061A
100
AcDbEntity
8
Geo
100
AcDbLine
10
-72.9078886310903
20
-1.03266026324594
30
0.000000000000000
11
-72.8078886310903
21
-1.08287533871386
31
0.000000000000000
  0
LINE
  5
F1061B
330
F1061C
100
AcDbEntity
8
Geo
100
AcDbLine
10
-72.8078886310903
20
-1.08287533871386
30
0.000000000000000
11
-72.7078886310903
21
-1.13705411051489
31
0.000000000000000
  0
LINE
  5
F1061D
330
F1061E
100
AcDbEntity
8
Geo
100
AcDbLine
10
-72.7078886310903
20
-1.13705411051489
30
0.000000000000000
11
-72.6078886310903
21
-1.19511632371065
31
0.000000000000000
  0
LINE
  5
F1061F
330
F10620
100
AcDbEntity
8
Geo
100
AcDbLine
10
-72.6078886310903
20
-1.19511632371065
30
0.000000000000000
11
-72.5078886310903
21
-1.25697597082654
31
0.000000000000000
  0
LINE
  5
F10621
330
F10622
100
AcDbEntity
8
Geo
100
AcDbLine
10
-72.5078886310903
20
-1.25697597082654
30
0.000000000000000
11
-72.4078886310903
21
-1.32254141925438
31
0.000000000000000
  0
LINE
  5
F10623
330
F10624
100
AcDbEntity
8
Geo
100
AcDbLine
10
-72.4078886310903
20
-1.32254141925438
30
0.000000000000000
11
-72.3078886310903
21
-1.39171554698778
31
0.000000000000000
  0
LINE
  5
F10625
330
F10626
100
AcDbEntity
8
Geo
100
AcDbLine
10
-72.3078886310903
20
-1.39171554698778
30
0.000000000000000
11
-72.2078886310903
21
-1.46439588648875
31
0.000000000000000
  0
LINE
  5
F10627
330
F10628
100
AcDbEntity
8
Geo
100
AcDbLine
10
-72.2078886310903
20
-1.46439588648875
30
0.000000000000000
11
-72.1078886310903
21
-1.54047477647275
31
0.000000000000000
  0
LINE
  5
F10629
330
F1062A
100
AcDbEntity
8
Geo
100
AcDbLine
10
-72.1078886310903
20
-1.54047477647275
30
0.000000000000000
11
-72.0078886310903
21
-1.61983952138720
31
0.000000000000000
  0
LINE
  5
F1062B
330
F1062C
100
AcDbEntity
8
Geo
100
AcDbLine
10
-72.0078886310903
20
-1.61983952138720
30
0.000000000000000
11
-71.9078886310903
21
-1.70237255834725
31
0.000000000000000
  0
LINE
  5
F1062D
330
F1062E
100
AcDbEntity
8
Geo
100
AcDbLine
10
-71.9078886310903
20
-1.70237255834725
30
0.000000000000000
11
-71.8078886310903
21
-1.78795163128147
31
0.000000000000000
  0
LINE
  5
F1062F
330
F10630
100
AcDbEntity
8
Geo
100
AcDbLine
10
-71.8078886310903
20
-1.78795163128147
30
0.000000000000000
11
-71.7078886310903
21
-1.87644997202967
31
0.000000000000000
  0
LINE
  5
F10631
330
F10632
100
AcDbEntity
8
Geo
100
AcDbLine
10
-71.7078886310903
20
-1.87644997202967
30
0.000000000000000
11
-71.6078886310903
21
-1.96773648812435
31
0.000000000000000
  0
LINE
  5
F10633
330
F10634
100
AcDbEntity
8
Geo
100
AcDbLine
10
-71.6078886310903
20
-1.96773648812435
30
0.000000000000000
11
-71.5078886310903
21
-2.06167595697777
31
0.000000000000000
  0
LINE
  5
F10635
330
F10636
100
AcDbEntity
8
Geo
100
AcDbLine
10
-71.5078886310903
20
-2.06167595697777
30
0.000000000000000
11
-71.4078886310903
21
-2.15812922618704
31
0.000000000000000
  0
LINE
  5
F10637
330
F10638
100
AcDbEntity
8
Geo
100
AcDbLine
10
-71.4078886310903
20
-2.15812922618704
30
0.000000000000000
11
-71.3078886310903
21
-2.25695341966033
31
0.000000000000000
  0
LINE
  5
F10639
330
F1063A
100
AcDbEntity
8
Geo
100
AcDbLine
10
-71.3078886310903
20
-2.25695341966033
30
0.000000000000000
11
-71.2078886310903
21
-2.35800214925903
31
0.000000000000000
  0
LINE
  5
F1063B
330
F1063C
100
AcDbEntity
8
Geo
100
AcDbLine
10
-71.2078886310903
20
-2.35800214925903
30
0.000000000000000
11
-71.1078886310903
21
-2.46112573164231
31
0.000000000000000
  0
LINE
  5
F1063D
330
F1063E
100
AcDbEntity
8
Geo
100
AcDbLine
10
-71.1078886310903
20
-2.46112573164231
30
0.000000000000000
11
-71.0078886310903
21
-2.56617140999282
31
0.000000000000000
  0
LINE
  5
F1063F
330
F10640
100
AcDbEntity
8
Geo
100
AcDbLine
10
-71.0078886310903
20
-2.56617140999282
30
0.000000000000000
11
-70.9078886310903
21
-2.67298358029517
31
0.000000000000000
  0
LINE
  5
F10641
330
F10642
100
AcDbEntity
8
Geo
100
AcDbLine
10
-70.9078886310903
20
-2.67298358029517
30
0.000000000000000
11
-70.8078886310904
21
-2.78140402183194
31
0.000000000000000
  0
LINE
  5
F10643
330
F10644
100
AcDbEntity
8
Geo
100
AcDbLine
10
-70.8078886310904
20
-2.78140402183194
30
0.000000000000000
11
-70.7078886310903
21
-2.89127213155578
31
0.000000000000000
  0
LINE
  5
F10645
330
F10646
100
AcDbEntity
8
Geo
100
AcDbLine
10
-70.7078886310903
20
-2.89127213155578
30
0.000000000000000
11
-70.6078886310903
21
-3.00242516199050
31
0.000000000000000
  0
LINE
  5
F10647
330
F10648
100
AcDbEntity
8
Geo
100
AcDbLine
10
-70.6078886310903
20
-3.00242516199050
30
0.000000000000000
11
-70.5078886310903
21
-3.11469846230866
31
0.000000000000000
  0
LINE
  5
F10649
330
F1064A
100
AcDbEntity
8
Geo
100
AcDbLine
10
-70.5078886310903
20
-3.11469846230866
30
0.000000000000000
11
-70.4078886310903
21
-3.22792572222863
31
0.000000000000000
  0
LINE
  5
F1064B
330
F1064C
100
AcDbEntity
8
Geo
100
AcDbLine
10
-70.4078886310903
20
-3.22792572222863
30
0.000000000000000
11
-70.3078886310904
21
-3.34193921836978
31
0.000000000000000
  0
LINE
  5
F1064D
330
F1064E
100
AcDbEntity
8
Geo
100
AcDbLine
10
-70.3078886310904
20
-3.34193921836978
30
0.000000000000000
11
-70.2078886310903
21
-3.45657006270083
31
0.000000000000000
  0
LINE
  5
F1064F
330
F10650
100
AcDbEntity
8
Geo
100
AcDbLine
10
-70.2078886310903
20
-3.45657006270083
30
0.000000000000000
11
-70.1078886310903
21
-3.57164845271355
31
0.000000000000000
  0
LINE
  5
F10651
330
F10652
100
AcDbEntity
8
Geo
100
AcDbLine
10
-70.1078886310903
20
-3.57164845271355
30
0.000000000000000
11
-70.0078886310903
21
-3.68700392295087
31
0.000000000000000
  0
LINE
  5
F10653
330
F10654
100
AcDbEntity
8
Geo
100
AcDbLine
10
-70.0078886310903
20
-3.68700392295087
30
0.000000000000000
11
-69.9078886310903
21
-3.80246559751722
31
0.000000000000000
  0
LINE
  5
F10655
330
F10656
100
AcDbEntity
8
Geo
100
AcDbLine
10
-69.9078886310903
20
-3.80246559751722
30
0.000000000000000
11
-69.8078886310904
21
-3.91786244319667
31
0.000000000000000
  0
LINE
  5
F10657
330
F10658
100
AcDbEntity
8
Geo
100
AcDbLine
10
-69.8078886310904
20
-3.91786244319667
30
0.000000000000000
11
-69.7078886310903
21
-4.03302352280425
31
0.000000000000000
  0
LINE
  5
F10659
330
F1065A
100
AcDbEntity
8
Geo
100
AcDbLine
10
-69.7078886310903
20
-4.03302352280425
30
0.000000000000000
11
-69.6078886310903
21
-4.14777824839494
31
0.000000000000000
  0
LINE
  5
F1065B
330
F1065C
100
AcDbEntity
8
Geo
100
AcDbLine
10
-69.6078886310903
20
-4.14777824839494
30
0.000000000000000
11
-69.5078886310904
21
-4.26195663395533
31
0.000000000000000
  0
LINE
  5
F1065D
330
F1065E
100
AcDbEntity
8
Geo
100
AcDbLine
10
-69.5078886310904
20
-4.26195663395533
30
0.000000000000000
11
-69.4078886310903
21
-4.37538954720371
31
0.000000000000000
  0
LINE
  5
F1065F
330
F10660
100
AcDbEntity
8
Geo
100
AcDbLine
10
-69.4078886310903
20
-4.37538954720371
30
0.000000000000000
11
-69.3078886310904
21
-4.48790896012546
31
0.000000000000000
  0
LINE
  5
F10661
330
F10662
100
AcDbEntity
8
Geo
100
AcDbLine
10
-69.3078886310904
20
-4.48790896012546
30
0.000000000000000
11
-69.2078886310904
21
-4.59934819787268
31
0.000000000000000
  0
LINE
  5
F10663
330
F10664
100
AcDbEntity
8
Geo
100
AcDbLine
10
-69.2078886310904
20
-4.59934819787268
30
0.000000000000000
11
-69.1078886310903
21
-4.70954218565946
31
0.000000000000000
  0
LINE
  5
F10665
330
F10666
100
AcDbEntity
8
Geo
100
AcDbLine
10
-69.1078886310903
20
-4.70954218565946
30
0.000000000000000
11
-69.0078886310904
21
-4.81832769328689
31
0.000000000000000
  0
LINE
  5
F10667
330
F10668
100
AcDbEntity
8
Geo
100
AcDbLine
10
-69.0078886310904
20
-4.81832769328689
30
0.000000000000000
11
-68.9078886310903
21
-4.92554357693573
31
0.000000000000000
  0
LINE
  5
F10669
330
F1066A
100
AcDbEntity
8
Geo
100
AcDbLine
10
-68.9078886310903
20
-4.92554357693573
30
0.000000000000000
11
-68.8078886310904
21
-5.03103101786855
31
0.000000000000000
  0
LINE
  5
F1066B
330
F1066C
100
AcDbEntity
8
Geo
100
AcDbLine
10
-68.8078886310904
20
-5.03103101786855
30
0.000000000000000
11
-68.7078886310904
21
-5.13463375768766
31
0.000000000000000
  0
LINE
  5
F1066D
330
F1066E
100
AcDbEntity
8
Geo
100
AcDbLine
10
-68.7078886310904
20
-5.13463375768766
30
0.000000000000000
11
-68.6078886310903
21
-5.23619832980049
31
0.000000000000000
  0
LINE
  5
F1066F
330
F10670
100
AcDbEntity
8
Geo
100
AcDbLine
10
-68.6078886310903
20
-5.23619832980049
30
0.000000000000000
11
-68.5078886310904
21
-5.33557428674941
31
0.000000000000000
  0
LINE
  5
F10671
330
F10672
100
AcDbEntity
8
Geo
100
AcDbLine
10
-68.5078886310904
20
-5.33557428674941
30
0.000000000000000
11
-68.4078886310903
21
-5.43261442306936
31
0.000000000000000
  0
LINE
  5
F10673
330
F10674
100
AcDbEntity
8
Geo
100
AcDbLine
10
-68.4078886310903
20
-5.43261442306936
30
0.000000000000000
11
-68.3078886310904
21
-5.52717499334309
31
0.000000000000000
  0
LINE
  5
F10675
330
F10676
100
AcDbEntity
8
Geo
100
AcDbLine
10
-68.3078886310904
20
-5.52717499334309
30
0.000000000000000
11
-68.2078886310904
21
-5.61911592513102
31
0.000000000000000
  0
LINE
  5
F10677
330
F10678
100
AcDbEntity
8
Geo
100
AcDbLine
10
-68.2078886310904
20
-5.61911592513102
30
0.000000000000000
11
-68.1078886310903
21
-5.70830102646040
31
0.000000000000000
  0
LINE
  5
F10679
330
F1067A
100
AcDbEntity
8
Geo
100
AcDbLine
10
-68.1078886310903
20
-5.70830102646040
30
0.000000000000000
11
-68.0078886310904
21
-5.79459818756623
31
0.000000000000000
  0
LINE
  5
F1067B
330
F1067C
100
AcDbEntity
8
Geo
100
AcDbLine
10
-68.0078886310904
20
-5.79459818756623
30
0.000000000000000
11
-67.9078886310904
21
-5.87787957658532
31
0.000000000000000
  0
LINE
  5
F1067D
330
F1067E
100
AcDbEntity
8
Geo
100
AcDbLine
10
-67.9078886310904
20
-5.87787957658532
30
0.000000000000000
11
-67.8078886310904
21
-5.95802182891341
31
0.000000000000000
  0
LINE
  5
F1067F
330
F10680
100
AcDbEntity
8
Geo
100
AcDbLine
10
-67.8078886310904
20
-5.95802182891341
30
0.000000000000000
11
-67.7078886310904
21
-6.03490622994499
31
0.000000000000000
  0
LINE
  5
F10681
330
F10682
100
AcDbEntity
8
Geo
100
AcDbLine
10
-67.7078886310904
20
-6.03490622994499
30
0.000000000000000
11
-67.6078886310904
21
-6.10841889092511
31
0.000000000000000
  0
LINE
  5
F10683
330
F10684
100
AcDbEntity
8
Geo
100
AcDbLine
10
-67.6078886310904
20
-6.10841889092511
30
0.000000000000000
11
-67.5078886310904
21
-6.17845091765260
31
0.000000000000000
  0
LINE
  5
F10685
330
F10686
100
AcDbEntity
8
Geo
100
AcDbLine
10
-67.5078886310904
20
-6.17845091765260
30
0.000000000000000
11
-67.4078886310904
21
-6.24489857178490
31
0.000000000000000
  0
LINE
  5
F10687
330
F10688
100
AcDbEntity
8
Geo
100
AcDbLine
10
-67.4078886310904
20
-6.24489857178490
30
0.000000000000000
11
-67.3078886310904
21
-6.30766342450553
31
0.000000000000000
  0
LINE
  5
F10689
330
F1068A
100
AcDbEntity
8
Geo
100
AcDbLine
10
-67.3078886310904
20
-6.30766342450553
30
0.000000000000000
11
-67.2078886310904
21
-6.36665250232655
31
0.000000000000000
  0
LINE
  5
F1068B
330
F1068C
100
AcDbEntity
8
Geo
100
AcDbLine
10
-67.2078886310904
20
-6.36665250232655
30
0.000000000000000
11
-67.1078886310904
21
-6.42177842481008
31
0.000000000000000
  0
LINE
  5
F1068D
330
F1068E
100
AcDbEntity
8
Geo
100
AcDbLine
10
-67.1078886310904
20
-6.42177842481008
30
0.000000000000000
11
-67.0078886310904
21
-6.47295953400477
31
0.000000000000000
  0
LINE
  5
F1068F
330
F10690
100
AcDbEntity
8
Geo
100
AcDbLine
10
-67.0078886310904
20
-6.47295953400477
30
0.000000000000000
11
-66.9078886310904
21
-6.52012001540567
31
0.000000000000000
  0
LINE
  5
F10691
330
F10692
100
AcDbEntity
8
Geo
100
AcDbLine
10
-66.9078886310904
20
-6.52012001540567
30
0.000000000000000
11
-66.8078886310904
21
-6.56319001025809
31
0.000000000000000
  0
LINE
  5
F10693
330
F10694
100
AcDbEntity
8
Geo
100
AcDbLine
10
-66.8078886310904
20
-6.56319001025809
30
0.000000000000000
11
-66.7078886310904
21
-6.60210571903932
31
0.000000000000000
  0
LINE
  5
F10695
330
F10696
100
AcDbEntity
8
Geo
100
AcDbLine
10
-66.7078886310904
20
-6.60210571903932
30
0.000000000000000
11
-66.6078886310904
21
-6.63680949596477
31
0.000000000000000
  0
LINE
  5
F10697
330
F10698
100
AcDbEntity
8
Geo
100
AcDbLine
10
-66.6078886310904
20
-6.63680949596477
30
0.000000000000000
11
-66.5078886310904
21
-6.66724993437853
31
0.000000000000000
  0
LINE
  5
F10699
330
F1069A
100
AcDbEntity
8
Geo
100
AcDbLine
10
-66.5078886310904
20
-6.66724993437853
30
0.000000000000000
11
-66.4078886310904
21
-6.69338194290207
31
0.000000000000000
  0
LINE
  5
F1069B
330
F1069C
100
AcDbEntity
8
Geo
100
AcDbLine
10
-66.4078886310904
20
-6.69338194290207
30
0.000000000000000
11
-66.3078886310904
21
-6.71516681222797
31
0.000000000000000
  0
LINE
  5
F1069D
330
F1069E
100
AcDbEntity
8
Geo
100
AcDbLine
10
-66.3078886310904
20
-6.71516681222797
30
0.000000000000000
11
-66.2078886310904
21
-6.73257227245997
31
0.000000000000000
  0
LINE
  5
F1069F
330
F106A0
100
AcDbEntity
8
Geo
100
AcDbLine
10
-66.2078886310904
20
-6.73257227245997
30
0.000000000000000
11
-66.1078886310904
21
-6.74557254091434
31
0.000000000000000
  0
LINE
  5
F106A1
330
F106A2
100
AcDbEntity
8
Geo
100
AcDbLine
10
-66.1078886310904
20
-6.74557254091434
30
0.000000000000000
11
-66.0078886310904
21
-6.75414836031174
31
0.000000000000000
  0
LINE
  5
F106A3
330
F106A4
100
AcDbEntity
8
Geo
100
AcDbLine
10
-66.0078886310904
20
-6.75414836031174
30
0.000000000000000
11
-65.9078886310904
21
-6.75828702730298
31
0.000000000000000
  0
LINE
  5
F106A5
330
F106A6
100
AcDbEntity
8
Geo
100
AcDbLine
10
-78.1078886310903
20
-1.81079514935571
30
0.000000000000000
11
-78.0078886310903
21
-1.38803958425272
31
0.000000000000000
  0
LINE
  5
F106A7
330
F106A8
100
AcDbEntity
8
Geo
100
AcDbLine
10
-78.1078886310903
20
-4.05414302195929
30
0.000000000000000
11
-78.0078886310903
21
-4.14565387889633
31
0.000000000000000
  0
LINE
  5
F106A9
330
F106AA
100
AcDbEntity
8
Geo
100
AcDbLine
10
-78.0078886310903
20
-1.38803958425272
30
0.000000000000000
11
-77.9078886310903
21
-1.24106147691164
31
0.000000000000000
  0
LINE
  5
F106AB
330
F106AC
100
AcDbEntity
8
Geo
100
AcDbLine
10
-78.0078886310903
20
-4.14565387889633
30
0.000000000000000
11
-77.9078886310903
21
-4.24921227091155
31
0.000000000000000
  0
LINE
  5
F106AD
330
F106AE
100
AcDbEntity
8
Geo
100
AcDbLine
10
-77.9078886310903
20
-1.24106147691164
30
0.000000000000000
11
-77.8078886310903
21
-1.14841856691625
31
0.000000000000000
  0
LINE
  5
F106AF
330
F106B0
100
AcDbEntity
8
Geo
100
AcDbLine
10
-77.9078886310903
20
-4.24921227091155
30
0.000000000000000
11
-77.8078886310903
21
-4.35887983811168
31
0.000000000000000
  0
LINE
  5
F106B1
330
F106B2
100
AcDbEntity
8
Geo
100
AcDbLine
10
-77.8078886310903
20
-1.14841856691625
30
0.000000000000000
11
-77.7078886310903
21
-1.08860547372179
31
0.000000000000000
  0
LINE
  5
F106B3
330
F106B4
100
AcDbEntity
8
Geo
100
AcDbLine
10
-77.8078886310903
20
-4.35887983811168
30
0.000000000000000
11
-77.7078886310903
21
-4.47204673073278
31
0.000000000000000
  0
LINE
  5
F106B5
330
F106B6
100
AcDbEntity
8
Geo
100
AcDbLine
10
-77.7078886310903
20
-1.08860547372179
30
0.000000000000000
11
-77.6078886310903
21
-1.05322652040526
31
0.000000000000000
  0
LINE
  5
F106B7
330
F106B8
100
AcDbEntity
8
Geo
100
AcDbLine
10
-77.7078886310903
20
-4.47204673073278
30
0.000000000000000
11
-77.6078886310903
21
-4.58689333482887
31
0.000000000000000
  0
LINE
  5
F106B9
330
F106BA
100
AcDbEntity
8
Geo
100
AcDbLine
10
-77.6078886310903
20
-1.05322652040526
30
0.000000000000000
11
-77.5078886310903
21
-1.03795029155075
31
0.000000000000000
  0
LINE
  5
F106BB
330
F106BC
100
AcDbEntity
8
Geo
100
AcDbLine
10
-77.6078886310903
20
-4.58689333482887
30
0.000000000000000
11
-77.5078886310903
21
-4.70194470952031
31
0.000000000000000
  0
LINE
  5
F106BD
330
F106BE
100
AcDbEntity
8
Geo
100
AcDbLine
10
-77.5078886310903
20
-1.03795029155075
30
0.000000000000000
11
-77.4078886310903
21
-1.04018802385783
31
0.000000000000000
  0
LINE
  5
F106BF
330
F106C0
100
AcDbEntity
8
Geo
100
AcDbLine
10
-77.5078886310903
20
-4.70194470952031
30
0.000000000000000
11
-77.4078886310903
21
-4.81590359106152
31
0.000000000000000
  0
LINE
  5
F106C1
330
F106C2
100
AcDbEntity
8
Geo
100
AcDbLine
10
-77.4078886310903
20
-1.04018802385783
30
0.000000000000000
11
-77.3078886310903
21
-1.05824264859655
31
0.000000000000000
  0
LINE
  5
F106C3
330
F106C4
100
AcDbEntity
8
Geo
100
AcDbLine
10
-77.4078886310903
20
-4.81590359106152
30
0.000000000000000
11
-77.3078886310903
21
-4.92756691849289
31
0.000000000000000
  0
LINE
  5
F106C5
330
F106C6
100
AcDbEntity
8
Geo
100
AcDbLine
10
-77.3078886310903
20
-1.05824264859655
30
0.000000000000000
11
-77.2078886310903
21
-1.09093218894908
31
0.000000000000000
  0
LINE
  5
F106C7
330
F106C8
100
AcDbEntity
8
Geo
100
AcDbLine
10
-77.3078886310903
20
-4.92756691849289
30
0.000000000000000
11
-77.2078886310903
21
-5.03577409823878
31
0.000000000000000
  0
LINE
  5
F106C9
330
F106CA
100
AcDbEntity
8
Geo
100
AcDbLine
10
-77.2078886310903
20
-1.09093218894908
30
0.000000000000000
11
-77.1078886310903
21
-1.13740468862599
31
0.000000000000000
  0
LINE
  5
F106CB
330
F106CC
100
AcDbEntity
8
Geo
100
AcDbLine
10
-77.2078886310903
20
-5.03577409823878
30
0.000000000000000
11
-77.1078886310903
21
-5.13936739067566
31
0.000000000000000
  0
LINE
  5
F106CD
330
F106CE
100
AcDbEntity
8
Geo
100
AcDbLine
10
-77.1078886310903
20
-1.13740468862599
30
0.000000000000000
11
-77.0078886310903
21
-1.19247491503990
31
0.000000000000000
  0
LINE
  5
F106CF
330
F106D0
100
AcDbEntity
8
Geo
100
AcDbLine
10
-77.1078886310903
20
-5.13936739067566
30
0.000000000000000
11
-77.0078886310903
21
-5.23921362104134
31
0.000000000000000
  0
LINE
  5
F106D1
330
F106D2
100
AcDbEntity
8
Geo
100
AcDbLine
10
-77.0078886310903
20
-1.19247491503990
30
0.000000000000000
11
-76.9078886310903
21
-1.25134648808886
31
0.000000000000000
  0
LINE
  5
F106D3
330
F106D4
100
AcDbEntity
8
Geo
100
AcDbLine
10
-77.0078886310903
20
-5.23921362104134
30
0.000000000000000
11
-76.9078886310903
21
-5.33686676969644
31
0.000000000000000
  0
LINE
  5
F106D5
330
F106D6
100
AcDbEntity
8
Geo
100
AcDbLine
10
-76.9078886310903
20
-1.25134648808886
30
0.000000000000000
11
-76.8078886310903
21
-1.31393220139463
31
0.000000000000000
  0
LINE
  5
F106D7
330
F106D8
100
AcDbEntity
8
Geo
100
AcDbLine
10
-76.9078886310903
20
-5.33686676969644
30
0.000000000000000
11
-76.8078886310903
21
-5.43218218316941
31
0.000000000000000
  0
LINE
  5
F106D9
330
F106DA
100
AcDbEntity
8
Geo
100
AcDbLine
10
-76.8078886310903
20
-1.31393220139463
30
0.000000000000000
11
-76.7078886310903
21
-1.38013934682825
31
0.000000000000000
  0
LINE
  5
F106DB
330
F106DC
100
AcDbEntity
8
Geo
100
AcDbLine
10
-76.8078886310903
20
-5.43218218316941
30
0.000000000000000
11
-76.7078886310903
21
-5.52501867087250
31
0.000000000000000
  0
LINE
  5
F106DD
330
F106DE
100
AcDbEntity
8
Geo
100
AcDbLine
10
-76.7078886310903
20
-1.38013934682825
30
0.000000000000000
11
-76.6078886310903
21
-1.44986985183843
31
0.000000000000000
  0
LINE
  5
F106DF
330
F106E0
100
AcDbEntity
8
Geo
100
AcDbLine
10
-76.7078886310903
20
-5.52501867087250
30
0.000000000000000
11
-76.6078886310903
21
-5.61523871424724
31
0.000000000000000
  0
LINE
  5
F106E1
330
F106E2
100
AcDbEntity
8
Geo
100
AcDbLine
10
-76.6078886310903
20
-1.44986985183843
30
0.000000000000000
11
-76.5078886310903
21
-1.52302042472631
31
0.000000000000000
  0
LINE
  5
F106E3
330
F106E4
100
AcDbEntity
8
Geo
100
AcDbLine
10
-76.6078886310903
20
-5.61523871424724
30
0.000000000000000
11
-76.5078886310903
21
-5.70270867047045
31
0.000000000000000
  0
LINE
  5
F106E5
330
F106E6
100
AcDbEntity
8
Geo
100
AcDbLine
10
-76.5078886310903
20
-1.52302042472631
30
0.000000000000000
11
-76.4078886310903
21
-1.59948270765130
31
0.000000000000000
  0
LINE
  5
F106E7
330
F106E8
100
AcDbEntity
8
Geo
100
AcDbLine
10
-76.5078886310903
20
-5.70270867047045
30
0.000000000000000
11
-76.4078886310903
21
-5.78729897041917
31
0.000000000000000
  0
LINE
  5
F106E9
330
F106EA
100
AcDbEntity
8
Geo
100
AcDbLine
10
-76.4078886310903
20
-1.59948270765130
30
0.000000000000000
11
-76.3078886310903
21
-1.67914343714140
31
0.000000000000000
  0
LINE
  5
F106EB
330
F106EC
100
AcDbEntity
8
Geo
100
AcDbLine
10
-76.4078886310903
20
-5.78729897041917
30
0.000000000000000
11
-76.3078886310903
21
-5.86888431060122
31
0.000000000000000
  0
LINE
  5
F106ED
330
F106EE
100
AcDbEntity
8
Geo
100
AcDbLine
10
-76.3078886310903
20
-1.67914343714140
30
0.000000000000000
11
-76.2078886310903
21
-1.76188461187020
31
0.000000000000000
  0
LINE
  5
F106EF
330
F106F0
100
AcDbEntity
8
Geo
100
AcDbLine
10
-76.3078886310903
20
-5.86888431060122
30
0.000000000000000
11
-76.2078886310903
21
-5.94734383876710
31
0.000000000000000
  0
LINE
  5
F106F1
330
F106F2
100
AcDbEntity
8
Geo
100
AcDbLine
10
-76.2078886310903
20
-1.76188461187020
30
0.000000000000000
11
-76.1078886310903
21
-1.84758366745212
31
0.000000000000000
  0
LINE
  5
F106F3
330
F106F4
100
AcDbEntity
8
Geo
100
AcDbLine
10
-76.2078886310903
20
-5.94734383876710
30
0.000000000000000
11
-76.1078886310903
21
-6.02256133292824
31
0.000000000000000
  0
LINE
  5
F106F5
330
F106F6
100
AcDbEntity
8
Geo
100
AcDbLine
10
-76.1078886310903
20
-1.84758366745212
30
0.000000000000000
11
-76.0078886310903
21
-1.93611365799683
31
0.000000000000000
  0
LINE
  5
F106F7
330
F106F8
100
AcDbEntity
8
Geo
100
AcDbLine
10
-76.1078886310903
20
-6.02256133292824
30
0.000000000000000
11
-76.0078886310903
21
-6.09442537351648
31
0.000000000000000
  0
LINE
  5
F106F9
330
F106FA
100
AcDbEntity
8
Geo
100
AcDbLine
10
-76.0078886310903
20
-1.93611365799683
30
0.000000000000000
11
-75.9078886310903
21
-2.02734344415402
31
0.000000000000000
  0
LINE
  5
F106FB
330
F106FC
100
AcDbEntity
8
Geo
100
AcDbLine
10
-76.0078886310903
20
-6.09442537351648
30
0.000000000000000
11
-75.9078886310903
21
-6.16282950842972
31
0.000000000000000
  0
LINE
  5
F106FD
330
F106FE
100
AcDbEntity
8
Geo
100
AcDbLine
10
-75.9078886310903
20
-2.02734344415402
30
0.000000000000000
11
-75.8078886310903
21
-2.12113788736995
31
0.000000000000000
  0
LINE
  5
F106FF
330
F10700
100
AcDbEntity
8
Geo
100
AcDbLine
10
-75.9078886310903
20
-6.16282950842972
30
0.000000000000000
11
-75.8078886310903
21
-6.22767241071925
31
0.000000000000000
  0
LINE
  5
F10701
330
F10702
100
AcDbEntity
8
Geo
100
AcDbLine
10
-75.8078886310903
20
-2.12113788736995
30
0.000000000000000
11
-75.7078886310903
21
-2.21735805006798
31
0.000000000000000
  0
LINE
  5
F10703
330
F10704
100
AcDbEntity
8
Geo
100
AcDbLine
10
-75.8078886310903
20
-6.22767241071925
30
0.000000000000000
11
-75.7078886310903
21
-6.28885802868523
31
0.000000000000000
  0
LINE
  5
F10705
330
F10706
100
AcDbEntity
8
Geo
100
AcDbLine
10
-75.7078886310903
20
-2.21735805006798
30
0.000000000000000
11
-75.6078886310903
21
-2.31586140145663
31
0.000000000000000
  0
LINE
  5
F10707
330
F10708
100
AcDbEntity
8
Geo
100
AcDbLine
10
-75.7078886310903
20
-6.28885802868523
30
0.000000000000000
11
-75.6078886310903
21
-6.34629572815795
31
0.000000000000000
  0
LINE
  5
F10709
330
F1070A
100
AcDbEntity
8
Geo
100
AcDbLine
10
-75.6078886310903
20
-2.31586140145663
30
0.000000000000000
11
-75.5078886310903
21
-2.41650202866023
31
0.000000000000000
  0
LINE
  5
F1070B
330
F1070C
100
AcDbEntity
8
Geo
100
AcDbLine
10
-75.6078886310903
20
-6.34629572815795
30
0.000000000000000
11
-75.5078886310903
21
-6.39990042675408
31
0.000000000000000
  0
LINE
  5
F1070D
330
F1070E
100
AcDbEntity
8
Geo
100
AcDbLine
10
-75.5078886310903
20
-2.41650202866023
30
0.000000000000000
11
-75.4078886310903
21
-2.51913085285944
31
0.000000000000000
  0
LINE
  5
F1070F
330
F10710
100
AcDbEntity
8
Geo
100
AcDbLine
10
-75.5078886310903
20
-6.39990042675408
30
0.000000000000000
11
-75.4078886310903
21
-6.44959271990908
31
0.000000000000000
  0
LINE
  5
F10711
330
F10712
100
AcDbEntity
8
Geo
100
AcDbLine
10
-75.4078886310903
20
-2.51913085285944
30
0.000000000000000
11
-75.3078886310903
21
-2.62359585012152
31
0.000000000000000
  0
LINE
  5
F10713
330
F10714
100
AcDbEntity
8
Geo
100
AcDbLine
10
-75.4078886310903
20
-6.44959271990908
30
0.000000000000000
11
-75.3078886310903
21
-6.49529899849909
31
0.000000000000000
  0
LINE
  5
F10715
330
F10716
100
AcDbEntity
8
Geo
100
AcDbLine
10
-75.3078886310903
20
-2.62359585012152
30
0.000000000000000
11
-75.2078886310903
21
-2.72974227659317
31
0.000000000000000
  0
LINE
  5
F10717
330
F10718
100
AcDbEntity
8
Geo
100
AcDbLine
10
-75.3078886310903
20
-6.49529899849909
30
0.000000000000000
11
-75.2078886310903
21
-6.53695155787802
31
0.000000000000000
  0
LINE
  5
F10719
330
F1071A
100
AcDbEntity
8
Geo
100
AcDbLine
10
-75.2078886310903
20
-2.72974227659317
30
0.000000000000000
11
-75.1078886310903
21
-2.83741289772234
31
0.000000000000000
  0
LINE
  5
F1071B
330
F1071C
100
AcDbEntity
8
Geo
100
AcDbLine
10
-75.2078886310903
20
-6.53695155787802
30
0.000000000000000
11
-75.1078886310903
21
-6.57448869816831
31
0.000000000000000
  0
LINE
  5
F1071D
330
F1071E
100
AcDbEntity
8
Geo
100
AcDbLine
10
-75.1078886310903
20
-2.83741289772234
30
0.000000000000000
11
-75.0078886310903
21
-2.94644822116961
31
0.000000000000000
  0
LINE
  5
F1071F
330
F10720
100
AcDbEntity
8
Geo
100
AcDbLine
10
-75.1078886310903
20
-6.57448869816831
30
0.000000000000000
11
-75.0078886310903
21
-6.60785481565693
31
0.000000000000000
  0
LINE
  5
F10721
330
F10722
100
AcDbEntity
8
Geo
100
AcDbLine
10
-75.0078886310903
20
-2.94644822116961
30
0.000000000000000
11
-74.9078886310903
21
-3.05668673306392
31
0.000000000000000
  0
LINE
  5
F10723
330
F10724
100
AcDbEntity
8
Geo
100
AcDbLine
10
-75.0078886310903
20
-6.60785481565693
30
0.000000000000000
11
-74.9078886310903
21
-6.63700048516103
31
0.000000000000000
  0
LINE
  5
F10725
330
F10726
100
AcDbEntity
8
Geo
100
AcDbLine
10
-74.9078886310903
20
-3.05668673306392
30
0.000000000000000
11
-74.8078886310903
21
-3.16796513725287
31
0.000000000000000
  0
LINE
  5
F10727
330
F10728
100
AcDbEntity
8
Geo
100
AcDbLine
10
-74.9078886310903
20
-6.63700048516103
30
0.000000000000000
11
-74.8078886310903
21
-6.66188253324143
31
0.000000000000000
  0
LINE
  5
F10729
330
F1072A
100
AcDbEntity
8
Geo
100
AcDbLine
10
-74.8078886310903
20
-3.16796513725287
30
0.000000000000000
11
-74.7078886310903
21
-3.28011859719307
31
0.000000000000000
  0
LINE
  5
F1072B
330
F1072C
100
AcDbEntity
8
Geo
100
AcDbLine
10
-74.8078886310903
20
-6.66188253324143
30
0.000000000000000
11
-74.7078886310903
21
-6.68246410215535
31
0.000000000000000
  0
LINE
  5
F1072D
330
F1072E
100
AcDbEntity
8
Geo
100
AcDbLine
10
-74.7078886310903
20
-3.28011859719307
30
0.000000000000000
11
-74.6078886310903
21
-3.39298098012225
31
0.000000000000000
  0
LINE
  5
F1072F
330
F10730
100
AcDbEntity
8
Geo
100
AcDbLine
10
-74.7078886310903
20
-6.68246410215535
30
0.000000000000000
11
-74.6078886310903
21
-6.69871470445374
31
0.000000000000000
  0
LINE
  5
F10731
330
F10732
100
AcDbEntity
8
Geo
100
AcDbLine
10
-74.6078886310903
20
-3.39298098012225
30
0.000000000000000
11
-74.5078886310903
21
-3.50638510315156
31
0.000000000000000
  0
LINE
  5
F10733
330
F10734
100
AcDbEntity
8
Geo
100
AcDbLine
10
-74.6078886310903
20
-6.69871470445374
30
0.000000000000000
11
-74.5078886310903
21
-6.71061026814231
31
0.000000000000000
  0
LINE
  5
F10735
330
F10736
100
AcDbEntity
8
Geo
100
AcDbLine
10
-74.5078886310903
20
-3.50638510315156
30
0.000000000000000
11
-74.4078886310903
21
-3.62016298091326
31
0.000000000000000
  0
LINE
  5
F10737
330
F10738
100
AcDbEntity
8
Geo
100
AcDbLine
10
-74.5078886310903
20
-6.71061026814231
30
0.000000000000000
11
-74.4078886310903
21
-6.71813317233932
31
0.000000000000000
  0
LINE
  5
F10739
330
F1073A
100
AcDbEntity
8
Geo
100
AcDbLine
10
-74.4078886310903
20
-3.62016298091326
30
0.000000000000000
11
-74.3078886310903
21
-3.73414607439729
31
0.000000000000000
  0
LINE
  5
F1073B
330
F1073C
100
AcDbEntity
8
Geo
100
AcDbLine
10
-74.4078886310903
20
-6.71813317233932
30
0.000000000000000
11
-74.3078886310903
21
-6.72127227337739
31
0.000000000000000
  0
LINE
  5
F1073D
330
F1073E
100
AcDbEntity
8
Geo
100
AcDbLine
10
-74.3078886310903
20
-3.73414607439729
30
0.000000000000000
11
-74.2078886310903
21
-3.84816554060779
31
0.000000000000000
  0
LINE
  5
F1073F
330
F10740
100
AcDbEntity
8
Geo
100
AcDbLine
10
-74.2078886310903
20
-3.84816554060779
30
0.000000000000000
11
-74.1078886310903
21
-3.96205248267007
31
0.000000000000000
  0
LINE
  5
F10741
330
F10742
100
AcDbEntity
8
Geo
100
AcDbLine
10
-74.2078886310903
20
-0.797378470800701
30
0.000000000000000
11
-74.1078886310903
21
-0.803014425308977
31
0.000000000000000
  0
LINE
  5
F10743
330
F10744
100
AcDbEntity
8
Geo
100
AcDbLine
10
-74.1078886310903
20
-3.96205248267007
30
0.000000000000000
11
-74.0078886310903
21
-4.07563820001723
31
0.000000000000000
  0
LINE
  5
F10745
330
F10746
100
AcDbEntity
8
Geo
100
AcDbLine
10
-74.1078886310903
20
-0.803014425308977
30
0.000000000000000
11
-74.0078886310903
21
-0.813028633727216
31
0.000000000000000
  0
LINE
  5
F10747
330
F10748
100
AcDbEntity
8
Geo
100
AcDbLine
10
-74.0078886310903
20
-4.07563820001723
30
0.000000000000000
11
-73.9078886310903
21
-4.18875443828617
31
0.000000000000000
  0
LINE
  5
F10749
330
F1074A
100
AcDbEntity
8
Geo
100
AcDbLine
10
-74.0078886310903
20
-0.813028633727216
30
0.000000000000000
11
-73.9078886310903
21
-0.827406262022596
31
0.000000000000000
  0
LINE
  5
F1074B
330
F1074C
100
AcDbEntity
8
Geo
100
AcDbLine
10
-73.9078886310903
20
-4.18875443828617
30
0.000000000000000
11
-73.8078886310903
21
-4.30123363855244
31
0.000000000000000
  0
LINE
  5
F1074D
330
F1074E
100
AcDbEntity
8
Geo
100
AcDbLine
10
-73.9078886310903
20
-0.827406262022596
30
0.000000000000000
11
-73.8078886310903
21
-0.846126012634569
31
0.000000000000000
  0
LINE
  5
F1074F
330
F10750
100
AcDbEntity
8
Geo
100
AcDbLine
10
-73.8078886310903
20
-4.30123363855244
30
0.000000000000000
11
-73.7078886310903
21
-4.41290918553512
31
0.000000000000000
  0
LINE
  5
F10751
330
F10752
100
AcDbEntity
8
Geo
100
AcDbLine
10
-73.8078886310903
20
-0.846126012634569
30
0.000000000000000
11
-73.7078886310903
21
-0.869160156022923
31
0.000000000000000
  0
LINE
  5
F10753
330
F10754
100
AcDbEntity
8
Geo
100
AcDbLine
10
-73.7078886310903
20
-4.41290918553512
30
0.000000000000000
11
-73.6078886310903
21
-4.52361565440374
31
0.000000000000000
  0
LINE
  5
F10755
330
F10756
100
AcDbEntity
8
Geo
100
AcDbLine
10
-73.7078886310903
20
-0.869160156022923
30
0.000000000000000
11
-73.6078886310903
21
-0.896474571743497
31
0.000000000000000
  0
LINE
  5
F10757
330
F10758
100
AcDbEntity
8
Geo
100
AcDbLine
10
-73.6078886310903
20
-4.52361565440374
30
0.000000000000000
11
-73.5078886310903
21
-4.63318905582189
31
0.000000000000000
  0
LINE
  5
F10759
330
F1075A
100
AcDbEntity
8
Geo
100
AcDbLine
10
-73.6078886310903
20
-0.896474571743497
30
0.000000000000000
11
-73.5078886310903
21
-0.928028798990755
31
0.000000000000000
  0
LINE
  5
F1075B
330
F1075C
100
AcDbEntity
8
Geo
100
AcDbLine
10
-73.5078886310903
20
-4.63318905582189
30
0.000000000000000
11
-73.4078886310903
21
-4.74146707886438
31
0.000000000000000
  0
LINE
  5
F1075D
330
F1075E
100
AcDbEntity
8
Geo
100
AcDbLine
10
-73.5078886310903
20
-0.928028798990755
30
0.000000000000000
11
-73.4078886310903
21
-0.963776096532318
31
0.000000000000000
  0
LINE
  5
F1075F
330
F10760
100
AcDbEntity
8
Geo
100
AcDbLine
10
-73.4078886310903
20
-4.74146707886438
30
0.000000000000000
11
-73.3078886310903
21
-4.84828933144818
31
0.000000000000000
  0
LINE
  5
F10761
330
F10762
100
AcDbEntity
8
Geo
100
AcDbLine
10
-73.4078886310903
20
-0.963776096532318
30
0.000000000000000
11
-73.3078886310903
21
-1.00366351194668
31
0.000000000000000
  0
LINE
  5
F10763
330
F10764
100
AcDbEntity
8
Geo
100
AcDbLine
10
-73.3078886310903
20
-4.84828933144818
30
0.000000000000000
11
-73.2078886310903
21
-4.95349757792098
31
0.000000000000000
  0
LINE
  5
F10765
330
F10766
100
AcDbEntity
8
Geo
100
AcDbLine
10
-73.3078886310903
20
-1.00366351194668
30
0.000000000000000
11
-73.2078886310903
21
-1.04763196006158
31
0.000000000000000
  0
LINE
  5
F10767
330
F10768
100
AcDbEntity
8
Geo
100
AcDbLine
10
-73.2078886310903
20
-4.95349757792098
30
0.000000000000000
11
-73.1078886310903
21
-5.05693597345547
31
0.000000000000000
  0
LINE
  5
F10769
330
F1076A
100
AcDbEntity
8
Geo
100
AcDbLine
10
-73.2078886310903
20
-1.04763196006158
30
0.000000000000000
11
-73.1078886310903
21
-1.09561631047674
31
0.000000000000000
  0
LINE
  5
F1076B
330
F1076C
100
AcDbEntity
8
Geo
100
AcDbLine
10
-73.1078886310903
20
-5.05693597345547
30
0.000000000000000
11
-73.0078886310903
21
-5.15845129490203
31
0.000000000000000
  0
LINE
  5
F1076D
330
F1076E
100
AcDbEntity
8
Geo
100
AcDbLine
10
-73.1078886310903
20
-1.09561631047674
30
0.000000000000000
11
-73.0078886310903
21
-1.14754548404148
31
0.000000000000000
  0
LINE
  5
F1076F
330
F10770
100
AcDbEntity
8
Geo
100
AcDbLine
10
-73.0078886310903
20
-5.15845129490203
30
0.000000000000000
11
-72.9078886310903
21
-5.25789316775798
31
0.000000000000000
  0
LINE
  5
F10771
330
F10772
100
AcDbEntity
8
Geo
100
AcDbLine
10
-73.0078886310903
20
-1.14754548404148
30
0.000000000000000
11
-72.9078886310903
21
-1.20334255814413
31
0.000000000000000
  0
LINE
  5
F10773
330
F10774
100
AcDbEntity
8
Geo
100
AcDbLine
10
-72.9078886310903
20
-5.25789316775798
30
0.000000000000000
11
-72.8078886310903
21
-5.35511428891711
31
0.000000000000000
  0
LINE
  5
F10775
330
F10776
100
AcDbEntity
8
Geo
100
AcDbLine
10
-72.9078886310903
20
-1.20334255814413
30
0.000000000000000
11
-72.8078886310903
21
-1.26292488065741
31
0.000000000000000
  0
LINE
  5
F10777
330
F10778
100
AcDbEntity
8
Geo
100
AcDbLine
10
-72.8078886310903
20
-5.35511428891711
30
0.000000000000000
11
-72.7078886310903
21
-5.44997064486958
31
0.000000000000000
  0
LINE
  5
F10779
330
F1077A
100
AcDbEntity
8
Geo
100
AcDbLine
10
-72.8078886310903
20
-1.26292488065741
30
0.000000000000000
11
-72.7078886310903
21
-1.32620419237091
31
0.000000000000000
  0
LINE
  5
F1077B
330
F1077C
100
AcDbEntity
8
Geo
100
AcDbLine
10
-72.7078886310903
20
-5.44997064486958
30
0.000000000000000
11
-72.6078886310903
21
-5.54232172502891
31
0.000000000000000
  0
LINE
  5
F1077D
330
F1077E
100
AcDbEntity
8
Geo
100
AcDbLine
10
-72.7078886310903
20
-1.32620419237091
30
0.000000000000000
11
-72.6078886310903
21
-1.39308675772929
31
0.000000000000000
  0
LINE
  5
F1077F
330
F10780
100
AcDbEntity
8
Geo
100
AcDbLine
10
-72.6078886310903
20
-5.54232172502891
30
0.000000000000000
11
-72.5078886310903
21
-5.63203072987014
31
0.000000000000000
  0
LINE
  5
F10781
330
F10782
100
AcDbEntity
8
Geo
100
AcDbLine
10
-72.6078886310903
20
-1.39308675772929
30
0.000000000000000
11
-72.5078886310903
21
-1.46347350368271
31
0.000000000000000
  0
LINE
  5
F10783
330
F10784
100
AcDbEntity
8
Geo
100
AcDbLine
10
-72.5078886310903
20
-5.63203072987014
30
0.000000000000000
11
-72.4078886310903
21
-5.71896477357074
31
0.000000000000000
  0
LINE
  5
F10785
330
F10786
100
AcDbEntity
8
Geo
100
AcDbLine
10
-72.5078886310903
20
-1.46347350368271
30
0.000000000000000
11
-72.4078886310903
21
-1.53726016644352
31
0.000000000000000
  0
LINE
  5
F10787
330
F10788
100
AcDbEntity
8
Geo
100
AcDbLine
10
-72.4078886310903
20
-5.71896477357074
30
0.000000000000000
11
-72.3078886310903
21
-5.80299508085423
31
0.000000000000000
  0
LINE
  5
F10789
330
F1078A
100
AcDbEntity
8
Geo
100
AcDbLine
10
-72.4078886310903
20
-1.53726016644352
30
0.000000000000000
11
-72.3078886310903
21
-1.61433744593208
31
0.000000000000000
  0
LINE
  5
F1078B
330
F1078C
100
AcDbEntity
8
Geo
100
AcDbLine
10
-72.3078886310903
20
-5.80299508085423
30
0.000000000000000
11
-72.2078886310903
21
-5.88399717774477
31
0.000000000000000
  0
LINE
  5
F1078D
330
F1078E
100
AcDbEntity
8
Geo
100
AcDbLine
10
-72.3078886310903
20
-1.61433744593208
30
0.000000000000000
11
-72.2078886310903
21
-1.69459116768285
31
0.000000000000000
  0
LINE
  5
F1078F
330
F10790
100
AcDbEntity
8
Geo
100
AcDbLine
10
-72.2078886310903
20
-5.88399717774477
30
0.000000000000000
11
-72.1078886310903
21
-5.96185107595032
31
0.000000000000000
  0
LINE
  5
F10791
330
F10792
100
AcDbEntity
8
Geo
100
AcDbLine
10
-72.2078886310903
20
-1.69459116768285
30
0.000000000000000
11
-72.1078886310903
21
-1.77790245197084
31
0.000000000000000
  0
LINE
  5
F10793
330
F10794
100
AcDbEntity
8
Geo
100
AcDbLine
10
-72.1078886310903
20
-5.96185107595032
30
0.000000000000000
11
-72.0078886310903
21
-6.03644145060113
31
0.000000000000000
  0
LINE
  5
F10795
330
F10796
100
AcDbEntity
8
Geo
100
AcDbLine
10
-72.1078886310903
20
-1.77790245197084
30
0.000000000000000
11
-72.0078886310903
21
-1.86414788990796
31
0.000000000000000
  0
LINE
  5
F10797
330
F10798
100
AcDbEntity
8
Geo
100
AcDbLine
10
-72.0078886310903
20
-6.03644145060113
30
0.000000000000000
11
-71.9078886310903
21
-6.10765781108029
31
0.000000000000000
  0
LINE
  5
F10799
330
F1079A
100
AcDbEntity
8
Geo
100
AcDbLine
10
-72.0078886310903
20
-1.86414788990796
30
0.000000000000000
11
-71.9078886310903
21
-1.95319972624848
31
0.000000000000000
  0
LINE
  5
F1079B
330
F1079C
100
AcDbEntity
8
Geo
100
AcDbLine
10
-71.9078886310903
20
-6.10765781108029
30
0.000000000000000
11
-71.8078886310903
21
-6.17539466469331
31
0.000000000000000
  0
LINE
  5
F1079D
330
F1079E
100
AcDbEntity
8
Geo
100
AcDbLine
10
-71.9078886310903
20
-1.95319972624848
30
0.000000000000000
11
-71.8078886310903
21
-2.04492604863264
31
0.000000000000000
  0
LINE
  5
F1079F
330
F107A0
100
AcDbEntity
8
Geo
100
AcDbLine
10
-71.8078886310903
20
-6.17539466469331
30
0.000000000000000
11
-71.7078886310903
21
-6.23955167293434
31
0.000000000000000
  0
LINE
  5
F107A1
330
F107A2
100
AcDbEntity
8
Geo
100
AcDbLine
10
-71.8078886310903
20
-2.04492604863264
30
0.000000000000000
11
-71.7078886310903
21
-2.13919098298829
31
0.000000000000000
  0
LINE
  5
F107A3
330
F107A4
100
AcDbEntity
8
Geo
100
AcDbLine
10
-71.7078886310903
20
-6.23955167293434
30
0.000000000000000
11
-71.6078886310903
21
-6.30003380011744
31
0.000000000000000
  0
LINE
  5
F107A5
330
F107A6
100
AcDbEntity
8
Geo
100
AcDbLine
10
-71.7078886310903
20
-2.13919098298829
30
0.000000000000000
11
-71.6078886310903
21
-2.23585489480093
31
0.000000000000000
  0
LINE
  5
F107A7
330
F107A8
100
AcDbEntity
8
Geo
100
AcDbLine
10
-71.6078886310903
20
-6.30003380011744
30
0.000000000000000
11
-71.5078886310903
21
-6.35675145415280
31
0.000000000000000
  0
LINE
  5
F107A9
330
F107AA
100
AcDbEntity
8
Geo
100
AcDbLine
10
-71.6078886310903
20
-2.23585489480093
30
0.000000000000000
11
-71.5078886310903
21
-2.33477459595414
31
0.000000000000000
  0
LINE
  5
F107AB
330
F107AC
100
AcDbEntity
8
Geo
100
AcDbLine
10
-71.5078886310903
20
-6.35675145415280
30
0.000000000000000
11
-71.4078886310903
21
-6.40962061925937
31
0.000000000000000
  0
LINE
  5
F107AD
330
F107AE
100
AcDbEntity
8
Geo
100
AcDbLine
10
-71.5078886310903
20
-2.33477459595414
30
0.000000000000000
11
-71.4078886310903
21
-2.43580355683392
31
0.000000000000000
  0
LINE
  5
F107AF
330
F107B0
100
AcDbEntity
8
Geo
100
AcDbLine
10
-71.4078886310903
20
-6.40962061925937
30
0.000000000000000
11
-71.3078886310903
21
-6.45856298041736
31
0.000000000000000
  0
LINE
  5
F107B1
330
F107B2
100
AcDbEntity
8
Geo
100
AcDbLine
10
-71.4078886310903
20
-2.43580355683392
30
0.000000000000000
11
-71.3078886310903
21
-2.53879212338282
31
0.000000000000000
  0
LINE
  5
F107B3
330
F107B4
100
AcDbEntity
8
Geo
100
AcDbLine
10
-71.3078886310903
20
-6.45856298041736
30
0.000000000000000
11
-71.2078886310903
21
-6.50350603937609
31
0.000000000000000
  0
LINE
  5
F107B5
330
F107B6
100
AcDbEntity
8
Geo
100
AcDbLine
10
-71.3078886310903
20
-2.53879212338282
30
0.000000000000000
11
-71.2078886310903
21
-2.64358773878226
31
0.000000000000000
  0
LINE
  5
F107B7
330
F107B8
100
AcDbEntity
8
Geo
100
AcDbLine
10
-71.2078886310903
20
-6.50350603937609
30
0.000000000000000
11
-71.1078886310903
21
-6.54438322204565
31
0.000000000000000
  0
LINE
  5
F107B9
330
F107BA
100
AcDbEntity
8
Geo
100
AcDbLine
10
-71.2078886310903
20
-2.64358773878226
30
0.000000000000000
11
-71.1078886310903
21
-2.75003516943474
31
0.000000000000000
  0
LINE
  5
F107BB
330
F107BC
100
AcDbEntity
8
Geo
100
AcDbLine
10
-71.1078886310903
20
-6.54438322204565
30
0.000000000000000
11
-71.0078886310903
21
-6.58113397711290
31
0.000000000000000
  0
LINE
  5
F107BD
330
F107BE
100
AcDbEntity
8
Geo
100
AcDbLine
10
-71.1078886310903
20
-2.75003516943474
30
0.000000000000000
11
-71.0078886310903
21
-2.85797673491116
31
0.000000000000000
  0
LINE
  5
F107BF
330
F107C0
100
AcDbEntity
8
Geo
100
AcDbLine
10
-71.0078886310903
20
-6.58113397711290
30
0.000000000000000
11
-70.9078886310903
21
-6.61370386573615
31
0.000000000000000
  0
LINE
  5
F107C1
330
F107C2
100
AcDbEntity
8
Geo
100
AcDbLine
10
-71.0078886310903
20
-2.85797673491116
30
0.000000000000000
11
-70.9078886310903
21
-2.96725254152262
31
0.000000000000000
  0
LINE
  5
F107C3
330
F107C4
100
AcDbEntity
8
Geo
100
AcDbLine
10
-70.9078886310903
20
-6.61370386573615
30
0.000000000000000
11
-70.8078886310904
21
-6.64204464218523
31
0.000000000000000
  0
LINE
  5
F107C5
330
F107C6
100
AcDbEntity
8
Geo
100
AcDbLine
10
-70.9078886310903
20
-2.96725254152262
30
0.000000000000000
11
-70.8078886310904
21
-3.07770071917068
31
0.000000000000000
  0
LINE
  5
F107C7
330
F107C8
100
AcDbEntity
8
Geo
100
AcDbLine
10
-70.8078886310904
20
-6.64204464218523
30
0.000000000000000
11
-70.7078886310903
21
-6.66611432530791
31
0.000000000000000
  0
LINE
  5
F107C9
330
F107CA
100
AcDbEntity
8
Geo
100
AcDbLine
10
-70.8078886310904
20
-3.07770071917068
30
0.000000000000000
11
-70.7078886310903
21
-3.18915766112536
31
0.000000000000000
  0
LINE
  5
F107CB
330
F107CC
100
AcDbEntity
8
Geo
100
AcDbLine
10
-70.7078886310903
20
-6.66611432530791
30
0.000000000000000
11
-70.6078886310903
21
-6.68587726071649
31
0.000000000000000
  0
LINE
  5
F107CD
330
F107CE
100
AcDbEntity
8
Geo
100
AcDbLine
10
-70.7078886310903
20
-3.18915766112536
30
0.000000000000000
11
-70.6078886310903
21
-3.30145826637551
31
0.000000000000000
  0
LINE
  5
F107CF
330
F107D0
100
AcDbEntity
8
Geo
100
AcDbLine
10
-70.6078886310903
20
-6.68587726071649
30
0.000000000000000
11
-70.5078886310903
21
-6.70130417360257
31
0.000000000000000
  0
LINE
  5
F107D1
330
F107D2
100
AcDbEntity
8
Geo
100
AcDbLine
10
-70.6078886310903
20
-3.30145826637551
30
0.000000000000000
11
-70.5078886310903
21
-3.41443618419276
31
0.000000000000000
  0
LINE
  5
F107D3
330
F107D4
100
AcDbEntity
8
Geo
100
AcDbLine
10
-70.5078886310903
20
-6.70130417360257
30
0.000000000000000
11
-70.4078886310903
21
-6.71237221210182
31
0.000000000000000
  0
LINE
  5
F107D5
330
F107D6
100
AcDbEntity
8
Geo
100
AcDbLine
10
-70.5078886310903
20
-3.41443618419276
30
0.000000000000000
11
-70.4078886310903
21
-3.52792406054655
31
0.000000000000000
  0
LINE
  5
F107D7
330
F107D8
100
AcDbEntity
8
Geo
100
AcDbLine
10
-70.4078886310903
20
-6.71237221210182
30
0.000000000000000
11
-70.3078886310904
21
-6.71906498114442
31
0.000000000000000
  0
LINE
  5
F107D9
330
F107DA
100
AcDbEntity
8
Geo
100
AcDbLine
10
-70.4078886310903
20
-3.52792406054655
30
0.000000000000000
11
-70.3078886310904
21
-3.64175378600549
31
0.000000000000000
  0
LINE
  5
F107DB
330
F107DC
100
AcDbEntity
8
Geo
100
AcDbLine
10
-70.3078886310904
20
-6.71906498114442
30
0.000000000000000
11
-70.2078886310903
21
-6.72137256674099
31
0.000000000000000
  0
LINE
  5
F107DD
330
F107DE
100
AcDbEntity
8
Geo
100
AcDbLine
10
-70.3078886310904
20
-3.64175378600549
30
0.000000000000000
11
-70.2078886310903
21
-3.75575674475758
31
0.000000000000000
  0
LINE
  5
F107DF
330
F107E0
100
AcDbEntity
8
Geo
100
AcDbLine
10
-70.2078886310903
20
-3.75575674475758
30
0.000000000000000
11
-70.1078886310903
21
-3.86976406438057
31
0.000000000000000
  0
LINE
  5
F107E1
330
F107E2
100
AcDbEntity
8
Geo
100
AcDbLine
10
-70.1078886310903
20
-0.798109841443013
30
0.000000000000000
11
-70.0078886310903
21
-0.804576376578896
31
0.000000000000000
  0
LINE
  5
F107E3
330
F107E4
100
AcDbEntity
8
Geo
100
AcDbLine
10
-70.1078886310903
20
-3.86976406438057
30
0.000000000000000
11
-70.0078886310903
21
-3.98360686599249
31
0.000000000000000
  0
LINE
  5
F107E5
330
F107E6
100
AcDbEntity
8
Geo
100
AcDbLine
10
-70.0078886310903
20
-0.804576376578896
30
0.000000000000000
11
-69.9078886310903
21
-0.815418851908526
31
0.000000000000000
  0
LINE
  5
F107E7
330
F107E8
100
AcDbEntity
8
Geo
100
AcDbLine
10
-70.0078886310903
20
-3.98360686599249
30
0.000000000000000
11
-69.9078886310903
21
-4.09711651441165
31
0.000000000000000
  0
LINE
  5
F107E9
330
F107EA
100
AcDbEntity
8
Geo
100
AcDbLine
10
-69.9078886310903
20
-0.815418851908526
30
0.000000000000000
11
-69.8078886310904
21
-0.830621206488471
31
0.000000000000000
  0
LINE
  5
F107EB
330
F107EC
100
AcDbEntity
8
Geo
100
AcDbLine
10
-69.9078886310903
20
-4.09711651441165
30
0.000000000000000
11
-69.8078886310904
21
-4.21012486795572
31
0.000000000000000
  0
LINE
  5
F107ED
330
F107EE
100
AcDbEntity
8
Geo
100
AcDbLine
10
-69.8078886310904
20
-0.830621206488471
30
0.000000000000000
11
-69.7078886310903
21
-0.850160921092303
31
0.000000000000000
  0
LINE
  5
F107EF
330
F107F0
100
AcDbEntity
8
Geo
100
AcDbLine
10
-69.8078886310904
20
-4.21012486795572
30
0.000000000000000
11
-69.7078886310903
21
-4.32246452750975
31
0.000000000000000
  0
LINE
  5
F107F1
330
F107F2
100
AcDbEntity
8
Geo
100
AcDbLine
10
-69.7078886310903
20
-0.850160921092303
30
0.000000000000000
11
-69.6078886310903
21
-0.874009051568298
31
0.000000000000000
  0
LINE
  5
F107F3
330
F107F4
100
AcDbEntity
8
Geo
100
AcDbLine
10
-69.7078886310903
20
-4.32246452750975
30
0.000000000000000
11
-69.6078886310903
21
-4.43396908449427
31
0.000000000000000
  0
LINE
  5
F107F5
330
F107F6
100
AcDbEntity
8
Geo
100
AcDbLine
10
-69.6078886310903
20
-0.874009051568298
30
0.000000000000000
11
-69.5078886310904
21
-0.902130271714370
31
0.000000000000000
  0
LINE
  5
F107F7
330
F107F8
100
AcDbEntity
8
Geo
100
AcDbLine
10
-69.6078886310903
20
-4.43396908449427
30
0.000000000000000
11
-69.5078886310904
21
-4.54447336736607
31
0.000000000000000
  0
LINE
  5
F107F9
330
F107FA
100
AcDbEntity
8
Geo
100
AcDbLine
10
-69.5078886310904
20
-0.902130271714370
30
0.000000000000000
11
-69.4078886310903
21
-0.934482925606726
31
0.000000000000000
  0
LINE
  5
F107FB
330
F107FC
100
AcDbEntity
8
Geo
100
AcDbLine
10
-69.5078886310904
20
-4.54447336736607
30
0.000000000000000
11
-69.4078886310903
21
-4.65381368628657
31
0.000000000000000
  0
LINE
  5
F107FD
330
F107FE
100
AcDbEntity
8
Geo
100
AcDbLine
10
-69.4078886310903
20
-0.934482925606726
30
0.000000000000000
11
-69.3078886310904
21
-0.971019089304721
31
0.000000000000000
  0
LINE
  5
F107FF
330
F10800
100
AcDbEntity
8
Geo
100
AcDbLine
10
-69.4078886310903
20
-4.65381368628657
30
0.000000000000000
11
-69.3078886310904
21
-4.76182807559535
31
0.000000000000000
  0
LINE
  5
F10801
330
F10802
100
AcDbEntity
8
Geo
100
AcDbLine
10
-69.3078886310904
20
-0.971019089304721
30
0.000000000000000
11
-69.2078886310904
21
-1.01168464184053
31
0.000000000000000
  0
LINE
  5
F10803
330
F10804
100
AcDbEntity
8
Geo
100
AcDbLine
10
-69.3078886310904
20
-4.76182807559535
30
0.000000000000000
11
-69.2078886310904
21
-4.86835653372965
31
0.000000000000000
  0
LINE
  5
F10805
330
F10806
100
AcDbEntity
8
Geo
100
AcDbLine
10
-69.2078886310904
20
-1.01168464184053
30
0.000000000000000
11
-69.1078886310903
21
-1.05641934538845
31
0.000000000000000
  0
LINE
  5
F10807
330
F10808
100
AcDbEntity
8
Geo
100
AcDbLine
10
-69.2078886310904
20
-4.86835653372965
30
0.000000000000000
11
-69.1078886310903
21
-4.97324126023449
31
0.000000000000000
  0
LINE
  5
F10809
330
F1080A
100
AcDbEntity
8
Geo
100
AcDbLine
10
-69.1078886310903
20
-1.05641934538845
30
0.000000000000000
11
-69.0078886310904
21
-1.10515693449512
31
0.000000000000000
  0
LINE
  5
F1080B
330
F1080C
100
AcDbEntity
8
Geo
100
AcDbLine
10
-69.1078886310903
20
-4.97324126023449
30
0.000000000000000
11
-69.0078886310904
21
-5.07632688951221
31
0.000000000000000
  0
LINE
  5
F1080D
330
F1080E
100
AcDbEntity
8
Geo
100
AcDbLine
10
-69.0078886310904
20
-1.10515693449512
30
0.000000000000000
11
-68.9078886310903
21
-1.15782521423846
31
0.000000000000000
  0
LINE
  5
F1080F
330
F10810
100
AcDbEntity
8
Geo
100
AcDbLine
10
-69.0078886310904
20
-5.07632688951221
30
0.000000000000000
11
-68.9078886310903
21
-5.17746072096535
31
0.000000000000000
  0
LINE
  5
F10811
330
F10812
100
AcDbEntity
8
Geo
100
AcDbLine
10
-68.9078886310903
20
-1.15782521423846
30
0.000000000000000
11
-68.8078886310904
21
-1.21434616716984
31
0.000000000000000
  0
LINE
  5
F10813
330
F10814
100
AcDbEntity
8
Geo
100
AcDbLine
10
-68.9078886310903
20
-5.17746072096535
30
0.000000000000000
11
-68.8078886310904
21
-5.27649294519183
31
0.000000000000000
  0
LINE
  5
F10815
330
F10816
100
AcDbEntity
8
Geo
100
AcDbLine
10
-68.8078886310904
20
-1.21434616716984
30
0.000000000000000
11
-68.7078886310904
21
-1.27463606888131
31
0.000000000000000
  0
LINE
  5
F10817
330
F10818
100
AcDbEntity
8
Geo
100
AcDbLine
10
-68.8078886310904
20
-5.27649294519183
30
0.000000000000000
11
-68.7078886310904
21
-5.37327686589737
31
0.000000000000000
  0
LINE
  5
F10819
330
F1081A
100
AcDbEntity
8
Geo
100
AcDbLine
10
-68.7078886310904
20
-1.27463606888131
30
0.000000000000000
11
-68.6078886310903
21
-1.33860561202636
31
0.000000000000000
  0
LINE
  5
F1081B
330
F1081C
100
AcDbEntity
8
Geo
100
AcDbLine
10
-68.7078886310904
20
-5.37327686589737
30
0.000000000000000
11
-68.6078886310903
21
-5.46766911719656
31
0.000000000000000
  0
LINE
  5
F1081D
330
F1081E
100
AcDbEntity
8
Geo
100
AcDbLine
10
-68.6078886310903
20
-1.33860561202636
30
0.000000000000000
11
-68.5078886310904
21
-1.40616003861084
31
0.000000000000000
  0
LINE
  5
F1081F
330
F10820
100
AcDbEntity
8
Geo
100
AcDbLine
10
-68.6078886310903
20
-5.46766911719656
30
0.000000000000000
11
-68.5078886310904
21
-5.55952987598047
31
0.000000000000000
  0
LINE
  5
F10821
330
F10822
100
AcDbEntity
8
Geo
100
AcDbLine
10
-68.5078886310904
20
-1.40616003861084
30
0.000000000000000
11
-68.4078886310903
21
-1.47719928035779
31
0.000000000000000
  0
LINE
  5
F10823
330
F10824
100
AcDbEntity
8
Geo
100
AcDbLine
10
-68.5078886310904
20
-5.55952987598047
30
0.000000000000000
11
-68.4078886310903
21
-5.64872306903652
31
0.000000000000000
  0
LINE
  5
F10825
330
F10826
100
AcDbEntity
8
Geo
100
AcDbLine
10
-68.4078886310903
20
-1.47719928035779
30
0.000000000000000
11
-68.3078886310904
21
-1.55161810693847
31
0.000000000000000
  0
LINE
  5
F10827
330
F10828
100
AcDbEntity
8
Geo
100
AcDbLine
10
-68.4078886310903
20
-5.64872306903652
30
0.000000000000000
11
-68.3078886310904
21
-5.73511657461344
31
0.000000000000000
  0
LINE
  5
F10829
330
F1082A
100
AcDbEntity
8
Geo
100
AcDbLine
10
-68.3078886310904
20
-1.55161810693847
30
0.000000000000000
11
-68.2078886310904
21
-1.62930628184988
31
0.000000000000000
  0
LINE
  5
F1082B
330
F1082C
100
AcDbEntity
8
Geo
100
AcDbLine
10
-68.3078886310904
20
-5.73511657461344
30
0.000000000000000
11
-68.2078886310904
21
-5.81858241813311
31
0.000000000000000
  0
LINE
  5
F1082D
330
F1082E
100
AcDbEntity
8
Geo
100
AcDbLine
10
-68.2078886310904
20
-1.62930628184988
30
0.000000000000000
11
-68.1078886310903
21
-1.71014872570793
31
0.000000000000000
  0
LINE
  5
F1082F
330
F10830
100
AcDbEntity
8
Geo
100
AcDbLine
10
-68.2078886310904
20
-5.81858241813311
30
0.000000000000000
11
-68.1078886310903
21
-5.89899696175908
31
0.000000000000000
  0
LINE
  5
F10831
330
F10832
100
AcDbEntity
8
Geo
100
AcDbLine
10
-68.1078886310903
20
-1.71014872570793
30
0.000000000000000
11
-68.0078886310904
21
-1.79402568671441
31
0.000000000000000
  0
LINE
  5
F10833
330
F10834
100
AcDbEntity
8
Geo
100
AcDbLine
10
-68.1078886310903
20
-5.89899696175908
30
0.000000000000000
11
-68.0078886310904
21
-5.97624108754112
31
0.000000000000000
  0
LINE
  5
F10835
330
F10836
100
AcDbEntity
8
Geo
100
AcDbLine
10
-68.0078886310904
20
-1.79402568671441
30
0.000000000000000
11
-67.9078886310904
21
-1.88081291804511
31
0.000000000000000
  0
LINE
  5
F10837
330
F10838
100
AcDbEntity
8
Geo
100
AcDbLine
10
-68.0078886310904
20
-5.97624108754112
30
0.000000000000000
11
-67.9078886310904
21
-6.05020037386452
31
0.000000000000000
  0
LINE
  5
F10839
330
F1083A
100
AcDbEntity
8
Geo
100
AcDbLine
10
-67.9078886310904
20
-1.88081291804511
30
0.000000000000000
11
-67.8078886310904
21
-1.97038186189649
31
0.000000000000000
  0
LINE
  5
F1083B
330
F1083C
100
AcDbEntity
8
Geo
100
AcDbLine
10
-67.9078886310904
20
-6.05020037386452
30
0.000000000000000
11
-67.8078886310904
21
-6.12076526494261
31
0.000000000000000
  0
LINE
  5
F1083D
330
F1083E
100
AcDbEntity
8
Geo
100
AcDbLine
10
-67.8078886310904
20
-1.97038186189649
30
0.000000000000000
11
-67.7078886310904
21
-2.06259983991818
31
0.000000000000000
  0
LINE
  5
F1083F
330
F10840
100
AcDbEntity
8
Geo
100
AcDbLine
10
-67.8078886310904
20
-6.12076526494261
30
0.000000000000000
11
-67.7078886310904
21
-6.18783123310162
31
0.000000000000000
  0
LINE
  5
F10841
330
F10842
100
AcDbEntity
8
Geo
100
AcDbLine
10
-67.7078886310904
20
-2.06259983991818
30
0.000000000000000
11
-67.6078886310904
21
-2.15733024974922
31
0.000000000000000
  0
LINE
  5
F10843
330
F10844
100
AcDbEntity
8
Geo
100
AcDbLine
10
-67.7078886310904
20
-6.18783123310162
30
0.000000000000000
11
-67.6078886310904
21
-6.25129893361738
31
0.000000000000000
  0
LINE
  5
F10845
330
F10846
100
AcDbEntity
8
Geo
100
AcDbLine
10
-67.6078886310904
20
-2.15733024974922
30
0.000000000000000
11
-67.5078886310904
21
-2.25443276736695
31
0.000000000000000
  0
LINE
  5
F10847
330
F10848
100
AcDbEntity
8
Geo
100
AcDbLine
10
-67.6078886310904
20
-6.25129893361738
30
0.000000000000000
11
-67.5078886310904
21
-6.31107435187450
31
0.000000000000000
  0
LINE
  5
F10849
330
F1084A
100
AcDbEntity
8
Geo
100
AcDbLine
10
-67.5078886310904
20
-2.25443276736695
30
0.000000000000000
11
-67.4078886310904
21
-2.35376355494878
31
0.000000000000000
  0
LINE
  5
F1084B
330
F1084C
100
AcDbEntity
8
Geo
100
AcDbLine
10
-67.5078886310904
20
-6.31107435187450
30
0.000000000000000
11
-67.4078886310904
21
-6.36706894263011
31
0.000000000000000
  0
LINE
  5
F1084D
330
F1084E
100
AcDbEntity
8
Geo
100
AcDbLine
10
-67.4078886310904
20
-2.35376355494878
30
0.000000000000000
11
-67.3078886310904
21
-2.45517547393897
31
0.000000000000000
  0
LINE
  5
F1084F
330
F10850
100
AcDbEntity
8
Geo
100
AcDbLine
10
-67.4078886310904
20
-6.36706894263011
30
0.000000000000000
11
-67.3078886310904
21
-6.41919976117579
31
0.000000000000000
  0
LINE
  5
F10851
330
F10852
100
AcDbEntity
8
Geo
100
AcDbLine
10
-67.3078886310904
20
-2.45517547393897
30
0.000000000000000
11
-67.2078886310904
21
-2.55851830300474
31
0.000000000000000
  0
LINE
  5
F10853
330
F10854
100
AcDbEntity
8
Geo
100
AcDbLine
10
-67.3078886310904
20
-6.41919976117579
30
0.000000000000000
11
-67.2078886310904
21
-6.46738958620344
31
0.000000000000000
  0
LINE
  5
F10855
330
F10856
100
AcDbEntity
8
Geo
100
AcDbLine
10
-67.2078886310904
20
-2.55851830300474
30
0.000000000000000
11
-67.1078886310904
21
-2.66363896055897
31
0.000000000000000
  0
LINE
  5
F10857
330
F10858
100
AcDbEntity
8
Geo
100
AcDbLine
10
-67.2078886310904
20
-6.46738958620344
30
0.000000000000000
11
-67.1078886310904
21
-6.51156703419313
31
0.000000000000000
  0
LINE
  5
F10859
330
F1085A
100
AcDbEntity
8
Geo
100
AcDbLine
10
-67.1078886310904
20
-2.66363896055897
30
0.000000000000000
11
-67.0078886310904
21
-2.77038173151967
31
0.000000000000000
  0
LINE
  5
F1085B
330
F1085C
100
AcDbEntity
8
Geo
100
AcDbLine
10
-67.1078886310904
20
-6.51156703419313
30
0.000000000000000
11
-67.0078886310904
21
-6.55166666515337
31
0.000000000000000
  0
LINE
  5
F1085D
330
F1085E
100
AcDbEntity
8
Geo
100
AcDbLine
10
-67.0078886310904
20
-2.77038173151967
30
0.000000000000000
11
-66.9078886310904
21
-2.87858849797054
31
0.000000000000000
  0
LINE
  5
F1085F
330
F10860
100
AcDbEntity
8
Geo
100
AcDbLine
10
-67.0078886310904
20
-6.55166666515337
30
0.000000000000000
11
-66.9078886310904
21
-6.58762907955730
31
0.000000000000000
  0
LINE
  5
F10861
330
F10862
100
AcDbEntity
8
Geo
100
AcDbLine
10
-66.9078886310904
20
-2.87858849797054
30
0.000000000000000
11
-66.8078886310904
21
-2.98809897338087
31
0.000000000000000
  0
LINE
  5
F10863
330
F10864
100
AcDbEntity
8
Geo
100
AcDbLine
10
-66.9078886310904
20
-6.58762907955730
30
0.000000000000000
11
-66.8078886310904
21
-6.61940100633111
31
0.000000000000000
  0
LINE
  5
F10865
330
F10866
100
AcDbEntity
8
Geo
100
AcDbLine
10
-66.8078886310904
20
-2.98809897338087
30
0.000000000000000
11
-66.7078886310904
21
-3.09875094003765
31
0.000000000000000
  0
LINE
  5
F10867
330
F10868
100
AcDbEntity
8
Geo
100
AcDbLine
10
-66.8078886310904
20
-6.61940100633111
30
0.000000000000000
11
-66.7078886310904
21
-6.64693538176441
31
0.000000000000000
  0
LINE
  5
F10869
330
F1086A
100
AcDbEntity
8
Geo
100
AcDbLine
10
-66.7078886310904
20
-3.09875094003765
30
0.000000000000000
11
-66.6078886310904
21
-3.21038048933852
31
0.000000000000000
  0
LINE
  5
F1086B
330
F1086C
100
AcDbEntity
8
Geo
100
AcDbLine
10
-66.7078886310904
20
-6.64693538176441
30
0.000000000000000
11
-66.6078886310904
21
-6.67019141922567
31
0.000000000000000
  0
LINE
  5
F1086D
330
F1086E
100
AcDbEntity
8
Geo
100
AcDbLine
10
-66.6078886310904
20
-3.21038048933852
30
0.000000000000000
11
-66.5078886310904
21
-3.32282226458932
31
0.000000000000000
  0
LINE
  5
F1086F
330
F10870
100
AcDbEntity
8
Geo
100
AcDbLine
10
-66.6078886310904
20
-6.67019141922567
30
0.000000000000000
11
-66.5078886310904
21
-6.68913466957934
31
0.000000000000000
  0
LINE
  5
F10871
330
F10872
100
AcDbEntity
8
Geo
100
AcDbLine
10
-66.5078886310904
20
-3.32282226458932
30
0.000000000000000
11
-66.4078886310904
21
-3.43590970594676
31
0.000000000000000
  0
LINE
  5
F10873
330
F10874
100
AcDbEntity
8
Geo
100
AcDbLine
10
-66.5078886310904
20
-6.68913466957934
30
0.000000000000000
11
-66.4078886310904
21
-6.70373707221536
31
0.000000000000000
  0
LINE
  5
F10875
330
F10876
100
AcDbEntity
8
Geo
100
AcDbLine
10
-66.4078886310904
20
-3.43590970594676
30
0.000000000000000
11
-66.3078886310904
21
-3.54947529714321
31
0.000000000000000
  0
LINE
  5
F10877
330
F10878
100
AcDbEntity
8
Geo
100
AcDbLine
10
-66.4078886310904
20
-6.70373707221536
30
0.000000000000000
11
-66.3078886310904
21
-6.71397699661527
31
0.000000000000000
  0
LINE
  5
F10879
330
F1087A
100
AcDbEntity
8
Geo
100
AcDbLine
10
-66.3078886310904
20
-3.54947529714321
30
0.000000000000000
11
-66.2078886310904
21
-3.66335081362838
31
0.000000000000000
  0
LINE
  5
F1087B
330
F1087C
100
AcDbEntity
8
Geo
100
AcDbLine
10
-66.3078886310904
20
-6.71397699661527
30
0.000000000000000
11
-66.2078886310904
21
-6.71983927439346
31
0.000000000000000
  0
LINE
  5
F1087D
330
F1087E
100
AcDbEntity
8
Geo
100
AcDbLine
10
-66.2078886310904
20
-3.66335081362838
30
0.000000000000000
11
-66.1078886310904
21
-3.77736757176011
31
0.000000000000000
  0
LINE
  5
F1087F
330
F10880
100
AcDbEntity
8
Geo
100
AcDbLine
10
-66.1078886310904
20
-0.796086170345109
30
0.000000000000000
11
-66.0078886310904
21
-0.798998739696714
31
0.000000000000000
  0
LINE
  5
F10881
330
F10882
100
AcDbEntity
8
Geo
100
AcDbLine
10
-66.1078886310904
20
-3.77736757176011
30
0.000000000000000
11
-66.0078886310904
21
-3.89135667867514
31
0.000000000000000
  0
LINE
  5
F10883
330
F10884
100
AcDbEntity
8
Geo
100
AcDbLine
10
-66.0078886310904
20
-0.798998739696714
30
0.000000000000000
11
-65.9078886310904
21
-0.806295511387726
31
0.000000000000000
  0
LINE
  5
F10885
330
F10886
100
AcDbEntity
8
Geo
100
AcDbLine
10
-66.0078886310904
20
-3.89135667867514
30
0.000000000000000
11
-65.9078886310904
21
-4.00514928246996
31
0.000000000000000
  0
LINE
  5
F10887
330
F10888
100
AcDbEntity
8
Geo
100
AcDbLine
10
-65.9078886310904
20
-0.806295511387726
30
0.000000000000000
11
-65.8078886310904
21
-0.817965676720518
31
0.000000000000000
  0
LINE
  5
F10889
330
F1088A
100
AcDbEntity
8
Geo
100
AcDbLine
10
-65.9078886310904
20
-4.00514928246996
30
0.000000000000000
11
-65.8078886310904
21
-4.11857682232082
31
0.000000000000000
  0
LINE
  5
F1088B
330
F1088C
100
AcDbEntity
8
Geo
100
AcDbLine
10
-65.8078886310904
20
-0.817965676720518
30
0.000000000000000
11
-65.7078886310904
21
-0.833991948695613
31
0.000000000000000
  0
LINE
  5
F1088D
330
F1088E
100
AcDbEntity
8
Geo
100
AcDbLine
10
-65.8078886310904
20
-4.11857682232082
30
0.000000000000000
11
-65.7078886310904
21
-4.23147127817272
31
0.000000000000000
  0
LINE
  5
F1088F
330
F10890
100
AcDbEntity
8
Geo
100
AcDbLine
10
-65.7078886310904
20
-0.833991948695613
30
0.000000000000000
11
-65.6078886310904
21
-0.854350587618913
31
0.000000000000000
  0
LINE
  5
F10891
330
F10892
100
AcDbEntity
8
Geo
100
AcDbLine
10
-65.7078886310904
20
-4.23147127817272
30
0.000000000000000
11
-65.6078886310904
21
-4.34366541962719
31
0.000000000000000
  0
LINE
  5
F10893
330
F10894
100
AcDbEntity
8
Geo
100
AcDbLine
10
-65.6078886310904
20
-0.854350587618913
30
0.000000000000000
11
-65.5078886310904
21
-0.879011436267251
31
0.000000000000000
  0
LINE
  5
F10895
330
F10896
100
AcDbEntity
8
Geo
100
AcDbLine
10
-65.6078886310904
20
-4.34366541962719
30
0.000000000000000
11
-65.5078886310904
21
-4.45499305366052
31
0.000000000000000
  0
LINE
  5
F10897
330
F10898
100
AcDbEntity
8
Geo
100
AcDbLine
10
-65.5078886310904
20
-0.879011436267251
30
0.000000000000000
11
-65.4078886310904
21
-0.907937964560258
31
0.000000000000000
  0
LINE
  5
F10899
330
F1089A
100
AcDbEntity
8
Geo
100
AcDbLine
10
-65.5078886310904
20
-4.45499305366052
30
0.000000000000000
11
-65.4078886310904
21
-4.56528927080521
31
0.000000000000000
  0
LINE
  5
F1089B
330
F1089C
100
AcDbEntity
8
Geo
100
AcDbLine
10
-65.4078886310904
20
-0.907937964560258
30
0.000000000000000
11
-65.3078886310904
21
-0.941087323672315
31
0.000000000000000
  0
LINE
  5
F1089D
330
F1089E
100
AcDbEntity
8
Geo
100
AcDbLine
10
-65.4078886310904
20
-4.56528927080521
30
0.000000000000000
11
-65.3078886310904
21
-4.67439068943015
31
0.000000000000000
  0
LINE
  5
F1089F
330
F108A0
100
AcDbEntity
8
Geo
100
AcDbLine
10
-65.3078886310904
20
-0.941087323672315
30
0.000000000000000
11
-65.2078886310904
21
-0.978410409504458
31
0.000000000000000
  0
LINE
  5
F108A1
330
F108A2
100
AcDbEntity
8
Geo
100
AcDbLine
10
-65.3078886310904
20
-4.67439068943015
30
0.000000000000000
11
-65.2078886310904
21
-4.78213569775759
31
0.000000000000000
  0
LINE
  5
F108A3
330
F108A4
100
AcDbEntity
8
Geo
100
AcDbLine
10
-65.2078886310904
20
-0.978410409504458
30
0.000000000000000
11
-65.1078886310904
21
-1.01985193542221
31
0.000000000000000
  0
LINE
  5
F108A5
330
F108A6
100
AcDbEntity
8
Geo
100
AcDbLine
10
-65.2078886310904
20
-4.78213569775759
30
0.000000000000000
11
-65.1078886310904
21
-4.88836469325846
31
0.000000000000000
  0
LINE
  5
F108A7
330
F108A8
100
AcDbEntity
8
Geo
100
AcDbLine
10
-65.1078886310904
20
-1.01985193542221
30
0.000000000000000
11
-65.0078886310904
21
-1.06535051415160
31
0.000000000000000
  0
LINE
  5
F108A9
330
F108AA
100
AcDbEntity
8
Geo
100
AcDbLine
10
-65.1078886310904
20
-4.88836469325846
30
0.000000000000000
11
-65.0078886310904
21
-4.99292031907133
31
0.000000000000000
  0
LINE
  5
F108AB
330
F108AC
100
AcDbEntity
8
Geo
100
AcDbLine
10
-65.0078886310904
20
-1.06535051415160
30
0.000000000000000
11
-64.9078886310904
21
-1.11483874871203
31
0.000000000000000
  0
LINE
  5
F108AD
330
F108AE
100
AcDbEntity
8
Geo
100
AcDbLine
10
-65.0078886310904
20
-4.99292031907133
30
0.000000000000000
11
-64.9078886310904
21
-5.09564769709494
31
0.000000000000000
  0
LINE
  5
F108AF
330
F108B0
100
AcDbEntity
8
Geo
100
AcDbLine
10
-64.9078886310904
20
-1.11483874871203
30
0.000000000000000
11
-64.8078886310904
21
-1.16824333225136
31
0.000000000000000
  0
LINE
  5
F108B1
330
F108B2
100
AcDbEntity
8
Geo
100
AcDbLine
10
-64.9078886310904
20
-5.09564769709494
30
0.000000000000000
11
-64.8078886310904
21
-5.19639465740892
31
0.000000000000000
  0
LINE
  5
F108B3
330
F108B4
100
AcDbEntity
8
Geo
100
AcDbLine
10
-64.8078886310904
20
-1.16824333225136
30
0.000000000000000
11
-64.7078886310904
21
-1.22548515663520
31
0.000000000000000
  0
LINE
  5
F108B5
330
F108B6
100
AcDbEntity
8
Geo
100
AcDbLine
10
-64.8078886310904
20
-5.19639465740892
30
0.000000000000000
11
-64.7078886310904
21
-5.29501196368285
31
0.000000000000000
  0
LINE
  5
F108B7
330
F108B8
100
AcDbEntity
8
Geo
100
AcDbLine
10
-64.7078886310904
20
-1.22548515663520
30
0.000000000000000
11
-64.6078886310904
21
-1.28647942962971
31
0.000000000000000
  0
LINE
  5
F108B9
330
F108BA
100
AcDbEntity
8
Geo
100
AcDbLine
10
-64.7078886310904
20
-5.29501196368285
30
0.000000000000000
11
-64.6078886310904
21
-5.39135353423983
31
0.000000000000000
  0
LINE
  5
F108BB
330
F108BC
100
AcDbEntity
8
Geo
100
AcDbLine
10
-64.6078886310904
20
-1.28647942962971
30
0.000000000000000
11
-64.5078886310904
21
-1.35113580050422
31
0.000000000000000
  0
LINE
  5
F108BD
330
F108BE
100
AcDbEntity
8
Geo
100
AcDbLine
10
-64.6078886310904
20
-5.39135353423983
30
0.000000000000000
11
-64.5078886310904
21
-5.48527665844709
31
0.000000000000000
  0
LINE
  5
F108BF
330
F108C0
100
AcDbEntity
8
Geo
100
AcDbLine
10
-64.5078886310904
20
-1.35113580050422
30
0.000000000000000
11
-64.4078886310904
21
-1.41935849386761
31
0.000000000000000
  0
LINE
  5
F108C1
330
F108C2
100
AcDbEntity
8
Geo
100
AcDbLine
10
-64.5078886310904
20
-5.48527665844709
30
0.000000000000000
11
-64.4078886310904
21
-5.57664220811303
31
0.000000000000000
  0
LINE
  5
F108C3
330
F108C4
100
AcDbEntity
8
Geo
100
AcDbLine
10
-64.4078886310904
20
-1.41935849386761
30
0.000000000000000
11
-64.3078886310904
21
-1.49104645154028
31
0.000000000000000
  0
LINE
  5
F108C5
330
F108C6
100
AcDbEntity
8
Geo
100
AcDbLine
10
-64.4078886310904
20
-5.57664220811303
30
0.000000000000000
11
-64.3078886310904
21
-5.66531484357762
31
0.000000000000000
  0
LINE
  5
F108C7
330
F108C8
100
AcDbEntity
8
Geo
100
AcDbLine
10
-64.3078886310904
20
-1.49104645154028
30
0.000000000000000
11
-64.2078886310904
21
-1.56609348225152
31
0.000000000000000
  0
LINE
  5
F108C9
330
F108CA
100
AcDbEntity
8
Geo
100
AcDbLine
10
-64.3078886310904
20
-5.66531484357762
30
0.000000000000000
11
-64.2078886310904
21
-5.75116321419082
31
0.000000000000000
  0
LINE
  5
F108CB
330
F108CC
100
AcDbEntity
8
Geo
100
AcDbLine
10
-64.2078886310904
20
-1.56609348225152
30
0.000000000000000
11
-64.1078886310904
21
-1.64438841894041
31
0.000000000000000
  0
LINE
  5
F108CD
330
F108CE
100
AcDbEntity
8
Geo
100
AcDbLine
10
-64.2078886310904
20
-5.75116321419082
30
0.000000000000000
11
-64.1078886310904
21
-5.83406015288217
31
0.000000000000000
  0
LINE
  5
F108CF
330
F108D0
100
AcDbEntity
8
Geo
100
AcDbLine
10
-64.1078886310904
20
-1.64438841894041
30
0.000000000000000
11
-64.0078886310904
21
-1.72581528342753
31
0.000000000000000
  0
LINE
  5
F108D1
330
F108D2
100
AcDbEntity
8
Geo
100
AcDbLine
10
-64.1078886310904
20
-5.83406015288217
30
0.000000000000000
11
-64.0078886310904
21
-5.91388286453312
31
0.000000000000000
  0
LINE
  5
F108D3
330
F108D4
100
AcDbEntity
8
Geo
100
AcDbLine
10
-64.0078886310904
20
-1.72581528342753
30
0.000000000000000
11
-63.9078886310904
21
-1.81025345821319
31
0.000000000000000
  0
LINE
  5
F108D5
330
F108D6
100
AcDbEntity
8
Geo
100
AcDbLine
10
-64.0078886310904
20
-5.91388286453312
30
0.000000000000000
11
-63.9078886310904
21
-5.99051310787335
31
0.000000000000000
  0
LINE
  5
F108D7
330
F108D8
100
AcDbEntity
8
Geo
100
AcDbLine
10
-63.9078886310904
20
-1.81025345821319
30
0.000000000000000
11
-63.8078886310904
21
-1.89757786514800
31
0.000000000000000
  0
LINE
  5
F108D9
330
F108DA
100
AcDbEntity
8
Geo
100
AcDbLine
10
-63.9078886310904
20
-5.99051310787335
30
0.000000000000000
11
-63.8078886310904
21
-6.06383737063131
31
0.000000000000000
  0
LINE
  5
F108DB
330
F108DC
100
AcDbEntity
8
Geo
100
AcDbLine
10
-63.8078886310904
20
-1.89757786514800
30
0.000000000000000
11
-63.7078886310904
21
-1.98765915071096
31
0.000000000000000
  0
LINE
  5
F108DD
330
F108DE
100
AcDbEntity
8
Geo
100
AcDbLine
10
-63.8078886310904
20
-6.06383737063131
30
0.000000000000000
11
-63.7078886310904
21
-6.13374703767986
31
0.000000000000000
  0
LINE
  5
F108DF
330
F108E0
100
AcDbEntity
8
Geo
100
AcDbLine
10
-63.7078886310904
20
-1.98765915071096
30
0.000000000000000
11
-63.6078886310904
21
-2.08036387762065
31
0.000000000000000
  0
LINE
  5
F108E1
330
F108E2
100
AcDbEntity
8
Geo
100
AcDbLine
10
-63.7078886310904
20
-6.13374703767986
30
0.000000000000000
11
-63.6078886310904
21
-6.20013855192766
31
0.000000000000000
  0
LINE
  5
F108E3
330
F108E4
100
AcDbEntity
8
Geo
100
AcDbLine
10
-63.6078886310904
20
-2.08036387762065
30
0.000000000000000
11
-63.5078886310904
21
-2.17555472249565
31
0.000000000000000
  0
LINE
  5
F108E5
330
F108E6
100
AcDbEntity
8
Geo
100
AcDbLine
10
-63.6078886310904
20
-6.20013855192766
30
0.000000000000000
11
-63.5078886310904
21
-6.26291356771816
31
0.000000000000000
  0
LINE
  5
F108E7
330
F108E8
100
AcDbEntity
8
Geo
100
AcDbLine
10
-63.5078886310904
20
-2.17555472249565
30
0.000000000000000
11
-63.4078886310904
21
-2.27309067927153
31
0.000000000000000
  0
LINE
  5
F108E9
330
F108EA
100
AcDbEntity
8
Geo
100
AcDbLine
10
-63.5078886310904
20
-6.26291356771816
30
0.000000000000000
11
-63.4078886310904
21
-6.32197909650889
31
0.000000000000000
  0
LINE
  5
F108EB
330
F108EC
100
AcDbEntity
8
Geo
100
AcDbLine
10
-63.4078886310904
20
-2.27309067927153
30
0.000000000000000
11
-63.3078886310904
21
-2.37282726807289
31
0.000000000000000
  0
LINE
  5
F108ED
330
F108EE
100
AcDbEntity
8
Geo
100
AcDbLine
10
-63.4078886310904
20
-6.32197909650889
30
0.000000000000000
11
-63.3078886310904
21
-6.37724764461524
31
0.000000000000000
  0
LINE
  5
F108EF
330
F108F0
100
AcDbEntity
8
Geo
100
AcDbLine
10
-63.3078886310904
20
-2.37282726807289
30
0.000000000000000
11
-63.2078886310904
21
-2.47461674923120
31
0.000000000000000
  0
LINE
  5
F108F1
330
F108F2
100
AcDbEntity
8
Geo
100
AcDbLine
10
-63.3078886310904
20
-6.37724764461524
30
0.000000000000000
11
-63.2078886310904
21
-6.42863734281474
31
0.000000000000000
  0
LINE
  5
F108F3
330
F108F4
100
AcDbEntity
8
Geo
100
AcDbLine
10
-63.2078886310904
20
-2.47461674923120
30
0.000000000000000
11
-63.1078886310904
21
-2.57830834213140
31
0.000000000000000
  0
LINE
  5
F108F5
330
F108F6
100
AcDbEntity
8
Geo
100
AcDbLine
10
-63.2078886310904
20
-6.42863734281474
30
0.000000000000000
11
-63.1078886310904
21
-6.47607206761983
31
0.000000000000000
  0
LINE
  5
F108F7
330
F108F8
100
AcDbEntity
8
Geo
100
AcDbLine
10
-78.1078886310903
20
-3.75870069605563
30
0.000000000000000
11
-78.1078886310903
21
-3.75870069605563
31
0.000000000000000
  0
LINE
  5
F108F9
330
F108FA
100
AcDbEntity
8
Geo
100
AcDbLine
10
-78.1078886310903
20
-3.75870069605563
30
0.000000000000000
11
-78.1078886310903
21
-3.75870069605563
31
0.000000000000000
  0
LINE
  5
F108FB
330
F108FC
100
AcDbEntity
8
Geo
100
AcDbLine
10
-79.1078886310903
20
-3.75870069605563
30
0.000000000000000
11
-78.8078886310903
21
-3.75870069605563
31
0.000000000000000
  0
LINE
  5
F108FD
330
F108FE
100
AcDbEntity
8
Geo
100
AcDbLine
10
-78.6803886310903
20
-3.75870069605563
30
0.000000000000000
11
-78.5953886310903
21
-3.75870069605563
31
0.000000000000000
  0
LINE
  5
F108FF
330
F10900
100
AcDbEntity
8
Geo
100
AcDbLine
10
-78.3828886310903
20
-3.75870069605563
30
0.000000000000000
11
-77.9578886310903
21
-3.75870069605563
31
0.000000000000000
  0
LINE
  5
F10901
330
F10902
100
AcDbEntity
8
Geo
100
AcDbLine
10
-77.8303886310903
20
-3.75870069605563
30
0.000000000000000
11
-77.7453886310903
21
-3.75870069605563
31
0.000000000000000
  0
LINE
  5
F10903
330
F10904
100
AcDbEntity
8
Geo
100
AcDbLine
10
-77.5328886310903
20
-3.75870069605563
30
0.000000000000000
11
-77.1078886310903
21
-3.75870069605563
31
0.000000000000000
  0
LINE
  5
F10905
330
F10906
100
AcDbEntity
8
Geo
100
AcDbLine
10
-18.1078886310903
20
-1.05870069605563
30
0.000000000000000
11
-18.1078886310903
21
-3.75870069605563
31
0.000000000000000
  0
LINE
  5
F10907
330
F10908
100
AcDbEntity
8
Geo
100
AcDbLine
10
-78.0386566364057
20
-3.75870069605563
30
0.000000000000000
11
-78.1072794581094
21
-5.72380119935313
31
0.000000000000000
  0
ARC
  5
F10909
330
F1090A
100
AcDbEntity
8
Geo
100
AcDbCircle
10
-77.1078886310903
20
-5.75870069605563
30
0.000000000000000
 40
1.00000000000000
100
AcDbArc
 50
178.000000000000
 51
270.000000000000
  0
LINE
  5
F1090B
330
F1090C
100
AcDbEntity
8
Geo
100
AcDbLine
10
-77.1078886310903
20
-6.75870069605563
30
0.000000000000000
11
-58.1078886310903
21
-6.75870069605563
31
0.000000000000000
  0
LINE
  5
F1090D
330
F1090E
100
AcDbEntity
8
Geo
100
AcDbLine
10
-58.1078886310903
20
-6.75870069605563
30
0.000000000000000
11
-18.4078886310903
21
-6.75870069605563
31
0.000000000000000
  0
LINE
  5
F1090F
330
F10910
100
AcDbEntity
8
Geo
100
AcDbLine
10
-18.4078886310903
20
-6.75870069605563
30
0.000000000000000
11
-18.1078886310903
21
-6.45870069605563
31
0.000000000000000
  0
LINE
  5
F10911
330
F10912
100
AcDbEntity
8
Geo
100
AcDbLine
10
-77.1078886310903
20
-0.758700696055627
30
0.000000000000000
11
-77.1078886310903
21
-6.75870069605563
31
0.000000000000000
  0
LINE
  5
F10913
330
F10914
100
AcDbEntity
8
Geo
100
AcDbLine
10
-77.1078886310903
20
-0.758700696055627
30
0.000000000000000
11
-77.1078886310903
21
-6.75870069605563
31
0.000000000000000
  0
LINE
  5
F10915
330
F10916
100
AcDbEntity
8
Geo
100
AcDbLine
10
-58.1078886310903
20
-0.758700696055627
30
0.000000000000000
11
-58.1078886310903
21
-6.75870069605563
31
0.000000000000000
  0
LINE
  5
F10917
330
F10918
100
AcDbEntity
8
Geo
100
AcDbLine
10
-58.1078886310903
20
-0.758700696055627
30
0.000000000000000
11
-58.1078886310903
21
-6.75870069605563
31
0.000000000000000
  0
LINE
  5
F10919
330
F1091A
100
AcDbEntity
8
Geo
100
AcDbLine
10
-18.4078886310903
20
-0.758700696055627
30
0.000000000000000
11
-18.4078886310903
21
-6.75870069605563
31
0.000000000000000
  0
LINE
  5
F1091B
330
F1091C
100
AcDbEntity
8
Geo
100
AcDbLine
10
-18.1078886310903
20
-1.05870069605563
30
0.000000000000000
11
-18.1078886310903
21
-6.45870069605563
31
0.000000000000000
  0
LWPOLYLINE
  5
F1091D
330
F1091E
100
AcDbEntity
8
Rahmen
100
AcDbPolyline
90
   4
70
   1
43
   0.0
 10
-125.540603248260
 20
102.988399071926
 10
134.310904872390
 20
102.988399071926
 10
134.310904872390
 20
-103.238979118329
 10
-125.540603248260
 20
-103.238979118329
  0
TEXT
  5
F1091F
330
F10920
 100
AcDbEntity
8
Text
100
AcDbText
10
-124.538283062645
20
-102.738979118329
30
0.000000000000000
40
1.00000000000000
1
ISBESketcher
100
AcDbText
  0
LWPOLYLINE
  5
F10921
330
F10922
100
AcDbEntity
8
Rahmen
100
AcDbPolyline
90
   4
70
   1
43
   0.0
 10
94.4686774941995
 20
-100.232018561485
 10
134.310904872390
 20
-100.232018561485
 10
134.310904872390
 20
-103.238979118329
 10
94.4686774941995
 20
-103.238979118329
  0
TEXT
  5
F10923
330
F10924
 100
AcDbEntity
8
Text
100
AcDbText
10
95.5000000000000
20
-102.001740139211
30
0.000000000000000
40
0.750000000000000
1
Created by:
100
AcDbText
  0
TEXT
  5
F10925
330
F10926
 100
AcDbEntity
8
Text
100
AcDbText
10
120.119489559165
20
-102.001740139211
30
0.000000000000000
40
0.750000000000000
1
nsarkol
100
AcDbText
  0
LWPOLYLINE
  5
F10927
330
F10928
100
AcDbEntity
8
Rahmen
100
AcDbPolyline
90
   4
70
   1
43
   0.0
 10
54.3758700696056
 20
-100.232018561485
 10
94.4686774941995
 20
-100.232018561485
 10
94.4686774941995
 20
-103.238979118329
 10
54.3758700696056
 20
-103.238979118329
  0
TEXT
  5
F10929
330
F1092A
 100
AcDbEntity
8
Text
100
AcDbText
10
55.5000000000000
20
-102.001740139211
30
0.000000000000000
40
0.750000000000000
1
Created for:
100
AcDbText
  0
TEXT
  5
F1092B
330
F1092C
 100
AcDbEntity
8
Text
100
AcDbText
10
0.000000000000000
20
0.250000000000000
30
0.000000000000000
40
0.750000000000000
1

100
AcDbText
  0
LWPOLYLINE
  5
F1092D
330
F1092E
100
AcDbEntity
8
Rahmen
100
AcDbPolyline
90
   4
70
   1
43
   0.0
 10
121.030162412993
 20
-97.2250580046404
 10
134.310904872390
 20
-97.2250580046404
 10
134.310904872390
 20
-100.232018561485
 10
121.030162412993
 20
-100.232018561485
  0
TEXT
  5
F1092F
330
F10930
 100
AcDbEntity
8
Text
100
AcDbText
10
122.166666666667
20
-99.0017401392111
30
0.000000000000000
40
0.750000000000000
1
Pages
100
AcDbText
  0
TEXT
  5
F10931
330
F10932
 100
AcDbEntity
8
Text
100
AcDbText
10
0.000000000000000
20
0.250000000000000
30
0.000000000000000
40
0.750000000000000
1

100
AcDbText
  0
LWPOLYLINE
  5
F10933
330
F10934
100
AcDbEntity
8
Rahmen
100
AcDbPolyline
90
   4
70
   1
43
   0.0
 10
121.030162412993
 20
-94.2180974477958
 10
134.310904872390
 20
-94.2180974477958
 10
134.310904872390
 20
-97.2250580046404
 10
121.030162412993
 20
-97.2250580046404
  0
TEXT
  5
F10935
330
F10936
 100
AcDbEntity
8
Text
100
AcDbText
10
122.166666666667
20
-96.0017401392111
30
0.000000000000000
40
0.750000000000000
1
Page
100
AcDbText
  0
TEXT
  5
F10937
330
F10938
 100
AcDbEntity
8
Text
100
AcDbText
10
0.000000000000000
20
0.250000000000000
30
0.000000000000000
40
0.750000000000000
1

100
AcDbText
  0
LWPOLYLINE
  5
F10939
330
F1093A
100
AcDbEntity
8
Rahmen
100
AcDbPolyline
90
   4
70
   1
43
   0.0
 10
54.3758700696056
 20
-94.2180974477958
 10
121.030162412993
 20
-94.2180974477958
 10
121.030162412993
 20
-100.232018561485
 10
54.3758700696056
 20
-100.232018561485
  0
TEXT
  5
F1093B
330
F1093C
 100
AcDbEntity
8
Text
100
AcDbText
10
55.5000000000000
20
-96.0017401392111
30
0.000000000000000
40
0.750000000000000
1
Date:
100
AcDbText
  0
TEXT
  5
F1093D
330
F1093E
 100
AcDbEntity
8
Text
100
AcDbText
10
84.4505027068832
20
-99.0017401392111
30
0.000000000000000
40
0.750000000000000
1
30.09.2016
100
AcDbText
  0
LWPOLYLINE
  5
F1093F
330
F10940
100
AcDbEntity
8
Rahmen
100
AcDbPolyline
90
   4
70
   1
43
   0.0
 10
54.3758700696056
 20
-88.2041763341067
 10
134.310904872390
 20
-88.2041763341067
 10
134.310904872390
 20
-94.2180974477958
 10
54.3758700696056
 20
-94.2180974477958
  0
TEXT
  5
F10941
330
F10942
 100
AcDbEntity
8
Text
100
AcDbText
10
0.000000000000000
20
0.500000000000000
30
0.000000000000000
40
1.50000000000000
1

100
AcDbText
  0
TEXT
  5
F10943
330
F10944
 100
AcDbEntity
8
Text
100
AcDbText
10
76.5835266821346
20
-92.5471771075019
30
0.000000000000000
40
2.50000000000000
1
STR2 6.0x60 R=1.0
100
AcDbText
  0
LWPOLYLINE
  5
F10945
330
F10946
100
AcDbEntity
8
Rahmen
100
AcDbPolyline
90
   4
70
   1
43
   0.0
 10
94.4686774941995
 20
-82.1902552204176
 10
134.310904872390
 20
-82.1902552204176
 10
134.310904872390
 20
-88.2041763341067
 10
94.4686774941995
 20
-88.2041763341067
  0
TEXT
  5
F10947
330
F10948
 100
AcDbEntity
8
Text
100
AcDbText
10
95.5000000000000
20
-84.0017401392111
30
0.000000000000000
40
0.750000000000000
1
Work piece material:
100
AcDbText
  0
TEXT
  5
F10949
330
F1094A
 100
AcDbEntity
8
Text
100
AcDbText
10
0.000000000000000
20
0.250000000000000
30
0.000000000000000
40
0.750000000000000
1

100
AcDbText
  0
LWPOLYLINE
  5
F1094B
330
F1094C
100
AcDbEntity
8
Rahmen
100
AcDbPolyline
90
   4
70
   1
43
   0.0
 10
54.3758700696056
 20
-82.1902552204176
 10
94.4686774941995
 20
-82.1902552204176
 10
94.4686774941995
 20
-88.2041763341067
 10
54.3758700696056
 20
-88.2041763341067
  0
TEXT
  5
F1094D
330
F1094E
 100
AcDbEntity
8
Text
100
AcDbText
10
55.5000000000000
20
-84.0017401392111
30
0.000000000000000
40
0.750000000000000
1
Tool material:
100
AcDbText
  0
TEXT
  5
F1094F
330
F10950
 100
AcDbEntity
8
Text
100
AcDbText
10
0.000000000000000
20
0.250000000000000
30
0.000000000000000
40
0.750000000000000
1

100
AcDbText
  0
LWPOLYLINE
  5
F10951
330
F10952
100
AcDbEntity
8
Rahmen
100
AcDbPolyline
90
   4
70
   1
43
   0.0
 10
94.4686774941995
 20
-79.1832946635731
 10
134.310904872390
 20
-79.1832946635731
 10
134.310904872390
 20
-82.1902552204176
 10
94.4686774941995
 20
-82.1902552204176
  0
TEXT
  5
F10953
330
F10954
 100
AcDbEntity
8
Text
100
AcDbText
10
0.000000000000000
20
0.500000000000000
30
0.000000000000000
40
1.50000000000000
1

100
AcDbText
  0
TEXT
  5
F10955
330
F10956
 100
AcDbEntity
8
Text
100
AcDbText
10
0.000000000000000
20
0.250000000000000
30
0.000000000000000
40
0.750000000000000
1

100
AcDbText
  0
LWPOLYLINE
  5
F10957
330
F10958
100
AcDbEntity
8
Rahmen
100
AcDbPolyline
90
   4
70
   1
43
   0.0
 10
54.3758700696056
 20
-79.1832946635731
 10
94.4686774941995
 20
-79.1832946635731
 10
94.4686774941995
 20
-82.1902552204176
 10
54.3758700696056
 20
-82.1902552204176
  0
TEXT
  5
F10959
330
F1095A
 100
AcDbEntity
8
Text
100
AcDbText
10
55.5000000000000
20
-81.0017401392111
30
0.000000000000000
40
0.750000000000000
1
Scale:
100
AcDbText
  0
TEXT
  5
F1095B
330
F1095C
 100
AcDbEntity
8
Text
100
AcDbText
10
81.2470997679814
20
-81.0017401392111
30
0.000000000000000
40
0.750000000000000
1
3 : 1
100
AcDbText
0
VIEWPORT
5
294
102
{ACAD_XDICTIONARY
360
58A
102
}
330
25D
100
AcDbEntity
67
1
8
0
60
1
100
AcDbViewport
10
0.0
20
0.0
30
0.0
40
10.0
41
10.0
68
-1
69
1
12
0.0
22
0.0
13
0.0
23
0.0
14
1.0
24
1.0
15
0.0
25
0.0
16
0.0
26
0.0
36
1.0
17
0.0
27
0.0
37
0.0
42
0.0
43
0.0
44
0.0
45
10.0
50
0.0
51
0.0000000000007958
72
100
90
32800
1

281
0
71
0
74
0
110
0.0
120
0.0
130
0.0
111
1.0
121
0.0
131
0.0
112
0.0
122
1.0
132
0.0
79
0
146
0.0
1001
VD_INVISIBLE_NOT_FOR_READ
1000
VD_INVISIBLE_NOT_FOR_READ
0
VIEWPORT
5
295
102
{ACAD_XDICTIONARY
360
58C
102
}
330
25D
100
AcDbEntity
67
1
8
0
60
1
100
AcDbViewport
10
0.0
20
0.0
30
0.0
40
10.0
41
10.0
68
0
69
2
12
0.0
22
0.0
13
0.0
23
0.0
14
1.0
24
1.0
15
0.0
25
0.0
16
0.0
26
0.0
36
1.0
17
0.0
27
0.0
37
0.0
42
0.0
43
0.0
44
0.0
45
10.0
50
0.0
51
0.0000000000007958
72
100
90
163872
1

281
0
71
0
74
0
110
0.0
120
0.0
130
0.0
111
1.0
121
0.0
131
0.0
112
0.0
122
1.0
132
0.0
79
0
146
0.0
1001
VD_INVISIBLE_NOT_FOR_READ
1000
VD_INVISIBLE_NOT_FOR_READ
0
ENDSEC
0
SECTION
2
OBJECTS
0
DICTIONARY
5
13
330
0
100
AcDbDictionary
281
1
3
ACAD_COLOR
350
FA7
3
ACAD_GROUP
350
14
3
ACAD_LAYOUT
350
FCF
3
ACAD_MATERIAL
350
F7A
3
ACAD_MLEADERSTYLE
350
FCD
3
ACAD_MLINESTYLE
350
16
3
ACAD_PLOTSETTINGS
350
17
3
ACAD_PLOTSTYLENAME
350
18
3
ACAD_SCALELIST
350
FAB
3
ACAD_TABLESTYLE
350
FA8
3
ACAD_VISUALSTYLE
350
F93
3
ACDB_RECOMPOSE_DATA
350
107E
3
AcDbVariableDictionary
350
FF0
3
DWGPROPS
350
107F
0
DICTIONARY
5
F1000F
330
F1000E
100
AcDbDictionary
280
1
281
1
3
ACAD_MTEXT_2008_RT
360
F10010
0
DICTIONARY
5
F10019
330
F10018
100
AcDbDictionary
280
1
281
1
3
ACAD_MTEXT_2008_RT
360
F1001A
0
DICTIONARY
5
F1001E
330
F1001D
100
AcDbDictionary
280
1
281
1
3
ACAD_MTEXT_2008_RT
360
F1001F
0
DICTIONARY
5
F1000A
330
F10009
100
AcDbDictionary
280
1
281
1
3
ACAD_MTEXT_2008_RT
360
F1000B
0
DICTIONARY
5
F10005
330
F10004
100
AcDbDictionary
280
1
281
1
3
ACAD_MTEXT_2008_RT
360
F10006
0
DICTIONARY
5
F10014
330
F10013
100
AcDbDictionary
280
1
281
1
3
ACAD_MTEXT_2008_RT
360
F10015
0
DICTIONARY
5
FA7
102
{ACAD_REACTORS
330
13
102
}
330
13
100
AcDbDictionary
281
1
0
DICTIONARY
5
14
330
13
100
AcDbDictionary
281
1
0
DICTIONARY
5
FCF
102
{ACAD_REACTORS
330
13
102
}
330
13
100
AcDbDictionary
281
1
3
Layout1
350
FD1
3
Model
350
FD0
0
DICTIONARY
5
F7A
102
{ACAD_REACTORS
330
13
102
}
330
13
100
AcDbDictionary
281
1
3
ByBlock
350
F83
3
ByLayer
350
F7B
3
Global
350
F8B
0
DICTIONARY
5
FCD
102
{ACAD_REACTORS
330
13
102
}
330
13
100
AcDbDictionary
281
1
3
Standard
350
FCE
0
DICTIONARY
5
16
330
13
100
AcDbDictionary
281
1
3
Standard
350
FAA
0
DICTIONARY
5
17
102
{ACAD_REACTORS
330
13
102
}
330
13
100
AcDbDictionary
281
1
0
ACDBDICTIONARYWDFLT
5
18
102
{ACAD_REACTORS
330
13
102
}
330
13
100
AcDbDictionary
281
1
3
Normal
350
19
100
AcDbDictionaryWithDefault
340
19
0
DICTIONARY
5
FAB
102
{ACAD_REACTORS
330
13
102
}
330
13
100
AcDbDictionary
281
1
3
A0
350
FAC
3
A1
350
FAD
3
A2
350
FAE
3
A3
350
FAF
3
A4
350
FB0
3
A5
350
FB1
3
A6
350
FB2
3
A7
350
FB3
3
A8
350
FB4
3
A9
350
FB5
3
B0
350
FB6
3
B1
350
FB7
3
B2
350
FB8
3
B3
350
FB9
3
B4
350
FBA
3
B5
350
FBB
3
B6
350
FBC
3
B7
350
FBD
3
B8
350
FBE
3
B9
350
FBF
3
C0
350
FC0
3
C1
350
FC1
3
C2
350
FC2
3
C3
350
FC3
3
C4
350
FC4
3
C5
350
FC5
3
C6
350
FC6
3
C7
350
FC7
3
C8
350
FC8
3
C9
350
FC9
3
D0
350
FCA
3
D1
350
FCB
3
D2
350
FCC
0
DICTIONARY
5
FA8
102
{ACAD_REACTORS
330
13
102
}
330
13
100
AcDbDictionary
281
1
3
Standard
350
FA9
0
DICTIONARY
5
F93
102
{ACAD_REACTORS
330
13
102
}
330
13
100
AcDbDictionary
281
1
3
2dWireframe
350
F99
3
3D Hidden
350
F9B
3
3dWireframe
350
F9A
3
Basic
350
F98
3
Brighten
350
F9F
3
ColorChange
350
FA3
3
Conceptual
350
F9C
3
Dim
350
F9E
3
EdgeColorOff
350
FA6
3
Facepattern
350
FA2
3
Flat
350
F94
3
FlatWithEdges
350
F95
3
Gouraud
350
F96
3
GouraudWithEdges
350
F97
3
JitterOff
350
FA4
3
Linepattern
350
FA1
3
OverhangOff
350
FA5
3
Realistic
350
F9D
3
Thicken
350
FA0
0
XRECORD
5
107E
102
{ACAD_REACTORS
330
13
102
}
330
13
100
AcDbXrecord
280
1
90
1
330
FA9
330
F1000E
330
F10018
330
F1001D
330
F10009
330
F10004
330
F10013
0
XRECORD
5
F10010
102
{ACAD_REACTORS
330
F1000F
102
}
330
F1000F
100
AcDbXrecord
280
1
40
48458.0
1
40
0
XRECORD
5
F1001A
102
{ACAD_REACTORS
330
F10019
102
}
330
F10019
100
AcDbXrecord
280
1
40
48458.0
1
20
0
XRECORD
5
F1001F
102
{ACAD_REACTORS
330
F1001E
102
}
330
F1001E
100
AcDbXrecord
280
1
40
48458.0
1
60
0
XRECORD
5
F1000B
102
{ACAD_REACTORS
330
F1000A
102
}
330
F1000A
100
AcDbXrecord
280
1
40
48458.0
1
R1
0
XRECORD
5
F10006
102
{ACAD_REACTORS
330
F10005
102
}
330
F10005
100
AcDbXrecord
280
1
40
48458.0
1
6
0
LAYOUT
5
FD1
102
{ACAD_XDICTIONARY
360
10A9
102
}
102
{ACAD_REACTORS
330
FCF
102
}
330
FCF
100
AcDbPlotSettings
1

2
Microsoft XPS Document Writer
4

6

40
0.0
41
0.0
42
0.0
43
0.0
44
0.0
45
0.0
46
0.0
47
0.0
48
0.0
49
0.0
140
0.0
141
0.0
142
1.0
143
1.0
70
688
72
0
73
0
74
5
7

75
16
147
1.0
148
0.0
149
0.0
100
AcDbLayout
1
Layout1
70
1
71
1
10
0.0
20
0.0
11
12.0
21
9.0
12
0.0
22
0.0
32
0.0
14
1.000000000000000E+20
24
1.000000000000000E+20
34
1.000000000000000E+20
15
-1.000000000000000E+20
25
-1.000000000000000E+20
35
-1.000000000000000E+20
146
0.0
13
0.0
23
0.0
33
0.0
16
1.0
26
0.0
36
0.0
17
0.0
27
1.0
37
0.0
76
0
330
25D
0
LAYOUT
5
FD0
102
{ACAD_XDICTIONARY
360
10A7
102
}
102
{ACAD_REACTORS
330
FCF
102
}
330
FCF
100
AcDbPlotSettings
1

2
Microsoft XPS Document Writer
4

6

40
0.0
41
0.0
42
0.0
43
0.0
44
0.0
45
0.0
46
0.0
47
0.0
48
0.0
49
0.0
140
0.0
141
0.0
142
1.0
143
1.0
70
1712
72
0
73
0
74
0
7

75
0
147
1.0
148
0.0
149
0.0
100
AcDbLayout
1
Model
70
1
71
0
10
0.0
20
0.0
11
12.0
21
9.0
12
0.0
22
0.0
32
0.0
14
0.0
24
0.0
34
0.0
15
0.0
25
0.0
35
0.0
146
0.0
13
0.0
23
0.0
33
0.0
16
1.0
26
0.0
36
0.0
17
0.0
27
1.0
37
0.0
76
0
330
261
331
26B
0
MATERIAL
5
F83
102
{ACAD_XDICTIONARY
360
F84
102
}
102
{ACAD_REACTORS
330
F7A
102
}
330
F7A
100
AcDbMaterial
1
ByBlock
72
0
43
0.0208333333333333
43
0.0
43
0.0
43
0.0
43
0.0
43
0.0208333333333333
43
0.0
43
0.0
43
0.0
43
0.0
43
1.0
43
0.0
43
0.0
43
0.0
43
0.0
43
1.0
77
0
47
0.0208333333333333
47
0.0
47
0.0
47
0.0
47
0.0
47
0.0208333333333333
47
0.0
47
0.0
47
0.0
47
0.0
47
1.0
47
0.0
47
0.0
47
0.0
47
0.0
47
1.0
171
0
49
0.0208333333333333
49
0.0
49
0.0
49
0.0
49
0.0
49
0.0208333333333333
49
0.0
49
0.0
49
0.0
49
0.0
49
1.0
49
0.0
49
0.0
49
0.0
49
0.0
49
1.0
175
0
142
0.0208333333333333
142
0.0
142
0.0
142
0.0
142
0.0
142
0.0208333333333333
142
0.0
142
0.0
142
0.0
142
0.0
142
1.0
142
0.0
142
0.0
142
0.0
142
0.0
142
1.0
179
0
144
0.0208333333333333
144
0.0
144
0.0
144
0.0
144
0.0
144
0.0208333333333333
144
0.0
144
0.0
144
0.0
144
0.0
144
1.0
144
0.0
144
0.0
144
0.0
144
0.0
144
1.0
147
0.0208333333333333
147
0.0
147
0.0
147
0.0
147
0.0
147
0.0208333333333333
147
0.0
147
0.0
147
0.0
147
0.0
147
1.0
147
0.0
147
0.0
147
0.0
147
0.0
147
1.0
0
MATERIAL
5
F7B
102
{ACAD_XDICTIONARY
360
F7C
102
}
102
{ACAD_REACTORS
330
F7A
102
}
330
F7A
100
AcDbMaterial
1
ByLayer
72
0
43
0.0208333333333333
43
0.0
43
0.0
43
0.0
43
0.0
43
0.0208333333333333
43
0.0
43
0.0
43
0.0
43
0.0
43
1.0
43
0.0
43
0.0
43
0.0
43
0.0
43
1.0
77
0
47
0.0208333333333333
47
0.0
47
0.0
47
0.0
47
0.0
47
0.0208333333333333
47
0.0
47
0.0
47
0.0
47
0.0
47
1.0
47
0.0
47
0.0
47
0.0
47
0.0
47
1.0
171
0
49
0.0208333333333333
49
0.0
49
0.0
49
0.0
49
0.0
49
0.0208333333333333
49
0.0
49
0.0
49
0.0
49
0.0
49
1.0
49
0.0
49
0.0
49
0.0
49
0.0
49
1.0
175
0
142
0.0208333333333333
142
0.0
142
0.0
142
0.0
142
0.0
142
0.0208333333333333
142
0.0
142
0.0
142
0.0
142
0.0
142
1.0
142
0.0
142
0.0
142
0.0
142
0.0
142
1.0
179
0
144
0.0208333333333333
144
0.0
144
0.0
144
0.0
144
0.0
144
0.0208333333333333
144
0.0
144
0.0
144
0.0
144
0.0
144
1.0
144
0.0
144
0.0
144
0.0
144
0.0
144
1.0
147
0.0208333333333333
147
0.0
147
0.0
147
0.0
147
0.0
147
0.0208333333333333
147
0.0
147
0.0
147
0.0
147
0.0
147
1.0
147
0.0
147
0.0
147
0.0
147
0.0
147
1.0
0
MATERIAL
5
F8B
102
{ACAD_XDICTIONARY
360
F8C
102
}
102
{ACAD_REACTORS
330
F7A
102
}
330
F7A
100
AcDbMaterial
1
Global
72
0
43
0.0208333333333333
43
0.0
43
0.0
43
0.0
43
0.0
43
0.0208333333333333
43
0.0
43
0.0
43
0.0
43
0.0
43
1.0
43
0.0
43
0.0
43
0.0
43
0.0
43
1.0
77
0
47
0.0208333333333333
47
0.0
47
0.0
47
0.0
47
0.0
47
0.0208333333333333
47
0.0
47
0.0
47
0.0
47
0.0
47
1.0
47
0.0
47
0.0
47
0.0
47
0.0
47
1.0
171
0
49
0.0208333333333333
49
0.0
49
0.0
49
0.0
49
0.0
49
0.0208333333333333
49
0.0
49
0.0
49
0.0
49
0.0
49
1.0
49
0.0
49
0.0
49
0.0
49
0.0
49
1.0
175
0
142
0.0208333333333333
142
0.0
142
0.0
142
0.0
142
0.0
142
0.0208333333333333
142
0.0
142
0.0
142
0.0
142
0.0
142
1.0
142
0.0
142
0.0
142
0.0
142
0.0
142
1.0
179
0
144
0.0208333333333333
144
0.0
144
0.0
144
0.0
144
0.0
144
0.0208333333333333
144
0.0
144
0.0
144
0.0
144
0.0
144
1.0
144
0.0
144
0.0
144
0.0
144
0.0
144
1.0
147
0.0208333333333333
147
0.0
147
0.0
147
0.0
147
0.0
147
0.0208333333333333
147
0.0
147
0.0
147
0.0
147
0.0
147
1.0
147
0.0
147
0.0
147
0.0
147
0.0
147
1.0
0
MLEADERSTYLE
5
FCE
102
{ACAD_REACTORS
330
FCD
102
}
330
FCD
100
AcDbMLeaderStyle
170
2
171
1
172
0
90
2
40
0.0
41
0.0
173
1
91
-1056964608
340
256
92
-2
290
1
42
0.09
291
1
43
0.36
3
Standard
44
0.18
300

342
253
174
1
178
6
175
1
176
0
93
-1056964608
45
0.18
292
0
297
0
46
0.18
94
-1056964608
47
1.0
49
1.0
140
1.0
293
1
141
0.0
294
1
177
0
142
1.0
295
0
296
0
143
0.125
1001
ACAD_MLEADERVER
1070
2
0
MLINESTYLE
5
FAA
102
{ACAD_REACTORS
330
16
102
}
330
16
100
AcDbMlineStyle
2
STANDARD
70
0
3

62
256
51
90.0
52
90.0
71
2
49
0.5
62
256
6
BYLAYER
49
-0.5
62
256
6
BYLAYER
0
ACDBPLACEHOLDER
5
19
102
{ACAD_REACTORS
330
18
102
}
330
18
0
SCALE
5
FAC
102
{ACAD_REACTORS
330
FAB
102
}
330
FAB
100
AcDbScale
70
0
300
1:1
140
1.0
141
1.0
290
1
0
SCALE
5
FAD
102
{ACAD_REACTORS
330
FAB
102
}
330
FAB
100
AcDbScale
70
0
300
1:2
140
1.0
141
2.0
290
0
0
SCALE
5
FAE
102
{ACAD_REACTORS
330
FAB
102
}
330
FAB
100
AcDbScale
70
0
300
1:4
140
1.0
141
4.0
290
0
0
SCALE
5
FAF
102
{ACAD_REACTORS
330
FAB
102
}
330
FAB
100
AcDbScale
70
0
300
1:5
140
1.0
141
5.0
290
0
0
SCALE
5
FB0
102
{ACAD_REACTORS
330
FAB
102
}
330
FAB
100
AcDbScale
70
0
300
1:8
140
1.0
141
8.0
290
0
0
SCALE
5
FB1
102
{ACAD_REACTORS
330
FAB
102
}
330
FAB
100
AcDbScale
70
0
300
1:10
140
1.0
141
10.0
290
0
0
SCALE
5
FB2
102
{ACAD_REACTORS
330
FAB
102
}
330
FAB
100
AcDbScale
70
0
300
1:16
140
1.0
141
16.0
290
0
0
SCALE
5
FB3
102
{ACAD_REACTORS
330
FAB
102
}
330
FAB
100
AcDbScale
70
0
300
1:20
140
1.0
141
20.0
290
0
0
SCALE
5
FB4
102
{ACAD_REACTORS
330
FAB
102
}
330
FAB
100
AcDbScale
70
0
300
1:30
140
1.0
141
30.0
290
0
0
SCALE
5
FB5
102
{ACAD_REACTORS
330
FAB
102
}
330
FAB
100
AcDbScale
70
0
300
1:40
140
1.0
141
40.0
290
0
0
SCALE
5
FB6
102
{ACAD_REACTORS
330
FAB
102
}
330
FAB
100
AcDbScale
70
0
300
1:50
140
1.0
141
50.0
290
0
0
SCALE
5
FB7
102
{ACAD_REACTORS
330
FAB
102
}
330
FAB
100
AcDbScale
70
0
300
1:100
140
1.0
141
100.0
290
0
0
SCALE
5
FB8
102
{ACAD_REACTORS
330
FAB
102
}
330
FAB
100
AcDbScale
70
0
300
2:1
140
2.0
141
1.0
290
0
0
SCALE
5
FB9
102
{ACAD_REACTORS
330
FAB
102
}
330
FAB
100
AcDbScale
70
0
300
4:1
140
4.0
141
1.0
290
0
0
SCALE
5
FBA
102
{ACAD_REACTORS
330
FAB
102
}
330
FAB
100
AcDbScale
70
0
300
8:1
140
8.0
141
1.0
290
0
0
SCALE
5
FBB
102
{ACAD_REACTORS
330
FAB
102
}
330
FAB
100
AcDbScale
70
0
300
10:1
140
10.0
141
1.0
290
0
0
SCALE
5
FBC
102
{ACAD_REACTORS
330
FAB
102
}
330
FAB
100
AcDbScale
70
0
300
100:1
140
100.0
141
1.0
290
0
0
SCALE
5
FBD
102
{ACAD_REACTORS
330
FAB
102
}
330
FAB
100
AcDbScale
70
0
300
1/128" = 1'-0"
140
0.0078125
141
12.0
290
0
0
SCALE
5
FBE
102
{ACAD_REACTORS
330
FAB
102
}
330
FAB
100
AcDbScale
70
0
300
1/64" = 1'-0"
140
0.015625
141
12.0
290
0
0
SCALE
5
FBF
102
{ACAD_REACTORS
330
FAB
102
}
330
FAB
100
AcDbScale
70
0
300
1/32" = 1'-0"
140
0.03125
141
12.0
290
0
0
SCALE
5
FC0
102
{ACAD_REACTORS
330
FAB
102
}
330
FAB
100
AcDbScale
70
0
300
1/16" = 1'-0"
140
0.0625
141
12.0
290
0
0
SCALE
5
FC1
102
{ACAD_REACTORS
330
FAB
102
}
330
FAB
100
AcDbScale
70
0
300
3/32" = 1'-0"
140
0.09375
141
12.0
290
0
0
SCALE
5
FC2
102
{ACAD_REACTORS
330
FAB
102
}
330
FAB
100
AcDbScale
70
0
300
1/8" = 1'-0"
140
0.125
141
12.0
290
0
0
SCALE
5
FC3
102
{ACAD_REACTORS
330
FAB
102
}
330
FAB
100
AcDbScale
70
0
300
3/16" = 1'-0"
140
0.1875
141
12.0
290
0
0
SCALE
5
FC4
102
{ACAD_REACTORS
330
FAB
102
}
330
FAB
100
AcDbScale
70
0
300
1/4" = 1'-0"
140
0.25
141
12.0
290
0
0
SCALE
5
FC5
102
{ACAD_REACTORS
330
FAB
102
}
330
FAB
100
AcDbScale
70
0
300
3/8" = 1'-0"
140
0.375
141
12.0
290
0
0
SCALE
5
FC6
102
{ACAD_REACTORS
330
FAB
102
}
330
FAB
100
AcDbScale
70
0
300
1/2" = 1'-0"
140
0.5
141
12.0
290
0
0
SCALE
5
FC7
102
{ACAD_REACTORS
330
FAB
102
}
330
FAB
100
AcDbScale
70
0
300
3/4" = 1'-0"
140
0.75
141
12.0
290
0
0
SCALE
5
FC8
102
{ACAD_REACTORS
330
FAB
102
}
330
FAB
100
AcDbScale
70
0
300
1" = 1'-0"
140
1.0
141
12.0
290
0
0
SCALE
5
FC9
102
{ACAD_REACTORS
330
FAB
102
}
330
FAB
100
AcDbScale
70
0
300
1-1/2" = 1'-0"
140
1.5
141
12.0
290
0
0
SCALE
5
FCA
102
{ACAD_REACTORS
330
FAB
102
}
330
FAB
100
AcDbScale
70
0
300
3" = 1'-0"
140
3.0
141
12.0
290
0
0
SCALE
5
FCB
102
{ACAD_REACTORS
330
FAB
102
}
330
FAB
100
AcDbScale
70
0
300
6" = 1'-0"
140
6.0
141
12.0
290
0
0
SCALE
5
FCC
102
{ACAD_REACTORS
330
FAB
102
}
330
FAB
100
AcDbScale
70
0
300
1'-0" = 1'-0"
140
12.0
141
12.0
290
0
0
TABLESTYLE
5
FA9
102
{ACAD_XDICTIONARY
360
FF8
102
}
102
{ACAD_REACTORS
330
FA8
102
}
330
FA8
100
AcDbTableStyle
3
Standard
70
0
71
0
40
0.06
41
0.06
280
0
281
0
7
Standard
140
0.18
170
2
62
0
63
7
283
0
274
-2
284
1
64
0
275
-2
285
1
65
0
276
-2
286
1
66
0
277
-2
287
1
67
0
278
-2
288
1
68
0
279
-2
289
1
69
0
7
Standard
140
0.25
170
5
62
0
63
7
283
0
274
-2
284
1
64
0
275
-2
285
1
65
0
276
-2
286
1
66
0
277
-2
287
1
67
0
278
-2
288
1
68
0
279
-2
289
1
69
0
7
Standard
140
0.18
170
5
62
0
63
7
283
0
274
-2
284
1
64
0
275
-2
285
1
65
0
276
-2
286
1
66
0
277
-2
287
1
67
0
278
-2
288
1
68
0
279
-2
289
1
69
0
0
VISUALSTYLE
5
F99
102
{ACAD_XDICTIONARY
360
108A
102
}
102
{ACAD_REACTORS
330
F93
102
}
330
F93
100
AcDbVisualStyle
2

70
4
71
0
72
2
73
0
90
0
40
-0.6
41
-30.0
62
5
63
7
74
1
91
4
64
7
65
257
75
1
175
1
42
1.0
92
0
66
257
43
1.0
76
1
77
6
78
2
67
7
79
5
170
0
171
0
290
0
174
0
93
1
44
0.0
173
0
291
0
45
0.0
1001
ACAD
1000
AcDbSavedByObjectVersion
1070
0
0
VISUALSTYLE
5
F9B
102
{ACAD_XDICTIONARY
360
108E
102
}
102
{ACAD_REACTORS
330
F93
102
}
330
F93
100
AcDbVisualStyle
2

70
6
71
1
72
2
73
2
90
0
40
-0.6
41
-30.0
62
5
63
7
74
2
91
2
64
7
65
257
75
2
175
1
42
179.0
92
0
66
257
43
1.0
76
1
77
6
78
2
67
7
79
3
170
0
171
0
290
0
174
0
93
1
44
0.0
173
0
291
0
45
0.0
1001
ACAD
1000
AcDbSavedByObjectVersion
1070
0
0
VISUALSTYLE
5
F9A
102
{ACAD_XDICTIONARY
360
108C
102
}
102
{ACAD_REACTORS
330
F93
102
}
330
F93
100
AcDbVisualStyle
2

70
5
71
0
72
2
73
0
90
0
40
-0.6
41
-30.0
62
5
63
7
74
1
91
4
64
7
65
257
75
1
175
1
42
1.0
92
0
66
257
43
1.0
76
1
77
6
78
2
67
7
79
5
170
0
171
0
290
0
174
0
93
1
44
0.0
173
0
291
0
45
0.0
1001
ACAD
1000
AcDbSavedByObjectVersion
1070
0
0
VISUALSTYLE
5
F98
102
{ACAD_XDICTIONARY
360
1088
102
}
102
{ACAD_REACTORS
330
F93
102
}
330
F93
100
AcDbVisualStyle
2

70
7
71
1
72
0
73
1
90
0
40
-0.6
41
-30.0
62
5
63
7
74
0
91
4
64
7
65
257
75
1
175
1
42
1.0
92
8
66
7
43
1.0
76
1
77
6
78
2
67
7
79
5
170
0
171
0
290
0
174
0
93
1
44
0.0
173
0
291
1
45
0.0
1001
ACAD
1000
AcDbSavedByObjectVersion
1070
0
0
VISUALSTYLE
5
F9F
102
{ACAD_XDICTIONARY
360
1096
102
}
102
{ACAD_REACTORS
330
F93
102
}
330
F93
100
AcDbVisualStyle
2

70
12
71
2
72
2
73
0
90
0
40
-0.6
41
-30.0
62
5
63
7
74
1
91
4
64
7
65
257
75
1
175
1
42
1.0
92
8
66
7
43
1.0
76
1
77
6
78
2
67
7
79
5
170
0
171
0
290
0
174
0
93
1
44
50.0
173
0
291
1
45
0.0
1001
ACAD
1000
AcDbSavedByObjectVersion
1070
0
0
VISUALSTYLE
5
FA3
102
{ACAD_XDICTIONARY
360
109E
102
}
102
{ACAD_REACTORS
330
F93
102
}
330
F93
100
AcDbVisualStyle
2

70
16
71
2
72
2
73
3
90
0
40
-0.6
41
-30.0
62
5
63
8
74
1
91
4
64
7
65
257
75
1
175
1
42
1.0
92
8
66
8
43
1.0
76
1
77
6
78
2
67
7
79
5
170
0
171
0
290
0
174
0
93
1
44
0.0
173
0
291
1
45
0.0
1001
ACAD
1000
AcDbSavedByObjectVersion
1070
0
0
VISUALSTYLE
5
F9C
102
{ACAD_XDICTIONARY
360
1090
102
}
102
{ACAD_REACTORS
330
F93
102
}
330
F93
100
AcDbVisualStyle
2

70
9
71
3
72
2
73
0
90
0
40
-0.6
41
-30.0
62
5
63
7
74
2
91
2
64
7
65
257
75
1
175
1
42
179.0
92
8
66
7
43
1.0
76
1
77
6
78
2
67
7
79
3
170
0
171
0
290
0
174
0
93
1
44
0.0
173
0
291
0
45
0.0
1001
ACAD
1000
AcDbSavedByObjectVersion
1070
0
0
VISUALSTYLE
5
F9E
102
{ACAD_XDICTIONARY
360
1094
102
}
102
{ACAD_REACTORS
330
F93
102
}
330
F93
100
AcDbVisualStyle
2

70
11
71
2
72
2
73
0
90
0
40
-0.6
41
-30.0
62
5
63
7
74
1
91
4
64
7
65
257
75
1
175
1
42
1.0
92
8
66
7
43
1.0
76
1
77
6
78
2
67
7
79
5
170
0
171
0
290
0
174
0
93
1
44
-50.0
173
0
291
1
45
0.0
1001
ACAD
1000
AcDbSavedByObjectVersion
1070
0
0
VISUALSTYLE
5
FA6
102
{ACAD_XDICTIONARY
360
10A4
102
}
102
{ACAD_REACTORS
330
F93
102
}
330
F93
100
AcDbVisualStyle
2

70
22
71
2
72
2
73
0
90
0
40
-0.6
41
-30.0
62
5
63
7
74
1
91
4
64
7
65
257
75
1
175
1
42
1.0
92
8
66
7
43
1.0
76
1
77
6
78
2
67
7
79
5
170
0
171
0
290
0
174
0
93
1
44
0.0
173
0
291
1
45
0.0
1001
ACAD
1000
AcDbSavedByObjectVersion
1070
0
0
VISUALSTYLE
5
FA2
102
{ACAD_XDICTIONARY
360
109C
102
}
102
{ACAD_REACTORS
330
F93
102
}
330
F93
100
AcDbVisualStyle
2

70
15
71
2
72
2
73
0
90
0
40
-0.6
41
-30.0
62
5
63
7
74
1
91
4
64
7
65
257
75
1
175
1
42
1.0
92
8
66
7
43
1.0
76
1
77
6
78
2
67
7
79
5
170
0
171
0
290
0
174
0
93
1
44
0.0
173
0
291
1
45
0.0
1001
ACAD
1000
AcDbSavedByObjectVersion
1070
0
0
VISUALSTYLE
5
F94
102
{ACAD_XDICTIONARY
360
1080
102
}
102
{ACAD_REACTORS
330
F93
102
}
330
F93
100
AcDbVisualStyle
2

70
0
71
2
72
1
73
1
90
2
40
-0.6
41
30.0
62
5
63
7
74
0
91
4
64
7
65
257
75
1
175
1
42
1.0
92
8
66
7
43
1.0
76
1
77
6
78
2
67
7
79
5
170
0
171
0
290
0
174
0
93
13
44
0.0
173
0
291
1
45
0.0
1001
ACAD
1000
AcDbSavedByObjectVersion
1070
0
0
VISUALSTYLE
5
F95
102
{ACAD_XDICTIONARY
360
1082
102
}
102
{ACAD_REACTORS
330
F93
102
}
330
F93
100
AcDbVisualStyle
2

70
1
71
2
72
1
73
1
90
2
40
-0.6
41
30.0
62
5
63
7
74
1
91
4
64
7
65
257
75
1
175
1
42
1.0
92
0
66
257
43
1.0
76
1
77
6
78
2
67
7
79
5
170
0
171
0
290
0
174
0
93
13
44
0.0
173
0
291
1
45
0.0
1001
ACAD
1000
AcDbSavedByObjectVersion
1070
0
0
VISUALSTYLE
5
F96
102
{ACAD_XDICTIONARY
360
1084
102
}
102
{ACAD_REACTORS
330
F93
102
}
330
F93
100
AcDbVisualStyle
2

70
2
71
2
72
2
73
1
90
2
40
-0.6
41
30.0
62
5
63
7
74
0
91
4
64
7
65
257
75
1
175
1
42
1.0
92
0
66
7
43
1.0
76
1
77
6
78
2
67
7
79
5
170
0
171
0
290
0
174
0
93
13
44
0.0
173
0
291
1
45
0.0
1001
ACAD
1000
AcDbSavedByObjectVersion
1070
0
0
VISUALSTYLE
5
F97
102
{ACAD_XDICTIONARY
360
1086
102
}
102
{ACAD_REACTORS
330
F93
102
}
330
F93
100
AcDbVisualStyle
2

70
3
71
2
72
2
73
1
90
2
40
-0.6
41
30.0
62
5
63
7
74
1
91
4
64
7
65
257
75
1
175
1
42
1.0
92
0
66
257
43
1.0
76
1
77
6
78
2
67
7
79
5
170
0
171
0
290
0
174
0
93
13
44
0.0
173
0
291
1
45
0.0
1001
ACAD
1000
AcDbSavedByObjectVersion
1070
0
0
VISUALSTYLE
5
FA4
102
{ACAD_XDICTIONARY
360
10A0
102
}
102
{ACAD_REACTORS
330
F93
102
}
330
F93
100
AcDbVisualStyle
2

70
20
71
2
72
2
73
0
90
0
40
-0.6
41
-30.0
62
5
63
7
74
1
91
4
64
7
65
257
75
1
175
1
42
1.0
92
10
66
7
43
1.0
76
1
77
6
78
2
67
7
79
5
170
0
171
0
290
0
174
0
93
1
44
0.0
173
0
291
1
45
0.0
1001
ACAD
1000
AcDbSavedByObjectVersion
1070
0
0
VISUALSTYLE
5
FA1
102
{ACAD_XDICTIONARY
360
109A
102
}
102
{ACAD_REACTORS
330
F93
102
}
330
F93
100
AcDbVisualStyle
2

70
14
71
2
72
2
73
0
90
0
40
-0.6
41
-30.0
62
5
63
7
74
1
91
4
64
7
65
257
75
7
175
7
42
1.0
92
8
66
7
43
1.0
76
1
77
6
78
2
67
7
79
5
170
0
171
0
290
0
174
0
93
1
44
0.0
173
0
291
1
45
0.0
1001
ACAD
1000
AcDbSavedByObjectVersion
1070
0
0
VISUALSTYLE
5
FA5
102
{ACAD_XDICTIONARY
360
10A2
102
}
102
{ACAD_REACTORS
330
F93
102
}
330
F93
100
AcDbVisualStyle
2

70
21
71
2
72
2
73
0
90
0
40
-0.6
41
-30.0
62
5
63
7
74
1
91
4
64
7
65
257
75
1
175
1
42
1.0
92
9
66
7
43
1.0
76
1
77
6
78
2
67
7
79
5
170
0
171
0
290
0
174
0
93
1
44
0.0
173
0
291
1
45
0.0
1001
ACAD
1000
AcDbSavedByObjectVersion
1070
0
0
VISUALSTYLE
5
F9D
102
{ACAD_XDICTIONARY
360
1092
102
}
102
{ACAD_REACTORS
330
F93
102
}
330
F93
100
AcDbVisualStyle
2

70
8
71
2
72
2
73
0
90
0
40
-0.6
41
-30.0
62
5
63
7
74
1
91
0
64
7
65
257
75
1
175
1
42
1.0
92
8
66
8
43
1.0
76
1
77
6
78
2
67
7
79
5
170
0
171
0
290
0
174
0
93
13
44
0.0
173
0
291
0
45
0.0
1001
ACAD
1000
AcDbSavedByObjectVersion
1070
0
0
VISUALSTYLE
5
FA0
102
{ACAD_XDICTIONARY
360
1098
102
}
102
{ACAD_REACTORS
330
F93
102
}
330
F93
100
AcDbVisualStyle
2

70
13
71
2
72
2
73
0
90
0
40
-0.6
41
-30.0
62
5
63
7
74
1
91
4
64
7
65
257
75
1
175
1
42
1.0
92
12
66
7
43
1.0
76
1
77
6
78
2
67
7
79
5
170
0
171
0
290
0
174
0
93
1
44
0.0
173
0
291
1
45
0.0
1001
ACAD
1000
AcDbSavedByObjectVersion
1070
0
0
DICTIONARYVAR
5
FF3
102
{ACAD_REACTORS
330
FF0
102
}
330
FF0
100
DictionaryVariables
280
0
1
1:1
0
DICTIONARYVAR
5
FF2
102
{ACAD_REACTORS
330
FF0
102
}
330
FF0
100
DictionaryVariables
280
0
1
STANDARD
0
DICTIONARYVAR
5
FF1
102
{ACAD_REACTORS
330
FF0
102
}
330
FF0
100
DictionaryVariables
280
0
1
STANDARD
0
DICTIONARYVAR
5
FF6
102
{ACAD_REACTORS
330
FF0
102
}
330
FF0
100
DictionaryVariables
280
0
1
1
0
DICTIONARYVAR
5
FF5
102
{ACAD_REACTORS
330
FF0
102
}
330
FF0
100
DictionaryVariables
280
0
1
0
0
DICTIONARYVAR
5
FF4
102
{ACAD_REACTORS
330
FF0
102
}
330
FF0
100
DictionaryVariables
280
0
1
127
0
DICTIONARYVAR
5
1078
102
{ACAD_REACTORS
330
FF0
102
}
330
FF0
100
DictionaryVariables
280
0
1
2
0
DICTIONARY
5
10A9
330
FD1
100
AcDbDictionary
280
1
281
1
3
ACAD_XREC_ROUNDTRIP
360
10AA
0
DICTIONARY
5
10A7
330
FD0
100
AcDbDictionary
280
1
281
1
3
ACAD_XREC_ROUNDTRIP
360
10A8
0
DICTIONARY
5
F84
330
F83
100
AcDbDictionary
280
1
281
1
3
ACAD_XREC_ROUNDTRIP
360
FFF
3
BUMPTILE
360
F86
3
DIFFUSETILE
360
F85
3
OPACITYTILE
360
F89
3
REFLECTIONTILE
360
F88
3
REFRACTIONTILE
360
F8A
3
SPECULARTILE
360
F87
0
DICTIONARY
5
F7C
330
F7B
100
AcDbDictionary
280
1
281
1
3
ACAD_XREC_ROUNDTRIP
360
FFE
3
BUMPTILE
360
F7E
3
DIFFUSETILE
360
F7D
3
OPACITYTILE
360
F81
3
REFLECTIONTILE
360
F80
3
REFRACTIONTILE
360
F82
3
SPECULARTILE
360
F7F
0
DICTIONARY
5
F8C
330
F8B
100
AcDbDictionary
280
1
281
1
3
ACAD_XREC_ROUNDTRIP
360
1000
3
BUMPTILE
360
F8E
3
DIFFUSETILE
360
F8D
3
OPACITYTILE
360
F91
3
REFLECTIONTILE
360
F90
3
REFRACTIONTILE
360
F92
3
SPECULARTILE
360
F8F
0
DICTIONARY
5
FF8
330
FA9
100
AcDbDictionary
280
1
281
1
3
ACAD_ROUNDTRIP_2008_TABLESTYLE_CELLSTYLEMAP
360
1079
3
ACAD_XREC_ROUNDTRIP
360
10A6
0
DICTIONARY
5
108A
330
F99
100
AcDbDictionary
280
1
281
1
3
ACAD_XREC_ROUNDTRIP
360
108B
0
DICTIONARY
5
108E
330
F9B
100
AcDbDictionary
280
1
281
1
3
ACAD_XREC_ROUNDTRIP
360
108F
0
DICTIONARY
5
108C
330
F9A
100
AcDbDictionary
280
1
281
1
3
ACAD_XREC_ROUNDTRIP
360
108D
0
DICTIONARY
5
1088
330
F98
100
AcDbDictionary
280
1
281
1
3
ACAD_XREC_ROUNDTRIP
360
1089
0
DICTIONARY
5
1096
330
F9F
100
AcDbDictionary
280
1
281
1
3
ACAD_XREC_ROUNDTRIP
360
1097
0
DICTIONARY
5
109E
330
FA3
100
AcDbDictionary
280
1
281
1
3
ACAD_XREC_ROUNDTRIP
360
109F
0
DICTIONARY
5
1090
330
F9C
100
AcDbDictionary
280
1
281
1
3
ACAD_XREC_ROUNDTRIP
360
1091
0
DICTIONARY
5
1094
330
F9E
100
AcDbDictionary
280
1
281
1
3
ACAD_XREC_ROUNDTRIP
360
1095
0
DICTIONARY
5
10A4
330
FA6
100
AcDbDictionary
280
1
281
1
3
ACAD_XREC_ROUNDTRIP
360
10A5
0
DICTIONARY
5
109C
330
FA2
100
AcDbDictionary
280
1
281
1
3
ACAD_XREC_ROUNDTRIP
360
109D
0
DICTIONARY
5
1080
330
F94
100
AcDbDictionary
280
1
281
1
3
ACAD_XREC_ROUNDTRIP
360
1081
0
DICTIONARY
5
1082
330
F95
100
AcDbDictionary
280
1
281
1
3
ACAD_XREC_ROUNDTRIP
360
1083
0
DICTIONARY
5
1084
330
F96
100
AcDbDictionary
280
1
281
1
3
ACAD_XREC_ROUNDTRIP
360
1085
0
DICTIONARY
5
1086
330
F97
100
AcDbDictionary
280
1
281
1
3
ACAD_XREC_ROUNDTRIP
360
1087
0
DICTIONARY
5
10A0
330
FA4
100
AcDbDictionary
280
1
281
1
3
ACAD_XREC_ROUNDTRIP
360
10A1
0
DICTIONARY
5
109A
330
FA1
100
AcDbDictionary
280
1
281
1
3
ACAD_XREC_ROUNDTRIP
360
109B
0
DICTIONARY
5
10A2
330
FA5
100
AcDbDictionary
280
1
281
1
3
ACAD_XREC_ROUNDTRIP
360
10A3
0
DICTIONARY
5
1092
330
F9D
100
AcDbDictionary
280
1
281
1
3
ACAD_XREC_ROUNDTRIP
360
1093
0
DICTIONARY
5
1098
330
FA0
100
AcDbDictionary
280
1
281
1
3
ACAD_XREC_ROUNDTRIP
360
1099
0
XRECORD
5
10AA
102
{ACAD_REACTORS
330
10A9
102
}
330
10A9
100
AcDbXrecord
280
1
102
SHADEPLOT
70
0
102
SHADEPLOTRESLEVEL
70
2
102
SHADEPLOTCUSTOMDPI
70
300
0
XRECORD
5
10A8
102
{ACAD_REACTORS
330
10A7
102
}
330
10A7
100
AcDbXrecord
280
1
102
SHADEPLOT
70
0
102
SHADEPLOTRESLEVEL
70
2
102
SHADEPLOTCUSTOMDPI
70
300
0
XRECORD
5
FFF
102
{ACAD_REACTORS
330
F84
102
}
330
F84
100
AcDbXrecord
280
1
102
MATERIAL
148
0.0
149
0.0
149
0.0
93
0
94
127
282
0
72
0
77
0
171
0
175
0
179
0
273
0
0
XRECORD
5
F86
102
{ACAD_REACTORS
330
F84
102
}
330
F84
100
AcDbXrecord
280
1
270
1
271
1
0
XRECORD
5
F85
102
{ACAD_REACTORS
330
F84
102
}
330
F84
100
AcDbXrecord
280
1
270
1
271
1
0
XRECORD
5
F89
102
{ACAD_REACTORS
330
F84
102
}
330
F84
100
AcDbXrecord
280
1
270
1
271
1
0
XRECORD
5
F88
102
{ACAD_REACTORS
330
F84
102
}
330
F84
100
AcDbXrecord
280
1
270
1
271
1
0
XRECORD
5
F8A
102
{ACAD_REACTORS
330
F84
102
}
330
F84
100
AcDbXrecord
280
1
270
1
271
1
0
XRECORD
5
F87
102
{ACAD_REACTORS
330
F84
102
}
330
F84
100
AcDbXrecord
280
1
270
1
271
1
0
XRECORD
5
FFE
102
{ACAD_REACTORS
330
F7C
102
}
330
F7C
100
AcDbXrecord
280
1
102
MATERIAL
148
0.0
149
0.0
149
0.0
93
0
94
127
282
0
72
0
77
0
171
0
175
0
179
0
273
0
0
XRECORD
5
F7E
102
{ACAD_REACTORS
330
F7C
102
}
330
F7C
100
AcDbXrecord
280
1
270
1
271
1
0
XRECORD
5
F7D
102
{ACAD_REACTORS
330
F7C
102
}
330
F7C
100
AcDbXrecord
280
1
270
1
271
1
0
XRECORD
5
F81
102
{ACAD_REACTORS
330
F7C
102
}
330
F7C
100
AcDbXrecord
280
1
270
1
271
1
0
XRECORD
5
F80
102
{ACAD_REACTORS
330
F7C
102
}
330
F7C
100
AcDbXrecord
280
1
270
1
271
1
0
XRECORD
5
F82
102
{ACAD_REACTORS
330
F7C
102
}
330
F7C
100
AcDbXrecord
280
1
270
1
271
1
0
XRECORD
5
F7F
102
{ACAD_REACTORS
330
F7C
102
}
330
F7C
100
AcDbXrecord
280
1
270
1
271
1
0
XRECORD
5
1000
102
{ACAD_REACTORS
330
F8C
102
}
330
F8C
100
AcDbXrecord
280
1
102
MATERIAL
148
0.0
149
0.0
149
0.0
93
0
94
127
282
0
72
0
77
0
171
0
175
0
179
0
273
0
0
XRECORD
5
F8E
102
{ACAD_REACTORS
330
F8C
102
}
330
F8C
100
AcDbXrecord
280
1
270
1
271
1
0
XRECORD
5
F8D
102
{ACAD_REACTORS
330
F8C
102
}
330
F8C
100
AcDbXrecord
280
1
270
1
271
1
0
XRECORD
5
F91
102
{ACAD_REACTORS
330
F8C
102
}
330
F8C
100
AcDbXrecord
280
1
270
1
271
1
0
XRECORD
5
F90
102
{ACAD_REACTORS
330
F8C
102
}
330
F8C
100
AcDbXrecord
280
1
270
1
271
1
0
XRECORD
5
F92
102
{ACAD_REACTORS
330
F8C
102
}
330
F8C
100
AcDbXrecord
280
1
270
1
271
1
0
XRECORD
5
F8F
102
{ACAD_REACTORS
330
F8C
102
}
330
F8C
100
AcDbXrecord
280
1
270
1
271
1
0
CELLSTYLEMAP
5
1079
102
{ACAD_REACTORS
330
FF8
102
}
330
FF8
100
AcDbCellStyleMap
90
3
300
CELLSTYLE
1
TABLEFORMAT_BEGIN
90
5
170
1
91
0
92
32768
62
257
93
1
300
CONTENTFORMAT
1
CONTENTFORMAT_BEGIN
90
0
91
0
92
512
93
0
300

40
0.0
140
1.0
94
5
62
0
340
253
144
0.25
309
CONTENTFORMAT_END
171
1
301
MARGIN
1
CELLMARGIN_BEGIN
40
0.06
40
0.06
40
0.06
40
0.06
40
0.18
40
0.18
309
CELLMARGIN_END
94
6
95
1
302
GRIDFORMAT
1
GRIDFORMAT_BEGIN
90
0
91
1
62
0
92
-2
340
0
93
0
40
0.045
309
GRIDFORMAT_END
95
2
302
GRIDFORMAT
1
GRIDFORMAT_BEGIN
90
0
91
1
62
0
92
-2
340
0
93
0
40
0.045
309
GRIDFORMAT_END
95
4
302
GRIDFORMAT
1
GRIDFORMAT_BEGIN
90
0
91
1
62
0
92
-2
340
0
93
0
40
0.045
309
GRIDFORMAT_END
95
8
302
GRIDFORMAT
1
GRIDFORMAT_BEGIN
90
0
91
1
62
0
92
-2
340
0
93
0
40
0.045
309
GRIDFORMAT_END
95
16
302
GRIDFORMAT
1
GRIDFORMAT_BEGIN
90
0
91
1
62
0
92
-2
340
0
93
0
40
0.045
309
GRIDFORMAT_END
95
32
302
GRIDFORMAT
1
GRIDFORMAT_BEGIN
90
0
91
1
62
0
92
-2
340
0
93
0
40
0.045
309
GRIDFORMAT_END
309
TABLEFORMAT_END
1
CELLSTYLE_BEGIN
90
1
91
1
300
_TITLE
309
CELLSTYLE_END
300
CELLSTYLE
1
TABLEFORMAT_BEGIN
90
5
170
1
91
0
92
0
62
257
93
1
300
CONTENTFORMAT
1
CONTENTFORMAT_BEGIN
90
0
91
0
92
512
93
0
300

40
0.0
140
1.0
94
5
62
0
340
253
144
0.18
309
CONTENTFORMAT_END
171
1
301
MARGIN
1
CELLMARGIN_BEGIN
40
0.06
40
0.06
40
0.06
40
0.06
40
0.18
40
0.18
309
CELLMARGIN_END
94
6
95
1
302
GRIDFORMAT
1
GRIDFORMAT_BEGIN
90
0
91
1
62
0
92
-2
340
0
93
0
40
0.045
309
GRIDFORMAT_END
95
2
302
GRIDFORMAT
1
GRIDFORMAT_BEGIN
90
0
91
1
62
0
92
-2
340
0
93
0
40
0.045
309
GRIDFORMAT_END
95
4
302
GRIDFORMAT
1
GRIDFORMAT_BEGIN
90
0
91
1
62
0
92
-2
340
0
93
0
40
0.045
309
GRIDFORMAT_END
95
8
302
GRIDFORMAT
1
GRIDFORMAT_BEGIN
90
0
91
1
62
0
92
-2
340
0
93
0
40
0.045
309
GRIDFORMAT_END
95
16
302
GRIDFORMAT
1
GRIDFORMAT_BEGIN
90
0
91
1
62
0
92
-2
340
0
93
0
40
0.045
309
GRIDFORMAT_END
95
32
302
GRIDFORMAT
1
GRIDFORMAT_BEGIN
90
0
91
1
62
0
92
-2
340
0
93
0
40
0.045
309
GRIDFORMAT_END
309
TABLEFORMAT_END
1
CELLSTYLE_BEGIN
90
2
91
1
300
_HEADER
309
CELLSTYLE_END
300
CELLSTYLE
1
TABLEFORMAT_BEGIN
90
5
170
1
91
0
92
0
62
257
93
1
300
CONTENTFORMAT
1
CONTENTFORMAT_BEGIN
90
0
91
0
92
512
93
0
300

40
0.0
140
1.0
94
2
62
0
340
253
144
0.18
309
CONTENTFORMAT_END
171
1
301
MARGIN
1
CELLMARGIN_BEGIN
40
0.06
40
0.06
40
0.06
40
0.06
40
0.18
40
0.18
309
CELLMARGIN_END
94
6
95
1
302
GRIDFORMAT
1
GRIDFORMAT_BEGIN
90
0
91
1
62
0
92
-2
340
0
93
0
40
0.045
309
GRIDFORMAT_END
95
2
302
GRIDFORMAT
1
GRIDFORMAT_BEGIN
90
0
91
1
62
0
92
-2
340
0
93
0
40
0.045
309
GRIDFORMAT_END
95
4
302
GRIDFORMAT
1
GRIDFORMAT_BEGIN
90
0
91
1
62
0
92
-2
340
0
93
0
40
0.045
309
GRIDFORMAT_END
95
8
302
GRIDFORMAT
1
GRIDFORMAT_BEGIN
90
0
91
1
62
0
92
-2
340
0
93
0
40
0.045
309
GRIDFORMAT_END
95
16
302
GRIDFORMAT
1
GRIDFORMAT_BEGIN
90
0
91
1
62
0
92
-2
340
0
93
0
40
0.045
309
GRIDFORMAT_END
95
32
302
GRIDFORMAT
1
GRIDFORMAT_BEGIN
90
0
91
1
62
0
92
-2
340
0
93
0
40
0.045
309
GRIDFORMAT_END
309
TABLEFORMAT_END
1
CELLSTYLE_BEGIN
90
3
91
2
300
_DATA
309
CELLSTYLE_END
0
XRECORD
5
10A6
102
{ACAD_REACTORS
330
FF8
102
}
330
FF8
100
AcDbXrecord
280
1
102
ACAD_ROUNDTRIP_PRE2007_TABLESTYLE
90
512
91
0
1

92
512
93
0
2

94
512
95
0
3

0
XRECORD
5
108B
102
{ACAD_REACTORS
330
108A
102
}
330
108A
100
AcDbXrecord
280
1
102
RTVSPropertyOp0
70
1
102
RTVSPropertyOp1
70
1
102
RTVSPropertyOp2
70
1
102
RTVSPropertyOp3
70
1
102
RTVSPropertyOp4
70
1
102
RTVSPropertyOp5
70
1
102
RTVSPropertyOp6
70
1
102
RTVSPropertyOp7
70
1
102
RTVSPropertyOp8
70
1
102
RTVSPropertyOp9
70
1
102
RTVSPropertyOp10
70
1
102
RTVSPropertyOp11
70
1
102
RTVSPropertyOp12
70
1
102
RTVSPropertyOp13
70
1
102
RTVSPropertyOp14
70
1
102
RTVSPropertyOp15
70
1
102
RTVSPropertyOp16
70
1
102
RTVSPropertyOp17
70
1
102
RTVSPropertyOp18
70
1
102
RTVSPropertyOp19
70
1
102
RTVSPropertyOp20
70
1
102
RTVSPropertyOp21
70
1
102
RTVSPropertyOp22
70
1
102
RTVSPropertyOp23
70
1
102
RTVSPropertyOp24
70
1
102
RTVSPropertyOp25
70
1
102
RTVSPropertyOp26
70
1
102
RTVSPropertyOp27
70
1
0
XRECORD
5
108F
102
{ACAD_REACTORS
330
108E
102
}
330
108E
100
AcDbXrecord
280
1
102
RTVSPropertyOp0
70
1
102
RTVSPropertyOp1
70
1
102
RTVSPropertyOp2
70
1
102
RTVSPropertyOp3
70
1
102
RTVSPropertyOp4
70
1
102
RTVSPropertyOp5
70
1
102
RTVSPropertyOp6
70
1
102
RTVSPropertyOp7
70
1
102
RTVSPropertyOp8
70
1
102
RTVSPropertyOp9
70
1
102
RTVSPropertyOp10
70
1
102
RTVSPropertyOp11
70
1
102
RTVSPropertyOp12
70
1
102
RTVSPropertyOp13
70
1
102
RTVSPropertyOp14
70
1
102
RTVSPropertyOp15
70
1
102
RTVSPropertyOp16
70
1
102
RTVSPropertyOp17
70
1
102
RTVSPropertyOp18
70
1
102
RTVSPropertyOp19
70
1
102
RTVSPropertyOp20
70
1
102
RTVSPropertyOp21
70
1
102
RTVSPropertyOp22
70
1
102
RTVSPropertyOp23
70
1
102
RTVSPropertyOp24
70
1
102
RTVSPropertyOp25
70
1
102
RTVSPropertyOp26
70
1
102
RTVSPropertyOp27
70
1
0
XRECORD
5
108D
102
{ACAD_REACTORS
330
108C
102
}
330
108C
100
AcDbXrecord
280
1
102
RTVSPropertyOp0
70
1
102
RTVSPropertyOp1
70
1
102
RTVSPropertyOp2
70
1
102
RTVSPropertyOp3
70
1
102
RTVSPropertyOp4
70
1
102
RTVSPropertyOp5
70
1
102
RTVSPropertyOp6
70
1
102
RTVSPropertyOp7
70
1
102
RTVSPropertyOp8
70
1
102
RTVSPropertyOp9
70
1
102
RTVSPropertyOp10
70
1
102
RTVSPropertyOp11
70
1
102
RTVSPropertyOp12
70
1
102
RTVSPropertyOp13
70
1
102
RTVSPropertyOp14
70
1
102
RTVSPropertyOp15
70
1
102
RTVSPropertyOp16
70
1
102
RTVSPropertyOp17
70
1
102
RTVSPropertyOp18
70
1
102
RTVSPropertyOp19
70
1
102
RTVSPropertyOp20
70
1
102
RTVSPropertyOp21
70
1
102
RTVSPropertyOp22
70
1
102
RTVSPropertyOp23
70
1
102
RTVSPropertyOp24
70
1
102
RTVSPropertyOp25
70
1
102
RTVSPropertyOp26
70
1
102
RTVSPropertyOp27
70
1
0
XRECORD
5
1089
102
{ACAD_REACTORS
330
1088
102
}
330
1088
100
AcDbXrecord
280
1
102
RTVSPropertyOp0
70
1
102
RTVSPropertyOp1
70
1
102
RTVSPropertyOp2
70
1
102
RTVSPropertyOp3
70
1
102
RTVSPropertyOp4
70
1
102
RTVSPropertyOp5
70
1
102
RTVSPropertyOp6
70
1
102
RTVSPropertyOp7
70
1
102
RTVSPropertyOp8
70
1
102
RTVSPropertyOp9
70
1
102
RTVSPropertyOp10
70
1
102
RTVSPropertyOp11
70
1
102
RTVSPropertyOp12
70
1
102
RTVSPropertyOp13
70
1
102
RTVSPropertyOp14
70
1
102
RTVSPropertyOp15
70
1
102
RTVSPropertyOp16
70
1
102
RTVSPropertyOp17
70
1
102
RTVSPropertyOp18
70
1
102
RTVSPropertyOp19
70
1
102
RTVSPropertyOp20
70
1
102
RTVSPropertyOp21
70
1
102
RTVSPropertyOp22
70
1
102
RTVSPropertyOp23
70
1
102
RTVSPropertyOp24
70
1
102
RTVSPropertyOp25
70
1
102
RTVSPropertyOp26
70
1
102
RTVSPropertyOp27
70
1
0
XRECORD
5
1097
102
{ACAD_REACTORS
330
1096
102
}
330
1096
100
AcDbXrecord
280
1
102
RTVSPropertyOp0
70
1
102
RTVSPropertyOp1
70
1
102
RTVSPropertyOp2
70
1
102
RTVSPropertyOp3
70
1
102
RTVSPropertyOp4
70
1
102
RTVSPropertyOp5
70
1
102
RTVSPropertyOp6
70
1
102
RTVSPropertyOp7
70
1
102
RTVSPropertyOp8
70
1
102
RTVSPropertyOp9
70
1
102
RTVSPropertyOp10
70
1
102
RTVSPropertyOp11
70
1
102
RTVSPropertyOp12
70
1
102
RTVSPropertyOp13
70
1
102
RTVSPropertyOp14
70
1
102
RTVSPropertyOp15
70
1
102
RTVSPropertyOp16
70
1
102
RTVSPropertyOp17
70
1
102
RTVSPropertyOp18
70
1
102
RTVSPropertyOp19
70
1
102
RTVSPropertyOp20
70
1
102
RTVSPropertyOp21
70
1
102
RTVSPropertyOp22
70
1
102
RTVSPropertyOp23
70
1
102
RTVSPropertyOp24
70
1
102
RTVSPropertyOp25
70
1
102
RTVSPropertyOp26
70
1
102
RTVSPropertyOp27
70
1
0
XRECORD
5
109F
102
{ACAD_REACTORS
330
109E
102
}
330
109E
100
AcDbXrecord
280
1
102
RTVSPropertyOp0
70
1
102
RTVSPropertyOp1
70
1
102
RTVSPropertyOp2
70
1
102
RTVSPropertyOp3
70
1
102
RTVSPropertyOp4
70
1
102
RTVSPropertyOp5
70
1
102
RTVSPropertyOp6
70
1
102
RTVSPropertyOp7
70
1
102
RTVSPropertyOp8
70
1
102
RTVSPropertyOp9
70
1
102
RTVSPropertyOp10
70
1
102
RTVSPropertyOp11
70
1
102
RTVSPropertyOp12
70
1
102
RTVSPropertyOp13
70
1
102
RTVSPropertyOp14
70
1
102
RTVSPropertyOp15
70
1
102
RTVSPropertyOp16
70
1
102
RTVSPropertyOp17
70
1
102
RTVSPropertyOp18
70
1
102
RTVSPropertyOp19
70
1
102
RTVSPropertyOp20
70
1
102
RTVSPropertyOp21
70
1
102
RTVSPropertyOp22
70
1
102
RTVSPropertyOp23
70
1
102
RTVSPropertyOp24
70
1
102
RTVSPropertyOp25
70
1
102
RTVSPropertyOp26
70
1
102
RTVSPropertyOp27
70
1
0
XRECORD
5
1091
102
{ACAD_REACTORS
330
1090
102
}
330
1090
100
AcDbXrecord
280
1
102
RTVSPropertyOp0
70
1
102
RTVSPropertyOp1
70
1
102
RTVSPropertyOp2
70
1
102
RTVSPropertyOp3
70
1
102
RTVSPropertyOp4
70
1
102
RTVSPropertyOp5
70
1
102
RTVSPropertyOp6
70
1
102
RTVSPropertyOp7
70
1
102
RTVSPropertyOp8
70
1
102
RTVSPropertyOp9
70
1
102
RTVSPropertyOp10
70
1
102
RTVSPropertyOp11
70
1
102
RTVSPropertyOp12
70
1
102
RTVSPropertyOp13
70
1
102
RTVSPropertyOp14
70
1
102
RTVSPropertyOp15
70
1
102
RTVSPropertyOp16
70
1
102
RTVSPropertyOp17
70
1
102
RTVSPropertyOp18
70
1
102
RTVSPropertyOp19
70
1
102
RTVSPropertyOp20
70
1
102
RTVSPropertyOp21
70
1
102
RTVSPropertyOp22
70
1
102
RTVSPropertyOp23
70
1
102
RTVSPropertyOp24
70
1
102
RTVSPropertyOp25
70
1
102
RTVSPropertyOp26
70
1
102
RTVSPropertyOp27
70
1
0
XRECORD
5
1095
102
{ACAD_REACTORS
330
1094
102
}
330
1094
100
AcDbXrecord
280
1
102
RTVSPropertyOp0
70
1
102
RTVSPropertyOp1
70
1
102
RTVSPropertyOp2
70
1
102
RTVSPropertyOp3
70
1
102
RTVSPropertyOp4
70
1
102
RTVSPropertyOp5
70
1
102
RTVSPropertyOp6
70
1
102
RTVSPropertyOp7
70
1
102
RTVSPropertyOp8
70
1
102
RTVSPropertyOp9
70
1
102
RTVSPropertyOp10
70
1
102
RTVSPropertyOp11
70
1
102
RTVSPropertyOp12
70
1
102
RTVSPropertyOp13
70
1
102
RTVSPropertyOp14
70
1
102
RTVSPropertyOp15
70
1
102
RTVSPropertyOp16
70
1
102
RTVSPropertyOp17
70
1
102
RTVSPropertyOp18
70
1
102
RTVSPropertyOp19
70
1
102
RTVSPropertyOp20
70
1
102
RTVSPropertyOp21
70
1
102
RTVSPropertyOp22
70
1
102
RTVSPropertyOp23
70
1
102
RTVSPropertyOp24
70
1
102
RTVSPropertyOp25
70
1
102
RTVSPropertyOp26
70
1
102
RTVSPropertyOp27
70
1
0
XRECORD
5
10A5
102
{ACAD_REACTORS
330
10A4
102
}
330
10A4
100
AcDbXrecord
280
1
102
RTVSPropertyOp0
70
0
102
RTVSPropertyOp1
70
0
102
RTVSPropertyOp2
70
0
102
RTVSPropertyOp3
70
0
102
RTVSPropertyOp4
70
0
102
RTVSPropertyOp5
70
0
102
RTVSPropertyOp6
70
0
102
RTVSPropertyOp7
70
0
102
RTVSPropertyOp8
70
0
102
RTVSPropertyOp9
70
0
102
RTVSPropertyOp10
70
0
102
RTVSPropertyOp11
70
0
102
RTVSPropertyOp12
70
0
102
RTVSPropertyOp13
70
0
102
RTVSPropertyOp14
70
2
102
RTVSPropertyOp15
70
0
102
RTVSPropertyOp16
70
0
102
RTVSPropertyOp17
70
0
102
RTVSPropertyOp18
70
0
102
RTVSPropertyOp19
70
0
102
RTVSPropertyOp20
70
0
102
RTVSPropertyOp21
70
0
102
RTVSPropertyOp22
70
0
102
RTVSPropertyOp23
70
0
102
RTVSPropertyOp24
70
0
102
RTVSPropertyOp25
70
0
102
RTVSPropertyOp26
70
0
102
RTVSPropertyOp27
70
0
0
XRECORD
5
109D
102
{ACAD_REACTORS
330
109C
102
}
330
109C
100
AcDbXrecord
280
1
102
RTVSPropertyOp0
70
1
102
RTVSPropertyOp1
70
1
102
RTVSPropertyOp2
70
1
102
RTVSPropertyOp3
70
1
102
RTVSPropertyOp4
70
1
102
RTVSPropertyOp5
70
1
102
RTVSPropertyOp6
70
1
102
RTVSPropertyOp7
70
1
102
RTVSPropertyOp8
70
1
102
RTVSPropertyOp9
70
1
102
RTVSPropertyOp10
70
1
102
RTVSPropertyOp11
70
1
102
RTVSPropertyOp12
70
1
102
RTVSPropertyOp13
70
1
102
RTVSPropertyOp14
70
1
102
RTVSPropertyOp15
70
1
102
RTVSPropertyOp16
70
1
102
RTVSPropertyOp17
70
1
102
RTVSPropertyOp18
70
1
102
RTVSPropertyOp19
70
1
102
RTVSPropertyOp20
70
1
102
RTVSPropertyOp21
70
1
102
RTVSPropertyOp22
70
1
102
RTVSPropertyOp23
70
1
102
RTVSPropertyOp24
70
1
102
RTVSPropertyOp25
70
1
102
RTVSPropertyOp26
70
1
102
RTVSPropertyOp27
70
1
0
XRECORD
5
1081
102
{ACAD_REACTORS
330
1080
102
}
330
1080
100
AcDbXrecord
280
1
102
RTVSPropertyOp0
70
1
102
RTVSPropertyOp1
70
1
102
RTVSPropertyOp2
70
1
102
RTVSPropertyOp3
70
1
102
RTVSPropertyOp4
70
1
102
RTVSPropertyOp5
70
1
102
RTVSPropertyOp6
70
1
102
RTVSPropertyOp7
70
1
102
RTVSPropertyOp8
70
1
102
RTVSPropertyOp9
70
1
102
RTVSPropertyOp10
70
1
102
RTVSPropertyOp11
70
1
102
RTVSPropertyOp12
70
1
102
RTVSPropertyOp13
70
1
102
RTVSPropertyOp14
70
1
102
RTVSPropertyOp15
70
1
102
RTVSPropertyOp16
70
1
102
RTVSPropertyOp17
70
1
102
RTVSPropertyOp18
70
1
102
RTVSPropertyOp19
70
1
102
RTVSPropertyOp20
70
1
102
RTVSPropertyOp21
70
1
102
RTVSPropertyOp22
70
1
102
RTVSPropertyOp23
70
1
102
RTVSPropertyOp24
70
1
102
RTVSPropertyOp25
70
1
102
RTVSPropertyOp26
70
1
102
RTVSPropertyOp27
70
1
0
XRECORD
5
1083
102
{ACAD_REACTORS
330
1082
102
}
330
1082
100
AcDbXrecord
280
1
102
RTVSPropertyOp0
70
1
102
RTVSPropertyOp1
70
1
102
RTVSPropertyOp2
70
1
102
RTVSPropertyOp3
70
1
102
RTVSPropertyOp4
70
1
102
RTVSPropertyOp5
70
1
102
RTVSPropertyOp6
70
1
102
RTVSPropertyOp7
70
1
102
RTVSPropertyOp8
70
1
102
RTVSPropertyOp9
70
1
102
RTVSPropertyOp10
70
1
102
RTVSPropertyOp11
70
1
102
RTVSPropertyOp12
70
1
102
RTVSPropertyOp13
70
1
102
RTVSPropertyOp14
70
1
102
RTVSPropertyOp15
70
1
102
RTVSPropertyOp16
70
1
102
RTVSPropertyOp17
70
1
102
RTVSPropertyOp18
70
1
102
RTVSPropertyOp19
70
1
102
RTVSPropertyOp20
70
1
102
RTVSPropertyOp21
70
1
102
RTVSPropertyOp22
70
1
102
RTVSPropertyOp23
70
1
102
RTVSPropertyOp24
70
1
102
RTVSPropertyOp25
70
1
102
RTVSPropertyOp26
70
1
102
RTVSPropertyOp27
70
1
0
XRECORD
5
1085
102
{ACAD_REACTORS
330
1084
102
}
330
1084
100
AcDbXrecord
280
1
102
RTVSPropertyOp0
70
1
102
RTVSPropertyOp1
70
1
102
RTVSPropertyOp2
70
1
102
RTVSPropertyOp3
70
1
102
RTVSPropertyOp4
70
1
102
RTVSPropertyOp5
70
1
102
RTVSPropertyOp6
70
1
102
RTVSPropertyOp7
70
1
102
RTVSPropertyOp8
70
1
102
RTVSPropertyOp9
70
1
102
RTVSPropertyOp10
70
1
102
RTVSPropertyOp11
70
1
102
RTVSPropertyOp12
70
1
102
RTVSPropertyOp13
70
1
102
RTVSPropertyOp14
70
1
102
RTVSPropertyOp15
70
1
102
RTVSPropertyOp16
70
1
102
RTVSPropertyOp17
70
1
102
RTVSPropertyOp18
70
1
102
RTVSPropertyOp19
70
1
102
RTVSPropertyOp20
70
1
102
RTVSPropertyOp21
70
1
102
RTVSPropertyOp22
70
1
102
RTVSPropertyOp23
70
1
102
RTVSPropertyOp24
70
1
102
RTVSPropertyOp25
70
1
102
RTVSPropertyOp26
70
1
102
RTVSPropertyOp27
70
1
0
XRECORD
5
1087
102
{ACAD_REACTORS
330
1086
102
}
330
1086
100
AcDbXrecord
280
1
102
RTVSPropertyOp0
70
1
102
RTVSPropertyOp1
70
1
102
RTVSPropertyOp2
70
1
102
RTVSPropertyOp3
70
1
102
RTVSPropertyOp4
70
1
102
RTVSPropertyOp5
70
1
102
RTVSPropertyOp6
70
1
102
RTVSPropertyOp7
70
1
102
RTVSPropertyOp8
70
1
102
RTVSPropertyOp9
70
1
102
RTVSPropertyOp10
70
1
102
RTVSPropertyOp11
70
1
102
RTVSPropertyOp12
70
1
102
RTVSPropertyOp13
70
1
102
RTVSPropertyOp14
70
1
102
RTVSPropertyOp15
70
1
102
RTVSPropertyOp16
70
1
102
RTVSPropertyOp17
70
1
102
RTVSPropertyOp18
70
1
102
RTVSPropertyOp19
70
1
102
RTVSPropertyOp20
70
1
102
RTVSPropertyOp21
70
1
102
RTVSPropertyOp22
70
1
102
RTVSPropertyOp23
70
1
102
RTVSPropertyOp24
70
1
102
RTVSPropertyOp25
70
1
102
RTVSPropertyOp26
70
1
102
RTVSPropertyOp27
70
1
0
XRECORD
5
10A1
102
{ACAD_REACTORS
330
10A0
102
}
330
10A0
100
AcDbXrecord
280
1
102
RTVSPropertyOp0
70
0
102
RTVSPropertyOp1
70
0
102
RTVSPropertyOp2
70
0
102
RTVSPropertyOp3
70
0
102
RTVSPropertyOp4
70
0
102
RTVSPropertyOp5
70
0
102
RTVSPropertyOp6
70
0
102
RTVSPropertyOp7
70
0
102
RTVSPropertyOp8
70
0
102
RTVSPropertyOp9
70
0
102
RTVSPropertyOp10
70
0
102
RTVSPropertyOp11
70
0
102
RTVSPropertyOp12
70
0
102
RTVSPropertyOp13
70
0
102
RTVSPropertyOp14
70
2
102
RTVSPropertyOp15
70
0
102
RTVSPropertyOp16
70
0
102
RTVSPropertyOp17
70
0
102
RTVSPropertyOp18
70
0
102
RTVSPropertyOp19
70
0
102
RTVSPropertyOp20
70
0
102
RTVSPropertyOp21
70
0
102
RTVSPropertyOp22
70
0
102
RTVSPropertyOp23
70
0
102
RTVSPropertyOp24
70
0
102
RTVSPropertyOp25
70
0
102
RTVSPropertyOp26
70
0
102
RTVSPropertyOp27
70
0
0
XRECORD
5
109B
102
{ACAD_REACTORS
330
109A
102
}
330
109A
100
AcDbXrecord
280
1
102
RTVSPropertyOp0
70
1
102
RTVSPropertyOp1
70
1
102
RTVSPropertyOp2
70
1
102
RTVSPropertyOp3
70
1
102
RTVSPropertyOp4
70
1
102
RTVSPropertyOp5
70
1
102
RTVSPropertyOp6
70
1
102
RTVSPropertyOp7
70
1
102
RTVSPropertyOp8
70
1
102
RTVSPropertyOp9
70
1
102
RTVSPropertyOp10
70
1
102
RTVSPropertyOp11
70
1
102
RTVSPropertyOp12
70
1
102
RTVSPropertyOp13
70
1
102
RTVSPropertyOp14
70
1
102
RTVSPropertyOp15
70
1
102
RTVSPropertyOp16
70
1
102
RTVSPropertyOp17
70
1
102
RTVSPropertyOp18
70
1
102
RTVSPropertyOp19
70
1
102
RTVSPropertyOp20
70
1
102
RTVSPropertyOp21
70
1
102
RTVSPropertyOp22
70
1
102
RTVSPropertyOp23
70
1
102
RTVSPropertyOp24
70
1
102
RTVSPropertyOp25
70
1
102
RTVSPropertyOp26
70
1
102
RTVSPropertyOp27
70
1
0
XRECORD
5
10A3
102
{ACAD_REACTORS
330
10A2
102
}
330
10A2
100
AcDbXrecord
280
1
102
RTVSPropertyOp0
70
0
102
RTVSPropertyOp1
70
0
102
RTVSPropertyOp2
70
0
102
RTVSPropertyOp3
70
0
102
RTVSPropertyOp4
70
0
102
RTVSPropertyOp5
70
0
102
RTVSPropertyOp6
70
0
102
RTVSPropertyOp7
70
0
102
RTVSPropertyOp8
70
0
102
RTVSPropertyOp9
70
0
102
RTVSPropertyOp10
70
0
102
RTVSPropertyOp11
70
0
102
RTVSPropertyOp12
70
0
102
RTVSPropertyOp13
70
0
102
RTVSPropertyOp14
70
2
102
RTVSPropertyOp15
70
0
102
RTVSPropertyOp16
70
0
102
RTVSPropertyOp17
70
0
102
RTVSPropertyOp18
70
0
102
RTVSPropertyOp19
70
0
102
RTVSPropertyOp20
70
0
102
RTVSPropertyOp21
70
0
102
RTVSPropertyOp22
70
0
102
RTVSPropertyOp23
70
0
102
RTVSPropertyOp24
70
0
102
RTVSPropertyOp25
70
0
102
RTVSPropertyOp26
70
0
102
RTVSPropertyOp27
70
0
0
XRECORD
5
1093
102
{ACAD_REACTORS
330
1092
102
}
330
1092
100
AcDbXrecord
280
1
102
RTVSPropertyOp0
70
1
102
RTVSPropertyOp1
70
1
102
RTVSPropertyOp2
70
1
102
RTVSPropertyOp3
70
1
102
RTVSPropertyOp4
70
1
102
RTVSPropertyOp5
70
1
102
RTVSPropertyOp6
70
1
102
RTVSPropertyOp7
70
1
102
RTVSPropertyOp8
70
1
102
RTVSPropertyOp9
70
1
102
RTVSPropertyOp10
70
1
102
RTVSPropertyOp11
70
1
102
RTVSPropertyOp12
70
1
102
RTVSPropertyOp13
70
1
102
RTVSPropertyOp14
70
1
102
RTVSPropertyOp15
70
1
102
RTVSPropertyOp16
70
1
102
RTVSPropertyOp17
70
1
102
RTVSPropertyOp18
70
1
102
RTVSPropertyOp19
70
1
102
RTVSPropertyOp20
70
1
102
RTVSPropertyOp21
70
1
102
RTVSPropertyOp22
70
1
102
RTVSPropertyOp23
70
1
102
RTVSPropertyOp24
70
1
102
RTVSPropertyOp25
70
1
102
RTVSPropertyOp26
70
1
102
RTVSPropertyOp27
70
1
0
XRECORD
5
1099
102
{ACAD_REACTORS
330
1098
102
}
330
1098
100
AcDbXrecord
280
1
102
RTVSPropertyOp0
70
1
102
RTVSPropertyOp1
70
1
102
RTVSPropertyOp2
70
1
102
RTVSPropertyOp3
70
1
102
RTVSPropertyOp4
70
1
102
RTVSPropertyOp5
70
1
102
RTVSPropertyOp6
70
1
102
RTVSPropertyOp7
70
1
102
RTVSPropertyOp8
70
1
102
RTVSPropertyOp9
70
1
102
RTVSPropertyOp10
70
1
102
RTVSPropertyOp11
70
1
102
RTVSPropertyOp12
70
1
102
RTVSPropertyOp13
70
1
102
RTVSPropertyOp14
70
1
102
RTVSPropertyOp15
70
1
102
RTVSPropertyOp16
70
1
102
RTVSPropertyOp17
70
1
102
RTVSPropertyOp18
70
1
102
RTVSPropertyOp19
70
1
102
RTVSPropertyOp20
70
1
102
RTVSPropertyOp21
70
1
102
RTVSPropertyOp22
70
1
102
RTVSPropertyOp23
70
1
102
RTVSPropertyOp24
70
1
102
RTVSPropertyOp25
70
1
102
RTVSPropertyOp26
70
1
102
RTVSPropertyOp27
70
1
0
ENDSEC
0
EOF
