0
SECTION
2
HEADER
9
$ACADVER
1
AC1015
9
$ACADMAINTVER
70
20
9
$DWGCODEPAGE
3
ANSI_1252
9
$INSBASE
10
0.0
20
0.0
30
0.0
9
$EXTMIN
10
-150.000000000000
20
-105.000000000000
30
0.0
9
$EXTMAX
10
150.000000000000
20
105.000000000000
30
0.0
9
$LIMMIN
10
0.0
20
0.0
9
$LIMMAX
10
12.0
20
9.0
9
$ORTHOMODE
70
0
9
$REGENMODE
70
1
9
$FILLMODE
70
1
9
$QTEXTMODE
70
0
9
$MIRRTEXT
70
1
9
$LTSCALE
40
1.0
9
$ATTMODE
70
1
9
$TEXTSIZE
40
0.2
9
$TRACEWID
40
0.05
9
$TEXTSTYLE
7
Standard
9
$CLAYER
8
0
9
$CELTYPE
6
ByLayer
9
$CECOLOR
62
256
9
$CELTSCALE
40
1.0
9
$DISPSILH
70
0
9
$DIMSCALE
40
1.0
9
$DIMASZ
40
2.5
9
$DIMEXO
40
0.625
9
$DIMDLI
40
0.38
9
$DIMRND
40
0.0
9
$DIMDLE
40
0.0
9
$DIMEXE
40
1.25
9
$DIMTP
40
0.0
9
$DIMTM
40
0.000000001
9
$DIMTXT
40
2.5
9
$DIMCEN
40
0.09
9
$DIMTSZ
40
0.0
9
$DIMTOL
70
1
9
$DIMLIM
70
0
9
$DIMTIH
70
0
9
$DIMTOH
70
0
9
$DIMSE1
70
0
9
$DIMSE2
70
0
9
$DIMTAD
70
1
9
$DIMZIN
70
0
9
$DIMBLK
1
VDDIM_DEFAULT
9
$DIMASO
70
1
9
$DIMSHO
70
1
9
$DIMPOST
1

9
$DIMAPOST
1

9
$DIMALT
70
0
9
$DIMALTD
70
2
9
$DIMALTF
40
25.4
9
$DIMLFAC
40
1.00000000000000
9
$DIMTOFL
70
0
9
$DIMTVP
40
0.0
9
$DIMTIX
70
0
9
$DIMSOXD
70
0
9
$DIMSAH
70
0
9
$DIMBLK1
1

9
$DIMBLK2
1

9
$DIMSTYLE
2
BEM-ISBE
9
$DIMCLRD
70
0
9
$DIMCLRE
70
0
9
$DIMCLRT
70
0
9
$DIMTFAC
40
0.5
9
$DIMGAP
40
0.625
9
$DIMJUST
70
0
9
$DIMSD1
70
0
9
$DIMSD2
70
0
9
$DIMTOLJ
70
1
9
$DIMTZIN
70
0
9
$DIMALTZ
70
0
9
$DIMALTTZ
70
0
9
$DIMUPT
70
0
9
$DIMDEC
70
3
9
$DIMTDEC
70
3
9
$DIMALTU
70
2
9
$DIMALTTD
70
2
9
$DIMTXSTY
7
Standard
9
$DIMAUNIT
70
0
9
$DIMADEC
70
3
9
$DIMALTRND
40
0.0
9
$DIMAZIN
70
0
9
$DIMDSEP
70
46
9
$DIMATFIT
70
3
9
$DIMFRAC
70
0
9
$DIMLDRBLK
1

9
$DIMLUNIT
70
2
9
$DIMLWD
70
-2
9
$DIMLWE
70
-2
9
$DIMTMOVE
70
0
9
$LUNITS
70
2
9
$LUPREC
70
4
9
$SKETCHINC
40
0.1
9
$FILLETRAD
40
0.5
9
$AUNITS
70
0
9
$AUPREC
70
0
9
$MENU
1
.
9
$ELEVATION
40
0.0
9
$PELEVATION
40
0.0
9
$THICKNESS
40
0.0
9
$LIMCHECK
70
0
9
$CHAMFERA
40
0.5
9
$CHAMFERB
40
0.5
9
$CHAMFERC
40
1.0
9
$CHAMFERD
40
0.0
9
$SKPOLY
70
0
9
$TDCREATE
40
0.0
9
$TDUCREATE
40
0.0
9
$TDUPDATE
40
0.0
9
$TDUUPDATE
40
0.0
9
$TDINDWG
40
0.0
9
$TDUSRTIMER
40
0.0
9
$USRTIMER
70
1
9
$ANGBASE
50
0.0
9
$ANGDIR
70
0
9
$PDMODE
70
0
9
$PDSIZE
40
0.0
9
$PLINEWID
40
0.0
9
$SPLFRAME
70
0
9
$SPLINETYPE
70
6
9
$SPLINESEGS
70
8
9
$HANDSEED
5
10AB
9
$SURFTAB1
70
6
9
$SURFTAB2
70
6
9
$SURFTYPE
70
6
9
$SURFU
70
6
9
$SURFV
70
6
9
$UCSBASE
2

9
$UCSNAME
2

9
$UCSORG
10
0.0
20
0.0
30
0.0
9
$UCSXDIR
10
1.0
20
0.0
30
0.0
9
$UCSYDIR
10
0.0
20
1.0
30
0.0
9
$UCSORTHOREF
2

9
$UCSORTHOVIEW
70
0
9
$UCSORGTOP
10
0.0
20
0.0
30
0.0
9
$UCSORGBOTTOM
10
0.0
20
0.0
30
0.0
9
$UCSORGLEFT
10
0.0
20
0.0
30
0.0
9
$UCSORGRIGHT
10
0.0
20
0.0
30
0.0
9
$UCSORGFRONT
10
0.0
20
0.0
30
0.0
9
$UCSORGBACK
10
0.0
20
0.0
30
0.0
9
$PUCSBASE
2

9
$PUCSNAME
2

9
$PUCSORG
10
0.0
20
0.0
30
0.0
9
$PUCSXDIR
10
1.0
20
0.0
30
0.0
9
$PUCSYDIR
10
0.0
20
1.0
30
0.0
9
$PUCSORTHOREF
2

9
$PUCSORTHOVIEW
70
0
9
$PUCSORGTOP
10
0.0
20
0.0
30
0.0
9
$PUCSORGBOTTOM
10
0.0
20
0.0
30
0.0
9
$PUCSORGLEFT
10
0.0
20
0.0
30
0.0
9
$PUCSORGRIGHT
10
0.0
20
0.0
30
0.0
9
$PUCSORGFRONT
10
0.0
20
0.0
30
0.0
9
$PUCSORGBACK
10
0.0
20
0.0
30
0.0
9
$USERI1
70
0
9
$USERI2
70
0
9
$USERI3
70
0
9
$USERI4
70
0
9
$USERI5
70
0
9
$USERR1
40
0.0
9
$USERR2
40
0.0
9
$USERR3
40
0.0
9
$USERR4
40
0.0
9
$USERR5
40
0.0
9
$WORLDVIEW
70
1
9
$SHADEDGE
70
3
9
$SHADEDIF
70
70
9
$TILEMODE
70
1
9
$MAXACTVP
70
64
9
$PINSBASE
10
0.0
20
0.0
30
0.0
9
$PLIMCHECK
70
0
9
$PEXTMIN
10
1.000000000000000E+20
20
1.000000000000000E+20
30
1.000000000000000E+20
9
$PEXTMAX
10
-1.000000000000000E+20
20
-1.000000000000000E+20
30
-1.000000000000000E+20
9
$PLIMMIN
10
0.0
20
0.0
9
$PLIMMAX
10
12.0
20
9.0
9
$UNITMODE
70
0
9
$VISRETAIN
70
1
9
$PLINEGEN
70
0
9
$PSLTSCALE
70
1
9
$TREEDEPTH
70
3020
9
$CMLSTYLE
2
Standard
9
$CMLJUST
70
0
9
$CMLSCALE
40
1.0
9
$PROXYGRAPHICS
70
1
9
$MEASUREMENT
70
0
9
$CELWEIGHT
370
-1
9
$ENDCAPS
280
0
9
$JOINSTYLE
280
0
9
$LWDISPLAY
290
0
9
$INSUNITS
70
4
9
$HYPERLINKBASE
1

9
$STYLESHEET
1

9
$XEDIT
290
1
9
$CEPSNTYPE
380
0
9
$PSTYLEMODE
290
0
9
$FINGERPRINTGUID
2
{FAEB1C30-E019-11D5-929B-00C0DF256EC4}
9
$VERSIONGUID
2
{04C5C4E4-4947-4D90-8812-D401569E61F7}
9
$EXTNAMES
290
1
9
$PSVPSCALE
40
0.0
9
$OLESTARTUP
290
0
0
ENDSEC
0
SECTION
2
CLASSES
0
CLASS
1
ACDBDICTIONARYWDFLT
2
AcDbDictionaryWithDefault
3
ObjectDBX Classes
90
0
280
0
281
0
0
CLASS
1
ACDBPLACEHOLDER
2
AcDbPlaceHolder
3
ObjectDBX Classes
90
0
280
0
281
0
0
CLASS
1
LAYOUT
2
AcDbLayout
3
ObjectDBX Classes
90
0
280
0
281
0
0
CLASS
1
MATERIAL
2
AcDbMaterial
3
ObjectDBX Classes
90
1153
280
0
281
0
0
CLASS
1
VISUALSTYLE
2
AcDbVisualStyle
3
ObjectDBX Classes
90
4095
280
0
281
0
0
CLASS
1
TABLESTYLE
2
AcDbTableStyle
3
ObjectDBX Classes
90
4095
280
0
281
0
0
CLASS
1
SCALE
2
AcDbScale
3
ObjectDBX Classes
90
1153
280
0
281
0
0
CLASS
1
MLEADERSTYLE
2
AcDbMLeaderStyle
3
ACDB_MLEADERSTYLE_CLASS
90
4095
280
0
281
0
0
CLASS
1
DICTIONARYVAR
2
AcDbDictionaryVar
3
ObjectDBX Classes
90
0
280
0
281
0
0
CLASS
1
CELLSTYLEMAP
2
AcDbCellStyleMap
3
ObjectDBX Classes
90
1152
280
0
281
0
0
ENDSEC
0
SECTION
2
TABLES
0
TABLE
2
VPORT
5
24A
330
0
100
AcDbSymbolTable
70
1
0
VPORT
5
26B
330
24A
100
AcDbSymbolTableRecord
100
AcDbViewportTableRecord
2
*Active
70
0
10
0.0
20
0.0
11
1.0
21
1.0
12
0.000000000000000
22
0.000000000000000
13
0.0
23
0.0
14
10.0
24
10.0
15
10.0
25
10.0
16
0.0
26
0.0
36
1.0
17
0.0
27
0.0
37
0.0
40
210.000000000000
41
1.42857142857143
42
1.0
43
0.0
44
0.0
50
0.0
51
0.0000000000007958
71
0
72
100
73
1
74
3
75
0
76
0
77
0
78
1
281
0
65
1
110
0.0
120
0.0
130
0.0
111
1.0
121
0.0
131
0.0
112
0.0
122
1.0
132
0.0
79
0
146
0.0
0
ENDTAB
0
TABLE
2
LTYPE
5
247
330
0
100
AcDbSymbolTable
70
25
0
LTYPE
5
256
330
247
100
AcDbSymbolTableRecord
100
AcDbLinetypeTableRecord
2
ByBlock
70
0
3

72
65
73
0
40
0.0
0
LTYPE
5
257
330
247
100
AcDbSymbolTableRecord
100
AcDbLinetypeTableRecord
2
ByLayer
70
0
3

72
65
73
0
40
0.0
0
LTYPE
5
258
330
247
100
AcDbSymbolTableRecord
100
AcDbLinetypeTableRecord
2
Continuous
70
0
3
Solid line
72
65
73
0
40
0.0
0
LTYPE
5
273
330
247
100
AcDbSymbolTableRecord
100
AcDbLinetypeTableRecord
2
CENTER
70
0
3
Center ____ _ ____ _ ____ _ ____ _ ____ _ ____
72
65
73
4
40
2.0
49
1.25
74
0
49
-0.25
74
0
49
0.25
74
0
49
-0.25
74
0
0
LTYPE
5
274
330
247
100
AcDbSymbolTableRecord
100
AcDbLinetypeTableRecord
2
DASHDOT
70
0
3
Dashdot __ . __ . __ . __ . __ . __ . __ . __
72
65
73
4
40
1.0
49
0.5
74
0
49
-0.25
74
0
49
0.0
74
0
49
-0.25
74
0
0
LTYPE
5
275
330
247
100
AcDbSymbolTableRecord
100
AcDbLinetypeTableRecord
2
DASHED
70
0
3
Dashed __ __ __ __ __ __ __ __ __ __ __ __ __ _
72
65
73
2
40
0.75
49
0.5
74
0
49
-0.25
74
0
0
LTYPE
5
276
330
247
100
AcDbSymbolTableRecord
100
AcDbLinetypeTableRecord
2
HIDDEN
70
0
3
Hidden __ __ __ __ __ __ __ __ __ __ __ __ __ __
72
65
73
2
40
0.375
49
0.25
74
0
49
-0.125
74
0
0
LTYPE
5
277
330
247
100
AcDbSymbolTableRecord
100
AcDbLinetypeTableRecord
2
HIDDEN2
70
0
3
Hidden2 _ _ _ _ _ _ _ _ _ _ _ _ _ _ _ _ _
72
65
73
2
40
0.1875
49
0.125
74
0
49
-0.0625
74
0
0
LTYPE
5
278
330
247
100
AcDbSymbolTableRecord
100
AcDbLinetypeTableRecord
2
BORDER
70
0
3
Border __ __ . __ __ . __ __ . __ __ . __ __ .
72
65
73
6
40
1.75
49
0.5
74
0
49
-0.25
74
0
49
0.5
74
0
49
-0.25
74
0
49
0.0
74
0
49
-0.25
74
0
0
LTYPE
5
279
330
247
100
AcDbSymbolTableRecord
100
AcDbLinetypeTableRecord
2
BORDER2
70
0
3
Border2 __.__.__.__.__.__.__.__.__.__.__.
72
65
73
6
40
0.875
49
0.25
74
0
49
-0.125
74
0
49
0.25
74
0
49
-0.125
74
0
49
0.0
74
0
49
-0.125
74
0
0
LTYPE
5
27A
330
247
100
AcDbSymbolTableRecord
100
AcDbLinetypeTableRecord
2
BORDERX2
70
0
3
Borderx2  ____  ____  .  ____  ____  .  ___
72
65
73
6
40
3.5
49
1.0
74
0
49
-0.5
74
0
49
1.0
74
0
49
-0.5
74
0
49
0.0
74
0
49
-0.5
74
0
0
LTYPE
5
27B
330
247
100
AcDbSymbolTableRecord
100
AcDbLinetypeTableRecord
2
CENTER2
70
0
3
Center2  ___ _ ___ _ ___ _ ___ _ ___ _ ___
72
65
73
4
40
1.125
49
0.75
74
0
49
-0.125
74
0
49
0.125
74
0
49
-0.125
74
0
0
LTYPE
5
27C
330
247
100
AcDbSymbolTableRecord
100
AcDbLinetypeTableRecord
2
CENTERX2
70
0
3
Centerx2  ________  __  ________  __  _____
72
65
73
4
40
4.0
49
2.5
74
0
49
-0.5
74
0
49
0.5
74
0
49
-0.5
74
0
0
LTYPE
5
27D
330
247
100
AcDbSymbolTableRecord
100
AcDbLinetypeTableRecord
2
DASHDOT2
70
0
3
Dashdot2  _._._._._._._._._._._._._._._.
72
65
73
4
40
0.5
49
0.25
74
0
49
-0.125
74
0
49
0.0
74
0
49
-0.125
74
0
0
LTYPE
5
27E
330
247
100
AcDbSymbolTableRecord
100
AcDbLinetypeTableRecord
2
DASHDOTX2
70
0
3
Dashdotx2 ____  .  ____  .  ____  .  ___
72
65
73
4
40
2.0
49
1.0
74
0
49
-0.5
74
0
49
0.0
74
0
49
-0.5
74
0
0
LTYPE
5
27F
330
247
100
AcDbSymbolTableRecord
100
AcDbLinetypeTableRecord
2
DASHED2
70
0
3
Dashed2 _ _ _ _ _ _ _ _ _ _ _ _ _ _ _ _ _
72
65
73
2
40
0.375
49
0.25
74
0
49
-0.125
74
0
0
LTYPE
5
280
330
247
100
AcDbSymbolTableRecord
100
AcDbLinetypeTableRecord
2
DASHEDX2
70
0
3
Dashedx2 ____  ____  ____  ____  ____  ___
72
65
73
2
40
1.5
49
1.0
74
0
49
-0.5
74
0
0
LTYPE
5
281
330
247
100
AcDbSymbolTableRecord
100
AcDbLinetypeTableRecord
2
DIVIDE
70
0
3
Divide ____ . . ____ . . ____ . . ____ . . ____
72
65
73
6
40
1.25
49
0.5
74
0
49
-0.25
74
0
49
0.0
74
0
49
-0.25
74
0
49
0.0
74
0
49
-0.25
74
0
0
LTYPE
5
282
330
247
100
AcDbSymbolTableRecord
100
AcDbLinetypeTableRecord
2
DIVIDE2
70
0
3
Divide2 __..__..__..__..__..__..__..__.._
72
65
73
6
40
0.625
49
0.25
74
0
49
-0.125
74
0
49
0.0
74
0
49
-0.125
74
0
49
0.0
74
0
49
-0.125
74
0
0
LTYPE
5
283
330
247
100
AcDbSymbolTableRecord
100
AcDbLinetypeTableRecord
2
DIVIDEX2
70
0
3
Dividex2 ________  .  .  ________  .  .  _
72
65
73
6
40
2.5
49
1.0
74
0
49
-0.5
74
0
49
0.0
74
0
49
-0.5
74
0
49
0.0
74
0
49
-0.5
74
0
0
LTYPE
5
284
330
247
100
AcDbSymbolTableRecord
100
AcDbLinetypeTableRecord
2
DOT
70
0
3
Dot . . . . . . . . . . . . . . . . . . . . . . . .
72
65
73
2
40
0.25
49
0.0
74
0
49
-0.25
74
0
0
LTYPE
5
285
330
247
100
AcDbSymbolTableRecord
100
AcDbLinetypeTableRecord
2
DOT2
70
0
3
Dot2 ........................................
72
65
73
2
40
0.125
49
0.0
74
0
49
-0.125
74
0
0
LTYPE
5
286
330
247
100
AcDbSymbolTableRecord
100
AcDbLinetypeTableRecord
2
DOTX2
70
0
3
Dotx2 .  .  .  .  .  .  .  .  .  .  .  .  .  .
72
65
73
2
40
0.5
49
0.0
74
0
49
-0.5
74
0
0
LTYPE
5
287
330
247
100
AcDbSymbolTableRecord
100
AcDbLinetypeTableRecord
2
HIDDENX2
70
0
3
Hiddenx2 ____ ____ ____ ____ ____ ____ ____
72
65
73
2
40
0.75
49
0.5
74
0
49
-0.25
74
0
0
LTYPE
5
288
330
247
100
AcDbSymbolTableRecord
100
AcDbLinetypeTableRecord
2
PHANTOM
70
0
3
Phantom ______  __  __  ______  __  __  ______
72
65
73
6
40
2.5
49
1.25
74
0
49
-0.25
74
0
49
0.25
74
0
49
-0.25
74
0
49
0.25
74
0
49
-0.25
74
0
0
LTYPE
5
289
330
247
100
AcDbSymbolTableRecord
100
AcDbLinetypeTableRecord
2
PHANTOM2
70
0
3
Phantom2 ___ _ _ ___ _ _ ___ _ _ ___ _ _
72
65
73
6
40
1.25
49
0.625
74
0
49
-0.125
74
0
49
0.125
74
0
49
-0.125
74
0
49
0.125
74
0
49
-0.125
74
0
0
LTYPE
5
28A
330
247
100
AcDbSymbolTableRecord
100
AcDbLinetypeTableRecord
2
PHANTOMX2
70
0
3
Phantomx2 ____________    ____    ____   _
72
65
73
6
40
5.0
49
2.5
74
0
49
-0.5
74
0
49
0.5
74
0
49
-0.5
74
0
49
0.5
74
0
49
-0.5
74
0
0
ENDTAB
0
TABLE
2
LAYER
5
244
330
0
100
AcDbSymbolTable
70
6
0
LAYER
5
252
330
244
100
AcDbSymbolTableRecord
100
AcDbLayerTableRecord
2
0
70
0
62
7
6
Continuous
370
0
390
251
0
LAYER
5
23F
330
244
100
AcDbSymbolTableRecord
100
AcDbLayerTableRecord
2
Bemassung
70
0
 62
   7
6
Continuous
370
0
390
251
0
LAYER
5
240
330
244
100
AcDbSymbolTableRecord
100
AcDbLayerTableRecord
2
Rahmen
70
0
 62
   7
6
Continuous
370
0
390
251
0
LAYER
5
241
330
244
100
AcDbSymbolTableRecord
100
AcDbLayerTableRecord
2
Geo
70
0
 62
   7
6
Continuous
370
0
390
251
0
LAYER
5
33A
330
244
100
AcDbSymbolTableRecord
100
AcDbLayerTableRecord
2
Defpoints
70
0
62
7
6
Continuous
290
0
370
-3
390
251
0
LAYER
5
57E
330
244
100
AcDbSymbolTableRecord
100
AcDbLayerTableRecord
2
Text
70
0
 62
   7
6
Continuous
370
0
390
251
1001
AcAecLayerStandard
1000

1000

0
ENDTAB
0
TABLE
2
STYLE
5
245
330
0
100
AcDbSymbolTable
70
2
0
STYLE
5
253
330
245
100
AcDbSymbolTableRecord
100
AcDbTextStyleTableRecord
2
Standard
70
0
40
0.0
41
1.0
50
0.0
71
0
42
0.2
3
Arial
4

1001
ACAD
1000
Arial
1071
0
0
STYLE
5
132
330
245
100
AcDbSymbolTableRecord
100
AcDbTextStyleTableRecord
2
Beschriftung
70
0
40
0.0
41
1.0
50
0.0
71
0
42
0.2
3
Arial
4

1001
ACAD
1000
Arial
1071
0
1001
AcadAnnotative
1000
AnnotativeData
1070
1
1070
1
0
ENDTAB
0
TABLE
2
VIEW
5
248
330
0
100
AcDbSymbolTable
70
0
0
ENDTAB
0
TABLE
2
UCS
5
249
330
0
100
AcDbSymbolTable
70
0
0
ENDTAB
0
TABLE
2
APPID
5
24B
330
0
100
AcDbSymbolTable
70
13
0
APPID
5
254
330
24B
100
AcDbSymbolTableRecord
100
AcDbRegAppTableRecord
2
ACAD
70
0
0
APPID
5
26C
330
24B
100
AcDbSymbolTableRecord
100
AcDbRegAppTableRecord
2
VD_INVISIBLE_NOT_FOR_READ
70
0
0
APPID
5
26D
330
24B
100
AcDbSymbolTableRecord
100
AcDbRegAppTableRecord
2
VD_TEMPHATCH
70
0
0
APPID
5
26E
330
24B
100
AcDbSymbolTableRecord
100
AcDbRegAppTableRecord
2
VDEXTRAPARAM
70
0
0
APPID
5
26F
330
24B
100
AcDbSymbolTableRecord
100
AcDbRegAppTableRecord
2
PE_URL
70
0
0
APPID
5
270
330
24B
100
AcDbSymbolTableRecord
100
AcDbRegAppTableRecord
2
VD_UNKNOWN
70
0
0
APPID
5
28F
330
24B
100
AcDbSymbolTableRecord
100
AcDbRegAppTableRecord
2
AcadAnnotative
70
0
0
APPID
5
290
330
24B
100
AcDbSymbolTableRecord
100
AcDbRegAppTableRecord
2
ACAD_DSTYLE_DIMJAG
70
0
0
APPID
5
291
330
24B
100
AcDbSymbolTableRecord
100
AcDbRegAppTableRecord
2
ACAD_DSTYLE_DIMTALN
70
0
0
APPID
5
293
330
24B
100
AcDbSymbolTableRecord
100
AcDbRegAppTableRecord
2
ACAD_PSEXT
70
0
0
APPID
5
42A
330
24B
100
AcDbSymbolTableRecord
100
AcDbRegAppTableRecord
2
ACAD_MLEADERVER
70
0
0
APPID
5
532
330
24B
100
AcDbSymbolTableRecord
100
AcDbRegAppTableRecord
2
ACAD_EXEMPT_FROM_CAD_STANDARDS
70
0
0
APPID
5
57F
330
24B
100
AcDbSymbolTableRecord
100
AcDbRegAppTableRecord
2
AcAecLayerStandard
70
0
0
ENDTAB
0
TABLE
2
DIMSTYLE
5
24C
330
0
100
AcDbSymbolTable
70
3
100
AcDbDimStyleTable
71
2
340
27
340
269
0
DIMSTYLE
105
269
330
24C
100
AcDbSymbolTableRecord
100
AcDbDimStyleTableRecord
2
Standard
70
0
172
1
174
1
288
1
340
253
342
23C
0
DIMSTYLE
105
137
330
24C
100
AcDbSymbolTableRecord
100
AcDbDimStyleTableRecord
2
Beschriftung
70
0
41
2.5
42
0.625
44
1.25
73
0
74
0
77
1
140
2.5
147
0.625
172
1
174
1
271
2
288
1
340
253
342
23C
1001
AcadAnnotative
1000
AnnotativeData
1070
1
1070
1
1001
ACAD_DSTYLE_DIMJAG
1070
388
1040
1.5
1001
ACAD_DSTYLE_DIMTALN
1070
392
1070
0
0
DIMSTYLE
105
27
102
{ACAD_REACTORS
330
F10012
330
F10017
330
F10021
330
F10026
330
F10008
330
F10003
330
F1000D
330
F1001C
102
}
330
24C
100
AcDbSymbolTableRecord
100
AcDbDimStyleTableRecord
2
BEM-ISBE
70
0
41
2.5
42
0.625
44
1.25
48
0.000000001
71
1
73
0
74
0
77
1
140
2.5
144
1.00000000000000
146
0.5
147
0.625
171
 3
172
 1
179
 3
271
 3
272
 3
274
 3
340
253
342
23C
1001
ACAD_DSTYLE_DIMJAG
1070
388
1040
1.5
1001
ACAD_DSTYLE_DIMTALN
1070
392
1070
1
0
ENDTAB
0
TABLE
2
BLOCK_RECORD
5
243
330
0
100
AcDbSymbolTable
70
5
0
BLOCK_RECORD
5
261
330
243
100
AcDbSymbolTableRecord
100
AcDbBlockTableRecord
2
*Model_Space
340
FD0
0
BLOCK_RECORD
5
25D
330
243
100
AcDbSymbolTableRecord
100
AcDbBlockTableRecord
2
*Paper_Space
340
FD1
0
BLOCK_RECORD
5
265
330
243
100
AcDbSymbolTableRecord
100
AcDbBlockTableRecord
2
*Paper_Space0
340
0
0
BLOCK_RECORD
5
23C
330
243
100
AcDbSymbolTableRecord
100
AcDbBlockTableRecord
2
VDDIM_DEFAULT
340
0
102
{BLKREFS
102
}
0
BLOCK_RECORD
5
23E
330
243
100
AcDbSymbolTableRecord
100
AcDbBlockTableRecord
2
VDDIM_NONE
340
0
0
BLOCK_RECORD
5
F10011
330
243
100
AcDbSymbolTableRecord
100
AcDbBlockTableRecord
2
*D6
340
0
0
BLOCK_RECORD
5
F10016
330
243
100
AcDbSymbolTableRecord
100
AcDbBlockTableRecord
2
*D7
340
0
0
BLOCK_RECORD
5
F10020
330
243
100
AcDbSymbolTableRecord
100
AcDbBlockTableRecord
2
*D9
340
0
0
BLOCK_RECORD
5
F10025
330
243
100
AcDbSymbolTableRecord
100
AcDbBlockTableRecord
2
*D10
340
0
0
BLOCK_RECORD
5
F10007
330
243
100
AcDbSymbolTableRecord
100
AcDbBlockTableRecord
2
*D4
340
0
0
BLOCK_RECORD
5
F10002
330
243
100
AcDbSymbolTableRecord
100
AcDbBlockTableRecord
2
*D3
340
0
0
BLOCK_RECORD
5
F1000C
330
243
100
AcDbSymbolTableRecord
100
AcDbBlockTableRecord
2
*D5
340
0
0
BLOCK_RECORD
5
F1001B
330
243
100
AcDbSymbolTableRecord
100
AcDbBlockTableRecord
2
*D8
340
0
0
ENDTAB
0
ENDSEC
0
SECTION
2
BLOCKS
0
BLOCK
5
262
330
261
100
AcDbEntity
8
0
100
AcDbBlockBegin
2
*Model_Space
70
0
10
0.0
20
0.0
30
0.0
3
*Model_Space
1

0
ENDBLK
5
263
330
261
100
AcDbEntity
8
0
100
AcDbBlockEnd
0
BLOCK
5
25E
330
25D
100
AcDbEntity
67
1
8
0
100
AcDbBlockBegin
2
*Paper_Space
70
0
10
0.0
20
0.0
30
0.0
3
*Paper_Space
1

0
ENDBLK
5
25F
330
25D
100
AcDbEntity
67
1
8
0
100
AcDbBlockEnd
0
BLOCK
5
266
330
265
100
AcDbEntity
8
0
100
AcDbBlockBegin
2
*Paper_Space0
70
0
10
0.0
20
0.0
30
0.0
3
*Paper_Space0
1

0
VIEWPORT
5
296
102
{ACAD_XDICTIONARY
360
58E
102
}
330
265
100
AcDbEntity
8
0
60
1
100
AcDbViewport
10
0.0
20
0.0
30
0.0
40
10.0
41
10.0
69
0
12
0.0
22
0.0
13
0.0
23
0.0
14
1.0
24
1.0
15
0.0
25
0.0
16
0.0
26
0.0
36
1.0
17
0.0
27
0.0
37
0.0
42
0.0
43
0.0
44
0.0
45
10.0
50
0.0
51
0.0000000000007958
72
100
90
163872
1

281
0
71
0
74
0
110
0.0
120
0.0
130
0.0
111
1.0
121
0.0
131
0.0
112
0.0
122
1.0
132
0.0
79
0
146
0.0
1001
VD_INVISIBLE_NOT_FOR_READ
1000
VD_INVISIBLE_NOT_FOR_READ
0
VIEWPORT
5
297
102
{ACAD_XDICTIONARY
360
590
102
}
330
265
100
AcDbEntity
8
0
60
1
100
AcDbViewport
10
0.0
20
0.0
30
0.0
40
10.0
41
10.0
69
0
12
0.0
22
0.0
13
0.0
23
0.0
14
1.0
24
1.0
15
0.0
25
0.0
16
0.0
26
0.0
36
1.0
17
0.0
27
0.0
37
0.0
42
0.0
43
0.0
44
0.0
45
10.0
50
0.0
51
0.0000000000007958
72
100
90
163872
1

281
0
71
0
74
0
110
0.0
120
0.0
130
0.0
111
1.0
121
0.0
131
0.0
112
0.0
122
1.0
132
0.0
79
0
146
0.0
1001
VD_INVISIBLE_NOT_FOR_READ
1000
VD_INVISIBLE_NOT_FOR_READ
0
ENDBLK
5
267
330
265
100
AcDbEntity
8
0
100
AcDbBlockEnd
0
BLOCK
5
28B
330
23C
100
AcDbEntity
8
0
100
AcDbBlockBegin
2
VDDIM_DEFAULT
70
0
10
0.0
20
0.0
30
0.0
3
VDDIM_DEFAULT
1

0
LWPOLYLINE
5
23D
330
23C
100
AcDbEntity
8
0
6
Continuous
62
0
100
AcDbPolyline
90
4
70
0
43
0.0
10
0.0
20
0.0
10
-1.0
20
-0.1665
10
-1.0
20
0.1665
10
0.0
20
0.0
1001
VDEXTRAPARAM
1071
1
1071
0
1071
0
1040
1.0
1000

1000

1040
0.0
1040
0.0
0
HATCH
5
292
330
23C
100
AcDbEntity
8
0
6
Continuous
62
0
100
AcDbHatch
10
0.0
20
0.0
30
0.0
210
0.0
220
0.0
230
1.0
2
SOLID
70
1
71
0
91
1
92
2
72
0
73
1
93
3
10
0.0
20
0.0
10
-1.0
20
-0.1665
10
-1.0
20
0.1665
97
0
75
0
76
1
98
1
10
0.0
20
0.0
1001
VDEXTRAPARAM
1071
1
1071
0
1071
0
1040
1.0
1000

1000

1040
0.0
1040
0.0
1001
VD_TEMPHATCH
1000
VD_TEMPHATCH
0
ENDBLK
5
28C
330
23C
100
AcDbEntity
8
0
100
AcDbBlockEnd
0
BLOCK
5
28D
330
23E
100
AcDbEntity
8
0
100
AcDbBlockBegin
2
VDDIM_NONE
70
0
10
0.0
20
0.0
30
0.0
3
VDDIM_NONE
1

0
ENDBLK
5
28E
330
23E
100
AcDbEntity
8
0
100
AcDbBlockEnd
  0
BLOCK
  5
F1002A
330
F10011
100
AcDbEntity
  8
0
100
AcDbBlockBegin
  2
*D6
 70
     1
 10
0.0
 20
0.0
 30
0.0
  3
*D6
  1

  0
LINE
  5
F1002B
330
F10011
100
AcDbEntity
  8
Bemassung
 62
     0
370
    -2
100
AcDbLine
10
-68.2034739454094
20
-13.0322580645160
30
0.000000000000000
11
-68.2034739454094
21
36.9677419354840
31
0.000000000000000
  0
LINE
  5
F1002C
330
F10011
100
AcDbEntity
  8
Bemassung
 62
     0
370
    -2
100
AcDbLine
10
31.7965260545906
20
14.6677419354840
30
0.000000000000000
11
31.7965260545906
21
26.9677419354840
31
0.000000000000000
  0
LINE
  5
F1002D
330
F10011
100
AcDbEntity
  8
Bemassung
 62
     0
370
    -2
100
AcDbLine
10
-68.2034739454094
20
24.9677419354840
30
0.000000000000000
11
31.7965260545906
21
24.9677419354840
31
0.000000000000000
  0
INSERT
  5
F1002E
330
F10011
100
AcDbEntity
  8
Bemassung
 62
     0
370
    -2
100
AcDbBlockReference
  2
VDDIM_DEFAULT
10
-68.2034739454094
20
24.9677419354840
30
0.000000000000000
 41
2.50000000000000
 42
2.50000000000000
 43
2.50000000000000
 50
180.000000000000
  0
INSERT
  5
F1002F
330
F10011
100
AcDbEntity
  8
Bemassung
 62
     0
370
    -2
100
AcDbBlockReference
  2
VDDIM_DEFAULT
10
31.7965260545906
20
24.9677419354840
30
0.000000000000000
 41
2.50000000000000
 42
2.50000000000000
 43
2.50000000000000
  0
MTEXT
  5
F10030
102
{ACAD_XDICTIONARY
360
F10014
102
}
330
F10011
100
AcDbEntity
  8
Bemassung
 62
     0
100
AcDbMText
10
-18.2034739454094
20
25.6344086021507
30
0.000000000000000
 40
2.50000000000000
 41
0.0
 71
     8
 72
     1
  1
\A1;100
 11
1.00000000000000
 21
0.000000000000000
 31
0.0
 73
     1
 44
1.0
1001
ACAD
1000
MTEXTBEGIN
1070
73
1070
1
1070
44
1040
1.0
1070
74
1070
0
1000
MTEXTEND
  0
POINT
  5
F10031
330
F10011
100
AcDbEntity
  8
Bemassung
 62
     0
100
AcDbPoint
10
-68.2034739454094
20
-13.0322580645160
30
0.000000000000000
  0
POINT
  5
F10032
330
F10011
100
AcDbEntity
  8
Bemassung
 62
     0
100
AcDbPoint
10
31.7965260545906
20
14.6677419354840
30
0.000000000000000
  0
ENDBLK
  5
F10033
330
F10011
100
AcDbEntity
  8
0
100
AcDbBlockEnd
  0
BLOCK
  5
F10034
330
F10016
100
AcDbEntity
  8
0
100
AcDbBlockBegin
  2
*D7
 70
     1
 10
0.0
 20
0.0
 30
0.0
  3
*D7
  1

  0
LINE
  5
F10035
330
F10016
100
AcDbEntity
  8
Bemassung
 62
     0
370
    -2
100
AcDbLine
10
31.7965260545906
20
14.9677419354840
30
0.000000000000000
11
31.7965260545906
21
31.9677419354840
31
0.000000000000000
  0
LINE
  5
F10036
330
F10016
100
AcDbEntity
  8
Bemassung
 62
     0
370
    -2
100
AcDbLine
10
81.7965260545906
20
14.4677419354840
30
0.000000000000000
11
81.7965260545906
21
36.9677419354840
31
0.000000000000000
  0
LINE
  5
F10037
330
F10016
100
AcDbEntity
  8
Bemassung
 62
     0
370
    -2
100
AcDbLine
10
31.7965260545906
20
29.9677419354840
30
0.000000000000000
11
81.7965260545906
21
29.9677419354840
31
0.000000000000000
  0
INSERT
  5
F10038
330
F10016
100
AcDbEntity
  8
Bemassung
 62
     0
370
    -2
100
AcDbBlockReference
  2
VDDIM_DEFAULT
10
31.7965260545906
20
29.9677419354840
30
0.000000000000000
 41
2.50000000000000
 42
2.50000000000000
 43
2.50000000000000
 50
180.000000000000
  0
INSERT
  5
F10039
330
F10016
100
AcDbEntity
  8
Bemassung
 62
     0
370
    -2
100
AcDbBlockReference
  2
VDDIM_DEFAULT
10
81.7965260545906
20
29.9677419354840
30
0.000000000000000
 41
2.50000000000000
 42
2.50000000000000
 43
2.50000000000000
  0
MTEXT
  5
F1003A
102
{ACAD_XDICTIONARY
360
F10019
102
}
330
F10016
100
AcDbEntity
  8
Bemassung
 62
     0
100
AcDbMText
10
56.7965260545906
20
30.6344086021507
30
0.000000000000000
 40
2.50000000000000
 41
0.0
 71
     8
 72
     1
  1
\A1;50
 11
1.00000000000000
 21
0.000000000000000
 31
0.0
 73
     1
 44
1.0
1001
ACAD
1000
MTEXTBEGIN
1070
73
1070
1
1070
44
1040
1.0
1070
74
1070
0
1000
MTEXTEND
  0
POINT
  5
F1003B
330
F10016
100
AcDbEntity
  8
Bemassung
 62
     0
100
AcDbPoint
10
31.7965260545906
20
14.9677419354840
30
0.000000000000000
  0
POINT
  5
F1003C
330
F10016
100
AcDbEntity
  8
Bemassung
 62
     0
100
AcDbPoint
10
81.7965260545906
20
14.4677419354840
30
0.000000000000000
  0
ENDBLK
  5
F1003D
330
F10016
100
AcDbEntity
  8
0
100
AcDbBlockEnd
  0
BLOCK
  5
F1003E
330
F10020
100
AcDbEntity
  8
0
100
AcDbBlockBegin
  2
*D9
 70
     1
 10
0.0
 20
0.0
 30
0.0
  3
*D9
  1

  0
LINE
  5
F1003F
330
F10020
100
AcDbEntity
  8
Bemassung
 62
     0
370
    -2
100
AcDbLine
10
-48.2034739454094
20
-0.732258064516000
30
0.000000000000000
11
-48.2034739454094
21
-13.0322580645160
31
0.000000000000000
  0
LINE
  5
F10040
330
F10020
100
AcDbEntity
  8
Bemassung
 62
     0
370
    -2
100
AcDbLine
10
-68.2034739454094
20
-13.0322580645160
30
0.000000000000000
11
-68.2034739454094
21
36.9677419354840
31
0.000000000000000
  0
LINE
  5
F10041
330
F10020
100
AcDbEntity
  8
Bemassung
 62
     0
370
    -2
100
AcDbLine
10
-48.2034739454094
20
-11.0322580645160
30
0.000000000000000
11
-68.2034739454094
21
-11.0322580645160
31
0.000000000000000
  0
INSERT
  5
F10042
330
F10020
100
AcDbEntity
  8
Bemassung
 62
     0
370
    -2
100
AcDbBlockReference
  2
VDDIM_DEFAULT
10
-48.2034739454094
20
-11.0322580645160
30
0.000000000000000
 41
2.50000000000000
 42
2.50000000000000
 43
2.50000000000000
  0
INSERT
  5
F10043
330
F10020
100
AcDbEntity
  8
Bemassung
 62
     0
370
    -2
100
AcDbBlockReference
  2
VDDIM_DEFAULT
10
-68.2034739454094
20
-11.0322580645160
30
0.000000000000000
 41
2.50000000000000
 42
2.50000000000000
 43
2.50000000000000
 50
180.000000000000
  0
MTEXT
  5
F10044
102
{ACAD_XDICTIONARY
360
F10023
102
}
330
F10020
100
AcDbEntity
  8
Bemassung
 62
     0
100
AcDbMText
10
-58.2034739454094
20
-10.3655913978493
30
0.000000000000000
 40
2.50000000000000
 41
0.0
 71
     8
 72
     1
  1
\A1;20
 11
1.00000000000000
 21
0.000000000000000
 31
0.0
 73
     1
 44
1.0
1001
ACAD
1000
MTEXTBEGIN
1070
73
1070
1
1070
44
1040
1.0
1070
74
1070
0
1000
MTEXTEND
  0
POINT
  5
F10045
330
F10020
100
AcDbEntity
  8
Bemassung
 62
     0
100
AcDbPoint
10
-48.2034739454094
20
-0.732258064516000
30
0.000000000000000
  0
POINT
  5
F10046
330
F10020
100
AcDbEntity
  8
Bemassung
 62
     0
100
AcDbPoint
10
-68.2034739454094
20
-13.0322580645160
30
0.000000000000000
  0
ENDBLK
  5
F10047
330
F10020
100
AcDbEntity
  8
0
100
AcDbBlockEnd
  0
BLOCK
  5
F10048
330
F10025
100
AcDbEntity
  8
0
100
AcDbBlockBegin
  2
*D10
 70
     1
 10
0.0
 20
0.0
 30
0.0
  3
*D10
  1

  0
LINE
  5
F10049
330
F10025
100
AcDbEntity
  8
Bemassung
 62
     0
370
    -2
100
AcDbLine
10
81.7965260545906
20
14.4677419354840
30
0.000000000000000
11
81.7965260545906
21
36.9677419354840
31
0.000000000000000
  0
LINE
  5
F1004A
330
F10025
100
AcDbEntity
  8
Bemassung
 62
     0
370
    -2
100
AcDbLine
10
-68.2034739454094
20
-13.0322580645160
30
0.000000000000000
11
-68.2034739454094
21
36.9677419354840
31
0.000000000000000
  0
LINE
  5
F1004B
330
F10025
100
AcDbEntity
  8
Bemassung
 62
     0
370
    -2
100
AcDbLine
10
81.7965260545906
20
34.9677419354840
30
0.000000000000000
11
-68.2034739454094
21
34.9677419354840
31
0.000000000000000
  0
INSERT
  5
F1004C
330
F10025
100
AcDbEntity
  8
Bemassung
 62
     0
370
    -2
100
AcDbBlockReference
  2
VDDIM_DEFAULT
10
81.7965260545906
20
34.9677419354840
30
0.000000000000000
 41
2.50000000000000
 42
2.50000000000000
 43
2.50000000000000
  0
INSERT
  5
F1004D
330
F10025
100
AcDbEntity
  8
Bemassung
 62
     0
370
    -2
100
AcDbBlockReference
  2
VDDIM_DEFAULT
10
-68.2034739454094
20
34.9677419354840
30
0.000000000000000
 41
2.50000000000000
 42
2.50000000000000
 43
2.50000000000000
 50
180.000000000000
  0
MTEXT
  5
F1004E
102
{ACAD_XDICTIONARY
360
F10028
102
}
330
F10025
100
AcDbEntity
  8
Bemassung
 62
     0
100
AcDbMText
10
6.79652605459060
20
35.6344086021507
30
0.000000000000000
 40
2.50000000000000
 41
0.0
 71
     8
 72
     1
  1
\A1;150
 11
1.00000000000000
 21
0.000000000000000
 31
0.0
 73
     1
 44
1.0
1001
ACAD
1000
MTEXTBEGIN
1070
73
1070
1
1070
44
1040
1.0
1070
74
1070
0
1000
MTEXTEND
  0
POINT
  5
F1004F
330
F10025
100
AcDbEntity
  8
Bemassung
 62
     0
100
AcDbPoint
10
81.7965260545906
20
14.4677419354840
30
0.000000000000000
  0
POINT
  5
F10050
330
F10025
100
AcDbEntity
  8
Bemassung
 62
     0
100
AcDbPoint
10
-68.2034739454094
20
-13.0322580645160
30
0.000000000000000
  0
ENDBLK
  5
F10051
330
F10025
100
AcDbEntity
  8
0
100
AcDbBlockEnd
  0
BLOCK
  5
F10052
330
F10007
100
AcDbEntity
  8
0
100
AcDbBlockBegin
  2
*D4
 70
     1
 10
0.0
 20
0.0
 30
0.0
  3
*D4
  1

  0
LINE
  5
F10053
330
F10007
100
AcDbEntity
  8
Bemassung
 62
     0
370
    -2
100
AcDbLine
10
-62.3661602254896
20
14.6698707356245
30
0.000000000000000
11
-81.8970147039164
21
30.9483740395439
31
0.000000000000000
  0
INSERT
  5
F10054
330
F10007
100
AcDbEntity
  8
Bemassung
 62
     0
370
    -2
100
AcDbBlockReference
  2
VDDIM_DEFAULT
10
-62.3661602254896
20
14.6698707356245
30
0.000000000000000
 41
2.50000000000000
 42
2.50000000000000
 43
2.50000000000000
 50
320.189596756858
  0
MTEXT
  5
F10055
102
{ACAD_XDICTIONARY
360
F1000A
102
}
330
F10007
100
AcDbEntity
  8
Bemassung
 62
     0
100
AcDbMText
10
-78.3083639713454
20
27.9573188928632
30
0.000000000000000
 40
2.50000000000000
 41
0.0
 71
     8
 72
     1
  1
\A1;R8
 11
0.768167285670301
 21
-0.640249186821757
 31
0.0
 73
     1
 44
1.0
1001
ACAD
1000
MTEXTBEGIN
1070
73
1070
1
1070
44
1040
1.0
1070
74
1070
0
1000
MTEXTEND
  0
POINT
  5
F10056
330
F10007
100
AcDbEntity
  8
Bemassung
 62
     0
100
AcDbPoint
10
-62.3661602254896
20
14.6698707356245
30
0.000000000000000
  0
POINT
  5
F10057
330
F10007
100
AcDbEntity
  8
Bemassung
 62
     0
100
AcDbPoint
10
-60.2034739454094
20
6.96774193548400
30
0.000000000000000
  0
ENDBLK
  5
F10058
330
F10007
100
AcDbEntity
  8
0
100
AcDbBlockEnd
  0
BLOCK
  5
F10059
330
F10002
100
AcDbEntity
  8
0
100
AcDbBlockBegin
  2
*D3
 70
     1
 10
0.0
 20
0.0
 30
0.0
  3
*D3
  1

  0
LINE
  5
F1005A
330
F10002
100
AcDbEntity
  8
Bemassung
 62
     0
370
    -2
100
AcDbLine
10
-60.2034739454094
20
-1.03225806451600
30
0.000000000000000
11
-85.2034739454094
21
-1.03225806451600
31
0.000000000000000
  0
LINE
  5
F1005B
330
F10002
100
AcDbEntity
  8
Bemassung
 62
     0
370
    -2
100
AcDbLine
10
-60.2034739454094
20
14.9677419354840
30
0.000000000000000
11
-85.2034739454094
21
14.9677419354840
31
0.000000000000000
  0
LINE
  5
F1005C
330
F10002
100
AcDbEntity
  8
Bemassung
 62
     0
370
    -2
100
AcDbLine
10
-83.2034739454094
20
-1.03225806451600
30
0.000000000000000
11
-83.2034739454094
21
14.9677419354840
31
0.000000000000000
  0
INSERT
  5
F1005D
330
F10002
100
AcDbEntity
  8
Bemassung
 62
     0
370
    -2
100
AcDbBlockReference
  2
VDDIM_DEFAULT
10
-83.2034739454094
20
-1.03225806451600
30
0.000000000000000
 41
2.50000000000000
 42
2.50000000000000
 43
2.50000000000000
 50
270.000000000000
  0
INSERT
  5
F1005E
330
F10002
100
AcDbEntity
  8
Bemassung
 62
     0
370
    -2
100
AcDbBlockReference
  2
VDDIM_DEFAULT
10
-83.2034739454094
20
14.9677419354840
30
0.000000000000000
 41
2.50000000000000
 42
2.50000000000000
 43
2.50000000000000
 50
90.0000000000000
  0
MTEXT
  5
F1005F
102
{ACAD_XDICTIONARY
360
F10005
102
}
330
F10002
100
AcDbEntity
  8
Bemassung
 62
     0
100
AcDbMText
10
-83.8701406120761
20
4.36476426799021
30
0.000000000000000
 40
2.50000000000000
 41
0.0
 71
     8
 72
     1
  1
\A1;16
 11
6.12323399573677e-017
 21
1.00000000000000
 31
0.0
 73
     1
 44
1.0
1001
ACAD
1000
MTEXTBEGIN
1070
73
1070
1
1070
44
1040
1.0
1070
74
1070
0
1000
MTEXTEND
  0
POINT
  5
F10060
330
F10002
100
AcDbEntity
  8
Bemassung
 62
     0
100
AcDbPoint
10
-60.2034739454094
20
-1.03225806451600
30
0.000000000000000
  0
POINT
  5
F10061
330
F10002
100
AcDbEntity
  8
Bemassung
 62
     0
100
AcDbPoint
10
-60.2034739454094
20
14.9677419354840
30
0.000000000000000
  0
ENDBLK
  5
F10062
330
F10002
100
AcDbEntity
  8
0
100
AcDbBlockEnd
  0
BLOCK
  5
F10063
330
F1000C
100
AcDbEntity
  8
0
100
AcDbBlockBegin
  2
*D5
 70
     1
 10
0.0
 20
0.0
 30
0.0
  3
*D5
  1

  0
LINE
  5
F10064
330
F1000C
100
AcDbEntity
  8
Bemassung
 62
     0
370
    -2
100
AcDbLine
10
-48.2034739454094
20
-0.732258064516000
30
0.000000000000000
11
-13.8701406120761
21
-0.732258064516000
31
0.000000000000000
  0
LINE
  5
F10065
330
F1000C
100
AcDbEntity
  8
Bemassung
 62
     0
370
    -2
100
AcDbLine
10
-48.2034739454094
20
14.6677419354840
30
0.000000000000000
11
-13.8701406120761
21
14.6677419354840
31
0.000000000000000
  0
LINE
  5
F10066
330
F1000C
100
AcDbEntity
  8
Bemassung
 62
     0
370
    -2
100
AcDbLine
10
-15.8701406120761
20
-13.6674937965260
30
0.000000000000000
11
-15.8701406120761
21
14.6677419354840
31
0.000000000000000
  0
INSERT
  5
F10067
330
F1000C
100
AcDbEntity
  8
Bemassung
 62
     0
370
    -2
100
AcDbBlockReference
  2
VDDIM_DEFAULT
10
-15.8701406120761
20
-0.732258064516000
30
0.000000000000000
 41
2.50000000000000
 42
2.50000000000000
 43
2.50000000000000
 50
270.000000000000
  0
INSERT
  5
F10068
330
F1000C
100
AcDbEntity
  8
Bemassung
 62
     0
370
    -2
100
AcDbBlockReference
  2
VDDIM_DEFAULT
10
-15.8701406120761
20
14.6677419354840
30
0.000000000000000
 41
2.50000000000000
 42
2.50000000000000
 43
2.50000000000000
 50
90.0000000000000
  0
MTEXT
  5
F10069
102
{ACAD_XDICTIONARY
360
F1000F
102
}
330
F1000C
100
AcDbEntity
  8
Bemassung
 62
     0
100
AcDbMText
10
-16.5368072787428
20
-2.94789081885843
30
0.000000000000000
 40
2.50000000000000
 41
0.0
 71
     8
 72
     1
  1
\A1;15.4
 11
6.12323399573677e-017
 21
1.00000000000000
 31
0.0
 73
     1
 44
1.0
1001
ACAD
1000
MTEXTBEGIN
1070
73
1070
1
1070
44
1040
1.0
1070
74
1070
0
1000
MTEXTEND
  0
POINT
  5
F1006A
330
F1000C
100
AcDbEntity
  8
Bemassung
 62
     0
100
AcDbPoint
10
-48.2034739454094
20
-0.732258064516000
30
0.000000000000000
  0
POINT
  5
F1006B
330
F1000C
100
AcDbEntity
  8
Bemassung
 62
     0
100
AcDbPoint
10
-48.2034739454094
20
14.6677419354840
30
0.000000000000000
  0
ENDBLK
  5
F1006C
330
F1000C
100
AcDbEntity
  8
0
100
AcDbBlockEnd
  0
BLOCK
  5
F1006D
330
F1001B
100
AcDbEntity
  8
0
100
AcDbBlockBegin
  2
*D8
 70
     1
 10
0.0
 20
0.0
 30
0.0
  3
*D8
  1

  0
LINE
  5
F1006E
330
F1001B
100
AcDbEntity
  8
Bemassung
 62
     0
370
    -2
100
AcDbLine
10
81.2965260545906
20
-1.03225806451600
30
0.000000000000000
11
93.7965260545906
21
-1.03225806451600
31
0.000000000000000
  0
LINE
  5
F1006F
330
F1001B
100
AcDbEntity
  8
Bemassung
 62
     0
370
    -2
100
AcDbLine
10
81.2965260545906
20
14.9677419354840
30
0.000000000000000
11
93.7965260545906
21
14.9677419354840
31
0.000000000000000
  0
LINE
  5
F10070
330
F1001B
100
AcDbEntity
  8
Bemassung
 62
     0
370
    -2
100
AcDbLine
10
91.7965260545906
20
-1.03225806451600
30
0.000000000000000
11
91.7965260545906
21
14.9677419354840
31
0.000000000000000
  0
INSERT
  5
F10071
330
F1001B
100
AcDbEntity
  8
Bemassung
 62
     0
370
    -2
100
AcDbBlockReference
  2
VDDIM_DEFAULT
10
91.7965260545906
20
-1.03225806451600
30
0.000000000000000
 41
2.50000000000000
 42
2.50000000000000
 43
2.50000000000000
 50
270.000000000000
  0
INSERT
  5
F10072
330
F1001B
100
AcDbEntity
  8
Bemassung
 62
     0
370
    -2
100
AcDbBlockReference
  2
VDDIM_DEFAULT
10
91.7965260545906
20
14.9677419354840
30
0.000000000000000
 41
2.50000000000000
 42
2.50000000000000
 43
2.50000000000000
 50
90.0000000000000
  0
MTEXT
  5
F10073
330
F1001B
100
AcDbEntity
  8
Bemassung
 62
     0
100
AcDbMText
10
91.1298593879239
20
6.96774193548400
30
0.000000000000000
 40
2.50000000000000
 41
0.0
 71
     8
 72
     1
  1
\A1;16 h5
 11
6.12323399573677e-017
 21
1.00000000000000
 31
0.0
 73
     1
 44
1.0
  0
POINT
  5
F10074
330
F1001B
100
AcDbEntity
  8
Bemassung
 62
     0
100
AcDbPoint
10
81.2965260545906
20
-1.03225806451600
30
0.000000000000000
  0
POINT
  5
F10075
330
F1001B
100
AcDbEntity
  8
Bemassung
 62
     0
100
AcDbPoint
10
81.2965260545906
20
14.9677419354840
30
0.000000000000000
  0
ENDBLK
  5
F10076
330
F1001B
100
AcDbEntity
  8
0
100
AcDbBlockEnd
0
ENDSEC
0
SECTION
2
ENTITIES
  0
DIMENSION
  5
F10012
330
261
100
AcDbEntity
  8
Bemassung
100
AcDbDimension
  2
*D6
10
31.7965260545906
20
24.9677419354840
30
0.000000000000000
11
-18.2034739454094
21
25.6344086021507
31
0.000000000000000
 70
32
 1
<>
 71
     8
  3
BEM-ISBE
100
AcDbAlignedDimension
13
-68.2034739454094
23
-13.0322580645160
33
0.000000000000000
14
31.7965260545906
24
14.6677419354840
34
0.000000000000000
100
AcDbRotatedDimension
1001
ACAD
1000
DSTYLE
1002
{
1070
284
1070
8
1070
78
1070
8
1070
144
1040
1.00000000000000
1070
147
1040
0.625
1070
 72
1070
 0
1070
 71
1070
 0
1002
}
  0
DIMENSION
  5
F10017
330
261
100
AcDbEntity
  8
Bemassung
100
AcDbDimension
  2
*D7
10
81.7965260545906
20
29.9677419354840
30
0.000000000000000
11
56.7965260545906
21
30.6344086021507
31
0.000000000000000
 70
32
 1
<>
 71
     8
  3
BEM-ISBE
100
AcDbAlignedDimension
13
31.7965260545906
23
14.9677419354840
33
0.000000000000000
14
81.7965260545906
24
14.4677419354840
34
0.000000000000000
100
AcDbRotatedDimension
1001
ACAD
1000
DSTYLE
1002
{
1070
284
1070
8
1070
78
1070
8
1070
144
1040
1.00000000000000
1070
147
1040
0.625
1070
 72
1070
 0
1070
 71
1070
 0
1002
}
  0
DIMENSION
  5
F10021
330
261
100
AcDbEntity
  8
Bemassung
100
AcDbDimension
  2
*D9
10
-68.2034739454094
20
-11.0322580645160
30
0.000000000000000
11
-58.2034739454094
21
-10.3655913978493
31
0.000000000000000
 70
32
 1
<>
 71
     8
  3
BEM-ISBE
100
AcDbAlignedDimension
13
-48.2034739454094
23
-0.732258064516000
33
0.000000000000000
14
-68.2034739454094
24
-13.0322580645160
34
0.000000000000000
100
AcDbRotatedDimension
1001
ACAD
1000
DSTYLE
1002
{
1070
284
1070
8
1070
78
1070
8
1070
144
1040
1.00000000000000
1070
147
1040
0.625
1070
 72
1070
 0
1070
 71
1070
 0
1002
}
  0
DIMENSION
  5
F10026
330
261
100
AcDbEntity
  8
Bemassung
100
AcDbDimension
  2
*D10
10
-68.2034739454094
20
34.9677419354840
30
0.000000000000000
11
6.79652605459060
21
35.6344086021507
31
0.000000000000000
 70
32
 1
<>
 71
     8
  3
BEM-ISBE
100
AcDbAlignedDimension
13
81.7965260545906
23
14.4677419354840
33
0.000000000000000
14
-68.2034739454094
24
-13.0322580645160
34
0.000000000000000
100
AcDbRotatedDimension
1001
ACAD
1000
DSTYLE
1002
{
1070
284
1070
8
1070
78
1070
8
1070
144
1040
1.00000000000000
1070
147
1040
0.625
1070
 72
1070
 0
1070
 71
1070
 0
1002
}
  0
DIMENSION
  5
F10008
330
261
100
AcDbEntity
  8
Bemassung
100
AcDbDimension
  2
*D4
10
-60.2034739454094
20
6.96774193548400
30
0.000000000000000
11
-78.3083639713454
21
27.9573188928632
31
0.000000000000000
 70
164
 1
<>
 71
     8
  3
BEM-ISBE
100
AcDbRadialDimension
15
-62.3661602254896
25
14.6698707356245
35
0.000000000000000
40
0.0
1001
ACAD
1000
DSTYLE
1002
{
1070
284
1070
8
1070
78
1070
8
1070
144
1040
1.00000000000000
1070
147
1040
0.625
1070
 72
1070
 0
1070
 71
1070
 0
1002
}
  0
DIMENSION
  5
F10003
330
261
100
AcDbEntity
  8
Bemassung
100
AcDbDimension
  2
*D3
10
-83.2034739454094
20
14.9677419354840
30
0.000000000000000
11
-83.8701406120761
21
4.36476426799021
31
0.000000000000000
 70
32
 1
Ø<>
 71
     8
  3
BEM-ISBE
100
AcDbAlignedDimension
13
-60.2034739454094
23
-1.03225806451600
33
0.000000000000000
14
-60.2034739454094
24
14.9677419354840
34
0.000000000000000
50
90.0000000000000
100
AcDbRotatedDimension
1001
ACAD
1000
DSTYLE
1002
{
1070
284
1070
8
1070
78
1070
8
1070
144
1040
1.00000000000000
1070
147
1040
0.625
1070
 72
1070
 0
1070
 71
1070
 0
1002
}
  0
DIMENSION
  5
F1000D
330
261
100
AcDbEntity
  8
Bemassung
100
AcDbDimension
  2
*D5
10
-15.8701406120761
20
14.6677419354840
30
0.000000000000000
11
-16.5368072787428
21
-2.94789081885843
31
0.000000000000000
 70
32
 1
Ø<>
 71
     8
  3
BEM-ISBE
100
AcDbAlignedDimension
13
-48.2034739454094
23
-0.732258064516000
33
0.000000000000000
14
-48.2034739454094
24
14.6677419354840
34
0.000000000000000
50
90.0000000000000
100
AcDbRotatedDimension
1001
ACAD
1000
DSTYLE
1002
{
1070
284
1070
8
1070
78
1070
8
1070
144
1040
1.00000000000000
1070
147
1040
0.625
1070
 72
1070
 0
1070
 71
1070
 0
1002
}
  0
DIMENSION
  5
F1001C
330
261
100
AcDbEntity
  8
Bemassung
100
AcDbDimension
  2
*D8
10
91.7965260545906
20
14.9677419354840
30
0.000000000000000
11
91.1298593879239
21
6.96774193548400
31
0.000000000000000
 70
32
 1
Ø<> h5
 71
     8
  3
BEM-ISBE
100
AcDbAlignedDimension
13
81.2965260545906
23
-1.03225806451600
33
0.000000000000000
14
81.2965260545906
24
14.9677419354840
34
0.000000000000000
50
90.0000000000000
100
AcDbRotatedDimension
1001
ACAD
1000
DSTYLE
1002
{
1070
284
1070
8
1070
78
1070
8
1070
144
1040
1.00000000000000
1070
147
1040
0.625
1070
 72
1070
 0
1070
 71
1070
 0
1002
}
  0
ARC
  5
F10077
330
F10078
100
AcDbEntity
8
Geo
100
AcDbCircle
10
-60.2034739454094
20
6.96774193548400
30
0.000000000000000
 40
8.00000000000000
100
AcDbArc
 50
90.0000000000000
 51
180.000000000000
  0
LINE
  5
F10079
330
F1007A
100
AcDbEntity
8
Geo
100
AcDbLine
10
-60.2034739454094
20
14.9677419354840
30
0.000000000000000
11
-48.2034739454094
21
14.9677419354840
31
0.000000000000000
  0
LINE
  5
F1007B
330
F1007C
100
AcDbEntity
8
Geo
100
AcDbLine
10
-48.2034739454094
20
14.9677419354840
30
0.000000000000000
11
-48.2034739454094
21
14.6677419354840
31
0.000000000000000
  0
LINE
  5
F1007D
330
F1007E
100
AcDbEntity
8
Geo
100
AcDbLine
10
-48.2034739454094
20
14.6677419354840
30
0.000000000000000
11
31.7965260545906
21
14.6677419354840
31
0.000000000000000
  0
LINE
  5
F1007F
330
F10080
100
AcDbEntity
8
Geo
100
AcDbLine
10
31.7965260545906
20
14.6677419354840
30
0.000000000000000
11
31.7965260545906
21
14.9677419354840
31
0.000000000000000
  0
LINE
  5
F10081
330
F10082
100
AcDbEntity
8
Geo
100
AcDbLine
10
31.7965260545906
20
14.9677419354840
30
0.000000000000000
11
81.2965260545906
21
14.9677419354840
31
0.000000000000000
  0
LINE
  5
F10083
330
F10084
100
AcDbEntity
8
Geo
100
AcDbLine
10
81.2965260545906
20
14.9677419354840
30
0.000000000000000
11
81.7965260545906
21
14.4677419354840
31
0.000000000000000
  0
LINE
  5
F10085
330
F10086
100
AcDbEntity
8
Geo
100
AcDbLine
10
-57.5034739454094
20
14.9674552810220
30
0.000000000000000
11
-57.4034739454094
21
14.9677009833691
31
0.000000000000000
  0
LINE
  5
F10087
330
F10088
100
AcDbEntity
8
Geo
100
AcDbLine
10
-57.4034739454094
20
14.9677009833691
30
0.000000000000000
11
-57.3034739454094
21
14.9668580968782
31
0.000000000000000
  0
LINE
  5
F10089
330
F1008A
100
AcDbEntity
8
Geo
100
AcDbLine
10
-57.3034739454094
20
14.9668580968782
30
0.000000000000000
11
-57.2034739454094
21
14.9649267362445
31
0.000000000000000
  0
LINE
  5
F1008B
330
F1008C
100
AcDbEntity
8
Geo
100
AcDbLine
10
-57.2034739454094
20
14.9649267362445
30
0.000000000000000
11
-57.1034739454094
21
14.9619071642765
31
0.000000000000000
  0
LINE
  5
F1008D
330
F1008E
100
AcDbEntity
8
Geo
100
AcDbLine
10
-57.1034739454094
20
14.9619071642765
30
0.000000000000000
11
-57.0034739454094
21
14.9577997918603
31
0.000000000000000
  0
LINE
  5
F1008F
330
F10090
100
AcDbEntity
8
Geo
100
AcDbLine
10
-57.0034739454094
20
14.9577997918603
30
0.000000000000000
11
-56.9034739454094
21
14.9526051779039
31
0.000000000000000
  0
LINE
  5
F10091
330
F10092
100
AcDbEntity
8
Geo
100
AcDbLine
10
-56.9034739454094
20
14.9526051779039
30
0.000000000000000
11
-56.8034739454094
21
14.9463240292605
31
0.000000000000000
  0
LINE
  5
F10093
330
F10094
100
AcDbEntity
8
Geo
100
AcDbLine
10
-56.8034739454094
20
14.9463240292605
30
0.000000000000000
11
-56.7034739454094
21
14.9389572006333
31
0.000000000000000
  0
LINE
  5
F10095
330
F10096
100
AcDbEntity
8
Geo
100
AcDbLine
10
-56.7034739454094
20
14.9389572006333
30
0.000000000000000
11
-56.6034739454094
21
14.9305056944582
31
0.000000000000000
  0
LINE
  5
F10097
330
F10098
100
AcDbEntity
8
Geo
100
AcDbLine
10
-56.6034739454094
20
14.9305056944582
30
0.000000000000000
11
-56.5034739454094
21
14.9209706607680
31
0.000000000000000
  0
LINE
  5
F10099
330
F1009A
100
AcDbEntity
8
Geo
100
AcDbLine
10
-56.5034739454094
20
14.9209706607680
30
0.000000000000000
11
-56.4034739454094
21
14.9103533970358
31
0.000000000000000
  0
LINE
  5
F1009B
330
F1009C
100
AcDbEntity
8
Geo
100
AcDbLine
10
-56.4034739454094
20
14.9103533970358
30
0.000000000000000
11
-56.3034739454094
21
14.8986553479983
31
0.000000000000000
  0
LINE
  5
F1009D
330
F1009E
100
AcDbEntity
8
Geo
100
AcDbLine
10
-56.3034739454094
20
14.8986553479983
30
0.000000000000000
11
-56.2034739454094
21
14.8858781054594
31
0.000000000000000
  0
LINE
  5
F1009F
330
F100A0
100
AcDbEntity
8
Geo
100
AcDbLine
10
-56.2034739454094
20
14.8858781054594
30
0.000000000000000
11
-56.1034739454094
21
14.8720234080734
31
0.000000000000000
  0
LINE
  5
F100A1
330
F100A2
100
AcDbEntity
8
Geo
100
AcDbLine
10
-56.1034739454094
20
14.8720234080734
30
0.000000000000000
11
-56.0034739454094
21
14.8570931411085
31
0.000000000000000
  0
LINE
  5
F100A3
330
F100A4
100
AcDbEntity
8
Geo
100
AcDbLine
10
-56.0034739454094
20
14.8570931411085
30
0.000000000000000
11
-55.9034739454094
21
14.8410893361906
31
0.000000000000000
  0
LINE
  5
F100A5
330
F100A6
100
AcDbEntity
8
Geo
100
AcDbLine
10
-55.9034739454094
20
14.8410893361906
30
0.000000000000000
11
-55.8034739454094
21
14.8240141710260
31
0.000000000000000
  0
LINE
  5
F100A7
330
F100A8
100
AcDbEntity
8
Geo
100
AcDbLine
10
-55.8034739454094
20
14.8240141710260
30
0.000000000000000
11
-55.7034739454094
21
14.8058699691060
31
0.000000000000000
  0
LINE
  5
F100A9
330
F100AA
100
AcDbEntity
8
Geo
100
AcDbLine
10
-55.7034739454094
20
14.8058699691060
30
0.000000000000000
11
-55.6034739454094
21
14.7866591993901
31
0.000000000000000
  0
LINE
  5
F100AB
330
F100AC
100
AcDbEntity
8
Geo
100
AcDbLine
10
-55.6034739454094
20
14.7866591993901
30
0.000000000000000
11
-55.5034739454094
21
14.7663844759705
31
0.000000000000000
  0
LINE
  5
F100AD
330
F100AE
100
AcDbEntity
8
Geo
100
AcDbLine
10
-55.5034739454094
20
14.7663844759705
30
0.000000000000000
11
-55.4034739454094
21
14.7450485577160
31
0.000000000000000
  0
LINE
  5
F100AF
330
F100B0
100
AcDbEntity
8
Geo
100
AcDbLine
10
-55.4034739454094
20
14.7450485577160
30
0.000000000000000
11
-55.3034739454094
21
14.7226543478967
31
0.000000000000000
  0
LINE
  5
F100B1
330
F100B2
100
AcDbEntity
8
Geo
100
AcDbLine
10
-55.3034739454094
20
14.7226543478967
30
0.000000000000000
11
-55.2034739454094
21
14.6992048937890
31
0.000000000000000
  0
LINE
  5
F100B3
330
F100B4
100
AcDbEntity
8
Geo
100
AcDbLine
10
-55.2034739454094
20
14.6992048937890
30
0.000000000000000
11
-55.1034739454094
21
14.6747033862612
31
0.000000000000000
  0
LINE
  5
F100B5
330
F100B6
100
AcDbEntity
8
Geo
100
AcDbLine
10
-55.1034739454094
20
14.6747033862612
30
0.000000000000000
11
-55.0034739454094
21
14.6491531593386
31
0.000000000000000
  0
LINE
  5
F100B7
330
F100B8
100
AcDbEntity
8
Geo
100
AcDbLine
10
-55.0034739454094
20
14.6491531593386
30
0.000000000000000
11
-54.9034739454094
21
14.6225576897507
31
0.000000000000000
  0
LINE
  5
F100B9
330
F100BA
100
AcDbEntity
8
Geo
100
AcDbLine
10
-54.9034739454094
20
14.6225576897507
30
0.000000000000000
11
-54.8034739454094
21
14.5949205964572
31
0.000000000000000
  0
LINE
  5
F100BB
330
F100BC
100
AcDbEntity
8
Geo
100
AcDbLine
10
-54.8034739454094
20
14.5949205964572
30
0.000000000000000
11
-54.7034739454094
21
14.5662456401564
31
0.000000000000000
  0
LINE
  5
F100BD
330
F100BE
100
AcDbEntity
8
Geo
100
AcDbLine
10
-54.7034739454094
20
14.5662456401564
30
0.000000000000000
11
-54.6034739454094
21
14.5365367227729
31
0.000000000000000
  0
LINE
  5
F100BF
330
F100C0
100
AcDbEntity
8
Geo
100
AcDbLine
10
-54.6034739454094
20
14.5365367227729
30
0.000000000000000
11
-54.5034739454094
21
14.5057978869269
31
0.000000000000000
  0
LINE
  5
F100C1
330
F100C2
100
AcDbEntity
8
Geo
100
AcDbLine
10
-54.5034739454094
20
14.5057978869269
30
0.000000000000000
11
-54.4034739454094
21
14.4740333153839
31
0.000000000000000
  0
LINE
  5
F100C3
330
F100C4
100
AcDbEntity
8
Geo
100
AcDbLine
10
-54.4034739454094
20
14.4740333153839
30
0.000000000000000
11
-54.3034739454094
21
14.4412473304860
31
0.000000000000000
  0
LINE
  5
F100C5
330
F100C6
100
AcDbEntity
8
Geo
100
AcDbLine
10
-54.3034739454094
20
14.4412473304860
30
0.000000000000000
11
-54.2034739454094
21
14.4074443935631
31
0.000000000000000
  0
LINE
  5
F100C7
330
F100C8
100
AcDbEntity
8
Geo
100
AcDbLine
10
-54.2034739454094
20
14.4074443935631
30
0.000000000000000
11
-54.1034739454094
21
14.3726291043261
31
0.000000000000000
  0
LINE
  5
F100C9
330
F100CA
100
AcDbEntity
8
Geo
100
AcDbLine
10
-54.1034739454094
20
14.3726291043261
30
0.000000000000000
11
-54.0034739454094
21
14.3368062002413
31
0.000000000000000
  0
LINE
  5
F100CB
330
F100CC
100
AcDbEntity
8
Geo
100
AcDbLine
10
-54.0034739454094
20
14.3368062002413
30
0.000000000000000
11
-53.9034739454094
21
14.2999805558853
31
0.000000000000000
  0
LINE
  5
F100CD
330
F100CE
100
AcDbEntity
8
Geo
100
AcDbLine
10
-53.9034739454094
20
14.2999805558853
30
0.000000000000000
11
-53.8034739454094
21
14.2621571822819
31
0.000000000000000
  0
LINE
  5
F100CF
330
F100D0
100
AcDbEntity
8
Geo
100
AcDbLine
10
-53.8034739454094
20
14.2621571822819
30
0.000000000000000
11
-53.7034739454094
21
14.2233412262202
31
0.000000000000000
  0
LINE
  5
F100D1
330
F100D2
100
AcDbEntity
8
Geo
100
AcDbLine
10
-53.7034739454094
20
14.2233412262202
30
0.000000000000000
11
-53.6034739454094
21
14.1835379695544
31
0.000000000000000
  0
LINE
  5
F100D3
330
F100D4
100
AcDbEntity
8
Geo
100
AcDbLine
10
-53.6034739454094
20
14.1835379695544
30
0.000000000000000
11
-53.5034739454094
21
14.1427528284849
31
0.000000000000000
  0
LINE
  5
F100D5
330
F100D6
100
AcDbEntity
8
Geo
100
AcDbLine
10
-53.5034739454094
20
14.1427528284849
30
0.000000000000000
11
-53.4034739454094
21
14.1009913528211
31
0.000000000000000
  0
LINE
  5
F100D7
330
F100D8
100
AcDbEntity
8
Geo
100
AcDbLine
10
-53.4034739454094
20
14.1009913528211
30
0.000000000000000
11
-53.3034739454094
21
14.0582592252266
31
0.000000000000000
  0
LINE
  5
F100D9
330
F100DA
100
AcDbEntity
8
Geo
100
AcDbLine
10
-53.3034739454094
20
14.0582592252266
30
0.000000000000000
11
-53.2034739454094
21
14.0145622604460
31
0.000000000000000
  0
LINE
  5
F100DB
330
F100DC
100
AcDbEntity
8
Geo
100
AcDbLine
10
-53.2034739454094
20
14.0145622604460
30
0.000000000000000
11
-53.1034739454094
21
13.9699064045132
31
0.000000000000000
  0
LINE
  5
F100DD
330
F100DE
100
AcDbEntity
8
Geo
100
AcDbLine
10
-53.1034739454094
20
13.9699064045132
30
0.000000000000000
11
-53.0034739454094
21
13.9242977339425
31
0.000000000000000
  0
LINE
  5
F100DF
330
F100E0
100
AcDbEntity
8
Geo
100
AcDbLine
10
-53.0034739454094
20
13.9242977339425
30
0.000000000000000
11
-52.9034739454094
21
13.8777424549020
31
0.000000000000000
  0
LINE
  5
F100E1
330
F100E2
100
AcDbEntity
8
Geo
100
AcDbLine
10
-52.9034739454094
20
13.8777424549020
30
0.000000000000000
11
-52.8034739454094
21
13.8302469023686
31
0.000000000000000
  0
LINE
  5
F100E3
330
F100E4
100
AcDbEntity
8
Geo
100
AcDbLine
10
-52.8034739454094
20
13.8302469023686
30
0.000000000000000
11
-52.7034739454094
21
13.7818175392666
31
0.000000000000000
  0
LINE
  5
F100E5
330
F100E6
100
AcDbEntity
8
Geo
100
AcDbLine
10
-52.7034739454094
20
13.7818175392666
30
0.000000000000000
11
-52.6034739454094
21
13.7324609555876
31
0.000000000000000
  0
LINE
  5
F100E7
330
F100E8
100
AcDbEntity
8
Geo
100
AcDbLine
10
-52.6034739454094
20
13.7324609555876
30
0.000000000000000
11
-52.5034739454094
21
13.6821838674944
31
0.000000000000000
  0
LINE
  5
F100E9
330
F100EA
100
AcDbEntity
8
Geo
100
AcDbLine
10
-52.5034739454094
20
13.6821838674944
30
0.000000000000000
11
-52.4034739454094
21
13.6309931164065
31
0.000000000000000
  0
LINE
  5
F100EB
330
F100EC
100
AcDbEntity
8
Geo
100
AcDbLine
10
-52.4034739454094
20
13.6309931164065
30
0.000000000000000
11
-52.3034739454094
21
13.5788956680697
31
0.000000000000000
  0
LINE
  5
F100ED
330
F100EE
100
AcDbEntity
8
Geo
100
AcDbLine
10
-52.3034739454094
20
13.5788956680697
30
0.000000000000000
11
-52.2034739454094
21
13.5258986116078
31
0.000000000000000
  0
LINE
  5
F100EF
330
F100F0
100
AcDbEntity
8
Geo
100
AcDbLine
10
-52.2034739454094
20
13.5258986116078
30
0.000000000000000
11
-52.1034739454094
21
13.4720091585582
31
0.000000000000000
  0
LINE
  5
F100F1
330
F100F2
100
AcDbEntity
8
Geo
100
AcDbLine
10
-52.1034739454094
20
13.4720091585582
30
0.000000000000000
11
-52.0034739454094
21
13.4172346418907
31
0.000000000000000
  0
LINE
  5
F100F3
330
F100F4
100
AcDbEntity
8
Geo
100
AcDbLine
10
-52.0034739454094
20
13.4172346418907
30
0.000000000000000
11
-51.9034739454094
21
13.3615825150093
31
0.000000000000000
  0
LINE
  5
F100F5
330
F100F6
100
AcDbEntity
8
Geo
100
AcDbLine
10
-51.9034739454094
20
13.3615825150093
30
0.000000000000000
11
-51.8034739454094
21
13.3050603507382
31
0.000000000000000
  0
LINE
  5
F100F7
330
F100F8
100
AcDbEntity
8
Geo
100
AcDbLine
10
-51.8034739454094
20
13.3050603507382
30
0.000000000000000
11
-51.7034739454094
21
13.2476758402916
31
0.000000000000000
  0
LINE
  5
F100F9
330
F100FA
100
AcDbEntity
8
Geo
100
AcDbLine
10
-51.7034739454094
20
13.2476758402916
30
0.000000000000000
11
-51.6034739454094
21
13.1894367922266
31
0.000000000000000
  0
LINE
  5
F100FB
330
F100FC
100
AcDbEntity
8
Geo
100
AcDbLine
10
-51.6034739454094
20
13.1894367922266
30
0.000000000000000
11
-51.5034739454094
21
13.1303511313809
31
0.000000000000000
  0
LINE
  5
F100FD
330
F100FE
100
AcDbEntity
8
Geo
100
AcDbLine
10
-51.5034739454094
20
13.1303511313809
30
0.000000000000000
11
-51.4034739454094
21
13.0704268977945
31
0.000000000000000
  0
LINE
  5
F100FF
330
F10100
100
AcDbEntity
8
Geo
100
AcDbLine
10
-51.4034739454094
20
13.0704268977945
30
0.000000000000000
11
-51.3034739454094
21
13.0096722456157
31
0.000000000000000
  0
LINE
  5
F10101
330
F10102
100
AcDbEntity
8
Geo
100
AcDbLine
10
-51.3034739454094
20
13.0096722456157
30
0.000000000000000
11
-51.2034739454094
21
12.9480954419914
31
0.000000000000000
  0
LINE
  5
F10103
330
F10104
100
AcDbEntity
8
Geo
100
AcDbLine
10
-51.2034739454094
20
12.9480954419914
30
0.000000000000000
11
-51.1034739454094
21
12.8857048659420
31
0.000000000000000
  0
LINE
  5
F10105
330
F10106
100
AcDbEntity
8
Geo
100
AcDbLine
10
-51.1034739454094
20
12.8857048659420
30
0.000000000000000
11
-51.0034739454094
21
12.8225090072217
31
0.000000000000000
  0
LINE
  5
F10107
330
F10108
100
AcDbEntity
8
Geo
100
AcDbLine
10
-51.0034739454094
20
12.8225090072217
30
0.000000000000000
11
-50.9034739454094
21
12.7585164651626
31
0.000000000000000
  0
LINE
  5
F10109
330
F1010A
100
AcDbEntity
8
Geo
100
AcDbLine
10
-50.9034739454094
20
12.7585164651626
30
0.000000000000000
11
-50.8034739454094
21
12.6937359475053
31
0.000000000000000
  0
LINE
  5
F1010B
330
F1010C
100
AcDbEntity
8
Geo
100
AcDbLine
10
-50.8034739454094
20
12.6937359475053
30
0.000000000000000
11
-50.7034739454094
21
12.6281762692135
31
0.000000000000000
  0
LINE
  5
F1010D
330
F1010E
100
AcDbEntity
8
Geo
100
AcDbLine
10
-50.7034739454094
20
12.6281762692135
30
0.000000000000000
11
-50.6034739454094
21
12.5618463512746
31
0.000000000000000
  0
LINE
  5
F1010F
330
F10110
100
AcDbEntity
8
Geo
100
AcDbLine
10
-50.6034739454094
20
12.5618463512746
30
0.000000000000000
11
-50.5034739454094
21
12.4947552194858
31
0.000000000000000
  0
LINE
  5
F10111
330
F10112
100
AcDbEntity
8
Geo
100
AcDbLine
10
-50.5034739454094
20
12.4947552194858
30
0.000000000000000
11
-50.4034739454094
21
12.4269120032259
31
0.000000000000000
  0
LINE
  5
F10113
330
F10114
100
AcDbEntity
8
Geo
100
AcDbLine
10
-50.4034739454094
20
12.4269120032259
30
0.000000000000000
11
-50.3034739454094
21
12.3583259342133
31
0.000000000000000
  0
LINE
  5
F10115
330
F10116
100
AcDbEntity
8
Geo
100
AcDbLine
10
-50.3034739454094
20
12.3583259342133
30
0.000000000000000
11
-50.2034739454094
21
12.2890063452494
31
0.000000000000000
  0
LINE
  5
F10117
330
F10118
100
AcDbEntity
8
Geo
100
AcDbLine
10
-50.2034739454094
20
12.2890063452494
30
0.000000000000000
11
-50.1034739454094
21
12.2189626689488
31
0.000000000000000
  0
LINE
  5
F10119
330
F1011A
100
AcDbEntity
8
Geo
100
AcDbLine
10
-50.1034739454094
20
12.2189626689488
30
0.000000000000000
11
-50.0034739454094
21
12.1482044364558
31
0.000000000000000
  0
LINE
  5
F1011B
330
F1011C
100
AcDbEntity
8
Geo
100
AcDbLine
10
-50.0034739454094
20
12.1482044364558
30
0.000000000000000
11
-49.9034739454094
21
12.0767412761475
31
0.000000000000000
  0
LINE
  5
F1011D
330
F1011E
100
AcDbEntity
8
Geo
100
AcDbLine
10
-49.9034739454094
20
12.0767412761475
30
0.000000000000000
11
-49.8034739454094
21
12.0045829123235
31
0.000000000000000
  0
LINE
  5
F1011F
330
F10120
100
AcDbEntity
8
Geo
100
AcDbLine
10
-49.8034739454094
20
12.0045829123235
30
0.000000000000000
11
-49.7034739454094
21
11.9317391638826
31
0.000000000000000
  0
LINE
  5
F10121
330
F10122
100
AcDbEntity
8
Geo
100
AcDbLine
10
-49.7034739454094
20
11.9317391638826
30
0.000000000000000
11
-49.6034739454094
21
11.8582199429872
31
0.000000000000000
  0
LINE
  5
F10123
330
F10124
100
AcDbEntity
8
Geo
100
AcDbLine
10
-49.6034739454094
20
11.8582199429872
30
0.000000000000000
11
-49.5034739454094
21
11.7840352537138
31
0.000000000000000
  0
LINE
  5
F10125
330
F10126
100
AcDbEntity
8
Geo
100
AcDbLine
10
-49.5034739454094
20
11.7840352537138
30
0.000000000000000
11
-49.4034739454094
21
11.7091951906921
31
0.000000000000000
  0
LINE
  5
F10127
330
F10128
100
AcDbEntity
8
Geo
100
AcDbLine
10
-49.4034739454094
20
11.7091951906921
30
0.000000000000000
11
-49.3034739454094
21
11.6337099377315
31
0.000000000000000
  0
LINE
  5
F10129
330
F1012A
100
AcDbEntity
8
Geo
100
AcDbLine
10
-49.3034739454094
20
11.6337099377315
30
0.000000000000000
11
-49.2034739454094
21
11.5575897664351
31
0.000000000000000
  0
LINE
  5
F1012B
330
F1012C
100
AcDbEntity
8
Geo
100
AcDbLine
10
-49.2034739454094
20
11.5575897664351
30
0.000000000000000
11
-49.1034739454094
21
11.4808450348018
31
0.000000000000000
  0
LINE
  5
F1012D
330
F1012E
100
AcDbEntity
8
Geo
100
AcDbLine
10
-49.1034739454094
20
11.4808450348018
30
0.000000000000000
11
-49.0034739454094
21
11.4034861858176
31
0.000000000000000
  0
LINE
  5
F1012F
330
F10130
100
AcDbEntity
8
Geo
100
AcDbLine
10
-49.0034739454094
20
11.4034861858176
30
0.000000000000000
11
-48.9034739454094
21
11.3255237460336
31
0.000000000000000
  0
LINE
  5
F10131
330
F10132
100
AcDbEntity
8
Geo
100
AcDbLine
10
-48.9034739454094
20
11.3255237460336
30
0.000000000000000
11
-48.8034739454094
21
11.2469683241345
31
0.000000000000000
  0
LINE
  5
F10133
330
F10134
100
AcDbEntity
8
Geo
100
AcDbLine
10
-48.8034739454094
20
11.2469683241345
30
0.000000000000000
11
-48.7034739454094
21
11.1678306094944
31
0.000000000000000
  0
LINE
  5
F10135
330
F10136
100
AcDbEntity
8
Geo
100
AcDbLine
10
-48.7034739454094
20
11.1678306094944
30
0.000000000000000
11
-48.6034739454094
21
11.0881213707224
31
0.000000000000000
  0
LINE
  5
F10137
330
F10138
100
AcDbEntity
8
Geo
100
AcDbLine
10
-48.6034739454094
20
11.0881213707224
30
0.000000000000000
11
-48.5034739454094
21
11.0078514541977
31
0.000000000000000
  0
LINE
  5
F10139
330
F1013A
100
AcDbEntity
8
Geo
100
AcDbLine
10
-48.5034739454094
20
11.0078514541977
30
0.000000000000000
11
-48.4034739454094
21
10.9270317825929
31
0.000000000000000
  0
LINE
  5
F1013B
330
F1013C
100
AcDbEntity
8
Geo
100
AcDbLine
10
-48.4034739454094
20
10.9270317825929
30
0.000000000000000
11
-48.3034739454094
21
10.8456733533884
31
0.000000000000000
  0
LINE
  5
F1013D
330
F1013E
100
AcDbEntity
8
Geo
100
AcDbLine
10
-48.3034739454094
20
10.8456733533884
30
0.000000000000000
11
-48.2034739454094
21
10.7637872373758
31
0.000000000000000
  0
LINE
  5
F1013F
330
F10140
100
AcDbEntity
8
Geo
100
AcDbLine
10
-48.2034739454094
20
10.7637872373758
30
0.000000000000000
11
-48.1034739454094
21
10.5168941947371
31
0.000000000000000
  0
LINE
  5
F10141
330
F10142
100
AcDbEntity
8
Geo
100
AcDbLine
10
-48.1034739454094
20
10.5168941947371
30
0.000000000000000
11
-48.0034739454094
21
10.3816242071827
31
0.000000000000000
  0
LINE
  5
F10143
330
F10144
100
AcDbEntity
8
Geo
100
AcDbLine
10
-48.0034739454094
20
10.3816242071827
30
0.000000000000000
11
-47.9034739454094
21
10.2147900439361
31
0.000000000000000
  0
LINE
  5
F10145
330
F10146
100
AcDbEntity
8
Geo
100
AcDbLine
10
-47.9034739454094
20
10.2147900439361
30
0.000000000000000
11
-47.8034739454094
21
10.0154518860196
31
0.000000000000000
  0
LINE
  5
F10147
330
F10148
100
AcDbEntity
8
Geo
100
AcDbLine
10
-47.8034739454094
20
10.0154518860196
30
0.000000000000000
11
-47.7034739454094
21
9.78261470885039
31
0.000000000000000
  0
LINE
  5
F10149
330
F1014A
100
AcDbEntity
8
Geo
100
AcDbLine
10
-47.7034739454094
20
9.78261470885039
30
0.000000000000000
11
-47.6034739454094
21
9.51528755624654
31
0.000000000000000
  0
LINE
  5
F1014B
330
F1014C
100
AcDbEntity
8
Geo
100
AcDbLine
10
-47.6034739454094
20
9.51528755624654
30
0.000000000000000
11
-47.5034739454094
21
9.21255342901738
31
0.000000000000000
  0
LINE
  5
F1014D
330
F1014E
100
AcDbEntity
8
Geo
100
AcDbLine
10
-47.5034739454094
20
9.21255342901738
30
0.000000000000000
11
-47.4034739454094
21
8.87365008333508
31
0.000000000000000
  0
LINE
  5
F1014F
330
F10150
100
AcDbEntity
8
Geo
100
AcDbLine
10
-47.4034739454094
20
8.87365008333508
30
0.000000000000000
11
-47.3034739454094
21
8.49806182095825
31
0.000000000000000
  0
LINE
  5
F10151
330
F10152
100
AcDbEntity
8
Geo
100
AcDbLine
10
-47.3034739454094
20
8.49806182095825
30
0.000000000000000
11
-47.2034739454094
21
8.08562204090522
31
0.000000000000000
  0
LINE
  5
F10153
330
F10154
100
AcDbEntity
8
Geo
100
AcDbLine
10
-47.2034739454094
20
8.08562204090522
30
0.000000000000000
11
-47.1034739454094
21
7.63662589821667
31
0.000000000000000
  0
LINE
  5
F10155
330
F10156
100
AcDbEntity
8
Geo
100
AcDbLine
10
-47.1034739454094
20
7.63662589821667
30
0.000000000000000
11
-47.0034739454094
21
7.15195186972301
31
0.000000000000000
  0
LINE
  5
F10157
330
F10158
100
AcDbEntity
8
Geo
100
AcDbLine
10
-47.0034739454094
20
7.15195186972301
30
0.000000000000000
11
-46.9034739454094
21
6.63319035210425
31
0.000000000000000
  0
LINE
  5
F10159
330
F1015A
100
AcDbEntity
8
Geo
100
AcDbLine
10
-46.9034739454094
20
6.63319035210425
30
0.000000000000000
11
-46.8034739454094
21
6.08277661157853
31
0.000000000000000
  0
LINE
  5
F1015B
330
F1015C
100
AcDbEntity
8
Geo
100
AcDbLine
10
-46.8034739454094
20
6.08277661157853
30
0.000000000000000
11
-46.7034739454094
21
5.50412447146119
31
0.000000000000000
  0
LINE
  5
F1015D
330
F1015E
100
AcDbEntity
8
Geo
100
AcDbLine
10
-46.7034739454094
20
5.50412447146119
30
0.000000000000000
11
-46.6034739454094
21
4.90175607652421
31
0.000000000000000
  0
LINE
  5
F1015F
330
F10160
100
AcDbEntity
8
Geo
100
AcDbLine
10
-46.6034739454094
20
4.90175607652421
30
0.000000000000000
11
-46.5034739454094
21
4.28142193556704
31
0.000000000000000
  0
LINE
  5
F10161
330
F10162
100
AcDbEntity
8
Geo
100
AcDbLine
10
-46.5034739454094
20
4.28142193556704
30
0.000000000000000
11
-46.4034739454094
21
3.65020425340922
31
0.000000000000000
  0
LINE
  5
F10163
330
F10164
100
AcDbEntity
8
Geo
100
AcDbLine
10
-46.4034739454094
20
3.65020425340922
30
0.000000000000000
11
-46.3034739454094
21
3.01659537402467
31
0.000000000000000
  0
LINE
  5
F10165
330
F10166
100
AcDbEntity
8
Geo
100
AcDbLine
10
-46.3034739454094
20
3.01659537402467
30
0.000000000000000
11
-46.2034739454094
21
2.39054203905991
31
0.000000000000000
  0
LINE
  5
F10167
330
F10168
100
AcDbEntity
8
Geo
100
AcDbLine
10
-68.2034739454094
20
6.96774193548400
30
0.000000000000000
11
-68.1034739454094
21
8.22860816519320
31
0.000000000000000
  0
LINE
  5
F10169
330
F1016A
100
AcDbEntity
8
Geo
100
AcDbLine
10
-68.1034739454094
20
8.22860816519320
30
0.000000000000000
11
-68.0034739454094
21
8.74489705346656
31
0.000000000000000
  0
LINE
  5
F1016B
330
F1016C
100
AcDbEntity
8
Geo
100
AcDbLine
10
-68.0034739454094
20
8.74489705346656
30
0.000000000000000
11
-67.9034739454094
21
9.13666657671370
31
0.000000000000000
  0
LINE
  5
F1016D
330
F1016E
100
AcDbEntity
8
Geo
100
AcDbLine
10
-67.9034739454094
20
9.13666657671370
30
0.000000000000000
11
-67.8034739454094
21
9.46302228938711
31
0.000000000000000
  0
LINE
  5
F1016F
330
F10170
100
AcDbEntity
8
Geo
100
AcDbLine
10
-67.8034739454094
20
9.46302228938711
30
0.000000000000000
11
-67.7034739454094
21
9.74689022016543
31
0.000000000000000
  0
LINE
  5
F10171
330
F10172
100
AcDbEntity
8
Geo
100
AcDbLine
10
-67.7034739454094
20
9.74689022016543
30
0.000000000000000
11
-67.6034739454094
21
10.0000363795236
31
0.000000000000000
  0
LINE
  5
F10173
330
F10174
100
AcDbEntity
8
Geo
100
AcDbLine
10
-67.6034739454094
20
10.0000363795236
30
0.000000000000000
11
-67.5034739454094
21
10.2294512010740
31
0.000000000000000
  0
LINE
  5
F10175
330
F10176
100
AcDbEntity
8
Geo
100
AcDbLine
10
-67.5034739454094
20
10.2294512010740
30
0.000000000000000
11
-67.4034739454094
21
10.4396877011472
31
0.000000000000000
  0
LINE
  5
F10177
330
F10178
100
AcDbEntity
8
Geo
100
AcDbLine
10
-67.4034739454094
20
10.4396877011472
30
0.000000000000000
11
-67.3034739454094
21
10.6339059528406
31
0.000000000000000
  0
LINE
  5
F10179
330
F1017A
100
AcDbEntity
8
Geo
100
AcDbLine
10
-67.3034739454094
20
10.6339059528406
30
0.000000000000000
11
-67.2034739454094
21
10.8144041752806
31
0.000000000000000
  0
LINE
  5
F1017B
330
F1017C
100
AcDbEntity
8
Geo
100
AcDbLine
10
-67.2034739454094
20
10.8144041752806
30
0.000000000000000
11
-67.1034739454094
21
10.9829148606968
31
0.000000000000000
  0
LINE
  5
F1017D
330
F1017E
100
AcDbEntity
8
Geo
100
AcDbLine
10
-67.1034739454094
20
10.9829148606968
30
0.000000000000000
11
-67.0034739454094
21
11.1407817520964
31
0.000000000000000
  0
LINE
  5
F1017F
330
F10180
100
AcDbEntity
8
Geo
100
AcDbLine
10
-67.0034739454094
20
11.1407817520964
30
0.000000000000000
11
-66.9034739454094
21
11.2890715108326
31
0.000000000000000
  0
LINE
  5
F10181
330
F10182
100
AcDbEntity
8
Geo
100
AcDbLine
10
-66.9034739454094
20
11.2890715108326
30
0.000000000000000
11
-66.8034739454094
21
11.4286473222912
31
0.000000000000000
  0
LINE
  5
F10183
330
F10184
100
AcDbEntity
8
Geo
100
AcDbLine
10
-66.8034739454094
20
11.4286473222912
30
0.000000000000000
11
-66.7034739454094
21
11.5602191904281
31
0.000000000000000
  0
LINE
  5
F10185
330
F10186
100
AcDbEntity
8
Geo
100
AcDbLine
10
-66.7034739454094
20
11.5602191904281
30
0.000000000000000
11
-66.6034739454094
21
11.6843793563050
31
0.000000000000000
  0
LINE
  5
F10187
330
F10188
100
AcDbEntity
8
Geo
100
AcDbLine
10
-66.6034739454094
20
11.6843793563050
30
0.000000000000000
11
-66.5034739454094
21
11.8016278891275
31
0.000000000000000
  0
LINE
  5
F10189
330
F1018A
100
AcDbEntity
8
Geo
100
AcDbLine
10
-66.5034739454094
20
11.8016278891275
30
0.000000000000000
11
-66.4034739454094
21
11.9123915900694
31
0.000000000000000
  0
LINE
  5
F1018B
330
F1018C
100
AcDbEntity
8
Geo
100
AcDbLine
10
-66.4034739454094
20
11.9123915900694
30
0.000000000000000
11
-66.3034739454094
21
12.0170382278282
31
0.000000000000000
  0
LINE
  5
F1018D
330
F1018E
100
AcDbEntity
8
Geo
100
AcDbLine
10
-66.3034739454094
20
12.0170382278282
30
0.000000000000000
11
-66.2034739454094
21
12.1158874416702
31
0.000000000000000
  0
LINE
  5
F1018F
330
F10190
100
AcDbEntity
8
Geo
100
AcDbLine
10
-66.2034739454094
20
12.1158874416702
30
0.000000000000000
11
-66.1034739454094
21
12.2092192181927
31
0.000000000000000
  0
LINE
  5
F10191
330
F10192
100
AcDbEntity
8
Geo
100
AcDbLine
10
-66.1034739454094
20
12.2092192181927
30
0.000000000000000
11
-66.0034739454094
21
12.2972805704177
31
0.000000000000000
  0
LINE
  5
F10193
330
F10194
100
AcDbEntity
8
Geo
100
AcDbLine
10
-66.0034739454094
20
12.2972805704177
30
0.000000000000000
11
-65.9034739454094
21
12.3802908639600
31
0.000000000000000
  0
LINE
  5
F10195
330
F10196
100
AcDbEntity
8
Geo
100
AcDbLine
10
-65.9034739454094
20
12.3802908639600
30
0.000000000000000
11
-65.8034739454094
21
12.4584461105487
31
0.000000000000000
  0
LINE
  5
F10197
330
F10198
100
AcDbEntity
8
Geo
100
AcDbLine
10
-65.8034739454094
20
12.4584461105487
30
0.000000000000000
11
-65.7034739454094
21
12.5319224632573
31
0.000000000000000
  0
LINE
  5
F10199
330
F1019A
100
AcDbEntity
8
Geo
100
AcDbLine
10
-65.7034739454094
20
12.5319224632573
30
0.000000000000000
11
-65.6034739454094
21
12.6008790874251
31
0.000000000000000
  0
LINE
  5
F1019B
330
F1019C
100
AcDbEntity
8
Geo
100
AcDbLine
10
-65.6034739454094
20
12.6008790874251
30
0.000000000000000
11
-65.5034739454094
21
12.6654605381444
31
0.000000000000000
  0
LINE
  5
F1019D
330
F1019E
100
AcDbEntity
8
Geo
100
AcDbLine
10
-65.5034739454094
20
12.6654605381444
30
0.000000000000000
11
-65.4034739454094
21
12.7257987439555
31
0.000000000000000
  0
LINE
  5
F1019F
330
F101A0
100
AcDbEntity
8
Geo
100
AcDbLine
10
-65.4034739454094
20
12.7257987439555
30
0.000000000000000
11
-65.3034739454094
21
12.7820146734537
31
0.000000000000000
  0
LINE
  5
F101A1
330
F101A2
100
AcDbEntity
8
Geo
100
AcDbLine
10
-65.3034739454094
20
12.7820146734537
30
0.000000000000000
11
-65.2034739454094
21
12.8342197444610
31
0.000000000000000
  0
LINE
  5
F101A3
330
F101A4
100
AcDbEntity
8
Geo
100
AcDbLine
10
-65.2034739454094
20
12.8342197444610
30
0.000000000000000
11
-65.1034739454094
21
12.8825170225936
31
0.000000000000000
  0
LINE
  5
F101A5
330
F101A6
100
AcDbEntity
8
Geo
100
AcDbLine
10
-65.1034739454094
20
12.8825170225936
30
0.000000000000000
11
-65.0034739454094
21
12.9270022463110
31
0.000000000000000
  0
LINE
  5
F101A7
330
F101A8
100
AcDbEntity
8
Geo
100
AcDbLine
10
-65.0034739454094
20
12.9270022463110
30
0.000000000000000
11
-64.9034739454094
21
12.9677647080576
31
0.000000000000000
  0
LINE
  5
F101A9
330
F101AA
100
AcDbEntity
8
Geo
100
AcDbLine
10
-64.9034739454094
20
12.9677647080576
30
0.000000000000000
11
-64.8034739454094
21
13.0048880153144
31
0.000000000000000
  0
LINE
  5
F101AB
330
F101AC
100
AcDbEntity
8
Geo
100
AcDbLine
10
-64.8034739454094
20
13.0048880153144
30
0.000000000000000
11
-64.7034739454094
21
13.0384507508617
31
0.000000000000000
  0
LINE
  5
F101AD
330
F101AE
100
AcDbEntity
8
Geo
100
AcDbLine
10
-64.7034739454094
20
13.0384507508617
30
0.000000000000000
11
-64.6034739454094
21
13.0685270479873
31
0.000000000000000
  0
LINE
  5
F101AF
330
F101B0
100
AcDbEntity
8
Geo
100
AcDbLine
10
-64.6034739454094
20
13.0685270479873
30
0.000000000000000
11
-64.5034739454094
21
13.0951870935593
31
0.000000000000000
  0
LINE
  5
F101B1
330
F101B2
100
AcDbEntity
8
Geo
100
AcDbLine
10
-64.5034739454094
20
13.0951870935593
30
0.000000000000000
11
-64.4034739454094
21
13.1184975696215
31
0.000000000000000
  0
LINE
  5
F101B3
330
F101B4
100
AcDbEntity
8
Geo
100
AcDbLine
10
-64.4034739454094
20
13.1184975696215
30
0.000000000000000
11
-64.3034739454094
21
13.1385220423616
31
0.000000000000000
  0
LINE
  5
F101B5
330
F101B6
100
AcDbEntity
8
Geo
100
AcDbLine
10
-64.3034739454094
20
13.1385220423616
30
0.000000000000000
11
-64.2034739454094
21
13.1553213058348
31
0.000000000000000
  0
LINE
  5
F101B7
330
F101B8
100
AcDbEntity
8
Geo
100
AcDbLine
10
-64.2034739454094
20
13.1553213058348
30
0.000000000000000
11
-64.1034739454094
21
13.1689536866324
31
0.000000000000000
  0
LINE
  5
F101B9
330
F101BA
100
AcDbEntity
8
Geo
100
AcDbLine
10
-64.1034739454094
20
13.1689536866324
30
0.000000000000000
11
-64.0034739454094
21
13.1794753147102
31
0.000000000000000
  0
LINE
  5
F101BB
330
F101BC
100
AcDbEntity
8
Geo
100
AcDbLine
10
-64.0034739454094
20
13.1794753147102
30
0.000000000000000
11
-63.9034739454094
21
13.1869403647877
31
0.000000000000000
  0
LINE
  5
F101BD
330
F101BE
100
AcDbEntity
8
Geo
100
AcDbLine
10
-63.9034739454094
20
13.1869403647877
30
0.000000000000000
11
-63.8034739454094
21
13.1914012720684
31
0.000000000000000
  0
LINE
  5
F101BF
330
F101C0
100
AcDbEntity
8
Geo
100
AcDbLine
10
-63.8034739454094
20
13.1914012720684
30
0.000000000000000
11
-63.7034739454094
21
13.1929089254772
31
0.000000000000000
  0
LINE
  5
F101C1
330
F101C2
100
AcDbEntity
8
Geo
100
AcDbLine
10
-63.7034739454094
20
13.1929089254772
30
0.000000000000000
11
-63.6034739454094
21
13.1915128411538
31
0.000000000000000
  0
LINE
  5
F101C3
330
F101C4
100
AcDbEntity
8
Geo
100
AcDbLine
10
-63.6034739454094
20
13.1915128411538
30
0.000000000000000
11
-63.5034739454094
21
13.1872613185570
31
0.000000000000000
  0
LINE
  5
F101C5
330
F101C6
100
AcDbEntity
8
Geo
100
AcDbLine
10
-63.5034739454094
20
13.1872613185570
30
0.000000000000000
11
-63.4034739454094
21
13.1802015812071
31
0.000000000000000
  0
LINE
  5
F101C7
330
F101C8
100
AcDbEntity
8
Geo
100
AcDbLine
10
-63.4034739454094
20
13.1802015812071
30
0.000000000000000
11
-63.3034739454094
21
13.1703799038259
31
0.000000000000000
  0
LINE
  5
F101C9
330
F101CA
100
AcDbEntity
8
Geo
100
AcDbLine
10
-63.3034739454094
20
13.1703799038259
30
0.000000000000000
11
-63.2034739454094
21
13.1578417273965
31
0.000000000000000
  0
LINE
  5
F101CB
330
F101CC
100
AcDbEntity
8
Geo
100
AcDbLine
10
-63.2034739454094
20
13.1578417273965
30
0.000000000000000
11
-63.1034739454094
21
13.1426317634727
31
0.000000000000000
  0
LINE
  5
F101CD
330
F101CE
100
AcDbEntity
8
Geo
100
AcDbLine
10
-63.1034739454094
20
13.1426317634727
30
0.000000000000000
11
-63.0034739454094
21
13.1247940888961
31
0.000000000000000
  0
LINE
  5
F101CF
330
F101D0
100
AcDbEntity
8
Geo
100
AcDbLine
10
-63.0034739454094
20
13.1247940888961
30
0.000000000000000
11
-62.9034739454094
21
13.1043722319381
31
0.000000000000000
  0
LINE
  5
F101D1
330
F101D2
100
AcDbEntity
8
Geo
100
AcDbLine
10
-62.9034739454094
20
13.1043722319381
30
0.000000000000000
11
-62.8034739454094
21
13.0814092507583
31
0.000000000000000
  0
LINE
  5
F101D3
330
F101D4
100
AcDbEntity
8
Geo
100
AcDbLine
10
-62.8034739454094
20
13.0814092507583
30
0.000000000000000
11
-62.7034739454094
21
13.0559478049645
31
0.000000000000000
  0
LINE
  5
F101D5
330
F101D6
100
AcDbEntity
8
Geo
100
AcDbLine
10
-62.7034739454094
20
13.0559478049645
30
0.000000000000000
11
-62.6034739454094
21
13.0280302209694
31
0.000000000000000
  0
LINE
  5
F101D7
330
F101D8
100
AcDbEntity
8
Geo
100
AcDbLine
10
-62.6034739454094
20
13.0280302209694
30
0.000000000000000
11
-62.5034739454094
21
12.9976985517563
31
0.000000000000000
  0
LINE
  5
F101D9
330
F101DA
100
AcDbEntity
8
Geo
100
AcDbLine
10
-62.5034739454094
20
12.9976985517563
30
0.000000000000000
11
-62.4034739454094
21
12.9649946316013
31
0.000000000000000
  0
LINE
  5
F101DB
330
F101DC
100
AcDbEntity
8
Geo
100
AcDbLine
10
-62.4034739454094
20
12.9649946316013
30
0.000000000000000
11
-62.3034739454094
21
12.9299601262342
31
0.000000000000000
  0
LINE
  5
F101DD
330
F101DE
100
AcDbEntity
8
Geo
100
AcDbLine
10
-62.3034739454094
20
12.9299601262342
30
0.000000000000000
11
-62.2034739454094
21
12.8926365788723
31
0.000000000000000
  0
LINE
  5
F101DF
330
F101E0
100
AcDbEntity
8
Geo
100
AcDbLine
10
-62.2034739454094
20
12.8926365788723
30
0.000000000000000
11
-62.1034739454094
21
12.8530654525133
31
0.000000000000000
  0
LINE
  5
F101E1
330
F101E2
100
AcDbEntity
8
Geo
100
AcDbLine
10
-62.1034739454094
20
12.8530654525133
30
0.000000000000000
11
-62.0034739454094
21
12.8112881688326
31
0.000000000000000
  0
LINE
  5
F101E3
330
F101E4
100
AcDbEntity
8
Geo
100
AcDbLine
10
-62.0034739454094
20
12.8112881688326
30
0.000000000000000
11
-61.9034739454094
21
12.7673461439976
31
0.000000000000000
  0
LINE
  5
F101E5
330
F101E6
100
AcDbEntity
8
Geo
100
AcDbLine
10
-61.9034739454094
20
12.7673461439976
30
0.000000000000000
11
-61.8034739454094
21
12.7212808216779
31
0.000000000000000
  0
LINE
  5
F101E7
330
F101E8
100
AcDbEntity
8
Geo
100
AcDbLine
10
-61.8034739454094
20
12.7212808216779
30
0.000000000000000
11
-61.7034739454094
21
12.6731337035042
31
0.000000000000000
  0
LINE
  5
F101E9
330
F101EA
100
AcDbEntity
8
Geo
100
AcDbLine
10
-61.7034739454094
20
12.6731337035042
30
0.000000000000000
11
-61.6034739454094
21
12.6229463772054
31
0.000000000000000
  0
LINE
  5
F101EB
330
F101EC
100
AcDbEntity
8
Geo
100
AcDbLine
10
-61.6034739454094
20
12.6229463772054
30
0.000000000000000
11
-61.5034739454094
21
12.5707605426300
31
0.000000000000000
  0
LINE
  5
F101ED
330
F101EE
100
AcDbEntity
8
Geo
100
AcDbLine
10
-61.5034739454094
20
12.5707605426300
30
0.000000000000000
11
-61.4034739454094
21
12.5166180358418
31
0.000000000000000
  0
LINE
  5
F101EF
330
F101F0
100
AcDbEntity
8
Geo
100
AcDbLine
10
-61.4034739454094
20
12.5166180358418
30
0.000000000000000
11
-61.3034739454094
21
12.4605608514602
31
0.000000000000000
  0
LINE
  5
F101F1
330
F101F2
100
AcDbEntity
8
Geo
100
AcDbLine
10
-61.3034739454094
20
12.4605608514602
30
0.000000000000000
11
-61.2034739454094
21
12.4026311634039
31
0.000000000000000
  0
LINE
  5
F101F3
330
F101F4
100
AcDbEntity
8
Geo
100
AcDbLine
10
-61.2034739454094
20
12.4026311634039
30
0.000000000000000
11
-61.1034739454094
21
12.3428713441808
31
0.000000000000000
  0
LINE
  5
F101F5
330
F101F6
100
AcDbEntity
8
Geo
100
AcDbLine
10
-61.1034739454094
20
12.3428713441808
30
0.000000000000000
11
-61.0034739454094
21
12.2813239828584
31
0.000000000000000
  0
LINE
  5
F101F7
330
F101F8
100
AcDbEntity
8
Geo
100
AcDbLine
10
-61.0034739454094
20
12.2813239828584
30
0.000000000000000
11
-60.9034739454094
21
12.2180319018346
31
0.000000000000000
  0
LINE
  5
F101F9
330
F101FA
100
AcDbEntity
8
Geo
100
AcDbLine
10
-60.9034739454094
20
12.2180319018346
30
0.000000000000000
11
-60.8034739454094
21
12.1530381725250
31
0.000000000000000
  0
LINE
  5
F101FB
330
F101FC
100
AcDbEntity
8
Geo
100
AcDbLine
10
-60.8034739454094
20
12.1530381725250
30
0.000000000000000
11
-60.7034739454094
21
12.0863861300703
31
0.000000000000000
  0
LINE
  5
F101FD
330
F101FE
100
AcDbEntity
8
Geo
100
AcDbLine
10
-60.7034739454094
20
12.0863861300703
30
0.000000000000000
11
-60.6034739454094
21
12.0181193871629
31
0.000000000000000
  0
LINE
  5
F101FF
330
F10200
100
AcDbEntity
8
Geo
100
AcDbLine
10
-60.6034739454094
20
12.0181193871629
30
0.000000000000000
11
-60.5034739454094
21
11.9482818470844
31
0.000000000000000
  0
LINE
  5
F10201
330
F10202
100
AcDbEntity
8
Geo
100
AcDbLine
10
-60.5034739454094
20
11.9482818470844
30
0.000000000000000
11
-60.4034739454094
21
11.8769177160422
31
0.000000000000000
  0
LINE
  5
F10203
330
F10204
100
AcDbEntity
8
Geo
100
AcDbLine
10
-60.4034739454094
20
11.8769177160422
30
0.000000000000000
11
-60.3034739454094
21
11.8040715148856
31
0.000000000000000
  0
LINE
  5
F10205
330
F10206
100
AcDbEntity
8
Geo
100
AcDbLine
10
-60.3034739454094
20
11.8040715148856
30
0.000000000000000
11
-60.2034739454094
21
11.7297880902809
31
0.000000000000000
  0
LINE
  5
F10207
330
F10208
100
AcDbEntity
8
Geo
100
AcDbLine
10
-60.2034739454094
20
11.7297880902809
30
0.000000000000000
11
-60.1034739454094
21
11.6544787910407
31
0.000000000000000
  0
LINE
  5
F10209
330
F1020A
100
AcDbEntity
8
Geo
100
AcDbLine
10
-60.1034739454094
20
11.6544787910407
30
0.000000000000000
11
-60.0034739454094
21
11.5785317473575
31
0.000000000000000
  0
LINE
  5
F1020B
330
F1020C
100
AcDbEntity
8
Geo
100
AcDbLine
10
-60.0034739454094
20
11.5785317473575
30
0.000000000000000
11
-59.9034739454094
21
11.5019572936720
31
0.000000000000000
  0
LINE
  5
F1020D
330
F1020E
100
AcDbEntity
8
Geo
100
AcDbLine
10
-59.9034739454094
20
11.5019572936720
30
0.000000000000000
11
-59.8034739454094
21
11.4247658497997
31
0.000000000000000
  0
LINE
  5
F1020F
330
F10210
100
AcDbEntity
8
Geo
100
AcDbLine
10
-59.8034739454094
20
11.4247658497997
30
0.000000000000000
11
-59.7034739454094
21
11.3469679195122
31
0.000000000000000
  0
LINE
  5
F10211
330
F10212
100
AcDbEntity
8
Geo
100
AcDbLine
10
-59.7034739454094
20
11.3469679195122
30
0.000000000000000
11
-59.6034739454094
21
11.2685740891087
31
0.000000000000000
  0
LINE
  5
F10213
330
F10214
100
AcDbEntity
8
Geo
100
AcDbLine
10
-59.6034739454094
20
11.2685740891087
30
0.000000000000000
11
-59.5034739454094
21
11.1895950259748
31
0.000000000000000
  0
LINE
  5
F10215
330
F10216
100
AcDbEntity
8
Geo
100
AcDbLine
10
-59.5034739454094
20
11.1895950259748
30
0.000000000000000
11
-59.4034739454094
21
11.1100414771313
31
0.000000000000000
  0
LINE
  5
F10217
330
F10218
100
AcDbEntity
8
Geo
100
AcDbLine
10
-59.4034739454094
20
11.1100414771313
30
0.000000000000000
11
-59.3034739454094
21
11.0299242677718
31
0.000000000000000
  0
LINE
  5
F10219
330
F1021A
100
AcDbEntity
8
Geo
100
AcDbLine
10
-59.3034739454094
20
11.0299242677718
30
0.000000000000000
11
-59.2034739454094
21
10.9492542997896
31
0.000000000000000
  0
LINE
  5
F1021B
330
F1021C
100
AcDbEntity
8
Geo
100
AcDbLine
10
-59.2034739454094
20
10.9492542997896
30
0.000000000000000
11
-59.1034739454094
21
10.8680425502943
31
0.000000000000000
  0
LINE
  5
F1021D
330
F1021E
100
AcDbEntity
8
Geo
100
AcDbLine
10
-59.1034739454094
20
10.8680425502943
30
0.000000000000000
11
-59.0034739454094
21
10.7863000701178
31
0.000000000000000
  0
LINE
  5
F1021F
330
F10220
100
AcDbEntity
8
Geo
100
AcDbLine
10
-59.0034739454094
20
10.7863000701178
30
0.000000000000000
11
-58.9034739454094
21
10.7040379823111
31
0.000000000000000
  0
LINE
  5
F10221
330
F10222
100
AcDbEntity
8
Geo
100
AcDbLine
10
-58.9034739454094
20
10.7040379823111
30
0.000000000000000
11
-58.8034739454094
21
10.6212674806304
31
0.000000000000000
  0
LINE
  5
F10223
330
F10224
100
AcDbEntity
8
Geo
100
AcDbLine
10
-58.8034739454094
20
10.6212674806304
30
0.000000000000000
11
-58.7034739454094
21
10.5379998280137
31
0.000000000000000
  0
LINE
  5
F10225
330
F10226
100
AcDbEntity
8
Geo
100
AcDbLine
10
-58.7034739454094
20
10.5379998280137
30
0.000000000000000
11
-58.6034739454094
21
10.4542463550488
31
0.000000000000000
  0
LINE
  5
F10227
330
F10228
100
AcDbEntity
8
Geo
100
AcDbLine
10
-58.6034739454094
20
10.4542463550488
30
0.000000000000000
11
-58.5034739454094
21
10.3700184584309
31
0.000000000000000
  0
LINE
  5
F10229
330
F1022A
100
AcDbEntity
8
Geo
100
AcDbLine
10
-58.5034739454094
20
10.3700184584309
30
0.000000000000000
11
-58.4034739454094
21
10.2853275994123
31
0.000000000000000
  0
LINE
  5
F1022B
330
F1022C
100
AcDbEntity
8
Geo
100
AcDbLine
10
-58.4034739454094
20
10.2853275994123
30
0.000000000000000
11
-58.3034739454094
21
10.2001853022424
31
0.000000000000000
  0
LINE
  5
F1022D
330
F1022E
100
AcDbEntity
8
Geo
100
AcDbLine
10
-58.3034739454094
20
10.2001853022424
30
0.000000000000000
11
-58.2034739454094
21
10.1146031525998
31
0.000000000000000
  0
LINE
  5
F1022F
330
F10230
100
AcDbEntity
8
Geo
100
AcDbLine
10
-58.2034739454094
20
10.1146031525998
30
0.000000000000000
11
-58.1034739454094
21
10.0285927960158
31
0.000000000000000
  0
LINE
  5
F10231
330
F10232
100
AcDbEntity
8
Geo
100
AcDbLine
10
-58.1034739454094
20
10.0285927960158
30
0.000000000000000
11
-58.0034739454094
21
9.94216593628944
31
0.000000000000000
  0
LINE
  5
F10233
330
F10234
100
AcDbEntity
8
Geo
100
AcDbLine
10
-58.0034739454094
20
9.94216593628944
30
0.000000000000000
11
-57.9034739454094
21
9.85533433389536
31
0.000000000000000
  0
LINE
  5
F10235
330
F10236
100
AcDbEntity
8
Geo
100
AcDbLine
10
-57.9034739454094
20
9.85533433389536
30
0.000000000000000
11
-57.8034739454094
21
9.76810980438316
31
0.000000000000000
  0
LINE
  5
F10237
330
F10238
100
AcDbEntity
8
Geo
100
AcDbLine
10
-57.8034739454094
20
9.76810980438316
30
0.000000000000000
11
-57.7034739454094
21
9.68050421676977
31
0.000000000000000
  0
LINE
  5
F10239
330
F1023A
100
AcDbEntity
8
Geo
100
AcDbLine
10
-57.7034739454094
20
9.68050421676977
30
0.000000000000000
11
-57.6034739454094
21
9.59252949192431
31
0.000000000000000
  0
LINE
  5
F1023B
330
F1023C
100
AcDbEntity
8
Geo
100
AcDbLine
10
-57.6034739454094
20
9.59252949192431
30
0.000000000000000
11
-57.5034739454094
21
9.50419760094599
31
0.000000000000000
  0
LINE
  5
F1023D
330
F1023E
100
AcDbEntity
8
Geo
100
AcDbLine
10
-57.5034739454094
20
9.50419760094599
30
0.000000000000000
11
-57.4034739454094
21
9.41552056353517
31
0.000000000000000
  0
LINE
  5
F1023F
330
F10240
100
AcDbEntity
8
Geo
100
AcDbLine
10
-57.4034739454094
20
9.41552056353517
30
0.000000000000000
11
-57.3034739454094
21
9.32651044635776
31
0.000000000000000
  0
LINE
  5
F10241
330
F10242
100
AcDbEntity
8
Geo
100
AcDbLine
10
-57.3034739454094
20
9.32651044635776
30
0.000000000000000
11
-57.2034739454094
21
9.23717936140324
31
0.000000000000000
  0
LINE
  5
F10243
330
F10244
100
AcDbEntity
8
Geo
100
AcDbLine
10
-57.2034739454094
20
9.23717936140324
30
0.000000000000000
11
-57.1034739454094
21
9.14753946433661
31
0.000000000000000
  0
LINE
  5
F10245
330
F10246
100
AcDbEntity
8
Geo
100
AcDbLine
10
-57.1034739454094
20
9.14753946433661
30
0.000000000000000
11
-57.0034739454094
21
9.05760295284423
31
0.000000000000000
  0
LINE
  5
F10247
330
F10248
100
AcDbEntity
8
Geo
100
AcDbLine
10
-57.0034739454094
20
9.05760295284423
30
0.000000000000000
11
-56.9034739454094
21
8.96738206497405
31
0.000000000000000
  0
LINE
  5
F10249
330
F1024A
100
AcDbEntity
8
Geo
100
AcDbLine
10
-56.9034739454094
20
8.96738206497405
30
0.000000000000000
11
-56.8034739454094
21
8.87688907747036
31
0.000000000000000
  0
LINE
  5
F1024B
330
F1024C
100
AcDbEntity
8
Geo
100
AcDbLine
10
-56.8034739454094
20
8.87688907747036
30
0.000000000000000
11
-56.7034739454094
21
8.78613630410321
31
0.000000000000000
  0
LINE
  5
F1024D
330
F1024E
100
AcDbEntity
8
Geo
100
AcDbLine
10
-56.7034739454094
20
8.78613630410321
30
0.000000000000000
11
-56.6034739454094
21
8.69513609399283
31
0.000000000000000
  0
LINE
  5
F1024F
330
F10250
100
AcDbEntity
8
Geo
100
AcDbLine
10
-56.6034739454094
20
8.69513609399283
30
0.000000000000000
11
-56.5034739454094
21
8.60390082992922
31
0.000000000000000
  0
LINE
  5
F10251
330
F10252
100
AcDbEntity
8
Geo
100
AcDbLine
10
-56.5034739454094
20
8.60390082992922
30
0.000000000000000
11
-56.4034739454094
21
8.51244292668720
31
0.000000000000000
  0
LINE
  5
F10253
330
F10254
100
AcDbEntity
8
Geo
100
AcDbLine
10
-56.4034739454094
20
8.51244292668720
30
0.000000000000000
11
-56.3034739454094
21
8.42077482933706
31
0.000000000000000
  0
LINE
  5
F10255
330
F10256
100
AcDbEntity
8
Geo
100
AcDbLine
10
-56.3034739454094
20
8.42077482933706
30
0.000000000000000
11
-56.2034739454094
21
8.32890901155110
31
0.000000000000000
  0
LINE
  5
F10257
330
F10258
100
AcDbEntity
8
Geo
100
AcDbLine
10
-56.2034739454094
20
8.32890901155110
30
0.000000000000000
11
-56.1034739454094
21
8.23685797390628
31
0.000000000000000
  0
LINE
  5
F10259
330
F1025A
100
AcDbEntity
8
Geo
100
AcDbLine
10
-56.1034739454094
20
8.23685797390628
30
0.000000000000000
11
-56.0034739454094
21
8.14463424218323
31
0.000000000000000
  0
LINE
  5
F1025B
330
F1025C
100
AcDbEntity
8
Geo
100
AcDbLine
10
-56.0034739454094
20
8.14463424218323
30
0.000000000000000
11
-55.9034739454094
21
8.05225036566183
31
0.000000000000000
  0
LINE
  5
F1025D
330
F1025E
100
AcDbEntity
8
Geo
100
AcDbLine
10
-55.9034739454094
20
8.05225036566183
30
0.000000000000000
11
-55.8034739454094
21
7.95971891541351
31
0.000000000000000
  0
LINE
  5
F1025F
330
F10260
100
AcDbEntity
8
Geo
100
AcDbLine
10
-55.8034739454094
20
7.95971891541351
30
0.000000000000000
11
-55.7034739454094
21
7.86705248259073
31
0.000000000000000
  0
LINE
  5
F10261
330
F10262
100
AcDbEntity
8
Geo
100
AcDbLine
10
-55.7034739454094
20
7.86705248259073
30
0.000000000000000
11
-55.6034739454094
21
7.77426367671358
31
0.000000000000000
  0
LINE
  5
F10263
330
F10264
100
AcDbEntity
8
Geo
100
AcDbLine
10
-55.6034739454094
20
7.77426367671358
30
0.000000000000000
11
-55.5034739454094
21
7.68136512395399
31
0.000000000000000
  0
LINE
  5
F10265
330
F10266
100
AcDbEntity
8
Geo
100
AcDbLine
10
-55.5034739454094
20
7.68136512395399
30
0.000000000000000
11
-55.4034739454094
21
7.58836946541762
31
0.000000000000000
  0
LINE
  5
F10267
330
F10268
100
AcDbEntity
8
Geo
100
AcDbLine
10
-55.4034739454094
20
7.58836946541762
30
0.000000000000000
11
-55.3034739454094
21
7.49528935542374
31
0.000000000000000
  0
LINE
  5
F10269
330
F1026A
100
AcDbEntity
8
Geo
100
AcDbLine
10
-55.3034739454094
20
7.49528935542374
30
0.000000000000000
11
-55.2034739454094
21
7.40213745978328
31
0.000000000000000
  0
LINE
  5
F1026B
330
F1026C
100
AcDbEntity
8
Geo
100
AcDbLine
10
-55.2034739454094
20
7.40213745978328
30
0.000000000000000
11
-55.1034739454094
21
7.30892645407535
31
0.000000000000000
  0
LINE
  5
F1026D
330
F1026E
100
AcDbEntity
8
Geo
100
AcDbLine
10
-55.1034739454094
20
7.30892645407535
30
0.000000000000000
11
-55.0034739454094
21
7.21566902192244
31
0.000000000000000
  0
LINE
  5
F1026F
330
F10270
100
AcDbEntity
8
Geo
100
AcDbLine
10
-55.0034739454094
20
7.21566902192244
30
0.000000000000000
11
-54.9034739454094
21
7.12237785326446
31
0.000000000000000
  0
LINE
  5
F10271
330
F10272
100
AcDbEntity
8
Geo
100
AcDbLine
10
-54.9034739454094
20
7.12237785326446
30
0.000000000000000
11
-54.8034739454094
21
7.02906564263201
31
0.000000000000000
  0
LINE
  5
F10273
330
F10274
100
AcDbEntity
8
Geo
100
AcDbLine
10
-54.8034739454094
20
7.02906564263201
30
0.000000000000000
11
-54.7034739454094
21
6.93574508741895
31
0.000000000000000
  0
LINE
  5
F10275
330
F10276
100
AcDbEntity
8
Geo
100
AcDbLine
10
-54.7034739454094
20
6.93574508741895
30
0.000000000000000
11
-54.6034739454094
21
6.84242888615464
31
0.000000000000000
  0
LINE
  5
F10277
330
F10278
100
AcDbEntity
8
Geo
100
AcDbLine
10
-54.6034739454094
20
6.84242888615464
30
0.000000000000000
11
-54.5034739454094
21
6.74912973677596
31
0.000000000000000
  0
LINE
  5
F10279
330
F1027A
100
AcDbEntity
8
Geo
100
AcDbLine
10
-54.5034739454094
20
6.74912973677596
30
0.000000000000000
11
-54.4034739454094
21
6.65586033489948
31
0.000000000000000
  0
LINE
  5
F1027B
330
F1027C
100
AcDbEntity
8
Geo
100
AcDbLine
10
-54.4034739454094
20
6.65586033489948
30
0.000000000000000
11
-54.3034739454094
21
6.56263337209390
31
0.000000000000000
  0
LINE
  5
F1027D
330
F1027E
100
AcDbEntity
8
Geo
100
AcDbLine
10
-54.3034739454094
20
6.56263337209390
30
0.000000000000000
11
-54.2034739454094
21
6.46946153415304
31
0.000000000000000
  0
LINE
  5
F1027F
330
F10280
100
AcDbEntity
8
Geo
100
AcDbLine
10
-54.2034739454094
20
6.46946153415304
30
0.000000000000000
11
-54.1034739454094
21
6.37635749936965
31
0.000000000000000
  0
LINE
  5
F10281
330
F10282
100
AcDbEntity
8
Geo
100
AcDbLine
10
-54.1034739454094
20
6.37635749936965
30
0.000000000000000
11
-54.0034739454094
21
6.28333393681021
31
0.000000000000000
  0
LINE
  5
F10283
330
F10284
100
AcDbEntity
8
Geo
100
AcDbLine
10
-54.0034739454094
20
6.28333393681021
30
0.000000000000000
11
-53.9034739454094
21
6.19040350459102
31
0.000000000000000
  0
LINE
  5
F10285
330
F10286
100
AcDbEntity
8
Geo
100
AcDbLine
10
-53.9034739454094
20
6.19040350459102
30
0.000000000000000
11
-53.8034739454094
21
6.09757884815569
31
0.000000000000000
  0
LINE
  5
F10287
330
F10288
100
AcDbEntity
8
Geo
100
AcDbLine
10
-53.8034739454094
20
6.09757884815569
30
0.000000000000000
11
-53.7034739454094
21
6.00487259855451
31
0.000000000000000
  0
LINE
  5
F10289
330
F1028A
100
AcDbEntity
8
Geo
100
AcDbLine
10
-53.7034739454094
20
6.00487259855451
30
0.000000000000000
11
-53.6034739454094
21
5.91229737072561
31
0.000000000000000
  0
LINE
  5
F1028B
330
F1028C
100
AcDbEntity
8
Geo
100
AcDbLine
10
-53.6034739454094
20
5.91229737072561
30
0.000000000000000
11
-53.5034739454094
21
5.81986576177844
31
0.000000000000000
  0
LINE
  5
F1028D
330
F1028E
100
AcDbEntity
8
Geo
100
AcDbLine
10
-53.5034739454094
20
5.81986576177844
30
0.000000000000000
11
-53.4034739454094
21
5.72759034927961
31
0.000000000000000
  0
LINE
  5
F1028F
330
F10290
100
AcDbEntity
8
Geo
100
AcDbLine
10
-53.4034739454094
20
5.72759034927961
30
0.000000000000000
11
-53.3034739454094
21
5.63548368954141
31
0.000000000000000
  0
LINE
  5
F10291
330
F10292
100
AcDbEntity
8
Geo
100
AcDbLine
10
-53.3034739454094
20
5.63548368954141
30
0.000000000000000
11
-53.2034739454094
21
5.54355831591319
31
0.000000000000000
  0
LINE
  5
F10293
330
F10294
100
AcDbEntity
8
Geo
100
AcDbLine
10
-53.2034739454094
20
5.54355831591319
30
0.000000000000000
11
-53.1034739454094
21
5.45182673707597
31
0.000000000000000
  0
LINE
  5
F10295
330
F10296
100
AcDbEntity
8
Geo
100
AcDbLine
10
-53.1034739454094
20
5.45182673707597
30
0.000000000000000
11
-53.0034739454094
21
5.36030143534022
31
0.000000000000000
  0
LINE
  5
F10297
330
F10298
100
AcDbEntity
8
Geo
100
AcDbLine
10
-53.0034739454094
20
5.36030143534022
30
0.000000000000000
11
-52.9034739454094
21
5.26899486494744
31
0.000000000000000
  0
LINE
  5
F10299
330
F1029A
100
AcDbEntity
8
Geo
100
AcDbLine
10
-52.9034739454094
20
5.26899486494744
30
0.000000000000000
11
-52.8034739454094
21
5.17791945037541
31
0.000000000000000
  0
LINE
  5
F1029B
330
F1029C
100
AcDbEntity
8
Geo
100
AcDbLine
10
-52.8034739454094
20
5.17791945037541
30
0.000000000000000
11
-52.7034739454094
21
5.08708758464752
31
0.000000000000000
  0
LINE
  5
F1029D
330
F1029E
100
AcDbEntity
8
Geo
100
AcDbLine
10
-52.7034739454094
20
5.08708758464752
30
0.000000000000000
11
-52.6034739454094
21
4.99651162764645
31
0.000000000000000
  0
LINE
  5
F1029F
330
F102A0
100
AcDbEntity
8
Geo
100
AcDbLine
10
-52.6034739454094
20
4.99651162764645
30
0.000000000000000
11
-52.5034739454094
21
4.90620390443225
31
0.000000000000000
  0
LINE
  5
F102A1
330
F102A2
100
AcDbEntity
8
Geo
100
AcDbLine
10
-52.5034739454094
20
4.90620390443225
30
0.000000000000000
11
-52.4034739454094
21
4.81617670356527
31
0.000000000000000
  0
LINE
  5
F102A3
330
F102A4
100
AcDbEntity
8
Geo
100
AcDbLine
10
-52.4034739454094
20
4.81617670356527
30
0.000000000000000
11
-52.3034739454094
21
4.72644227543397
31
0.000000000000000
  0
LINE
  5
F102A5
330
F102A6
100
AcDbEntity
8
Geo
100
AcDbLine
10
-52.3034739454094
20
4.72644227543397
30
0.000000000000000
11
-52.2034739454094
21
4.63701283058796
31
0.000000000000000
  0
LINE
  5
F102A7
330
F102A8
100
AcDbEntity
8
Geo
100
AcDbLine
10
-52.2034739454094
20
4.63701283058796
30
0.000000000000000
11
-52.1034739454094
21
4.54790053807646
31
0.000000000000000
  0
LINE
  5
F102A9
330
F102AA
100
AcDbEntity
8
Geo
100
AcDbLine
10
-52.1034739454094
20
4.54790053807646
30
0.000000000000000
11
-52.0034739454094
21
4.45911752379242
31
0.000000000000000
  0
LINE
  5
F102AB
330
F102AC
100
AcDbEntity
8
Geo
100
AcDbLine
10
-52.0034739454094
20
4.45911752379242
30
0.000000000000000
11
-51.9034739454094
21
4.37067586882247
31
0.000000000000000
  0
LINE
  5
F102AD
330
F102AE
100
AcDbEntity
8
Geo
100
AcDbLine
10
-51.9034739454094
20
4.37067586882247
30
0.000000000000000
11
-51.8034739454094
21
4.28258760780302
31
0.000000000000000
  0
LINE
  5
F102AF
330
F102B0
100
AcDbEntity
8
Geo
100
AcDbLine
10
-51.8034739454094
20
4.28258760780302
30
0.000000000000000
11
-51.7034739454094
21
4.19486472728264
31
0.000000000000000
  0
LINE
  5
F102B1
330
F102B2
100
AcDbEntity
8
Geo
100
AcDbLine
10
-51.7034739454094
20
4.19486472728264
30
0.000000000000000
11
-51.6034739454094
21
4.10751916409102
31
0.000000000000000
  0
LINE
  5
F102B3
330
F102B4
100
AcDbEntity
8
Geo
100
AcDbLine
10
-51.6034739454094
20
4.10751916409102
30
0.000000000000000
11
-51.5034739454094
21
4.02056280371463
31
0.000000000000000
  0
LINE
  5
F102B5
330
F102B6
100
AcDbEntity
8
Geo
100
AcDbLine
10
-51.5034739454094
20
4.02056280371463
30
0.000000000000000
11
-51.4034739454094
21
3.93400747867946
31
0.000000000000000
  0
LINE
  5
F102B7
330
F102B8
100
AcDbEntity
8
Geo
100
AcDbLine
10
-51.4034739454094
20
3.93400747867946
30
0.000000000000000
11
-51.3034739454094
21
3.84786496694089
31
0.000000000000000
  0
LINE
  5
F102B9
330
F102BA
100
AcDbEntity
8
Geo
100
AcDbLine
10
-51.3034739454094
20
3.84786496694089
30
0.000000000000000
11
-51.2034739454094
21
3.76214699028101
31
0.000000000000000
  0
LINE
  5
F102BB
330
F102BC
100
AcDbEntity
8
Geo
100
AcDbLine
10
-51.2034739454094
20
3.76214699028101
30
0.000000000000000
11
-51.1034739454094
21
3.67686521271362
31
0.000000000000000
  0
LINE
  5
F102BD
330
F102BE
100
AcDbEntity
8
Geo
100
AcDbLine
10
-51.1034739454094
20
3.67686521271362
30
0.000000000000000
11
-51.0034739454094
21
3.59203123889701
31
0.000000000000000
  0
LINE
  5
F102BF
330
F102C0
100
AcDbEntity
8
Geo
100
AcDbLine
10
-51.0034739454094
20
3.59203123889701
30
0.000000000000000
11
-50.9034739454094
21
3.50765661255489
31
0.000000000000000
  0
LINE
  5
F102C1
330
F102C2
100
AcDbEntity
8
Geo
100
AcDbLine
10
-50.9034739454094
20
3.50765661255489
30
0.000000000000000
11
-50.8034739454094
21
3.42375281490559
31
0.000000000000000
  0
LINE
  5
F102C3
330
F102C4
100
AcDbEntity
8
Geo
100
AcDbLine
10
-50.8034739454094
20
3.42375281490559
30
0.000000000000000
11
-50.7034739454094
21
3.34033126309976
31
0.000000000000000
  0
LINE
  5
F102C5
330
F102C6
100
AcDbEntity
8
Geo
100
AcDbLine
10
-50.7034739454094
20
3.34033126309976
30
0.000000000000000
11
-50.6034739454094
21
3.25740330866677
31
0.000000000000000
  0
LINE
  5
F102C7
330
F102C8
100
AcDbEntity
8
Geo
100
AcDbLine
10
-50.6034739454094
20
3.25740330866677
30
0.000000000000000
11
-50.5034739454094
21
3.17498023597009
31
0.000000000000000
  0
LINE
  5
F102C9
330
F102CA
100
AcDbEntity
8
Geo
100
AcDbLine
10
-50.5034739454094
20
3.17498023597009
30
0.000000000000000
11
-50.4034739454094
21
3.09307326067174
31
0.000000000000000
  0
LINE
  5
F102CB
330
F102CC
100
AcDbEntity
8
Geo
100
AcDbLine
10
-50.4034739454094
20
3.09307326067174
30
0.000000000000000
11
-50.3034739454094
21
3.01169352820616
31
0.000000000000000
  0
LINE
  5
F102CD
330
F102CE
100
AcDbEntity
8
Geo
100
AcDbLine
10
-50.3034739454094
20
3.01169352820616
30
0.000000000000000
11
-50.2034739454094
21
2.93085211226358
31
0.000000000000000
  0
LINE
  5
F102CF
330
F102D0
100
AcDbEntity
8
Geo
100
AcDbLine
10
-50.2034739454094
20
2.93085211226358
30
0.000000000000000
11
-50.1034739454094
21
2.85056001328320
31
0.000000000000000
  0
LINE
  5
F102D1
330
F102D2
100
AcDbEntity
8
Geo
100
AcDbLine
10
-50.1034739454094
20
2.85056001328320
30
0.000000000000000
11
-50.0034739454094
21
2.77082815695629
31
0.000000000000000
  0
LINE
  5
F102D3
330
F102D4
100
AcDbEntity
8
Geo
100
AcDbLine
10
-50.0034739454094
20
2.77082815695629
30
0.000000000000000
11
-49.9034739454094
21
2.69166739273950
31
0.000000000000000
  0
LINE
  5
F102D5
330
F102D6
100
AcDbEntity
8
Geo
100
AcDbLine
10
-49.9034739454094
20
2.69166739273950
30
0.000000000000000
11
-49.8034739454094
21
2.61308849237849
31
0.000000000000000
  0
LINE
  5
F102D7
330
F102D8
100
AcDbEntity
8
Geo
100
AcDbLine
10
-49.8034739454094
20
2.61308849237849
30
0.000000000000000
11
-49.7034739454094
21
2.53510214844225
31
0.000000000000000
  0
LINE
  5
F102D9
330
F102DA
100
AcDbEntity
8
Geo
100
AcDbLine
10
-49.7034739454094
20
2.53510214844225
30
0.000000000000000
11
-49.6034739454094
21
2.45771897286802
31
0.000000000000000
  0
LINE
  5
F102DB
330
F102DC
100
AcDbEntity
8
Geo
100
AcDbLine
10
-49.6034739454094
20
2.45771897286802
30
0.000000000000000
11
-49.5034739454094
21
2.38094949551737
31
0.000000000000000
  0
LINE
  5
F102DD
330
F102DE
100
AcDbEntity
8
Geo
100
AcDbLine
10
-49.5034739454094
20
2.38094949551737
30
0.000000000000000
11
-49.4034739454094
21
2.30480416274329
31
0.000000000000000
  0
LINE
  5
F102DF
330
F102E0
100
AcDbEntity
8
Geo
100
AcDbLine
10
-49.4034739454094
20
2.30480416274329
30
0.000000000000000
11
-49.3034739454094
21
2.22929333596872
31
0.000000000000000
  0
LINE
  5
F102E1
330
F102E2
100
AcDbEntity
8
Geo
100
AcDbLine
10
-49.3034739454094
20
2.22929333596872
30
0.000000000000000
11
-49.2034739454094
21
2.15442729027668
31
0.000000000000000
  0
LINE
  5
F102E3
330
F102E4
100
AcDbEntity
8
Geo
100
AcDbLine
10
-49.2034739454094
20
2.15442729027668
30
0.000000000000000
11
-49.1034739454094
21
2.08021621301201
31
0.000000000000000
  0
LINE
  5
F102E5
330
F102E6
100
AcDbEntity
8
Geo
100
AcDbLine
10
-49.1034739454094
20
2.08021621301201
30
0.000000000000000
11
-49.0034739454094
21
2.00667020239520
31
0.000000000000000
  0
LINE
  5
F102E7
330
F102E8
100
AcDbEntity
8
Geo
100
AcDbLine
10
-49.0034739454094
20
2.00667020239520
30
0.000000000000000
11
-48.9034739454094
21
1.93379926614828
31
0.000000000000000
  0
LINE
  5
F102E9
330
F102EA
100
AcDbEntity
8
Geo
100
AcDbLine
10
-48.9034739454094
20
1.93379926614828
30
0.000000000000000
11
-48.8034739454094
21
1.86161332013296
31
0.000000000000000
  0
LINE
  5
F102EB
330
F102EC
100
AcDbEntity
8
Geo
100
AcDbLine
10
-48.8034739454094
20
1.86161332013296
30
0.000000000000000
11
-48.7034739454094
21
1.79012218700143
31
0.000000000000000
  0
LINE
  5
F102ED
330
F102EE
100
AcDbEntity
8
Geo
100
AcDbLine
10
-48.7034739454094
20
1.79012218700143
30
0.000000000000000
11
-48.6034739454094
21
1.71933559485967
31
0.000000000000000
  0
LINE
  5
F102EF
330
F102F0
100
AcDbEntity
8
Geo
100
AcDbLine
10
-48.6034739454094
20
1.71933559485967
30
0.000000000000000
11
-48.5034739454094
21
1.64926317594375
31
0.000000000000000
  0
LINE
  5
F102F1
330
F102F2
100
AcDbEntity
8
Geo
100
AcDbLine
10
-48.5034739454094
20
1.64926317594375
30
0.000000000000000
11
-48.4034739454094
21
1.57991446530911
31
0.000000000000000
  0
LINE
  5
F102F3
330
F102F4
100
AcDbEntity
8
Geo
100
AcDbLine
10
-48.4034739454094
20
1.57991446530911
30
0.000000000000000
11
-48.3034739454094
21
1.51129889953311
31
0.000000000000000
  0
LINE
  5
F102F5
330
F102F6
100
AcDbEntity
8
Geo
100
AcDbLine
10
-48.3034739454094
20
1.51129889953311
30
0.000000000000000
11
-48.2034739454094
21
1.44342581543092
31
0.000000000000000
  0
LINE
  5
F102F7
330
F102F8
100
AcDbEntity
8
Geo
100
AcDbLine
10
-48.2034739454094
20
1.44342581543092
30
0.000000000000000
11
-48.1034739454094
21
1.66010093890643
31
0.000000000000000
  0
LINE
  5
F102F9
330
F102FA
100
AcDbEntity
8
Geo
100
AcDbLine
10
-48.1034739454094
20
1.66010093890643
30
0.000000000000000
11
-48.0034739454094
21
1.67232194286294
31
0.000000000000000
  0
LINE
  5
F102FB
330
F102FC
100
AcDbEntity
8
Geo
100
AcDbLine
10
-48.0034739454094
20
1.67232194286294
30
0.000000000000000
11
-47.9034739454094
21
1.68726738652061
31
0.000000000000000
  0
LINE
  5
F102FD
330
F102FE
100
AcDbEntity
8
Geo
100
AcDbLine
10
-47.9034739454094
20
1.68726738652061
30
0.000000000000000
11
-47.8034739454094
21
1.70495756406398
31
0.000000000000000
  0
LINE
  5
F102FF
330
F10300
100
AcDbEntity
8
Geo
100
AcDbLine
10
-47.8034739454094
20
1.70495756406398
30
0.000000000000000
11
-47.7034739454094
21
1.72541630660423
31
0.000000000000000
  0
LINE
  5
F10301
330
F10302
100
AcDbEntity
8
Geo
100
AcDbLine
10
-47.7034739454094
20
1.72541630660423
30
0.000000000000000
11
-47.6034739454094
21
1.74867091977074
31
0.000000000000000
  0
LINE
  5
F10303
330
F10304
100
AcDbEntity
8
Geo
100
AcDbLine
10
-47.6034739454094
20
1.74867091977074
30
0.000000000000000
11
-47.5034739454094
21
1.77475211124327
31
0.000000000000000
  0
LINE
  5
F10305
330
F10306
100
AcDbEntity
8
Geo
100
AcDbLine
10
-47.5034739454094
20
1.77475211124327
30
0.000000000000000
11
-47.4034739454094
21
1.80369390800784
31
0.000000000000000
  0
LINE
  5
F10307
330
F10308
100
AcDbEntity
8
Geo
100
AcDbLine
10
-47.4034739454094
20
1.80369390800784
30
0.000000000000000
11
-47.3034739454094
21
1.83553356309343
31
0.000000000000000
  0
LINE
  5
F10309
330
F1030A
100
AcDbEntity
8
Geo
100
AcDbLine
10
-47.3034739454094
20
1.83553356309343
30
0.000000000000000
11
-47.2034739454094
21
1.87031145152272
31
0.000000000000000
  0
LINE
  5
F1030B
330
F1030C
100
AcDbEntity
8
Geo
100
AcDbLine
10
-47.2034739454094
20
1.87031145152272
30
0.000000000000000
11
-47.1034739454094
21
1.90807095518672
31
0.000000000000000
  0
LINE
  5
F1030D
330
F1030E
100
AcDbEntity
8
Geo
100
AcDbLine
10
-47.1034739454094
20
1.90807095518672
30
0.000000000000000
11
-47.0034739454094
21
1.94885833633225
31
0.000000000000000
  0
LINE
  5
F1030F
330
F10310
100
AcDbEntity
8
Geo
100
AcDbLine
10
-47.0034739454094
20
1.94885833633225
30
0.000000000000000
11
-46.9034739454094
21
1.99272259933109
31
0.000000000000000
  0
LINE
  5
F10311
330
F10312
100
AcDbEntity
8
Geo
100
AcDbLine
10
-46.9034739454094
20
1.99272259933109
30
0.000000000000000
11
-46.8034739454094
21
2.03971534038260
31
0.000000000000000
  0
LINE
  5
F10313
330
F10314
100
AcDbEntity
8
Geo
100
AcDbLine
10
-46.8034739454094
20
2.03971534038260
30
0.000000000000000
11
-46.7034739454094
21
2.08989058478534
31
0.000000000000000
  0
LINE
  5
F10315
330
F10316
100
AcDbEntity
8
Geo
100
AcDbLine
10
-46.7034739454094
20
2.08989058478534
30
0.000000000000000
11
-46.6034739454094
21
2.14330461140053
31
0.000000000000000
  0
LINE
  5
F10317
330
F10318
100
AcDbEntity
8
Geo
100
AcDbLine
10
-46.6034739454094
20
2.14330461140053
30
0.000000000000000
11
-46.5034739454094
21
2.20001576391911
31
0.000000000000000
  0
LINE
  5
F10319
330
F1031A
100
AcDbEntity
8
Geo
100
AcDbLine
10
-46.5034739454094
20
2.20001576391911
30
0.000000000000000
11
-46.4034739454094
21
2.26008424853643
31
0.000000000000000
  0
LINE
  5
F1031B
330
F1031C
100
AcDbEntity
8
Geo
100
AcDbLine
10
-46.4034739454094
20
2.26008424853643
30
0.000000000000000
11
-46.3034739454094
21
2.32357191763321
31
0.000000000000000
  0
LINE
  5
F1031D
330
F1031E
100
AcDbEntity
8
Geo
100
AcDbLine
10
-46.3034739454094
20
2.32357191763321
30
0.000000000000000
11
-46.2034739454094
21
2.39054203905991
31
0.000000000000000
  0
LINE
  5
F1031F
330
F10320
100
AcDbEntity
8
Geo
100
AcDbLine
10
-68.2034739454094
20
6.96774193548400
30
0.000000000000000
11
-68.1034739454094
21
8.16235168944436
31
0.000000000000000
  0
LINE
  5
F10321
330
F10322
100
AcDbEntity
8
Geo
100
AcDbLine
10
-68.1034739454094
20
8.16235168944436
30
0.000000000000000
11
-68.0034739454094
21
8.64510223287522
31
0.000000000000000
  0
LINE
  5
F10323
330
F10324
100
AcDbEntity
8
Geo
100
AcDbLine
10
-68.0034739454094
20
8.64510223287522
30
0.000000000000000
11
-67.9034739454094
21
9.00704709829992
31
0.000000000000000
  0
LINE
  5
F10325
330
F10326
100
AcDbEntity
8
Geo
100
AcDbLine
10
-67.9034739454094
20
9.00704709829992
30
0.000000000000000
11
-67.8034739454094
21
9.30488918220551
31
0.000000000000000
  0
LINE
  5
F10327
330
F10328
100
AcDbEntity
8
Geo
100
AcDbLine
10
-67.8034739454094
20
9.30488918220551
30
0.000000000000000
11
-67.7034739454094
21
9.56072173082077
31
0.000000000000000
  0
LINE
  5
F10329
330
F1032A
100
AcDbEntity
8
Geo
100
AcDbLine
10
-67.7034739454094
20
9.56072173082077
30
0.000000000000000
11
-67.6034739454094
21
9.78593438540002
31
0.000000000000000
  0
LINE
  5
F1032B
330
F1032C
100
AcDbEntity
8
Geo
100
AcDbLine
10
-67.6034739454094
20
9.78593438540002
30
0.000000000000000
11
-67.5034739454094
21
9.98732527740953
31
0.000000000000000
  0
LINE
  5
F1032D
330
F1032E
100
AcDbEntity
8
Geo
100
AcDbLine
10
-67.5034739454094
20
9.98732527740953
30
0.000000000000000
11
-67.4034739454094
21
10.1693434613200
31
0.000000000000000
  0
LINE
  5
F1032F
330
F10330
100
AcDbEntity
8
Geo
100
AcDbLine
10
-67.4034739454094
20
10.1693434613200
30
0.000000000000000
11
-67.3034739454094
21
10.3350923664691
31
0.000000000000000
  0
LINE
  5
F10331
330
F10332
100
AcDbEntity
8
Geo
100
AcDbLine
10
-67.3034739454094
20
10.3350923664691
30
0.000000000000000
11
-67.2034739454094
21
10.4868408982809
31
0.000000000000000
  0
LINE
  5
F10333
330
F10334
100
AcDbEntity
8
Geo
100
AcDbLine
10
-67.2034739454094
20
10.4868408982809
30
0.000000000000000
11
-67.1034739454094
21
10.6263089012232
31
0.000000000000000
  0
LINE
  5
F10335
330
F10336
100
AcDbEntity
8
Geo
100
AcDbLine
10
-67.1034739454094
20
10.6263089012232
30
0.000000000000000
11
-67.0034739454094
21
10.7548380487227
31
0.000000000000000
  0
LINE
  5
F10337
330
F10338
100
AcDbEntity
8
Geo
100
AcDbLine
10
-67.0034739454094
20
10.7548380487227
30
0.000000000000000
11
-66.9034739454094
21
10.8734998488255
31
0.000000000000000
  0
LINE
  5
F10339
330
F1033A
100
AcDbEntity
8
Geo
100
AcDbLine
10
-66.9034739454094
20
10.8734998488255
30
0.000000000000000
11
-66.8034739454094
21
10.9831669538029
31
0.000000000000000
  0
LINE
  5
F1033B
330
F1033C
100
AcDbEntity
8
Geo
100
AcDbLine
10
-66.8034739454094
20
10.9831669538029
30
0.000000000000000
11
-66.7034739454094
21
11.0845619658514
31
0.000000000000000
  0
LINE
  5
F1033D
330
F1033E
100
AcDbEntity
8
Geo
100
AcDbLine
10
-66.7034739454094
20
11.0845619658514
30
0.000000000000000
11
-66.6034739454094
21
11.1782918632939
31
0.000000000000000
  0
LINE
  5
F1033F
330
F10340
100
AcDbEntity
8
Geo
100
AcDbLine
10
-66.6034739454094
20
11.1782918632939
30
0.000000000000000
11
-66.5034739454094
21
11.2648729149903
31
0.000000000000000
  0
LINE
  5
F10341
330
F10342
100
AcDbEntity
8
Geo
100
AcDbLine
10
-66.5034739454094
20
11.2648729149903
30
0.000000000000000
11
-66.4034739454094
21
11.3447491140012
31
0.000000000000000
  0
LINE
  5
F10343
330
F10344
100
AcDbEntity
8
Geo
100
AcDbLine
10
-66.4034739454094
20
11.3447491140012
30
0.000000000000000
11
-66.3034739454094
21
11.4183060812814
31
0.000000000000000
  0
LINE
  5
F10345
330
F10346
100
AcDbEntity
8
Geo
100
AcDbLine
10
-66.3034739454094
20
11.4183060812814
30
0.000000000000000
11
-66.2034739454094
21
11.4858817314276
31
0.000000000000000
  0
LINE
  5
F10347
330
F10348
100
AcDbEntity
8
Geo
100
AcDbLine
10
-66.2034739454094
20
11.4858817314276
30
0.000000000000000
11
-66.1034739454094
21
11.5477745779624
31
0.000000000000000
  0
LINE
  5
F10349
330
F1034A
100
AcDbEntity
8
Geo
100
AcDbLine
10
-66.1034739454094
20
11.5477745779624
30
0.000000000000000
11
-66.0034739454094
21
11.6042502874731
31
0.000000000000000
  0
LINE
  5
F1034B
330
F1034C
100
AcDbEntity
8
Geo
100
AcDbLine
10
-66.0034739454094
20
11.6042502874731
30
0.000000000000000
11
-65.9034739454094
21
11.6555469141493
31
0.000000000000000
  0
LINE
  5
F1034D
330
F1034E
100
AcDbEntity
8
Geo
100
AcDbLine
10
-65.9034739454094
20
11.6555469141493
30
0.000000000000000
11
-65.8034739454094
21
11.7018791258220
31
0.000000000000000
  0
LINE
  5
F1034F
330
F10350
100
AcDbEntity
8
Geo
100
AcDbLine
10
-65.8034739454094
20
11.7018791258220
30
0.000000000000000
11
-65.7034739454094
21
11.7434416493833
31
0.000000000000000
  0
LINE
  5
F10351
330
F10352
100
AcDbEntity
8
Geo
100
AcDbLine
10
-65.7034739454094
20
11.7434416493833
30
0.000000000000000
11
-65.6034739454094
21
11.7804121049414
31
0.000000000000000
  0
LINE
  5
F10353
330
F10354
100
AcDbEntity
8
Geo
100
AcDbLine
10
-65.6034739454094
20
11.7804121049414
30
0.000000000000000
11
-65.5034739454094
21
11.8129533562360
31
0.000000000000000
  0
LINE
  5
F10355
330
F10356
100
AcDbEntity
8
Geo
100
AcDbLine
10
-65.5034739454094
20
11.8129533562360
30
0.000000000000000
11
-65.4034739454094
21
11.8412154745096
31
0.000000000000000
  0
LINE
  5
F10357
330
F10358
100
AcDbEntity
8
Geo
100
AcDbLine
10
-65.4034739454094
20
11.8412154745096
30
0.000000000000000
11
-65.3034739454094
21
11.8653373907343
31
0.000000000000000
  0
LINE
  5
F10359
330
F1035A
100
AcDbEntity
8
Geo
100
AcDbLine
10
-65.3034739454094
20
11.8653373907343
30
0.000000000000000
11
-65.2034739454094
21
11.8854482945038
31
0.000000000000000
  0
LINE
  5
F1035B
330
F1035C
100
AcDbEntity
8
Geo
100
AcDbLine
10
-65.2034739454094
20
11.8854482945038
30
0.000000000000000
11
-65.1034739454094
21
11.9016688254160
31
0.000000000000000
  0
LINE
  5
F1035D
330
F1035E
100
AcDbEntity
8
Geo
100
AcDbLine
10
-65.1034739454094
20
11.9016688254160
30
0.000000000000000
11
-65.0034739454094
21
11.9141120932747
31
0.000000000000000
  0
LINE
  5
F1035F
330
F10360
100
AcDbEntity
8
Geo
100
AcDbLine
10
-65.0034739454094
20
11.9141120932747
30
0.000000000000000
11
-64.9034739454094
21
11.9228845561447
31
0.000000000000000
  0
LINE
  5
F10361
330
F10362
100
AcDbEntity
8
Geo
100
AcDbLine
10
-64.9034739454094
20
11.9228845561447
30
0.000000000000000
11
-64.8034739454094
21
11.9280867796426
31
0.000000000000000
  0
LINE
  5
F10363
330
F10364
100
AcDbEntity
8
Geo
100
AcDbLine
10
-64.8034739454094
20
11.9280867796426
30
0.000000000000000
11
-64.7034739454094
21
11.9298140964267
31
0.000000000000000
  0
LINE
  5
F10365
330
F10366
100
AcDbEntity
8
Geo
100
AcDbLine
10
-64.7034739454094
20
11.9298140964267
30
0.000000000000000
11
-64.6034739454094
21
11.9281571813674
31
0.000000000000000
  0
LINE
  5
F10367
330
F10368
100
AcDbEntity
8
Geo
100
AcDbLine
10
-64.6034739454094
20
11.9281571813674
30
0.000000000000000
11
-64.5034739454094
21
11.9232025551163
31
0.000000000000000
  0
LINE
  5
F10369
330
F1036A
100
AcDbEntity
8
Geo
100
AcDbLine
10
-64.5034739454094
20
11.9232025551163
30
0.000000000000000
11
-64.4034739454094
21
11.9150330265837
31
0.000000000000000
  0
LINE
  5
F1036B
330
F1036C
100
AcDbEntity
8
Geo
100
AcDbLine
10
-64.4034739454094
20
11.9150330265837
30
0.000000000000000
11
-64.3034739454094
21
11.9037280830571
31
0.000000000000000
  0
LINE
  5
F1036D
330
F1036E
100
AcDbEntity
8
Geo
100
AcDbLine
10
-64.3034739454094
20
11.9037280830571
30
0.000000000000000
11
-64.2034739454094
21
11.8893642352535
31
0.000000000000000
  0
LINE
  5
F1036F
330
F10370
100
AcDbEntity
8
Geo
100
AcDbLine
10
-64.2034739454094
20
11.8893642352535
30
0.000000000000000
11
-64.1034739454094
21
11.8720153234271
31
0.000000000000000
  0
LINE
  5
F10371
330
F10372
100
AcDbEntity
8
Geo
100
AcDbLine
10
-64.1034739454094
20
11.8720153234271
30
0.000000000000000
11
-64.0034739454094
21
11.8517527896959
31
0.000000000000000
  0
LINE
  5
F10373
330
F10374
100
AcDbEntity
8
Geo
100
AcDbLine
10
-64.0034739454094
20
11.8517527896959
30
0.000000000000000
11
-63.9034739454094
21
11.8286459209585
31
0.000000000000000
  0
LINE
  5
F10375
330
F10376
100
AcDbEntity
8
Geo
100
AcDbLine
10
-63.9034739454094
20
11.8286459209585
30
0.000000000000000
11
-63.8034739454094
21
11.8027620661215
31
0.000000000000000
  0
LINE
  5
F10377
330
F10378
100
AcDbEntity
8
Geo
100
AcDbLine
10
-63.8034739454094
20
11.8027620661215
30
0.000000000000000
11
-63.7034739454094
21
11.7741668308126
31
0.000000000000000
  0
LINE
  5
F10379
330
F1037A
100
AcDbEntity
8
Geo
100
AcDbLine
10
-63.7034739454094
20
11.7741668308126
30
0.000000000000000
11
-63.6034739454094
21
11.7429242523046
31
0.000000000000000
  0
LINE
  5
F1037B
330
F1037C
100
AcDbEntity
8
Geo
100
AcDbLine
10
-63.6034739454094
20
11.7429242523046
30
0.000000000000000
11
-63.5034739454094
21
11.7090969569912
31
0.000000000000000
  0
LINE
  5
F1037D
330
F1037E
100
AcDbEntity
8
Geo
100
AcDbLine
10
-63.5034739454094
20
11.7090969569912
30
0.000000000000000
11
-63.4034739454094
21
11.6727463024383
31
0.000000000000000
  0
LINE
  5
F1037F
330
F10380
100
AcDbEntity
8
Geo
100
AcDbLine
10
-63.4034739454094
20
11.6727463024383
30
0.000000000000000
11
-63.3034739454094
21
11.6339325057651
31
0.000000000000000
  0
LINE
  5
F10381
330
F10382
100
AcDbEntity
8
Geo
100
AcDbLine
10
-63.3034739454094
20
11.6339325057651
30
0.000000000000000
11
-63.2034739454094
21
11.5927147598752
31
0.000000000000000
  0
LINE
  5
F10383
330
F10384
100
AcDbEntity
8
Geo
100
AcDbLine
10
-63.2034739454094
20
11.5927147598752
30
0.000000000000000
11
-63.1034739454094
21
11.5491513388698
31
0.000000000000000
  0
LINE
  5
F10385
330
F10386
100
AcDbEntity
8
Geo
100
AcDbLine
10
-63.1034739454094
20
11.5491513388698
30
0.000000000000000
11
-63.0034739454094
21
11.5032996938005
31
0.000000000000000
  0
LINE
  5
F10387
330
F10388
100
AcDbEntity
8
Geo
100
AcDbLine
10
-63.0034739454094
20
11.5032996938005
30
0.000000000000000
11
-62.9034739454094
21
11.4552165397835
31
0.000000000000000
  0
LINE
  5
F10389
330
F1038A
100
AcDbEntity
8
Geo
100
AcDbLine
10
-62.9034739454094
20
11.4552165397835
30
0.000000000000000
11
-62.8034739454094
21
11.4049579353691
31
0.000000000000000
  0
LINE
  5
F1038B
330
F1038C
100
AcDbEntity
8
Geo
100
AcDbLine
10
-62.8034739454094
20
11.4049579353691
30
0.000000000000000
11
-62.7034739454094
21
11.3525793549576
31
0.000000000000000
  0
LINE
  5
F1038D
330
F1038E
100
AcDbEntity
8
Geo
100
AcDbLine
10
-62.7034739454094
20
11.3525793549576
30
0.000000000000000
11
-62.6034739454094
21
11.2981357549594
31
0.000000000000000
  0
LINE
  5
F1038F
330
F10390
100
AcDbEntity
8
Geo
100
AcDbLine
10
-62.6034739454094
20
11.2981357549594
30
0.000000000000000
11
-62.5034739454094
21
11.2416816343196
31
0.000000000000000
  0
LINE
  5
F10391
330
F10392
100
AcDbEntity
8
Geo
100
AcDbLine
10
-62.5034739454094
20
11.2416816343196
30
0.000000000000000
11
-62.4034739454094
21
11.1832710899564
31
0.000000000000000
  0
LINE
  5
F10393
330
F10394
100
AcDbEntity
8
Geo
100
AcDbLine
10
-62.4034739454094
20
11.1832710899564
30
0.000000000000000
11
-62.3034739454094
21
11.1229578676054
31
0.000000000000000
  0
LINE
  5
F10395
330
F10396
100
AcDbEntity
8
Geo
100
AcDbLine
10
-62.3034739454094
20
11.1229578676054
30
0.000000000000000
11
-62.2034739454094
21
11.0607954085065
31
0.000000000000000
  0
LINE
  5
F10397
330
F10398
100
AcDbEntity
8
Geo
100
AcDbLine
10
-62.2034739454094
20
11.0607954085065
30
0.000000000000000
11
-62.1034739454094
21
10.9968368923272
31
0.000000000000000
  0
LINE
  5
F10399
330
F1039A
100
AcDbEntity
8
Geo
100
AcDbLine
10
-62.1034739454094
20
10.9968368923272
30
0.000000000000000
11
-62.0034739454094
21
10.9311352766738
31
0.000000000000000
  0
LINE
  5
F1039B
330
F1039C
100
AcDbEntity
8
Geo
100
AcDbLine
10
-62.0034739454094
20
10.9311352766738
30
0.000000000000000
11
-61.9034739454094
21
10.8637433335082
31
0.000000000000000
  0
LINE
  5
F1039D
330
F1039E
100
AcDbEntity
8
Geo
100
AcDbLine
10
-61.9034739454094
20
10.8637433335082
30
0.000000000000000
11
-61.8034739454094
21
10.7947136827568
31
0.000000000000000
  0
LINE
  5
F1039F
330
F103A0
100
AcDbEntity
8
Geo
100
AcDbLine
10
-61.8034739454094
20
10.7947136827568
30
0.000000000000000
11
-61.7034739454094
21
10.7240988233695
31
0.000000000000000
  0
LINE
  5
F103A1
330
F103A2
100
AcDbEntity
8
Geo
100
AcDbLine
10
-61.7034739454094
20
10.7240988233695
30
0.000000000000000
11
-61.6034739454094
21
10.6519511620657
31
0.000000000000000
  0
LINE
  5
F103A3
330
F103A4
100
AcDbEntity
8
Geo
100
AcDbLine
10
-61.6034739454094
20
10.6519511620657
30
0.000000000000000
11
-61.5034739454094
21
10.5783230399791
31
0.000000000000000
  0
LINE
  5
F103A5
330
F103A6
100
AcDbEntity
8
Geo
100
AcDbLine
10
-61.5034739454094
20
10.5783230399791
30
0.000000000000000
11
-61.4034739454094
21
10.5032667573979
31
0.000000000000000
  0
LINE
  5
F103A7
330
F103A8
100
AcDbEntity
8
Geo
100
AcDbLine
10
-61.4034739454094
20
10.5032667573979
30
0.000000000000000
11
-61.3034739454094
21
10.4268345967785
31
0.000000000000000
  0
LINE
  5
F103A9
330
F103AA
100
AcDbEntity
8
Geo
100
AcDbLine
10
-61.3034739454094
20
10.4268345967785
30
0.000000000000000
11
-61.2034739454094
21
10.3490788441967
31
0.000000000000000
  0
LINE
  5
F103AB
330
F103AC
100
AcDbEntity
8
Geo
100
AcDbLine
10
-61.2034739454094
20
10.3490788441967
30
0.000000000000000
11
-61.1034739454094
21
10.2700518093884
31
0.000000000000000
  0
LINE
  5
F103AD
330
F103AE
100
AcDbEntity
8
Geo
100
AcDbLine
10
-61.1034739454094
20
10.2700518093884
30
0.000000000000000
11
-61.0034739454094
21
10.1898058445176
31
0.000000000000000
  0
LINE
  5
F103AF
330
F103B0
100
AcDbEntity
8
Geo
100
AcDbLine
10
-61.0034739454094
20
10.1898058445176
30
0.000000000000000
11
-60.9034739454094
21
10.1083933618038
31
0.000000000000000
  0
LINE
  5
F103B1
330
F103B2
100
AcDbEntity
8
Geo
100
AcDbLine
10
-60.9034739454094
20
10.1083933618038
30
0.000000000000000
11
-60.8034739454094
21
10.0258668501288
31
0.000000000000000
  0
LINE
  5
F103B3
330
F103B4
100
AcDbEntity
8
Geo
100
AcDbLine
10
-60.8034739454094
20
10.0258668501288
30
0.000000000000000
11
-60.7034739454094
21
9.94227889073592
31
0.000000000000000
  0
LINE
  5
F103B5
330
F103B6
100
AcDbEntity
8
Geo
100
AcDbLine
10
-60.7034739454094
20
9.94227889073592
30
0.000000000000000
11
-60.6034739454094
21
9.85768217212850
31
0.000000000000000
  0
LINE
  5
F103B7
330
F103B8
100
AcDbEntity
8
Geo
100
AcDbLine
10
-60.6034739454094
20
9.85768217212850
30
0.000000000000000
11
-60.5034739454094
21
9.77212950426912
31
0.000000000000000
  0
LINE
  5
F103B9
330
F103BA
100
AcDbEntity
8
Geo
100
AcDbLine
10
-60.5034739454094
20
9.77212950426912
30
0.000000000000000
11
-60.4034739454094
21
9.68567383217464
31
0.000000000000000
  0
LINE
  5
F103BB
330
F103BC
100
AcDbEntity
8
Geo
100
AcDbLine
10
-60.4034739454094
20
9.68567383217464
30
0.000000000000000
11
-60.3034739454094
21
9.59836824899923
31
0.000000000000000
  0
LINE
  5
F103BD
330
F103BE
100
AcDbEntity
8
Geo
100
AcDbLine
10
-60.3034739454094
20
9.59836824899923
30
0.000000000000000
11
-60.2034739454094
21
9.51026600869344
31
0.000000000000000
  0
LINE
  5
F103BF
330
F103C0
100
AcDbEntity
8
Geo
100
AcDbLine
10
-60.2034739454094
20
9.51026600869344
30
0.000000000000000
11
-60.1034739454094
21
9.42161225443282
31
0.000000000000000
  0
LINE
  5
F103C1
330
F103C2
100
AcDbEntity
8
Geo
100
AcDbLine
10
-60.1034739454094
20
9.42161225443282
30
0.000000000000000
11
-60.0034739454094
21
9.33262459148302
31
0.000000000000000
  0
LINE
  5
F103C3
330
F103C4
100
AcDbEntity
8
Geo
100
AcDbLine
10
-60.0034739454094
20
9.33262459148302
30
0.000000000000000
11
-59.9034739454094
21
9.24331512877810
31
0.000000000000000
  0
LINE
  5
F103C5
330
F103C6
100
AcDbEntity
8
Geo
100
AcDbLine
10
-59.9034739454094
20
9.24331512877810
30
0.000000000000000
11
-59.8034739454094
21
9.15369601904080
31
0.000000000000000
  0
LINE
  5
F103C7
330
F103C8
100
AcDbEntity
8
Geo
100
AcDbLine
10
-59.8034739454094
20
9.15369601904080
30
0.000000000000000
11
-59.7034739454094
21
9.06377945712887
31
0.000000000000000
  0
LINE
  5
F103C9
330
F103CA
100
AcDbEntity
8
Geo
100
AcDbLine
10
-59.7034739454094
20
9.06377945712887
30
0.000000000000000
11
-59.6034739454094
21
8.97357767837564
31
0.000000000000000
  0
LINE
  5
F103CB
330
F103CC
100
AcDbEntity
8
Geo
100
AcDbLine
10
-59.6034739454094
20
8.97357767837564
30
0.000000000000000
11
-59.5034739454094
21
8.88310295692513
31
0.000000000000000
  0
LINE
  5
F103CD
330
F103CE
100
AcDbEntity
8
Geo
100
AcDbLine
10
-59.5034739454094
20
8.88310295692513
30
0.000000000000000
11
-59.4034739454094
21
8.79236760406186
31
0.000000000000000
  0
LINE
  5
F103CF
330
F103D0
100
AcDbEntity
8
Geo
100
AcDbLine
10
-59.4034739454094
20
8.79236760406186
30
0.000000000000000
11
-59.3034739454094
21
8.70138396653556
31
0.000000000000000
  0
LINE
  5
F103D1
330
F103D2
100
AcDbEntity
8
Geo
100
AcDbLine
10
-59.3034739454094
20
8.70138396653556
30
0.000000000000000
11
-59.2034739454094
21
8.61016442488115
31
0.000000000000000
  0
LINE
  5
F103D3
330
F103D4
100
AcDbEntity
8
Geo
100
AcDbLine
10
-59.2034739454094
20
8.61016442488115
30
0.000000000000000
11
-59.1034739454094
21
8.51872139173403
31
0.000000000000000
  0
LINE
  5
F103D5
330
F103D6
100
AcDbEntity
8
Geo
100
AcDbLine
10
-59.1034739454094
20
8.51872139173403
30
0.000000000000000
11
-59.0034739454094
21
8.42706731014104
31
0.000000000000000
  0
LINE
  5
F103D7
330
F103D8
100
AcDbEntity
8
Geo
100
AcDbLine
10
-59.0034739454094
20
8.42706731014104
30
0.000000000000000
11
-58.9034739454094
21
8.33521465186729
31
0.000000000000000
  0
LINE
  5
F103D9
330
F103DA
100
AcDbEntity
8
Geo
100
AcDbLine
10
-58.9034739454094
20
8.33521465186729
30
0.000000000000000
11
-58.8034739454094
21
8.24317591569909
31
0.000000000000000
  0
LINE
  5
F103DB
330
F103DC
100
AcDbEntity
8
Geo
100
AcDbLine
10
-58.8034739454094
20
8.24317591569909
30
0.000000000000000
11
-58.7034739454094
21
8.15096362574315
31
0.000000000000000
  0
LINE
  5
F103DD
330
F103DE
100
AcDbEntity
8
Geo
100
AcDbLine
10
-58.7034739454094
20
8.15096362574315
30
0.000000000000000
11
-58.6034739454094
21
8.05859032972240
31
0.000000000000000
  0
LINE
  5
F103DF
330
F103E0
100
AcDbEntity
8
Geo
100
AcDbLine
10
-58.6034739454094
20
8.05859032972240
30
0.000000000000000
11
-58.5034739454094
21
7.96606859726856
31
0.000000000000000
  0
LINE
  5
F103E1
330
F103E2
100
AcDbEntity
8
Geo
100
AcDbLine
10
-58.5034739454094
20
7.96606859726856
30
0.000000000000000
11
-58.4034739454094
21
7.87341101821173
31
0.000000000000000
  0
LINE
  5
F103E3
330
F103E4
100
AcDbEntity
8
Geo
100
AcDbLine
10
-58.4034739454094
20
7.87341101821173
30
0.000000000000000
11
-58.3034739454094
21
7.78063020086724
31
0.000000000000000
  0
LINE
  5
F103E5
330
F103E6
100
AcDbEntity
8
Geo
100
AcDbLine
10
-58.3034739454094
20
7.78063020086724
30
0.000000000000000
11
-58.2034739454094
21
7.68773877031999
31
0.000000000000000
  0
LINE
  5
F103E7
330
F103E8
100
AcDbEntity
8
Geo
100
AcDbLine
10
-58.2034739454094
20
7.68773877031999
30
0.000000000000000
11
-58.1034739454094
21
7.59474936670648
31
0.000000000000000
  0
LINE
  5
F103E9
330
F103EA
100
AcDbEntity
8
Geo
100
AcDbLine
10
-58.1034739454094
20
7.59474936670648
30
0.000000000000000
11
-58.0034739454094
21
7.50167464349485
31
0.000000000000000
  0
LINE
  5
F103EB
330
F103EC
100
AcDbEntity
8
Geo
100
AcDbLine
10
-58.0034739454094
20
7.50167464349485
30
0.000000000000000
11
-57.9034739454094
21
7.40852726576303
31
0.000000000000000
  0
LINE
  5
F103ED
330
F103EE
100
AcDbEntity
8
Geo
100
AcDbLine
10
-57.9034739454094
20
7.40852726576303
30
0.000000000000000
11
-57.8034739454094
21
7.31531990847535
31
0.000000000000000
  0
LINE
  5
F103EF
330
F103F0
100
AcDbEntity
8
Geo
100
AcDbLine
10
-57.8034739454094
20
7.31531990847535
30
0.000000000000000
11
-57.7034739454094
21
7.22206525475785
31
0.000000000000000
  0
LINE
  5
F103F1
330
F103F2
100
AcDbEntity
8
Geo
100
AcDbLine
10
-57.7034739454094
20
7.22206525475785
30
0.000000000000000
11
-57.6034739454094
21
7.12877599417237
31
0.000000000000000
  0
LINE
  5
F103F3
330
F103F4
100
AcDbEntity
8
Geo
100
AcDbLine
10
-57.6034739454094
20
7.12877599417237
30
0.000000000000000
11
-57.5034739454094
21
7.03546482098986
31
0.000000000000000
  0
LINE
  5
F103F5
330
F103F6
100
AcDbEntity
8
Geo
100
AcDbLine
10
-57.5034739454094
20
7.03546482098986
30
0.000000000000000
11
-57.4034739454094
21
6.94214443246303
31
0.000000000000000
  0
LINE
  5
F103F7
330
F103F8
100
AcDbEntity
8
Geo
100
AcDbLine
10
-57.4034739454094
20
6.94214443246303
30
0.000000000000000
11
-57.3034739454094
21
6.84882752709853
31
0.000000000000000
  0
LINE
  5
F103F9
330
F103FA
100
AcDbEntity
8
Geo
100
AcDbLine
10
-57.3034739454094
20
6.84882752709853
30
0.000000000000000
11
-57.2034739454094
21
6.75552680292907
31
0.000000000000000
  0
LINE
  5
F103FB
330
F103FC
100
AcDbEntity
8
Geo
100
AcDbLine
10
-57.2034739454094
20
6.75552680292907
30
0.000000000000000
11
-57.1034739454094
21
6.66225495578551
31
0.000000000000000
  0
LINE
  5
F103FD
330
F103FE
100
AcDbEntity
8
Geo
100
AcDbLine
10
-57.1034739454094
20
6.66225495578551
30
0.000000000000000
11
-57.0034739454094
21
6.56902467756926
31
0.000000000000000
  0
LINE
  5
F103FF
330
F10400
100
AcDbEntity
8
Geo
100
AcDbLine
10
-57.0034739454094
20
6.56902467756926
30
0.000000000000000
11
-56.9034739454094
21
6.47584865452532
31
0.000000000000000
  0
LINE
  5
F10401
330
F10402
100
AcDbEntity
8
Geo
100
AcDbLine
10
-56.9034739454094
20
6.47584865452532
30
0.000000000000000
11
-56.8034739454094
21
6.38273956551590
31
0.000000000000000
  0
LINE
  5
F10403
330
F10404
100
AcDbEntity
8
Geo
100
AcDbLine
10
-56.8034739454094
20
6.38273956551590
30
0.000000000000000
11
-56.7034739454094
21
6.28971008029525
31
0.000000000000000
  0
LINE
  5
F10405
330
F10406
100
AcDbEntity
8
Geo
100
AcDbLine
10
-56.7034739454094
20
6.28971008029525
30
0.000000000000000
11
-56.6034739454094
21
6.19677285778556
31
0.000000000000000
  0
LINE
  5
F10407
330
F10408
100
AcDbEntity
8
Geo
100
AcDbLine
10
-56.6034739454094
20
6.19677285778556
30
0.000000000000000
11
-56.5034739454094
21
6.10394054435446
31
0.000000000000000
  0
LINE
  5
F10409
330
F1040A
100
AcDbEntity
8
Geo
100
AcDbLine
10
-56.5034739454094
20
6.10394054435446
30
0.000000000000000
11
-56.4034739454094
21
6.01122577209414
31
0.000000000000000
  0
LINE
  5
F1040B
330
F1040C
100
AcDbEntity
8
Geo
100
AcDbLine
10
-56.4034739454094
20
6.01122577209414
30
0.000000000000000
11
-56.3034739454094
21
5.91864115710245
31
0.000000000000000
  0
LINE
  5
F1040D
330
F1040E
100
AcDbEntity
8
Geo
100
AcDbLine
10
-56.3034739454094
20
5.91864115710245
30
0.000000000000000
11
-56.2034739454094
21
5.82619929776619
31
0.000000000000000
  0
LINE
  5
F1040F
330
F10410
100
AcDbEntity
8
Geo
100
AcDbLine
10
-56.2034739454094
20
5.82619929776619
30
0.000000000000000
11
-56.1034739454094
21
5.73391277304679
31
0.000000000000000
  0
LINE
  5
F10411
330
F10412
100
AcDbEntity
8
Geo
100
AcDbLine
10
-56.1034739454094
20
5.73391277304679
30
0.000000000000000
11
-56.0034739454094
21
5.64179414076861
31
0.000000000000000
  0
LINE
  5
F10413
330
F10414
100
AcDbEntity
8
Geo
100
AcDbLine
10
-56.0034739454094
20
5.64179414076861
30
0.000000000000000
11
-55.9034739454094
21
5.54985593591019
31
0.000000000000000
  0
LINE
  5
F10415
330
F10416
100
AcDbEntity
8
Geo
100
AcDbLine
10
-55.9034739454094
20
5.54985593591019
30
0.000000000000000
11
-55.8034739454094
21
5.45811066889850
31
0.000000000000000
  0
LINE
  5
F10417
330
F10418
100
AcDbEntity
8
Geo
100
AcDbLine
10
-55.8034739454094
20
5.45811066889850
30
0.000000000000000
11
-55.7034739454094
21
5.36657082390667
31
0.000000000000000
  0
LINE
  5
F10419
330
F1041A
100
AcDbEntity
8
Geo
100
AcDbLine
10
-55.7034739454094
20
5.36657082390667
30
0.000000000000000
11
-55.6034739454094
21
5.27524885715514
31
0.000000000000000
  0
LINE
  5
F1041B
330
F1041C
100
AcDbEntity
8
Geo
100
AcDbLine
10
-55.6034739454094
20
5.27524885715514
30
0.000000000000000
11
-55.5034739454094
21
5.18415719521673
31
0.000000000000000
  0
LINE
  5
F1041D
330
F1041E
100
AcDbEntity
8
Geo
100
AcDbLine
10
-55.5034739454094
20
5.18415719521673
30
0.000000000000000
11
-55.4034739454094
21
5.09330823332570
31
0.000000000000000
  0
LINE
  5
F1041F
330
F10420
100
AcDbEntity
8
Geo
100
AcDbLine
10
-55.4034739454094
20
5.09330823332570
30
0.000000000000000
11
-55.3034739454094
21
5.00271433369106
31
0.000000000000000
  0
LINE
  5
F10421
330
F10422
100
AcDbEntity
8
Geo
100
AcDbLine
10
-55.3034739454094
20
5.00271433369106
30
0.000000000000000
11
-55.2034739454094
21
4.91238782381440
31
0.000000000000000
  0
LINE
  5
F10423
330
F10424
100
AcDbEntity
8
Geo
100
AcDbLine
10
-55.2034739454094
20
4.91238782381440
30
0.000000000000000
11
-55.1034739454094
21
4.82234099481245
31
0.000000000000000
  0
LINE
  5
F10425
330
F10426
100
AcDbEntity
8
Geo
100
AcDbLine
10
-55.1034739454094
20
4.82234099481245
30
0.000000000000000
11
-55.0034739454094
21
4.73258609974456
31
0.000000000000000
  0
LINE
  5
F10427
330
F10428
100
AcDbEntity
8
Geo
100
AcDbLine
10
-55.0034739454094
20
4.73258609974456
30
0.000000000000000
11
-54.9034739454094
21
4.64313535194535
31
0.000000000000000
  0
LINE
  5
F10429
330
F1042A
100
AcDbEntity
8
Geo
100
AcDbLine
10
-54.9034739454094
20
4.64313535194535
30
0.000000000000000
11
-54.8034739454094
21
4.55400092336284
31
0.000000000000000
  0
LINE
  5
F1042B
330
F1042C
100
AcDbEntity
8
Geo
100
AcDbLine
10
-54.8034739454094
20
4.55400092336284
30
0.000000000000000
11
-54.7034739454094
21
4.46519494290213
31
0.000000000000000
  0
LINE
  5
F1042D
330
F1042E
100
AcDbEntity
8
Geo
100
AcDbLine
10
-54.7034739454094
20
4.46519494290213
30
0.000000000000000
11
-54.6034739454094
21
4.37672949477494
31
0.000000000000000
  0
LINE
  5
F1042F
330
F10430
100
AcDbEntity
8
Geo
100
AcDbLine
10
-54.6034739454094
20
4.37672949477494
30
0.000000000000000
11
-54.5034739454094
21
4.28861661685534
31
0.000000000000000
  0
LINE
  5
F10431
330
F10432
100
AcDbEntity
8
Geo
100
AcDbLine
10
-54.5034739454094
20
4.28861661685534
30
0.000000000000000
11
-54.4034739454094
21
4.20086829904161
31
0.000000000000000
  0
LINE
  5
F10433
330
F10434
100
AcDbEntity
8
Geo
100
AcDbLine
10
-54.4034739454094
20
4.20086829904161
30
0.000000000000000
11
-54.3034739454094
21
4.11349648162481
31
0.000000000000000
  0
LINE
  5
F10435
330
F10436
100
AcDbEntity
8
Geo
100
AcDbLine
10
-54.3034739454094
20
4.11349648162481
30
0.000000000000000
11
-54.2034739454094
21
4.02651305366393
31
0.000000000000000
  0
LINE
  5
F10437
330
F10438
100
AcDbEntity
8
Geo
100
AcDbLine
10
-54.2034739454094
20
4.02651305366393
30
0.000000000000000
11
-54.1034739454094
21
3.93992985136817
31
0.000000000000000
  0
LINE
  5
F10439
330
F1043A
100
AcDbEntity
8
Geo
100
AcDbLine
10
-54.1034739454094
20
3.93992985136817
30
0.000000000000000
11
-54.0034739454094
21
3.85375865648627
31
0.000000000000000
  0
LINE
  5
F1043B
330
F1043C
100
AcDbEntity
8
Geo
100
AcDbLine
10
-54.0034739454094
20
3.85375865648627
30
0.000000000000000
11
-53.9034739454094
21
3.76801119470339
31
0.000000000000000
  0
LINE
  5
F1043D
330
F1043E
100
AcDbEntity
8
Geo
100
AcDbLine
10
-53.9034739454094
20
3.76801119470339
30
0.000000000000000
11
-53.8034739454094
21
3.68269913404547
31
0.000000000000000
  0
LINE
  5
F1043F
330
F10440
100
AcDbEntity
8
Geo
100
AcDbLine
10
-53.8034739454094
20
3.68269913404547
30
0.000000000000000
11
-53.7034739454094
21
3.59783408329156
31
0.000000000000000
  0
LINE
  5
F10441
330
F10442
100
AcDbEntity
8
Geo
100
AcDbLine
10
-53.7034739454094
20
3.59783408329156
30
0.000000000000000
11
-53.6034739454094
21
3.51342759039415
31
0.000000000000000
  0
LINE
  5
F10443
330
F10444
100
AcDbEntity
8
Geo
100
AcDbLine
10
-53.6034739454094
20
3.51342759039415
30
0.000000000000000
11
-53.5034739454094
21
3.42949114090779
31
0.000000000000000
  0
LINE
  5
F10445
330
F10446
100
AcDbEntity
8
Geo
100
AcDbLine
10
-53.5034739454094
20
3.42949114090779
30
0.000000000000000
11
-53.4034739454094
21
3.34603615642618
31
0.000000000000000
  0
LINE
  5
F10447
330
F10448
100
AcDbEntity
8
Geo
100
AcDbLine
10
-53.4034739454094
20
3.34603615642618
30
0.000000000000000
11
-53.3034739454094
21
3.26307399302805
31
0.000000000000000
  0
LINE
  5
F10449
330
F1044A
100
AcDbEntity
8
Geo
100
AcDbLine
10
-53.3034739454094
20
3.26307399302805
30
0.000000000000000
11
-53.2034739454094
21
3.18061593973181
31
0.000000000000000
  0
LINE
  5
F1044B
330
F1044C
100
AcDbEntity
8
Geo
100
AcDbLine
10
-53.2034739454094
20
3.18061593973181
30
0.000000000000000
11
-53.1034739454094
21
3.09867321695945
31
0.000000000000000
  0
LINE
  5
F1044D
330
F1044E
100
AcDbEntity
8
Geo
100
AcDbLine
10
-53.1034739454094
20
3.09867321695945
30
0.000000000000000
11
-53.0034739454094
21
3.01725697500972
31
0.000000000000000
  0
LINE
  5
F1044F
330
F10450
100
AcDbEntity
8
Geo
100
AcDbLine
10
-53.0034739454094
20
3.01725697500972
30
0.000000000000000
11
-52.9034739454094
21
2.93637829254086
31
0.000000000000000
  0
LINE
  5
F10451
330
F10452
100
AcDbEntity
8
Geo
100
AcDbLine
10
-52.9034739454094
20
2.93637829254086
30
0.000000000000000
11
-52.8034739454094
21
2.85604817506307
31
0.000000000000000
  0
LINE
  5
F10453
330
F10454
100
AcDbEntity
8
Geo
100
AcDbLine
10
-52.8034739454094
20
2.85604817506307
30
0.000000000000000
11
-52.7034739454094
21
2.77627755344098
31
0.000000000000000
  0
LINE
  5
F10455
330
F10456
100
AcDbEntity
8
Geo
100
AcDbLine
10
-52.7034739454094
20
2.77627755344098
30
0.000000000000000
11
-52.6034739454094
21
2.69707728240618
31
0.000000000000000
  0
LINE
  5
F10457
330
F10458
100
AcDbEntity
8
Geo
100
AcDbLine
10
-52.6034739454094
20
2.69707728240618
30
0.000000000000000
11
-52.5034739454094
21
2.61845813908021
31
0.000000000000000
  0
LINE
  5
F10459
330
F1045A
100
AcDbEntity
8
Geo
100
AcDbLine
10
-52.5034739454094
20
2.61845813908021
30
0.000000000000000
11
-52.4034739454094
21
2.54043082150808
31
0.000000000000000
  0
LINE
  5
F1045B
330
F1045C
100
AcDbEntity
8
Geo
100
AcDbLine
10
-52.4034739454094
20
2.54043082150808
30
0.000000000000000
11
-52.3034739454094
21
2.46300594720251
31
0.000000000000000
  0
LINE
  5
F1045D
330
F1045E
100
AcDbEntity
8
Geo
100
AcDbLine
10
-52.3034739454094
20
2.46300594720251
30
0.000000000000000
11
-52.2034739454094
21
2.38619405169917
31
0.000000000000000
  0
LINE
  5
F1045F
330
F10460
100
AcDbEntity
8
Geo
100
AcDbLine
10
-52.2034739454094
20
2.38619405169917
30
0.000000000000000
11
-52.1034739454094
21
2.31000558712308
31
0.000000000000000
  0
LINE
  5
F10461
330
F10462
100
AcDbEntity
8
Geo
100
AcDbLine
10
-52.1034739454094
20
2.31000558712308
30
0.000000000000000
11
-52.0034739454094
21
2.23445092076632
31
0.000000000000000
  0
LINE
  5
F10463
330
F10464
100
AcDbEntity
8
Geo
100
AcDbLine
10
-52.0034739454094
20
2.23445092076632
30
0.000000000000000
11
-51.9034739454094
21
2.15954033367733
31
0.000000000000000
  0
LINE
  5
F10465
330
F10466
100
AcDbEntity
8
Geo
100
AcDbLine
10
-51.9034739454094
20
2.15954033367733
30
0.000000000000000
11
-51.8034739454094
21
2.08528401926191
31
0.000000000000000
  0
LINE
  5
F10467
330
F10468
100
AcDbEntity
8
Geo
100
AcDbLine
10
-51.8034739454094
20
2.08528401926191
30
0.000000000000000
11
-51.7034739454094
21
2.01169208189616
31
0.000000000000000
  0
LINE
  5
F10469
330
F1046A
100
AcDbEntity
8
Geo
100
AcDbLine
10
-51.7034739454094
20
2.01169208189616
30
0.000000000000000
11
-51.6034739454094
21
1.93877453555155
31
0.000000000000000
  0
LINE
  5
F1046B
330
F1046C
100
AcDbEntity
8
Geo
100
AcDbLine
10
-51.6034739454094
20
1.93877453555155
30
0.000000000000000
11
-51.5034739454094
21
1.86654130243223
31
0.000000000000000
  0
LINE
  5
F1046D
330
F1046E
100
AcDbEntity
8
Geo
100
AcDbLine
10
-51.5034739454094
20
1.86654130243223
30
0.000000000000000
11
-51.4034739454094
21
1.79500221162495
31
0.000000000000000
  0
LINE
  5
F1046F
330
F10470
100
AcDbEntity
8
Geo
100
AcDbLine
10
-51.4034739454094
20
1.79500221162495
30
0.000000000000000
11
-51.3034739454094
21
1.72416699776150
31
0.000000000000000
  0
LINE
  5
F10471
330
F10472
100
AcDbEntity
8
Geo
100
AcDbLine
10
-51.3034739454094
20
1.72416699776150
30
0.000000000000000
11
-51.2034739454094
21
1.65404529969412
31
0.000000000000000
  0
LINE
  5
F10473
330
F10474
100
AcDbEntity
8
Geo
100
AcDbLine
10
-51.2034739454094
20
1.65404529969412
30
0.000000000000000
11
-51.1034739454094
21
1.58464665918387
31
0.000000000000000
  0
LINE
  5
F10475
330
F10476
100
AcDbEntity
8
Geo
100
AcDbLine
10
-51.1034739454094
20
1.58464665918387
30
0.000000000000000
11
-51.0034739454094
21
1.51598051960229
31
0.000000000000000
  0
LINE
  5
F10477
330
F10478
100
AcDbEntity
8
Geo
100
AcDbLine
10
-51.0034739454094
20
1.51598051960229
30
0.000000000000000
11
-50.9034739454094
21
1.44805622464633
31
0.000000000000000
  0
LINE
  5
F10479
330
F1047A
100
AcDbEntity
8
Geo
100
AcDbLine
10
-50.9034739454094
20
1.44805622464633
30
0.000000000000000
11
-50.8034739454094
21
1.38088301706697
31
0.000000000000000
  0
LINE
  5
F1047B
330
F1047C
100
AcDbEntity
8
Geo
100
AcDbLine
10
-50.8034739454094
20
1.38088301706697
30
0.000000000000000
11
-50.7034739454094
21
1.31447003741151
31
0.000000000000000
  0
LINE
  5
F1047D
330
F1047E
100
AcDbEntity
8
Geo
100
AcDbLine
10
-50.7034739454094
20
1.31447003741151
30
0.000000000000000
11
-50.6034739454094
21
1.24882632277975
31
0.000000000000000
  0
LINE
  5
F1047F
330
F10480
100
AcDbEntity
8
Geo
100
AcDbLine
10
-50.6034739454094
20
1.24882632277975
30
0.000000000000000
11
-50.5034739454094
21
1.18396080559429
31
0.000000000000000
  0
LINE
  5
F10481
330
F10482
100
AcDbEntity
8
Geo
100
AcDbLine
10
-50.5034739454094
20
1.18396080559429
30
0.000000000000000
11
-50.4034739454094
21
1.11988231238506
31
0.000000000000000
  0
LINE
  5
F10483
330
F10484
100
AcDbEntity
8
Geo
100
AcDbLine
10
-50.4034739454094
20
1.11988231238506
30
0.000000000000000
11
-50.3034739454094
21
1.05659956258827
31
0.000000000000000
  0
LINE
  5
F10485
330
F10486
100
AcDbEntity
8
Geo
100
AcDbLine
10
-50.3034739454094
20
1.05659956258827
30
0.000000000000000
11
-50.2034739454094
21
0.994121167359857
31
0.000000000000000
  0
LINE
  5
F10487
330
F10488
100
AcDbEntity
8
Geo
100
AcDbLine
10
-50.2034739454094
20
0.994121167359857
30
0.000000000000000
11
-50.1034739454094
21
0.932455628403821
31
0.000000000000000
  0
LINE
  5
F10489
330
F1048A
100
AcDbEntity
8
Geo
100
AcDbLine
10
-50.1034739454094
20
0.932455628403821
30
0.000000000000000
11
-50.0034739454094
21
0.871611336815284
31
0.000000000000000
  0
LINE
  5
F1048B
330
F1048C
100
AcDbEntity
8
Geo
100
AcDbLine
10
-50.0034739454094
20
0.871611336815284
30
0.000000000000000
11
-49.9034739454094
21
0.811596571938712
31
0.000000000000000
  0
LINE
  5
F1048D
330
F1048E
100
AcDbEntity
8
Geo
100
AcDbLine
10
-49.9034739454094
20
0.811596571938712
30
0.000000000000000
11
-49.8034739454094
21
0.752419500241306
31
0.000000000000000
  0
LINE
  5
F1048F
330
F10490
100
AcDbEntity
8
Geo
100
AcDbLine
10
-49.8034739454094
20
0.752419500241306
30
0.000000000000000
11
-49.7034739454094
21
0.694088174201750
31
0.000000000000000
  0
LINE
  5
F10491
330
F10492
100
AcDbEntity
8
Geo
100
AcDbLine
10
-49.7034739454094
20
0.694088174201750
30
0.000000000000000
11
-49.6034739454094
21
0.636610531214479
31
0.000000000000000
  0
LINE
  5
F10493
330
F10494
100
AcDbEntity
8
Geo
100
AcDbLine
10
-49.6034739454094
20
0.636610531214479
30
0.000000000000000
11
-49.5034739454094
21
0.579994392509607
31
0.000000000000000
  0
LINE
  5
F10495
330
F10496
100
AcDbEntity
8
Geo
100
AcDbLine
10
-49.5034739454094
20
0.579994392509607
30
0.000000000000000
11
-49.4034739454094
21
0.524247462088650
31
0.000000000000000
  0
LINE
  5
F10497
330
F10498
100
AcDbEntity
8
Geo
100
AcDbLine
10
-49.4034739454094
20
0.524247462088650
30
0.000000000000000
11
-49.3034739454094
21
0.469377325676216
31
0.000000000000000
  0
LINE
  5
F10499
330
F1049A
100
AcDbEntity
8
Geo
100
AcDbLine
10
-49.3034739454094
20
0.469377325676216
30
0.000000000000000
11
-49.2034739454094
21
0.415391449687781
31
0.000000000000000
  0
LINE
  5
F1049B
330
F1049C
100
AcDbEntity
8
Geo
100
AcDbLine
10
-49.2034739454094
20
0.415391449687781
30
0.000000000000000
11
-49.1034739454094
21
0.362297180213700
31
0.000000000000000
  0
LINE
  5
F1049D
330
F1049E
100
AcDbEntity
8
Geo
100
AcDbLine
10
-49.1034739454094
20
0.362297180213700
30
0.000000000000000
11
-49.0034739454094
21
0.310101742019595
31
0.000000000000000
  0
LINE
  5
F1049F
330
F104A0
100
AcDbEntity
8
Geo
100
AcDbLine
10
-49.0034739454094
20
0.310101742019595
30
0.000000000000000
11
-48.9034739454094
21
0.258812237563253
31
0.000000000000000
  0
LINE
  5
F104A1
330
F104A2
100
AcDbEntity
8
Geo
100
AcDbLine
10
-48.9034739454094
20
0.258812237563253
30
0.000000000000000
11
-48.8034739454094
21
0.208435646028158
31
0.000000000000000
  0
LINE
  5
F104A3
330
F104A4
100
AcDbEntity
8
Geo
100
AcDbLine
10
-48.8034739454094
20
0.208435646028158
30
0.000000000000000
11
-48.7034739454094
21
0.158978822373804
31
0.000000000000000
  0
LINE
  5
F104A5
330
F104A6
100
AcDbEntity
8
Geo
100
AcDbLine
10
-48.7034739454094
20
0.158978822373804
30
0.000000000000000
11
-48.6034739454094
21
0.110448496402915
31
0.000000000000000
  0
LINE
  5
F104A7
330
F104A8
100
AcDbEntity
8
Geo
100
AcDbLine
10
-48.6034739454094
20
0.110448496402915
30
0.000000000000000
11
-48.5034739454094
21
0.0628512718456928
31
0.000000000000000
  0
LINE
  5
F104A9
330
F104AA
100
AcDbEntity
8
Geo
100
AcDbLine
10
-48.5034739454094
20
0.0628512718456928
30
0.000000000000000
11
-48.4034739454094
21
0.0161936254612094
31
0.000000000000000
  0
LINE
  5
F104AB
330
F104AC
100
AcDbEntity
8
Geo
100
AcDbLine
10
-48.4034739454094
20
0.0161936254612094
30
0.000000000000000
11
-48.3034739454094
21
-0.0295180938438975
31
0.000000000000000
  0
LINE
  5
F104AD
330
F104AE
100
AcDbEntity
8
Geo
100
AcDbLine
10
-48.3034739454094
20
-0.0295180938438975
30
0.000000000000000
11
-48.2034739454094
21
-0.0742776658793556
31
0.000000000000000
  0
LINE
  5
F104AF
330
F104B0
100
AcDbEntity
8
Geo
100
AcDbLine
10
-48.2034739454094
20
-0.0742776658793556
30
0.000000000000000
11
-48.1034739454094
21
0.134476373496908
31
0.000000000000000
  0
LINE
  5
F104B1
330
F104B2
100
AcDbEntity
8
Geo
100
AcDbLine
10
-48.1034739454094
20
0.134476373496908
30
0.000000000000000
11
-48.0034739454094
21
0.0659010335954608
31
0.000000000000000
  0
LINE
  5
F104B3
330
F104B4
100
AcDbEntity
8
Geo
100
AcDbLine
10
-48.0034739454094
20
0.0659010335954608
30
0.000000000000000
11
-47.9034739454094
21
-0.0141402306226270
31
0.000000000000000
  0
LINE
  5
F104B5
330
F104B6
100
AcDbEntity
8
Geo
100
AcDbLine
10
-47.9034739454094
20
-0.0141402306226270
30
0.000000000000000
11
-47.8034739454094
21
-0.103429400115670
31
0.000000000000000
  0
LINE
  5
F104B7
330
F104B8
100
AcDbEntity
8
Geo
100
AcDbLine
10
-47.8034739454094
20
-0.103429400115670
30
0.000000000000000
11
-47.7034739454094
21
-0.199300081259083
31
0.000000000000000
  0
LINE
  5
F104B9
330
F104BA
100
AcDbEntity
8
Geo
100
AcDbLine
10
-47.7034739454094
20
-0.199300081259083
30
0.000000000000000
11
-47.6034739454094
21
-0.298619692602901
31
0.000000000000000
  0
LINE
  5
F104BB
330
F104BC
100
AcDbEntity
8
Geo
100
AcDbLine
10
-47.6034739454094
20
-0.298619692602901
30
0.000000000000000
11
-47.5034739454094
21
-0.397773753081232
31
0.000000000000000
  0
LINE
  5
F104BD
330
F104BE
100
AcDbEntity
8
Geo
100
AcDbLine
10
-47.5034739454094
20
-0.397773753081232
30
0.000000000000000
11
-47.4034739454094
21
-0.492654443526634
31
0.000000000000000
  0
LINE
  5
F104BF
330
F104C0
100
AcDbEntity
8
Geo
100
AcDbLine
10
-47.4034739454094
20
-0.492654443526634
30
0.000000000000000
11
-47.3034739454094
21
-0.578655950138132
31
0.000000000000000
  0
LINE
  5
F104C1
330
F104C2
100
AcDbEntity
8
Geo
100
AcDbLine
10
-47.3034739454094
20
-0.578655950138132
30
0.000000000000000
11
-47.2034739454094
21
-0.650679427889354
31
0.000000000000000
  0
LINE
  5
F104C3
330
F104C4
100
AcDbEntity
8
Geo
100
AcDbLine
10
-47.2034739454094
20
-0.650679427889354
30
0.000000000000000
11
-47.1034739454094
21
-0.703150727329050
31
0.000000000000000
  0
LINE
  5
F104C5
330
F104C6
100
AcDbEntity
8
Geo
100
AcDbLine
10
-47.1034739454094
20
-0.703150727329050
30
0.000000000000000
11
-47.0034739454094
21
-0.730054288119719
31
0.000000000000000
  0
LINE
  5
F104C7
330
F104C8
100
AcDbEntity
8
Geo
100
AcDbLine
10
-47.0034739454094
20
-0.730054288119719
30
0.000000000000000
11
-46.9034739454094
21
-0.732258064516000
31
0.000000000000000
  0
LINE
  5
F104C9
330
F104CA
100
AcDbEntity
8
Geo
100
AcDbLine
10
-68.2034739454094
20
6.96774193548400
30
0.000000000000000
11
-68.1034739454094
21
6.95303306812780
31
0.000000000000000
  0
LINE
  5
F104CB
330
F104CC
100
AcDbEntity
8
Geo
100
AcDbLine
10
-68.1034739454094
20
6.95303306812780
30
0.000000000000000
11
-68.0034739454094
21
6.92627283097960
31
0.000000000000000
  0
LINE
  5
F104CD
330
F104CE
100
AcDbEntity
8
Geo
100
AcDbLine
10
-68.0034739454094
20
6.92627283097960
30
0.000000000000000
11
-67.9034739454094
21
6.89180840753619
31
0.000000000000000
  0
LINE
  5
F104CF
330
F104D0
100
AcDbEntity
8
Geo
100
AcDbLine
10
-67.9034739454094
20
6.89180840753619
30
0.000000000000000
11
-67.8034739454094
21
6.85122603345684
31
0.000000000000000
  0
LINE
  5
F104D1
330
F104D2
100
AcDbEntity
8
Geo
100
AcDbLine
10
-67.8034739454094
20
6.85122603345684
30
0.000000000000000
11
-67.7034739454094
21
6.80546189434441
31
0.000000000000000
  0
LINE
  5
F104D3
330
F104D4
100
AcDbEntity
8
Geo
100
AcDbLine
10
-67.7034739454094
20
6.80546189434441
30
0.000000000000000
11
-67.6034739454094
21
6.75516158680022
31
0.000000000000000
  0
LINE
  5
F104D5
330
F104D6
100
AcDbEntity
8
Geo
100
AcDbLine
10
-67.6034739454094
20
6.75516158680022
30
0.000000000000000
11
-67.5034739454094
21
6.70080998392269
31
0.000000000000000
  0
LINE
  5
F104D7
330
F104D8
100
AcDbEntity
8
Geo
100
AcDbLine
10
-67.5034739454094
20
6.70080998392269
30
0.000000000000000
11
-67.4034739454094
21
6.64279178500943
31
0.000000000000000
  0
LINE
  5
F104D9
330
F104DA
100
AcDbEntity
8
Geo
100
AcDbLine
10
-67.4034739454094
20
6.64279178500943
30
0.000000000000000
11
-67.3034739454094
21
6.58142419341216
31
0.000000000000000
  0
LINE
  5
F104DB
330
F104DC
100
AcDbEntity
8
Geo
100
AcDbLine
10
-67.3034739454094
20
6.58142419341216
30
0.000000000000000
11
-67.2034739454094
21
6.51697635014807
31
0.000000000000000
  0
LINE
  5
F104DD
330
F104DE
100
AcDbEntity
8
Geo
100
AcDbLine
10
-67.2034739454094
20
6.51697635014807
30
0.000000000000000
11
-67.1034739454094
21
6.44968172601209
31
0.000000000000000
  0
LINE
  5
F104DF
330
F104E0
100
AcDbEntity
8
Geo
100
AcDbLine
10
-67.1034739454094
20
6.44968172601209
30
0.000000000000000
11
-67.0034739454094
21
6.37974645168505
31
0.000000000000000
  0
LINE
  5
F104E1
330
F104E2
100
AcDbEntity
8
Geo
100
AcDbLine
10
-67.0034739454094
20
6.37974645168505
30
0.000000000000000
11
-66.9034739454094
21
6.30735515395574
31
0.000000000000000
  0
LINE
  5
F104E3
330
F104E4
100
AcDbEntity
8
Geo
100
AcDbLine
10
-66.9034739454094
20
6.30735515395574
30
0.000000000000000
11
-66.8034739454094
21
6.23267518344418
31
0.000000000000000
  0
LINE
  5
F104E5
330
F104E6
100
AcDbEntity
8
Geo
100
AcDbLine
10
-66.8034739454094
20
6.23267518344418
30
0.000000000000000
11
-66.7034739454094
21
6.15585976249258
31
0.000000000000000
  0
LINE
  5
F104E7
330
F104E8
100
AcDbEntity
8
Geo
100
AcDbLine
10
-66.7034739454094
20
6.15585976249258
30
0.000000000000000
11
-66.6034739454094
21
6.07705038364838
31
0.000000000000000
  0
LINE
  5
F104E9
330
F104EA
100
AcDbEntity
8
Geo
100
AcDbLine
10
-66.6034739454094
20
6.07705038364838
30
0.000000000000000
11
-66.5034739454094
21
5.99637867327551
31
0.000000000000000
  0
LINE
  5
F104EB
330
F104EC
100
AcDbEntity
8
Geo
100
AcDbLine
10
-66.5034739454094
20
5.99637867327551
30
0.000000000000000
11
-66.4034739454094
21
5.91396786415349
31
0.000000000000000
  0
LINE
  5
F104ED
330
F104EE
100
AcDbEntity
8
Geo
100
AcDbLine
10
-66.4034739454094
20
5.91396786415349
30
0.000000000000000
11
-66.3034739454094
21
5.82993397623997
31
0.000000000000000
  0
LINE
  5
F104EF
330
F104F0
100
AcDbEntity
8
Geo
100
AcDbLine
10
-66.3034739454094
20
5.82993397623997
30
0.000000000000000
11
-66.2034739454094
21
5.74438677563248
31
0.000000000000000
  0
LINE
  5
F104F1
330
F104F2
100
AcDbEntity
8
Geo
100
AcDbLine
10
-66.2034739454094
20
5.74438677563248
30
0.000000000000000
11
-66.1034739454094
21
5.65743056224148
31
0.000000000000000
  0
LINE
  5
F104F3
330
F104F4
100
AcDbEntity
8
Geo
100
AcDbLine
10
-66.1034739454094
20
5.65743056224148
30
0.000000000000000
11
-66.0034739454094
21
5.56916482329143
31
0.000000000000000
  0
LINE
  5
F104F5
330
F104F6
100
AcDbEntity
8
Geo
100
AcDbLine
10
-66.0034739454094
20
5.56916482329143
30
0.000000000000000
11
-65.9034739454094
21
5.47968478038091
31
0.000000000000000
  0
LINE
  5
F104F7
330
F104F8
100
AcDbEntity
8
Geo
100
AcDbLine
10
-65.9034739454094
20
5.47968478038091
30
0.000000000000000
11
-65.8034739454094
21
5.38908185113159
31
0.000000000000000
  0
LINE
  5
F104F9
330
F104FA
100
AcDbEntity
8
Geo
100
AcDbLine
10
-65.8034739454094
20
5.38908185113159
30
0.000000000000000
11
-65.7034739454094
21
5.29744404158944
31
0.000000000000000
  0
LINE
  5
F104FB
330
F104FC
100
AcDbEntity
8
Geo
100
AcDbLine
10
-65.7034739454094
20
5.29744404158944
30
0.000000000000000
11
-65.6034739454094
21
5.20485628195423
31
0.000000000000000
  0
LINE
  5
F104FD
330
F104FE
100
AcDbEntity
8
Geo
100
AcDbLine
10
-65.6034739454094
20
5.20485628195423
30
0.000000000000000
11
-65.5034739454094
21
5.11140071553070
31
0.000000000000000
  0
LINE
  5
F104FF
330
F10500
100
AcDbEntity
8
Geo
100
AcDbLine
10
-65.5034739454094
20
5.11140071553070
30
0.000000000000000
11
-65.4034739454094
21
5.01715694876468
31
0.000000000000000
  0
LINE
  5
F10501
330
F10502
100
AcDbEntity
8
Geo
100
AcDbLine
10
-65.4034739454094
20
5.01715694876468
30
0.000000000000000
11
-65.3034739454094
21
4.92220226867176
31
0.000000000000000
  0
LINE
  5
F10503
330
F10504
100
AcDbEntity
8
Geo
100
AcDbLine
10
-65.3034739454094
20
4.92220226867176
30
0.000000000000000
11
-65.2034739454094
21
4.82661183276245
31
0.000000000000000
  0
LINE
  5
F10505
330
F10506
100
AcDbEntity
8
Geo
100
AcDbLine
10
-65.2034739454094
20
4.82661183276245
30
0.000000000000000
11
-65.1034739454094
21
4.73045883562652
31
0.000000000000000
  0
LINE
  5
F10507
330
F10508
100
AcDbEntity
8
Geo
100
AcDbLine
10
-65.1034739454094
20
4.73045883562652
30
0.000000000000000
11
-65.0034739454094
21
4.63381465559680
31
0.000000000000000
  0
LINE
  5
F10509
330
F1050A
100
AcDbEntity
8
Geo
100
AcDbLine
10
-65.0034739454094
20
4.63381465559680
30
0.000000000000000
11
-64.9034739454094
21
4.53674898432212
31
0.000000000000000
  0
LINE
  5
F1050B
330
F1050C
100
AcDbEntity
8
Geo
100
AcDbLine
10
-64.9034739454094
20
4.53674898432212
30
0.000000000000000
11
-64.8034739454094
21
4.43932994160556
31
0.000000000000000
  0
LINE
  5
F1050D
330
F1050E
100
AcDbEntity
8
Geo
100
AcDbLine
10
-64.8034739454094
20
4.43932994160556
30
0.000000000000000
11
-64.7034739454094
21
4.34162417748148
31
0.000000000000000
  0
LINE
  5
F1050F
330
F10510
100
AcDbEntity
8
Geo
100
AcDbLine
10
-64.7034739454094
20
4.34162417748148
30
0.000000000000000
11
-64.6034739454094
21
4.24369696319398
31
0.000000000000000
  0
LINE
  5
F10511
330
F10512
100
AcDbEntity
8
Geo
100
AcDbLine
10
-64.6034739454094
20
4.24369696319398
30
0.000000000000000
11
-64.5034739454094
21
4.14561227248482
31
0.000000000000000
  0
LINE
  5
F10513
330
F10514
100
AcDbEntity
8
Geo
100
AcDbLine
10
-64.5034739454094
20
4.14561227248482
30
0.000000000000000
11
-64.4034739454094
21
4.04743285438889
31
0.000000000000000
  0
LINE
  5
F10515
330
F10516
100
AcDbEntity
8
Geo
100
AcDbLine
10
-64.4034739454094
20
4.04743285438889
30
0.000000000000000
11
-64.3034739454094
21
3.94922029856231
31
0.000000000000000
  0
LINE
  5
F10517
330
F10518
100
AcDbEntity
8
Geo
100
AcDbLine
10
-64.3034739454094
20
3.94922029856231
30
0.000000000000000
11
-64.2034739454094
21
3.85103509402304
31
0.000000000000000
  0
LINE
  5
F10519
330
F1051A
100
AcDbEntity
8
Geo
100
AcDbLine
10
-64.2034739454094
20
3.85103509402304
30
0.000000000000000
11
-64.1034739454094
21
3.75293668206373
31
0.000000000000000
  0
LINE
  5
F1051B
330
F1051C
100
AcDbEntity
8
Geo
100
AcDbLine
10
-64.1034739454094
20
3.75293668206373
30
0.000000000000000
11
-64.0034739454094
21
3.65498350399410
31
0.000000000000000
  0
LINE
  5
F1051D
330
F1051E
100
AcDbEntity
8
Geo
100
AcDbLine
10
-64.0034739454094
20
3.65498350399410
30
0.000000000000000
11
-63.9034739454094
21
3.55723304428513
31
0.000000000000000
  0
LINE
  5
F1051F
330
F10520
100
AcDbEntity
8
Geo
100
AcDbLine
10
-63.9034739454094
20
3.55723304428513
30
0.000000000000000
11
-63.8034739454094
21
3.45974186961379
31
0.000000000000000
  0
LINE
  5
F10521
330
F10522
100
AcDbEntity
8
Geo
100
AcDbLine
10
-63.8034739454094
20
3.45974186961379
30
0.000000000000000
11
-63.7034739454094
21
3.36256566424576
31
0.000000000000000
  0
LINE
  5
F10523
330
F10524
100
AcDbEntity
8
Geo
100
AcDbLine
10
-63.7034739454094
20
3.36256566424576
30
0.000000000000000
11
-63.6034739454094
21
3.26575926214018
31
0.000000000000000
  0
LINE
  5
F10525
330
F10526
100
AcDbEntity
8
Geo
100
AcDbLine
10
-63.6034739454094
20
3.26575926214018
30
0.000000000000000
11
-63.5034739454094
21
3.16937667611519
31
0.000000000000000
  0
LINE
  5
F10527
330
F10528
100
AcDbEntity
8
Geo
100
AcDbLine
10
-63.5034739454094
20
3.16937667611519
30
0.000000000000000
11
-63.4034739454094
21
3.07347112437411
31
0.000000000000000
  0
LINE
  5
F10529
330
F1052A
100
AcDbEntity
8
Geo
100
AcDbLine
10
-63.4034739454094
20
3.07347112437411
30
0.000000000000000
11
-63.3034739454094
21
2.97809505465810
31
0.000000000000000
  0
LINE
  5
F1052B
330
F1052C
100
AcDbEntity
8
Geo
100
AcDbLine
10
-63.3034739454094
20
2.97809505465810
30
0.000000000000000
11
-63.2034739454094
21
2.88330016626210
31
0.000000000000000
  0
LINE
  5
F1052D
330
F1052E
100
AcDbEntity
8
Geo
100
AcDbLine
10
-63.2034739454094
20
2.88330016626210
30
0.000000000000000
11
-63.1034739454094
21
2.78913743012556
31
0.000000000000000
  0
LINE
  5
F1052F
330
F10530
100
AcDbEntity
8
Geo
100
AcDbLine
10
-63.1034739454094
20
2.78913743012556
30
0.000000000000000
11
-63.0034739454094
21
2.69565710718715
31
0.000000000000000
  0
LINE
  5
F10531
330
F10532
100
AcDbEntity
8
Geo
100
AcDbLine
10
-63.0034739454094
20
2.69565710718715
30
0.000000000000000
11
-62.9034739454094
21
2.60290876517358
31
0.000000000000000
  0
LINE
  5
F10533
330
F10534
100
AcDbEntity
8
Geo
100
AcDbLine
10
-62.9034739454094
20
2.60290876517358
30
0.000000000000000
11
-62.8034739454094
21
2.51094129397588
31
0.000000000000000
  0
LINE
  5
F10535
330
F10536
100
AcDbEntity
8
Geo
100
AcDbLine
10
-62.8034739454094
20
2.51094129397588
30
0.000000000000000
11
-62.7034739454094
21
2.41980291975138
31
0.000000000000000
  0
LINE
  5
F10537
330
F10538
100
AcDbEntity
8
Geo
100
AcDbLine
10
-62.7034739454094
20
2.41980291975138
30
0.000000000000000
11
-62.6034739454094
21
2.32954121787712
31
0.000000000000000
  0
LINE
  5
F10539
330
F1053A
100
AcDbEntity
8
Geo
100
AcDbLine
10
-62.6034739454094
20
2.32954121787712
30
0.000000000000000
11
-62.5034739454094
21
2.24020312486869
31
0.000000000000000
  0
LINE
  5
F1053B
330
F1053C
100
AcDbEntity
8
Geo
100
AcDbLine
10
-62.5034739454094
20
2.24020312486869
30
0.000000000000000
11
-62.4034739454094
21
2.15183494936873
31
0.000000000000000
  0
LINE
  5
F1053D
330
F1053E
100
AcDbEntity
8
Geo
100
AcDbLine
10
-62.4034739454094
20
2.15183494936873
30
0.000000000000000
11
-62.3034739454094
21
2.06448238230024
31
0.000000000000000
  0
LINE
  5
F1053F
330
F10540
100
AcDbEntity
8
Geo
100
AcDbLine
10
-62.3034739454094
20
2.06448238230024
30
0.000000000000000
11
-62.2034739454094
21
1.97819050627229
31
0.000000000000000
  0
LINE
  5
F10541
330
F10542
100
AcDbEntity
8
Geo
100
AcDbLine
10
-62.2034739454094
20
1.97819050627229
30
0.000000000000000
11
-62.1034739454094
21
1.89300380431877
31
0.000000000000000
  0
LINE
  5
F10543
330
F10544
100
AcDbEntity
8
Geo
100
AcDbLine
10
-62.1034739454094
20
1.89300380431877
30
0.000000000000000
11
-62.0034739454094
21
1.80896616804480
31
0.000000000000000
  0
LINE
  5
F10545
330
F10546
100
AcDbEntity
8
Geo
100
AcDbLine
10
-62.0034739454094
20
1.80896616804480
30
0.000000000000000
11
-61.9034739454094
21
1.72612090524998
31
0.000000000000000
  0
LINE
  5
F10547
330
F10548
100
AcDbEntity
8
Geo
100
AcDbLine
10
-61.9034739454094
20
1.72612090524998
30
0.000000000000000
11
-61.8034739454094
21
1.64451074709333
31
0.000000000000000
  0
LINE
  5
F10549
330
F1054A
100
AcDbEntity
8
Geo
100
AcDbLine
10
-61.8034739454094
20
1.64451074709333
30
0.000000000000000
11
-61.7034739454094
21
1.56417785486020
31
0.000000000000000
  0
LINE
  5
F1054B
330
F1054C
100
AcDbEntity
8
Geo
100
AcDbLine
10
-61.7034739454094
20
1.56417785486020
30
0.000000000000000
11
-61.6034739454094
21
1.48516382638832
31
0.000000000000000
  0
LINE
  5
F1054D
330
F1054E
100
AcDbEntity
8
Geo
100
AcDbLine
10
-61.6034739454094
20
1.48516382638832
30
0.000000000000000
11
-61.5034739454094
21
1.40750970220671
31
0.000000000000000
  0
LINE
  5
F1054F
330
F10550
100
AcDbEntity
8
Geo
100
AcDbLine
10
-61.5034739454094
20
1.40750970220671
30
0.000000000000000
11
-61.4034739454094
21
1.33125597143884
31
0.000000000000000
  0
LINE
  5
F10551
330
F10552
100
AcDbEntity
8
Geo
100
AcDbLine
10
-61.4034739454094
20
1.33125597143884
30
0.000000000000000
11
-61.3034739454094
21
1.25644257751876
31
0.000000000000000
  0
LINE
  5
F10553
330
F10554
100
AcDbEntity
8
Geo
100
AcDbLine
10
-61.3034739454094
20
1.25644257751876
30
0.000000000000000
11
-61.2034739454094
21
1.18310892376745
31
0.000000000000000
  0
LINE
  5
F10555
330
F10556
100
AcDbEntity
8
Geo
100
AcDbLine
10
-61.2034739454094
20
1.18310892376745
30
0.000000000000000
11
-61.1034739454094
21
1.11129387887472
31
0.000000000000000
  0
LINE
  5
F10557
330
F10558
100
AcDbEntity
8
Geo
100
AcDbLine
10
-61.1034739454094
20
1.11129387887472
30
0.000000000000000
11
-61.0034739454094
21
1.04103578233111
31
0.000000000000000
  0
LINE
  5
F10559
330
F1055A
100
AcDbEntity
8
Geo
100
AcDbLine
10
-61.0034739454094
20
1.04103578233111
30
0.000000000000000
11
-60.9034739454094
21
0.972372449852768
31
0.000000000000000
  0
LINE
  5
F1055B
330
F1055C
100
AcDbEntity
8
Geo
100
AcDbLine
10
-60.9034739454094
20
0.972372449852768
30
0.000000000000000
11
-60.8034739454094
21
0.905341178842434
31
0.000000000000000
  0
LINE
  5
F1055D
330
F1055E
100
AcDbEntity
8
Geo
100
AcDbLine
10
-60.8034739454094
20
0.905341178842434
30
0.000000000000000
11
-60.7034739454094
21
0.839978753928460
31
0.000000000000000
  0
LINE
  5
F1055F
330
F10560
100
AcDbEntity
8
Geo
100
AcDbLine
10
-60.7034739454094
20
0.839978753928460
30
0.000000000000000
11
-60.6034739454094
21
0.776321452624355
31
0.000000000000000
  0
LINE
  5
F10561
330
F10562
100
AcDbEntity
8
Geo
100
AcDbLine
10
-60.6034739454094
20
0.776321452624355
30
0.000000000000000
11
-60.5034739454094
21
0.714405051151290
31
0.000000000000000
  0
LINE
  5
F10563
330
F10564
100
AcDbEntity
8
Geo
100
AcDbLine
10
-60.5034739454094
20
0.714405051151290
30
0.000000000000000
11
-60.4034739454094
21
0.654264830466443
31
0.000000000000000
  0
LINE
  5
F10565
330
F10566
100
AcDbEntity
8
Geo
100
AcDbLine
10
-60.4034739454094
20
0.654264830466443
30
0.000000000000000
11
-60.3034739454094
21
0.595935582540965
31
0.000000000000000
  0
LINE
  5
F10567
330
F10568
100
AcDbEntity
8
Geo
100
AcDbLine
10
-60.3034739454094
20
0.595935582540965
30
0.000000000000000
11
-60.2034739454094
21
0.539451616932384
31
0.000000000000000
  0
LINE
  5
F10569
330
F1056A
100
AcDbEntity
8
Geo
100
AcDbLine
10
-60.2034739454094
20
0.539451616932384
30
0.000000000000000
11
-60.1034739454094
21
0.484340232152129
31
0.000000000000000
  0
LINE
  5
F1056B
330
F1056C
100
AcDbEntity
8
Geo
100
AcDbLine
10
-60.1034739454094
20
0.484340232152129
30
0.000000000000000
11
-60.0034739454094
21
0.430111071728828
31
0.000000000000000
  0
LINE
  5
F1056D
330
F1056E
100
AcDbEntity
8
Geo
100
AcDbLine
10
-60.0034739454094
20
0.430111071728828
30
0.000000000000000
11
-59.9034739454094
21
0.376771514857599
31
0.000000000000000
  0
LINE
  5
F1056F
330
F10570
100
AcDbEntity
8
Geo
100
AcDbLine
10
-59.9034739454094
20
0.376771514857599
30
0.000000000000000
11
-59.8034739454094
21
0.324328819681372
31
0.000000000000000
  0
LINE
  5
F10571
330
F10572
100
AcDbEntity
8
Geo
100
AcDbLine
10
-59.8034739454094
20
0.324328819681372
30
0.000000000000000
11
-59.7034739454094
21
0.272790122303253
31
0.000000000000000
  0
LINE
  5
F10573
330
F10574
100
AcDbEntity
8
Geo
100
AcDbLine
10
-59.7034739454094
20
0.272790122303253
30
0.000000000000000
11
-59.6034739454094
21
0.222162435815483
31
0.000000000000000
  0
LINE
  5
F10575
330
F10576
100
AcDbEntity
8
Geo
100
AcDbLine
10
-59.6034739454094
20
0.222162435815483
30
0.000000000000000
11
-59.5034739454094
21
0.172452649345122
31
0.000000000000000
  0
LINE
  5
F10577
330
F10578
100
AcDbEntity
8
Geo
100
AcDbLine
10
-59.5034739454094
20
0.172452649345122
30
0.000000000000000
11
-59.4034739454094
21
0.123667527116637
31
0.000000000000000
  0
LINE
  5
F10579
330
F1057A
100
AcDbEntity
8
Geo
100
AcDbLine
10
-59.4034739454094
20
0.123667527116637
30
0.000000000000000
11
-59.3034739454094
21
0.0758137075314496
31
0.000000000000000
  0
LINE
  5
F1057B
330
F1057C
100
AcDbEntity
8
Geo
100
AcDbLine
10
-59.3034739454094
20
0.0758137075314496
30
0.000000000000000
11
-59.2034739454094
21
0.0288977022646222
31
0.000000000000000
  0
LINE
  5
F1057D
330
F1057E
100
AcDbEntity
8
Geo
100
AcDbLine
10
-59.2034739454094
20
0.0288977022646222
30
0.000000000000000
11
-59.1034739454094
21
-0.0170741046212051
31
0.000000000000000
  0
LINE
  5
F1057F
330
F10580
100
AcDbEntity
8
Geo
100
AcDbLine
10
-59.1034739454094
20
-0.0170741046212051
30
0.000000000000000
11
-59.0034739454094
21
-0.0620954575445278
31
0.000000000000000
  0
LINE
  5
F10581
330
F10582
100
AcDbEntity
8
Geo
100
AcDbLine
10
-59.0034739454094
20
-0.0620954575445278
30
0.000000000000000
11
-58.9034739454094
21
-0.106160230256208
31
0.000000000000000
  0
LINE
  5
F10583
330
F10584
100
AcDbEntity
8
Geo
100
AcDbLine
10
-58.9034739454094
20
-0.106160230256208
30
0.000000000000000
11
-58.8034739454094
21
-0.149262426673083
31
0.000000000000000
  0
LINE
  5
F10585
330
F10586
100
AcDbEntity
8
Geo
100
AcDbLine
10
-58.8034739454094
20
-0.149262426673083
30
0.000000000000000
11
-58.7034739454094
21
-0.191396181693888
31
0.000000000000000
  0
LINE
  5
F10587
330
F10588
100
AcDbEntity
8
Geo
100
AcDbLine
10
-58.7034739454094
20
-0.191396181693888
30
0.000000000000000
11
-58.6034739454094
21
-0.232555761997350
31
0.000000000000000
  0
LINE
  5
F10589
330
F1058A
100
AcDbEntity
8
Geo
100
AcDbLine
10
-58.6034739454094
20
-0.232555761997350
30
0.000000000000000
11
-58.5034739454094
21
-0.272735566822337
31
0.000000000000000
  0
LINE
  5
F1058B
330
F1058C
100
AcDbEntity
8
Geo
100
AcDbLine
10
-58.5034739454094
20
-0.272735566822337
30
0.000000000000000
11
-58.4034739454094
21
-0.311930128729975
31
0.000000000000000
  0
LINE
  5
F1058D
330
F1058E
100
AcDbEntity
8
Geo
100
AcDbLine
10
-58.4034739454094
20
-0.311930128729975
30
0.000000000000000
11
-58.3034739454094
21
-0.350134114347644
31
0.000000000000000
  0
LINE
  5
F1058F
330
F10590
100
AcDbEntity
8
Geo
100
AcDbLine
10
-58.3034739454094
20
-0.350134114347644
30
0.000000000000000
11
-58.2034739454094
21
-0.387342325094689
31
0.000000000000000
  0
LINE
  5
F10591
330
F10592
100
AcDbEntity
8
Geo
100
AcDbLine
10
-58.2034739454094
20
-0.387342325094689
30
0.000000000000000
11
-58.1034739454094
21
-0.423549697889830
31
0.000000000000000
  0
LINE
  5
F10593
330
F10594
100
AcDbEntity
8
Geo
100
AcDbLine
10
-58.1034739454094
20
-0.423549697889830
30
0.000000000000000
11
-58.0034739454094
21
-0.458751305840113
31
0.000000000000000
  0
LINE
  5
F10595
330
F10596
100
AcDbEntity
8
Geo
100
AcDbLine
10
-58.0034739454094
20
-0.458751305840113
30
0.000000000000000
11
-57.9034739454094
21
-0.492942358911328
31
0.000000000000000
  0
LINE
  5
F10597
330
F10598
100
AcDbEntity
8
Geo
100
AcDbLine
10
-57.9034739454094
20
-0.492942358911328
30
0.000000000000000
11
-57.8034739454094
21
-0.526118204579817
31
0.000000000000000
  0
LINE
  5
F10599
330
F1059A
100
AcDbEntity
8
Geo
100
AcDbLine
10
-57.8034739454094
20
-0.526118204579817
30
0.000000000000000
11
-57.7034739454094
21
-0.558274328465565
31
0.000000000000000
  0
LINE
  5
F1059B
330
F1059C
100
AcDbEntity
8
Geo
100
AcDbLine
10
-57.7034739454094
20
-0.558274328465565
30
0.000000000000000
11
-57.6034739454094
21
-0.589406354946474
31
0.000000000000000
  0
LINE
  5
F1059D
330
F1059E
100
AcDbEntity
8
Geo
100
AcDbLine
10
-57.6034739454094
20
-0.589406354946474
30
0.000000000000000
11
-57.5034739454094
21
-0.619510047753797
31
0.000000000000000
  0
LINE
  5
F1059F
330
F105A0
100
AcDbEntity
8
Geo
100
AcDbLine
10
-57.5034739454094
20
-0.619510047753797
30
0.000000000000000
11
-57.4034739454094
21
-0.648581310548567
31
0.000000000000000
  0
LINE
  5
F105A1
330
F105A2
100
AcDbEntity
8
Geo
100
AcDbLine
10
-57.4034739454094
20
-0.648581310548567
30
0.000000000000000
11
-57.3034739454094
21
-0.676616187479009
31
0.000000000000000
  0
LINE
  5
F105A3
330
F105A4
100
AcDbEntity
8
Geo
100
AcDbLine
10
-57.3034739454094
20
-0.676616187479009
30
0.000000000000000
11
-57.2034739454094
21
-0.703610863718835
31
0.000000000000000
  0
LINE
  5
F105A5
330
F105A6
100
AcDbEntity
8
Geo
100
AcDbLine
10
-57.2034739454094
20
-0.703610863718835
30
0.000000000000000
11
-57.1034739454094
21
-0.729561665986333
31
0.000000000000000
  0
LINE
  5
F105A7
330
F105A8
100
AcDbEntity
8
Geo
100
AcDbLine
10
-57.1034739454094
20
-0.729561665986333
30
0.000000000000000
11
-57.0034739454094
21
-0.754465063044218
31
0.000000000000000
  0
LINE
  5
F105A9
330
F105AA
100
AcDbEntity
8
Geo
100
AcDbLine
10
-57.0034739454094
20
-0.754465063044218
30
0.000000000000000
11
-56.9034739454094
21
-0.778317666180135
31
0.000000000000000
  0
LINE
  5
F105AB
330
F105AC
100
AcDbEntity
8
Geo
100
AcDbLine
10
-56.9034739454094
20
-0.778317666180135
30
0.000000000000000
11
-56.8034739454094
21
-0.801116229667777
31
0.000000000000000
  0
LINE
  5
F105AD
330
F105AE
100
AcDbEntity
8
Geo
100
AcDbLine
10
-56.8034739454094
20
-0.801116229667777
30
0.000000000000000
11
-56.7034739454094
21
-0.822857651208545
31
0.000000000000000
  0
LINE
  5
F105AF
330
F105B0
100
AcDbEntity
8
Geo
100
AcDbLine
10
-56.7034739454094
20
-0.822857651208545
30
0.000000000000000
11
-56.6034739454094
21
-0.843538972353695
31
0.000000000000000
  0
LINE
  5
F105B1
330
F105B2
100
AcDbEntity
8
Geo
100
AcDbLine
10
-56.6034739454094
20
-0.843538972353695
30
0.000000000000000
11
-56.5034739454094
21
-0.863157378906902
31
0.000000000000000
  0
LINE
  5
F105B3
330
F105B4
100
AcDbEntity
8
Geo
100
AcDbLine
10
-56.5034739454094
20
-0.863157378906902
30
0.000000000000000
11
-56.4034739454094
21
-0.881710201307199
31
0.000000000000000
  0
LINE
  5
F105B5
330
F105B6
100
AcDbEntity
8
Geo
100
AcDbLine
10
-56.4034739454094
20
-0.881710201307199
30
0.000000000000000
11
-56.3034739454094
21
-0.899194914992243
31
0.000000000000000
  0
LINE
  5
F105B7
330
F105B8
100
AcDbEntity
8
Geo
100
AcDbLine
10
-56.3034739454094
20
-0.899194914992243
30
0.000000000000000
11
-56.2034739454094
21
-0.915609140741835
31
0.000000000000000
  0
LINE
  5
F105B9
330
F105BA
100
AcDbEntity
8
Geo
100
AcDbLine
10
-56.2034739454094
20
-0.915609140741835
30
0.000000000000000
11
-56.1034739454094
21
-0.930950645001673
31
0.000000000000000
  0
LINE
  5
F105BB
330
F105BC
100
AcDbEntity
8
Geo
100
AcDbLine
10
-56.1034739454094
20
-0.930950645001673
30
0.000000000000000
11
-56.0034739454094
21
-0.945217340187285
31
0.000000000000000
  0
LINE
  5
F105BD
330
F105BE
100
AcDbEntity
8
Geo
100
AcDbLine
10
-56.0034739454094
20
-0.945217340187285
30
0.000000000000000
11
-55.9034739454094
21
-0.958407284968091
31
0.000000000000000
  0
LINE
  5
F105BF
330
F105C0
100
AcDbEntity
8
Geo
100
AcDbLine
10
-55.9034739454094
20
-0.958407284968091
30
0.000000000000000
11
-55.8034739454094
21
-0.970518684531569
31
0.000000000000000
  0
LINE
  5
F105C1
330
F105C2
100
AcDbEntity
8
Geo
100
AcDbLine
10
-55.8034739454094
20
-0.970518684531569
30
0.000000000000000
11
-55.7034739454094
21
-0.981549890827489
31
0.000000000000000
  0
LINE
  5
F105C3
330
F105C4
100
AcDbEntity
8
Geo
100
AcDbLine
10
-55.7034739454094
20
-0.981549890827489
30
0.000000000000000
11
-55.6034739454094
21
-0.991499402792159
31
0.000000000000000
  0
LINE
  5
F105C5
330
F105C6
100
AcDbEntity
8
Geo
100
AcDbLine
10
-55.6034739454094
20
-0.991499402792159
30
0.000000000000000
11
-55.5034739454094
21
-1.00036586655269
31
0.000000000000000
  0
LINE
  5
F105C7
330
F105C8
100
AcDbEntity
8
Geo
100
AcDbLine
10
-55.5034739454094
20
-1.00036586655269
30
0.000000000000000
11
-55.4034739454094
21
-1.00814807561122
31
0.000000000000000
  0
LINE
  5
F105C9
330
F105CA
100
AcDbEntity
8
Geo
100
AcDbLine
10
-55.4034739454094
20
-1.00814807561122
30
0.000000000000000
11
-55.3034739454094
21
-1.01484497100909
31
0.000000000000000
  0
LINE
  5
F105CB
330
F105CC
100
AcDbEntity
8
Geo
100
AcDbLine
10
-55.3034739454094
20
-1.01484497100909
30
0.000000000000000
11
-55.2034739454094
21
-1.02045564147094
31
0.000000000000000
  0
LINE
  5
F105CD
330
F105CE
100
AcDbEntity
8
Geo
100
AcDbLine
10
-55.2034739454094
20
-1.02045564147094
30
0.000000000000000
11
-55.1034739454094
21
-1.02497932352870
31
0.000000000000000
  0
LINE
  5
F105CF
330
F105D0
100
AcDbEntity
8
Geo
100
AcDbLine
10
-55.1034739454094
20
-1.02497932352870
30
0.000000000000000
11
-55.0034739454094
21
-1.02841540162550
31
0.000000000000000
  0
LINE
  5
F105D1
330
F105D2
100
AcDbEntity
8
Geo
100
AcDbLine
10
-55.0034739454094
20
-1.02841540162550
30
0.000000000000000
11
-54.9034739454094
21
-1.03076340819942
31
0.000000000000000
  0
LINE
  5
F105D3
330
F105D4
100
AcDbEntity
8
Geo
100
AcDbLine
10
-54.9034739454094
20
-1.03076340819942
30
0.000000000000000
11
-54.8034739454094
21
-1.03202302374709
31
0.000000000000000
  0
LINE
  5
F105D5
330
F105D6
100
AcDbEntity
8
Geo
100
AcDbLine
10
-68.2034739454094
20
6.96774193548400
30
0.000000000000000
11
-68.1034739454094
21
6.56412387872396
31
0.000000000000000
  0
LINE
  5
F105D7
330
F105D8
100
AcDbEntity
8
Geo
100
AcDbLine
10
-68.1034739454094
20
6.56412387872396
30
0.000000000000000
11
-68.0034739454094
21
6.37913134032315
31
0.000000000000000
  0
LINE
  5
F105D9
330
F105DA
100
AcDbEntity
8
Geo
100
AcDbLine
10
-68.0034739454094
20
6.37913134032315
30
0.000000000000000
11
-67.9034739454094
21
6.22529028526541
31
0.000000000000000
  0
LINE
  5
F105DB
330
F105DC
100
AcDbEntity
8
Geo
100
AcDbLine
10
-67.9034739454094
20
6.22529028526541
30
0.000000000000000
11
-67.8034739454094
21
6.08584469252309
31
0.000000000000000
  0
LINE
  5
F105DD
330
F105DE
100
AcDbEntity
8
Geo
100
AcDbLine
10
-67.8034739454094
20
6.08584469252309
30
0.000000000000000
11
-67.7034739454094
21
5.95460039503901
31
0.000000000000000
  0
LINE
  5
F105DF
330
F105E0
100
AcDbEntity
8
Geo
100
AcDbLine
10
-67.7034739454094
20
5.95460039503901
30
0.000000000000000
11
-67.6034739454094
21
5.82853549447504
31
0.000000000000000
  0
LINE
  5
F105E1
330
F105E2
100
AcDbEntity
8
Geo
100
AcDbLine
10
-67.6034739454094
20
5.82853549447504
30
0.000000000000000
11
-67.5034739454094
21
5.70595096976671
31
0.000000000000000
  0
LINE
  5
F105E3
330
F105E4
100
AcDbEntity
8
Geo
100
AcDbLine
10
-67.5034739454094
20
5.70595096976671
30
0.000000000000000
11
-67.4034739454094
21
5.58580573226602
31
0.000000000000000
  0
LINE
  5
F105E5
330
F105E6
100
AcDbEntity
8
Geo
100
AcDbLine
10
-67.4034739454094
20
5.58580573226602
30
0.000000000000000
11
-67.3034739454094
21
5.46742494399704
31
0.000000000000000
  0
LINE
  5
F105E7
330
F105E8
100
AcDbEntity
8
Geo
100
AcDbLine
10
-67.3034739454094
20
5.46742494399704
30
0.000000000000000
11
-67.2034739454094
21
5.35035438451115
31
0.000000000000000
  0
LINE
  5
F105E9
330
F105EA
100
AcDbEntity
8
Geo
100
AcDbLine
10
-67.2034739454094
20
5.35035438451115
30
0.000000000000000
11
-67.1034739454094
21
5.23428072818760
31
0.000000000000000
  0
LINE
  5
F105EB
330
F105EC
100
AcDbEntity
8
Geo
100
AcDbLine
10
-67.1034739454094
20
5.23428072818760
30
0.000000000000000
11
-67.0034739454094
21
5.11898477752839
31
0.000000000000000
  0
LINE
  5
F105ED
330
F105EE
100
AcDbEntity
8
Geo
100
AcDbLine
10
-67.0034739454094
20
5.11898477752839
30
0.000000000000000
11
-66.9034739454094
21
5.00431250655859
31
0.000000000000000
  0
LINE
  5
F105EF
330
F105F0
100
AcDbEntity
8
Geo
100
AcDbLine
10
-66.9034739454094
20
5.00431250655859
30
0.000000000000000
11
-66.8034739454094
21
4.89015633622247
31
0.000000000000000
  0
LINE
  5
F105F1
330
F105F2
100
AcDbEntity
8
Geo
100
AcDbLine
10
-66.8034739454094
20
4.89015633622247
30
0.000000000000000
11
-66.7034739454094
21
4.77644258633854
31
0.000000000000000
  0
LINE
  5
F105F3
330
F105F4
100
AcDbEntity
8
Geo
100
AcDbLine
10
-66.7034739454094
20
4.77644258633854
30
0.000000000000000
11
-66.6034739454094
21
4.66312281176322
31
0.000000000000000
  0
LINE
  5
F105F5
330
F105F6
100
AcDbEntity
8
Geo
100
AcDbLine
10
-66.6034739454094
20
4.66312281176322
30
0.000000000000000
11
-66.5034739454094
21
4.55016766672474
31
0.000000000000000
  0
LINE
  5
F105F7
330
F105F8
100
AcDbEntity
8
Geo
100
AcDbLine
10
-66.5034739454094
20
4.55016766672474
30
0.000000000000000
11
-66.4034739454094
21
4.43756246374518
31
0.000000000000000
  0
LINE
  5
F105F9
330
F105FA
100
AcDbEntity
8
Geo
100
AcDbLine
10
-66.4034739454094
20
4.43756246374518
30
0.000000000000000
11
-66.3034739454094
21
4.32530389758373
31
0.000000000000000
  0
LINE
  5
F105FB
330
F105FC
100
AcDbEntity
8
Geo
100
AcDbLine
10
-66.3034739454094
20
4.32530389758373
30
0.000000000000000
11
-66.2034739454094
21
4.21339758803740
31
0.000000000000000
  0
LINE
  5
F105FD
330
F105FE
100
AcDbEntity
8
Geo
100
AcDbLine
10
-66.2034739454094
20
4.21339758803740
30
0.000000000000000
11
-66.1034739454094
21
4.10185620959888
31
0.000000000000000
  0
LINE
  5
F105FF
330
F10600
100
AcDbEntity
8
Geo
100
AcDbLine
10
-66.1034739454094
20
4.10185620959888
30
0.000000000000000
11
-66.0034739454094
21
3.99069804901966
31
0.000000000000000
  0
LINE
  5
F10601
330
F10602
100
AcDbEntity
8
Geo
100
AcDbLine
10
-66.0034739454094
20
3.99069804901966
30
0.000000000000000
11
-65.9034739454094
21
3.87994587971862
31
0.000000000000000
  0
LINE
  5
F10603
330
F10604
100
AcDbEntity
8
Geo
100
AcDbLine
10
-65.9034739454094
20
3.87994587971862
30
0.000000000000000
11
-65.8034739454094
21
3.76962607406516
31
0.000000000000000
  0
LINE
  5
F10605
330
F10606
100
AcDbEntity
8
Geo
100
AcDbLine
10
-65.8034739454094
20
3.76962607406516
30
0.000000000000000
11
-65.7034739454094
21
3.65976789648943
31
0.000000000000000
  0
LINE
  5
F10607
330
F10608
100
AcDbEntity
8
Geo
100
AcDbLine
10
-65.7034739454094
20
3.65976789648943
30
0.000000000000000
11
-65.6034739454094
21
3.55040293561662
31
0.000000000000000
  0
LINE
  5
F10609
330
F1060A
100
AcDbEntity
8
Geo
100
AcDbLine
10
-65.6034739454094
20
3.55040293561662
30
0.000000000000000
11
-65.5034739454094
21
3.44156464439181
31
0.000000000000000
  0
LINE
  5
F1060B
330
F1060C
100
AcDbEntity
8
Geo
100
AcDbLine
10
-65.5034739454094
20
3.44156464439181
30
0.000000000000000
11
-65.4034739454094
21
3.33328796488306
31
0.000000000000000
  0
LINE
  5
F1060D
330
F1060E
100
AcDbEntity
8
Geo
100
AcDbLine
10
-65.4034739454094
20
3.33328796488306
30
0.000000000000000
11
-65.3034739454094
21
3.22560902005844
31
0.000000000000000
  0
LINE
  5
F1060F
330
F10610
100
AcDbEntity
8
Geo
100
AcDbLine
10
-65.3034739454094
20
3.22560902005844
30
0.000000000000000
11
-65.2034739454094
21
3.11856485895759
31
0.000000000000000
  0
LINE
  5
F10611
330
F10612
100
AcDbEntity
8
Geo
100
AcDbLine
10
-65.2034739454094
20
3.11856485895759
30
0.000000000000000
11
-65.1034739454094
21
3.01219324474514
31
0.000000000000000
  0
LINE
  5
F10613
330
F10614
100
AcDbEntity
8
Geo
100
AcDbLine
10
-65.1034739454094
20
3.01219324474514
30
0.000000000000000
11
-65.0034739454094
21
2.90653247743860
31
0.000000000000000
  0
LINE
  5
F10615
330
F10616
100
AcDbEntity
8
Geo
100
AcDbLine
10
-65.0034739454094
20
2.90653247743860
30
0.000000000000000
11
-64.9034739454094
21
2.80162124485202
31
0.000000000000000
  0
LINE
  5
F10617
330
F10618
100
AcDbEntity
8
Geo
100
AcDbLine
10
-64.9034739454094
20
2.80162124485202
30
0.000000000000000
11
-64.8034739454094
21
2.69749849663544
31
0.000000000000000
  0
LINE
  5
F10619
330
F1061A
100
AcDbEntity
8
Geo
100
AcDbLine
10
-64.8034739454094
20
2.69749849663544
30
0.000000000000000
11
-64.7034739454094
21
2.59420333732382
31
0.000000000000000
  0
LINE
  5
F1061B
330
F1061C
100
AcDbEntity
8
Geo
100
AcDbLine
10
-64.7034739454094
20
2.59420333732382
30
0.000000000000000
11
-64.6034739454094
21
2.49177493511337
31
0.000000000000000
  0
LINE
  5
F1061D
330
F1061E
100
AcDbEntity
8
Geo
100
AcDbLine
10
-64.6034739454094
20
2.49177493511337
30
0.000000000000000
11
-64.5034739454094
21
2.39025244371307
31
0.000000000000000
  0
LINE
  5
F1061F
330
F10620
100
AcDbEntity
8
Geo
100
AcDbLine
10
-64.5034739454094
20
2.39025244371307
30
0.000000000000000
11
-64.4034739454094
21
2.28967493511669
31
0.000000000000000
  0
LINE
  5
F10621
330
F10622
100
AcDbEntity
8
Geo
100
AcDbLine
10
-64.4034739454094
20
2.28967493511669
30
0.000000000000000
11
-64.3034739454094
21
2.19008134153573
31
0.000000000000000
  0
LINE
  5
F10623
330
F10624
100
AcDbEntity
8
Geo
100
AcDbLine
10
-64.3034739454094
20
2.19008134153573
30
0.000000000000000
11
-64.2034739454094
21
2.09151040504868
31
0.000000000000000
  0
LINE
  5
F10625
330
F10626
100
AcDbEntity
8
Geo
100
AcDbLine
10
-64.2034739454094
20
2.09151040504868
30
0.000000000000000
11
-64.1034739454094
21
1.99400063377630
31
0.000000000000000
  0
LINE
  5
F10627
330
F10628
100
AcDbEntity
8
Geo
100
AcDbLine
10
-64.1034739454094
20
1.99400063377630
30
0.000000000000000
11
-64.0034739454094
21
1.89759026359685
31
0.000000000000000
  0
LINE
  5
F10629
330
F1062A
100
AcDbEntity
8
Geo
100
AcDbLine
10
-64.0034739454094
20
1.89759026359685
30
0.000000000000000
11
-63.9034739454094
21
1.80231722458197
31
0.000000000000000
  0
LINE
  5
F1062B
330
F1062C
100
AcDbEntity
8
Geo
100
AcDbLine
10
-63.9034739454094
20
1.80231722458197
30
0.000000000000000
11
-63.8034739454094
21
1.70821911146944
31
0.000000000000000
  0
LINE
  5
F1062D
330
F1062E
100
AcDbEntity
8
Geo
100
AcDbLine
10
-63.8034739454094
20
1.70821911146944
30
0.000000000000000
11
-63.7034739454094
21
1.61533315760041
31
0.000000000000000
  0
LINE
  5
F1062F
330
F10630
100
AcDbEntity
8
Geo
100
AcDbLine
10
-63.7034739454094
20
1.61533315760041
30
0.000000000000000
11
-63.6034739454094
21
1.52369621184030
31
0.000000000000000
  0
LINE
  5
F10631
330
F10632
100
AcDbEntity
8
Geo
100
AcDbLine
10
-63.6034739454094
20
1.52369621184030
30
0.000000000000000
11
-63.5034739454094
21
1.43334471807826
31
0.000000000000000
  0
LINE
  5
F10633
330
F10634
100
AcDbEntity
8
Geo
100
AcDbLine
10
-63.5034739454094
20
1.43334471807826
30
0.000000000000000
11
-63.4034739454094
21
1.34431469696297
31
0.000000000000000
  0
LINE
  5
F10635
330
F10636
100
AcDbEntity
8
Geo
100
AcDbLine
10
-63.4034739454094
20
1.34431469696297
30
0.000000000000000
11
-63.3034739454094
21
1.25664172958499
31
0.000000000000000
  0
LINE
  5
F10637
330
F10638
100
AcDbEntity
8
Geo
100
AcDbLine
10
-63.3034739454094
20
1.25664172958499
30
0.000000000000000
11
-63.2034739454094
21
1.17036094285964
31
0.000000000000000
  0
LINE
  5
F10639
330
F1063A
100
AcDbEntity
8
Geo
100
AcDbLine
10
-63.2034739454094
20
1.17036094285964
30
0.000000000000000
11
-63.1034739454094
21
1.08550699640110
31
0.000000000000000
  0
LINE
  5
F1063B
330
F1063C
100
AcDbEntity
8
Geo
100
AcDbLine
10
-63.1034739454094
20
1.08550699640110
30
0.000000000000000
11
-63.0034739454094
21
1.00211407070946
31
0.000000000000000
  0
LINE
  5
F1063D
330
F1063E
100
AcDbEntity
8
Geo
100
AcDbLine
10
-63.0034739454094
20
1.00211407070946
30
0.000000000000000
11
-62.9034739454094
21
0.920215856518595
31
0.000000000000000
  0
LINE
  5
F1063F
330
F10640
100
AcDbEntity
8
Geo
100
AcDbLine
10
-62.9034739454094
20
0.920215856518595
30
0.000000000000000
11
-62.8034739454094
21
0.839845545174907
31
0.000000000000000
  0
LINE
  5
F10641
330
F10642
100
AcDbEntity
8
Geo
100
AcDbLine
10
-62.8034739454094
20
0.839845545174907
30
0.000000000000000
11
-62.7034739454094
21
0.761035819935772
31
0.000000000000000
  0
LINE
  5
F10643
330
F10644
100
AcDbEntity
8
Geo
100
AcDbLine
10
-62.7034739454094
20
0.761035819935772
30
0.000000000000000
11
-62.6034739454094
21
0.683818848092758
31
0.000000000000000
  0
LINE
  5
F10645
330
F10646
100
AcDbEntity
8
Geo
100
AcDbLine
10
-62.6034739454094
20
0.683818848092758
30
0.000000000000000
11
-62.5034739454094
21
0.608226273838305
31
0.000000000000000
  0
LINE
  5
F10647
330
F10648
100
AcDbEntity
8
Geo
100
AcDbLine
10
-62.5034739454094
20
0.608226273838305
30
0.000000000000000
11
-62.4034739454094
21
0.534289211806530
31
0.000000000000000
  0
LINE
  5
F10649
330
F1064A
100
AcDbEntity
8
Geo
100
AcDbLine
10
-62.4034739454094
20
0.534289211806530
30
0.000000000000000
11
-62.3034739454094
21
0.462038241228896
31
0.000000000000000
  0
LINE
  5
F1064B
330
F1064C
100
AcDbEntity
8
Geo
100
AcDbLine
10
-62.3034739454094
20
0.462038241228896
30
0.000000000000000
11
-62.2034739454094
21
0.391503400654353
31
0.000000000000000
  0
LINE
  5
F1064D
330
F1064E
100
AcDbEntity
8
Geo
100
AcDbLine
10
-62.2034739454094
20
0.391503400654353
30
0.000000000000000
11
-62.1034739454094
21
0.322714183191271
31
0.000000000000000
  0
LINE
  5
F1064F
330
F10650
100
AcDbEntity
8
Geo
100
AcDbLine
10
-62.1034739454094
20
0.322714183191271
30
0.000000000000000
11
-62.0034739454094
21
0.255699532235028
31
0.000000000000000
  0
LINE
  5
F10651
330
F10652
100
AcDbEntity
8
Geo
100
AcDbLine
10
-62.0034739454094
20
0.255699532235028
30
0.000000000000000
11
-61.9034739454094
21
0.190487837651083
31
0.000000000000000
  0
LINE
  5
F10653
330
F10654
100
AcDbEntity
8
Geo
100
AcDbLine
10
-61.9034739454094
20
0.190487837651083
30
0.000000000000000
11
-61.8034739454094
21
0.127106932388475
31
0.000000000000000
  0
LINE
  5
F10655
330
F10656
100
AcDbEntity
8
Geo
100
AcDbLine
10
-61.8034739454094
20
0.127106932388475
30
0.000000000000000
11
-61.7034739454094
21
0.0655840895031723
31
0.000000000000000
  0
LINE
  5
F10657
330
F10658
100
AcDbEntity
8
Geo
100
AcDbLine
10
-61.7034739454094
20
0.0655840895031723
30
0.000000000000000
11
-61.6034739454094
21
0.00594601957483132
31
0.000000000000000
  0
LINE
  5
F10659
330
F1065A
100
AcDbEntity
8
Geo
100
AcDbLine
10
-61.6034739454094
20
0.00594601957483132
30
0.000000000000000
11
-61.5034739454094
21
-0.0517811314958552
31
0.000000000000000
  0
LINE
  5
F1065B
330
F1065C
100
AcDbEntity
8
Geo
100
AcDbLine
10
-61.5034739454094
20
-0.0517811314958552
30
0.000000000000000
11
-61.4034739454094
21
-0.107571784318838
31
0.000000000000000
  0
LINE
  5
F1065D
330
F1065E
100
AcDbEntity
8
Geo
100
AcDbLine
10
-61.4034739454094
20
-0.107571784318838
30
0.000000000000000
11
-61.3034739454094
21
-0.161400927481961
31
0.000000000000000
  0
LINE
  5
F1065F
330
F10660
100
AcDbEntity
8
Geo
100
AcDbLine
10
-61.3034739454094
20
-0.161400927481961
30
0.000000000000000
11
-61.2034739454094
21
-0.213244118657632
31
0.000000000000000
  0
LINE
  5
F10661
330
F10662
100
AcDbEntity
8
Geo
100
AcDbLine
10
-61.2034739454094
20
-0.213244118657632
30
0.000000000000000
11
-61.1034739454094
21
-0.263077485350198
31
0.000000000000000
  0
LINE
  5
F10663
330
F10664
100
AcDbEntity
8
Geo
100
AcDbLine
10
-61.1034739454094
20
-0.263077485350198
30
0.000000000000000
11
-61.0034739454094
21
-0.310877725282942
31
0.000000000000000
  0
LINE
  5
F10665
330
F10666
100
AcDbEntity
8
Geo
100
AcDbLine
10
-61.0034739454094
20
-0.310877725282942
30
0.000000000000000
11
-60.9034739454094
21
-0.356622106421294
31
0.000000000000000
  0
LINE
  5
F10667
330
F10668
100
AcDbEntity
8
Geo
100
AcDbLine
10
-60.9034739454094
20
-0.356622106421294
30
0.000000000000000
11
-60.8034739454094
21
-0.400288466626751
31
0.000000000000000
  0
LINE
  5
F10669
330
F1066A
100
AcDbEntity
8
Geo
100
AcDbLine
10
-60.8034739454094
20
-0.400288466626751
30
0.000000000000000
11
-60.7034739454094
21
-0.441855212933740
31
0.000000000000000
  0
LINE
  5
F1066B
330
F1066C
100
AcDbEntity
8
Geo
100
AcDbLine
10
-60.7034739454094
20
-0.441855212933740
30
0.000000000000000
11
-60.6034739454094
21
-0.481301320439732
31
0.000000000000000
  0
LINE
  5
F1066D
330
F1066E
100
AcDbEntity
8
Geo
100
AcDbLine
10
-60.6034739454094
20
-0.481301320439732
30
0.000000000000000
11
-60.5034739454094
21
-0.518606330796645
31
0.000000000000000
  0
LINE
  5
F1066F
330
F10670
100
AcDbEntity
8
Geo
100
AcDbLine
10
-60.5034739454094
20
-0.518606330796645
30
0.000000000000000
11
-60.4034739454094
21
-0.553750350289571
31
0.000000000000000
  0
LINE
  5
F10671
330
F10672
100
AcDbEntity
8
Geo
100
AcDbLine
10
-60.4034739454094
20
-0.553750350289571
30
0.000000000000000
11
-60.3034739454094
21
-0.586714047486647
31
0.000000000000000
  0
LINE
  5
F10673
330
F10674
100
AcDbEntity
8
Geo
100
AcDbLine
10
-60.3034739454094
20
-0.586714047486647
30
0.000000000000000
11
-60.2034739454094
21
-0.617478650441647
31
0.000000000000000
  0
LINE
  5
F10675
330
F10676
100
AcDbEntity
8
Geo
100
AcDbLine
10
-60.2034739454094
20
-0.617478650441647
30
0.000000000000000
11
-60.1034739454094
21
-0.646620838759278
31
0.000000000000000
  0
LINE
  5
F10677
330
F10678
100
AcDbEntity
8
Geo
100
AcDbLine
10
-60.1034739454094
20
-0.646620838759278
30
0.000000000000000
11
-60.0034739454094
21
-0.674726907982409
31
0.000000000000000
  0
LINE
  5
F10679
330
F1067A
100
AcDbEntity
8
Geo
100
AcDbLine
10
-60.0034739454094
20
-0.674726907982409
30
0.000000000000000
11
-59.9034739454094
21
-0.701793033597311
31
0.000000000000000
  0
LINE
  5
F1067B
330
F1067C
100
AcDbEntity
8
Geo
100
AcDbLine
10
-59.9034739454094
20
-0.701793033597311
30
0.000000000000000
11
-59.8034739454094
21
-0.727815532599851
31
0.000000000000000
  0
LINE
  5
F1067D
330
F1067E
100
AcDbEntity
8
Geo
100
AcDbLine
10
-59.8034739454094
20
-0.727815532599851
30
0.000000000000000
11
-59.7034739454094
21
-0.752790863996657
31
0.000000000000000
  0
LINE
  5
F1067F
330
F10680
100
AcDbEntity
8
Geo
100
AcDbLine
10
-59.7034739454094
20
-0.752790863996657
30
0.000000000000000
11
-59.6034739454094
21
-0.776715629286960
31
0.000000000000000
  0
LINE
  5
F10681
330
F10682
100
AcDbEntity
8
Geo
100
AcDbLine
10
-59.6034739454094
20
-0.776715629286960
30
0.000000000000000
11
-59.5034739454094
21
-0.799586572925040
31
0.000000000000000
  0
LINE
  5
F10683
330
F10684
100
AcDbEntity
8
Geo
100
AcDbLine
10
-59.5034739454094
20
-0.799586572925040
30
0.000000000000000
11
-59.4034739454094
21
-0.821400582763218
31
0.000000000000000
  0
LINE
  5
F10685
330
F10686
100
AcDbEntity
8
Geo
100
AcDbLine
10
-59.4034739454094
20
-0.821400582763218
30
0.000000000000000
11
-59.3034739454094
21
-0.842154690475351
31
0.000000000000000
  0
LINE
  5
F10687
330
F10688
100
AcDbEntity
8
Geo
100
AcDbLine
10
-59.3034739454094
20
-0.842154690475351
30
0.000000000000000
11
-59.2034739454094
21
-0.861846071960727
31
0.000000000000000
  0
LINE
  5
F10689
330
F1068A
100
AcDbEntity
8
Geo
100
AcDbLine
10
-59.2034739454094
20
-0.861846071960727
30
0.000000000000000
11
-59.1034739454094
21
-0.880472047728371
31
0.000000000000000
  0
LINE
  5
F1068B
330
F1068C
100
AcDbEntity
8
Geo
100
AcDbLine
10
-59.1034739454094
20
-0.880472047728371
30
0.000000000000000
11
-59.0034739454094
21
-0.898030083261646
31
0.000000000000000
  0
LINE
  5
F1068D
330
F1068E
100
AcDbEntity
8
Geo
100
AcDbLine
10
-59.0034739454094
20
-0.898030083261646
30
0.000000000000000
11
-58.9034739454094
21
-0.914517789363131
31
0.000000000000000
  0
LINE
  5
F1068F
330
F10690
100
AcDbEntity
8
Geo
100
AcDbLine
10
-58.9034739454094
20
-0.914517789363131
30
0.000000000000000
11
-58.8034739454094
21
-0.929932922479739
31
0.000000000000000
  0
LINE
  5
F10691
330
F10692
100
AcDbEntity
8
Geo
100
AcDbLine
10
-58.8034739454094
20
-0.929932922479739
30
0.000000000000000
11
-58.7034739454094
21
-0.944273385008003
31
0.000000000000000
  0
LINE
  5
F10693
330
F10694
100
AcDbEntity
8
Geo
100
AcDbLine
10
-58.7034739454094
20
-0.944273385008003
30
0.000000000000000
11
-58.6034739454094
21
-0.957537225579501
31
0.000000000000000
  0
LINE
  5
F10695
330
F10696
100
AcDbEntity
8
Geo
100
AcDbLine
10
-58.6034739454094
20
-0.957537225579501
30
0.000000000000000
11
-58.5034739454094
21
-0.969722639326397
31
0.000000000000000
  0
LINE
  5
F10697
330
F10698
100
AcDbEntity
8
Geo
100
AcDbLine
10
-58.5034739454094
20
-0.969722639326397
30
0.000000000000000
11
-58.4034739454094
21
-0.980827968127028
31
0.000000000000000
  0
LINE
  5
F10699
330
F1069A
100
AcDbEntity
8
Geo
100
AcDbLine
10
-58.4034739454094
20
-0.980827968127028
30
0.000000000000000
11
-58.3034739454094
21
-0.990851700831536
31
0.000000000000000
  0
LINE
  5
F1069B
330
F1069C
100
AcDbEntity
8
Geo
100
AcDbLine
10
-58.3034739454094
20
-0.990851700831536
30
0.000000000000000
11
-58.2034739454094
21
-0.999792473467497
31
0.000000000000000
  0
LINE
  5
F1069D
330
F1069E
100
AcDbEntity
8
Geo
100
AcDbLine
10
-58.2034739454094
20
-0.999792473467497
30
0.000000000000000
11
-58.1034739454094
21
-1.00764906942552
31
0.000000000000000
  0
LINE
  5
F1069F
330
F106A0
100
AcDbEntity
8
Geo
100
AcDbLine
10
-58.1034739454094
20
-1.00764906942552
30
0.000000000000000
11
-58.0034739454094
21
-1.01442041962480
31
0.000000000000000
  0
LINE
  5
F106A1
330
F106A2
100
AcDbEntity
8
Geo
100
AcDbLine
10
-58.0034739454094
20
-1.01442041962480
30
0.000000000000000
11
-57.9034739454094
21
-1.02010560265860
31
0.000000000000000
  0
LINE
  5
F106A3
330
F106A4
100
AcDbEntity
8
Geo
100
AcDbLine
10
-57.9034739454094
20
-1.02010560265860
30
0.000000000000000
11
-57.8034739454094
21
-1.02470384491959
31
0.000000000000000
  0
LINE
  5
F106A5
330
F106A6
100
AcDbEntity
8
Geo
100
AcDbLine
10
-57.8034739454094
20
-1.02470384491959
30
0.000000000000000
11
-57.7034739454094
21
-1.02821452070518
31
0.000000000000000
  0
LINE
  5
F106A7
330
F106A8
100
AcDbEntity
8
Geo
100
AcDbLine
10
-57.7034739454094
20
-1.02821452070518
30
0.000000000000000
11
-57.6034739454094
21
-1.03063715230262
31
0.000000000000000
  0
LINE
  5
F106A9
330
F106AA
100
AcDbEntity
8
Geo
100
AcDbLine
10
-57.6034739454094
20
-1.03063715230262
30
0.000000000000000
11
-57.5034739454094
21
-1.03197141005400
31
0.000000000000000
  0
LINE
  5
F106AB
330
F106AC
100
AcDbEntity
8
Geo
100
AcDbLine
10
-47.0034739454094
20
14.6677419354840
30
0.000000000000000
11
-46.9034739454094
21
14.6604706605892
31
0.000000000000000
  0
LINE
  5
F106AD
330
F106AE
100
AcDbEntity
8
Geo
100
AcDbLine
10
-46.9034739454094
20
14.6604706605892
30
0.000000000000000
11
-46.8034739454094
21
14.6167181006636
31
0.000000000000000
  0
LINE
  5
F106AF
330
F106B0
100
AcDbEntity
8
Geo
100
AcDbLine
10
-46.8034739454094
20
14.6167181006636
30
0.000000000000000
11
-46.7034739454094
21
14.5273599098930
31
0.000000000000000
  0
LINE
  5
F106B1
330
F106B2
100
AcDbEntity
8
Geo
100
AcDbLine
10
-46.7034739454094
20
14.5273599098930
30
0.000000000000000
11
-46.6034739454094
21
14.3854034558405
31
0.000000000000000
  0
LINE
  5
F106B3
330
F106B4
100
AcDbEntity
8
Geo
100
AcDbLine
10
-46.6034739454094
20
14.3854034558405
30
0.000000000000000
11
-46.5034739454094
21
14.1839518034165
31
0.000000000000000
  0
LINE
  5
F106B5
330
F106B6
100
AcDbEntity
8
Geo
100
AcDbLine
10
-46.5034739454094
20
14.1839518034165
30
0.000000000000000
11
-46.4034739454094
21
13.9164068236488
31
0.000000000000000
  0
LINE
  5
F106B7
330
F106B8
100
AcDbEntity
8
Geo
100
AcDbLine
10
-46.4034739454094
20
13.9164068236488
30
0.000000000000000
11
-46.3034739454094
21
13.5767086361013
31
0.000000000000000
  0
LINE
  5
F106B9
330
F106BA
100
AcDbEntity
8
Geo
100
AcDbLine
10
-46.3034739454094
20
13.5767086361013
30
0.000000000000000
11
-46.2034739454094
21
13.1596108866308
31
0.000000000000000
  0
LINE
  5
F106BB
330
F106BC
100
AcDbEntity
8
Geo
100
AcDbLine
10
-54.8034739454094
20
14.9675068947151
30
0.000000000000000
11
-54.7034739454094
21
14.9676779478352
31
0.000000000000000
  0
LINE
  5
F106BD
330
F106BE
100
AcDbEntity
8
Geo
100
AcDbLine
10
-54.7034739454094
20
14.9676779478352
30
0.000000000000000
11
-54.6034739454094
21
14.9667604152519
31
0.000000000000000
  0
LINE
  5
F106BF
330
F106C0
100
AcDbEntity
8
Geo
100
AcDbLine
10
-54.6034739454094
20
14.9667604152519
30
0.000000000000000
11
-54.5034739454094
21
14.9647544218176
31
0.000000000000000
  0
LINE
  5
F106C1
330
F106C2
100
AcDbEntity
8
Geo
100
AcDbLine
10
-54.5034739454094
20
14.9647544218176
30
0.000000000000000
11
-54.4034739454094
21
14.9616602404967
31
0.000000000000000
  0
LINE
  5
F106C3
330
F106C4
100
AcDbEntity
8
Geo
100
AcDbLine
10
-54.4034739454094
20
14.9616602404967
30
0.000000000000000
11
-54.3034739454094
21
14.9574782923276
31
0.000000000000000
  0
LINE
  5
F106C5
330
F106C6
100
AcDbEntity
8
Geo
100
AcDbLine
10
-54.3034739454094
20
14.9574782923276
30
0.000000000000000
11
-54.2034739454094
21
14.9522091463660
31
0.000000000000000
  0
LINE
  5
F106C7
330
F106C8
100
AcDbEntity
8
Geo
100
AcDbLine
10
-54.2034739454094
20
14.9522091463660
30
0.000000000000000
11
-54.1034739454094
21
14.9458535196073
31
0.000000000000000
  0
LINE
  5
F106C9
330
F106CA
100
AcDbEntity
8
Geo
100
AcDbLine
10
-54.1034739454094
20
14.9458535196073
30
0.000000000000000
11
-54.0034739454094
21
14.9384122768889
31
0.000000000000000
  0
LINE
  5
F106CB
330
F106CC
100
AcDbEntity
8
Geo
100
AcDbLine
10
-54.0034739454094
20
14.9384122768889
30
0.000000000000000
11
-53.9034739454094
21
14.9298864307727
31
0.000000000000000
  0
LINE
  5
F106CD
330
F106CE
100
AcDbEntity
8
Geo
100
AcDbLine
10
-53.9034739454094
20
14.9298864307727
30
0.000000000000000
11
-53.8034739454094
21
14.9202771414074
31
0.000000000000000
  0
LINE
  5
F106CF
330
F106D0
100
AcDbEntity
8
Geo
100
AcDbLine
10
-53.8034739454094
20
14.9202771414074
30
0.000000000000000
11
-53.7034739454094
21
14.9095857163702
31
0.000000000000000
  0
LINE
  5
F106D1
330
F106D2
100
AcDbEntity
8
Geo
100
AcDbLine
10
-53.7034739454094
20
14.9095857163702
30
0.000000000000000
11
-53.6034739454094
21
14.8978136104893
31
0.000000000000000
  0
LINE
  5
F106D3
330
F106D4
100
AcDbEntity
8
Geo
100
AcDbLine
10
-53.6034739454094
20
14.8978136104893
30
0.000000000000000
11
-53.5034739454094
21
14.8849624256459
31
0.000000000000000
  0
LINE
  5
F106D5
330
F106D6
100
AcDbEntity
8
Geo
100
AcDbLine
10
-53.5034739454094
20
14.8849624256459
30
0.000000000000000
11
-53.4034739454094
21
14.8710339105558
31
0.000000000000000
  0
LINE
  5
F106D7
330
F106D8
100
AcDbEntity
8
Geo
100
AcDbLine
10
-53.4034739454094
20
14.8710339105558
30
0.000000000000000
11
-53.3034739454094
21
14.8560299605321
31
0.000000000000000
  0
LINE
  5
F106D9
330
F106DA
100
AcDbEntity
8
Geo
100
AcDbLine
10
-53.3034739454094
20
14.8560299605321
30
0.000000000000000
11
-53.2034739454094
21
14.8399526172268
31
0.000000000000000
  0
LINE
  5
F106DB
330
F106DC
100
AcDbEntity
8
Geo
100
AcDbLine
10
-53.2034739454094
20
14.8399526172268
30
0.000000000000000
11
-53.1034739454094
21
14.8228040683532
31
0.000000000000000
  0
LINE
  5
F106DD
330
F106DE
100
AcDbEntity
8
Geo
100
AcDbLine
10
-53.1034739454094
20
14.8228040683532
30
0.000000000000000
11
-53.0034739454094
21
14.8045866473880
31
0.000000000000000
  0
LINE
  5
F106DF
330
F106E0
100
AcDbEntity
8
Geo
100
AcDbLine
10
-53.0034739454094
20
14.8045866473880
30
0.000000000000000
11
-52.9034739454094
21
14.7853028332541
31
0.000000000000000
  0
LINE
  5
F106E1
330
F106E2
100
AcDbEntity
8
Geo
100
AcDbLine
10
-52.9034739454094
20
14.7853028332541
30
0.000000000000000
11
-52.8034739454094
21
14.7649552499830
31
0.000000000000000
  0
LINE
  5
F106E3
330
F106E4
100
AcDbEntity
8
Geo
100
AcDbLine
10
-52.8034739454094
20
14.7649552499830
30
0.000000000000000
11
-52.7034739454094
21
14.7435466663578
31
0.000000000000000
  0
LINE
  5
F106E5
330
F106E6
100
AcDbEntity
8
Geo
100
AcDbLine
10
-52.7034739454094
20
14.7435466663578
30
0.000000000000000
11
-52.6034739454094
21
14.7210799955368
31
0.000000000000000
  0
LINE
  5
F106E7
330
F106E8
100
AcDbEntity
8
Geo
100
AcDbLine
10
-52.6034739454094
20
14.7210799955368
30
0.000000000000000
11
-52.5034739454094
21
14.6975582946563
31
0.000000000000000
  0
LINE
  5
F106E9
330
F106EA
100
AcDbEntity
8
Geo
100
AcDbLine
10
-52.5034739454094
20
14.6975582946563
30
0.000000000000000
11
-52.4034739454094
21
14.6729847644154
31
0.000000000000000
  0
LINE
  5
F106EB
330
F106EC
100
AcDbEntity
8
Geo
100
AcDbLine
10
-52.4034739454094
20
14.6729847644154
30
0.000000000000000
11
-52.3034739454094
21
14.6473627486401
31
0.000000000000000
  0
LINE
  5
F106ED
330
F106EE
100
AcDbEntity
8
Geo
100
AcDbLine
10
-52.3034739454094
20
14.6473627486401
30
0.000000000000000
11
-52.2034739454094
21
14.6206957338282
31
0.000000000000000
  0
LINE
  5
F106EF
330
F106F0
100
AcDbEntity
8
Geo
100
AcDbLine
10
-52.2034739454094
20
14.6206957338282
30
0.000000000000000
11
-52.1034739454094
21
14.5929873486752
31
0.000000000000000
  0
LINE
  5
F106F1
330
F106F2
100
AcDbEntity
8
Geo
100
AcDbLine
10
-52.1034739454094
20
14.5929873486752
30
0.000000000000000
11
-52.0034739454094
21
14.5642413635801
31
0.000000000000000
  0
LINE
  5
F106F3
330
F106F4
100
AcDbEntity
8
Geo
100
AcDbLine
10
-52.0034739454094
20
14.5642413635801
30
0.000000000000000
11
-51.9034739454094
21
14.5344616901330
31
0.000000000000000
  0
LINE
  5
F106F5
330
F106F6
100
AcDbEntity
8
Geo
100
AcDbLine
10
-51.9034739454094
20
14.5344616901330
30
0.000000000000000
11
-51.8034739454094
21
14.5036523805819
31
0.000000000000000
  0
LINE
  5
F106F7
330
F106F8
100
AcDbEntity
8
Geo
100
AcDbLine
10
-51.8034739454094
20
14.5036523805819
30
0.000000000000000
11
-51.7034739454094
21
14.4718176272823
31
0.000000000000000
  0
LINE
  5
F106F9
330
F106FA
100
AcDbEntity
8
Geo
100
AcDbLine
10
-51.7034739454094
20
14.4718176272823
30
0.000000000000000
11
-51.6034739454094
21
14.4389617621258
31
0.000000000000000
  0
LINE
  5
F106FB
330
F106FC
100
AcDbEntity
8
Geo
100
AcDbLine
10
-51.6034739454094
20
14.4389617621258
30
0.000000000000000
11
-51.5034739454094
21
14.4050892559514
31
0.000000000000000
  0
LINE
  5
F106FD
330
F106FE
100
AcDbEntity
8
Geo
100
AcDbLine
10
-51.5034739454094
20
14.4050892559514
30
0.000000000000000
11
-51.4034739454094
21
14.3702047179367
31
0.000000000000000
  0
LINE
  5
F106FF
330
F10700
100
AcDbEntity
8
Geo
100
AcDbLine
10
-51.4034739454094
20
14.3702047179367
30
0.000000000000000
11
-51.3034739454094
21
14.3343128949708
31
0.000000000000000
  0
LINE
  5
F10701
330
F10702
100
AcDbEntity
8
Geo
100
AcDbLine
10
-51.3034739454094
20
14.3343128949708
30
0.000000000000000
11
-51.2034739454094
21
14.2974186710085
31
0.000000000000000
  0
LINE
  5
F10703
330
F10704
100
AcDbEntity
8
Geo
100
AcDbLine
10
-51.2034739454094
20
14.2974186710085
30
0.000000000000000
11
-51.1034739454094
21
14.2595270664055
31
0.000000000000000
  0
LINE
  5
F10705
330
F10706
100
AcDbEntity
8
Geo
100
AcDbLine
10
-51.1034739454094
20
14.2595270664055
30
0.000000000000000
11
-51.0034739454094
21
14.2206432372355
31
0.000000000000000
  0
LINE
  5
F10707
330
F10708
100
AcDbEntity
8
Geo
100
AcDbLine
10
-51.0034739454094
20
14.2206432372355
30
0.000000000000000
11
-50.9034739454094
21
14.1807724745883
31
0.000000000000000
  0
LINE
  5
F10709
330
F1070A
100
AcDbEntity
8
Geo
100
AcDbLine
10
-50.9034739454094
20
14.1807724745883
30
0.000000000000000
11
-50.8034739454094
21
14.1399202038500
31
0.000000000000000
  0
LINE
  5
F1070B
330
F1070C
100
AcDbEntity
8
Geo
100
AcDbLine
10
-50.8034739454094
20
14.1399202038500
30
0.000000000000000
11
-50.7034739454094
21
14.0980919839650
31
0.000000000000000
  0
LINE
  5
F1070D
330
F1070E
100
AcDbEntity
8
Geo
100
AcDbLine
10
-50.7034739454094
20
14.0980919839650
30
0.000000000000000
11
-50.6034739454094
21
14.0552935066790
31
0.000000000000000
  0
LINE
  5
F1070F
330
F10710
100
AcDbEntity
8
Geo
100
AcDbLine
10
-50.6034739454094
20
14.0552935066790
30
0.000000000000000
11
-50.5034739454094
21
14.0115305957648
31
0.000000000000000
  0
LINE
  5
F10711
330
F10712
100
AcDbEntity
8
Geo
100
AcDbLine
10
-50.5034739454094
20
14.0115305957648
30
0.000000000000000
11
-50.4034739454094
21
13.9668092062301
31
0.000000000000000
  0
LINE
  5
F10713
330
F10714
100
AcDbEntity
8
Geo
100
AcDbLine
10
-50.4034739454094
20
13.9668092062301
30
0.000000000000000
11
-50.3034739454094
21
13.9211354235066
31
0.000000000000000
  0
LINE
  5
F10715
330
F10716
100
AcDbEntity
8
Geo
100
AcDbLine
10
-50.3034739454094
20
13.9211354235066
30
0.000000000000000
11
-50.2034739454094
21
13.8745154626224
31
0.000000000000000
  0
LINE
  5
F10717
330
F10718
100
AcDbEntity
8
Geo
100
AcDbLine
10
-50.2034739454094
20
13.8745154626224
30
0.000000000000000
11
-50.1034739454094
21
13.8269556673561
31
0.000000000000000
  0
LINE
  5
F10719
330
F1071A
100
AcDbEntity
8
Geo
100
AcDbLine
10
-50.1034739454094
20
13.8269556673561
30
0.000000000000000
11
-50.0034739454094
21
13.7784625093737
31
0.000000000000000
  0
LINE
  5
F1071B
330
F1071C
100
AcDbEntity
8
Geo
100
AcDbLine
10
-50.0034739454094
20
13.7784625093737
30
0.000000000000000
11
-49.9034739454094
21
13.7290425873477
31
0.000000000000000
  0
LINE
  5
F1071D
330
F1071E
100
AcDbEntity
8
Geo
100
AcDbLine
10
-49.9034739454094
20
13.7290425873477
30
0.000000000000000
11
-49.8034739454094
21
13.6787026260595
31
0.000000000000000
  0
LINE
  5
F1071F
330
F10720
100
AcDbEntity
8
Geo
100
AcDbLine
10
-49.8034739454094
20
13.6787026260595
30
0.000000000000000
11
-49.7034739454094
21
13.6274494754841
31
0.000000000000000
  0
LINE
  5
F10721
330
F10722
100
AcDbEntity
8
Geo
100
AcDbLine
10
-49.7034739454094
20
13.6274494754841
30
0.000000000000000
11
-49.6034739454094
21
13.5752901098583
31
0.000000000000000
  0
LINE
  5
F10723
330
F10724
100
AcDbEntity
8
Geo
100
AcDbLine
10
-49.6034739454094
20
13.5752901098583
30
0.000000000000000
11
-49.5034739454094
21
13.5222316267311
31
0.000000000000000
  0
LINE
  5
F10725
330
F10726
100
AcDbEntity
8
Geo
100
AcDbLine
10
-49.5034739454094
20
13.5222316267311
30
0.000000000000000
11
-49.4034739454094
21
13.4682812459988
31
0.000000000000000
  0
LINE
  5
F10727
330
F10728
100
AcDbEntity
8
Geo
100
AcDbLine
10
-49.4034739454094
20
13.4682812459988
30
0.000000000000000
11
-49.3034739454094
21
13.4134463089215
31
0.000000000000000
  0
LINE
  5
F10729
330
F1072A
100
AcDbEntity
8
Geo
100
AcDbLine
10
-49.3034739454094
20
13.4134463089215
30
0.000000000000000
11
-49.2034739454094
21
13.3577342771252
31
0.000000000000000
  0
LINE
  5
F1072B
330
F1072C
100
AcDbEntity
8
Geo
100
AcDbLine
10
-49.2034739454094
20
13.3577342771252
30
0.000000000000000
11
-49.1034739454094
21
13.3011527315855
31
0.000000000000000
  0
LINE
  5
F1072D
330
F1072E
100
AcDbEntity
8
Geo
100
AcDbLine
10
-49.1034739454094
20
13.3011527315855
30
0.000000000000000
11
-49.0034739454094
21
13.2437093715967
31
0.000000000000000
  0
LINE
  5
F1072F
330
F10730
100
AcDbEntity
8
Geo
100
AcDbLine
10
-49.0034739454094
20
13.2437093715967
30
0.000000000000000
11
-48.9034739454094
21
13.1854120137240
31
0.000000000000000
  0
LINE
  5
F10731
330
F10732
100
AcDbEntity
8
Geo
100
AcDbLine
10
-48.9034739454094
20
13.1854120137240
30
0.000000000000000
11
-48.8034739454094
21
13.1262685907396
31
0.000000000000000
  0
LINE
  5
F10733
330
F10734
100
AcDbEntity
8
Geo
100
AcDbLine
10
-48.8034739454094
20
13.1262685907396
30
0.000000000000000
11
-48.7034739454094
21
13.0662871505433
31
0.000000000000000
  0
LINE
  5
F10735
330
F10736
100
AcDbEntity
8
Geo
100
AcDbLine
10
-48.7034739454094
20
13.0662871505433
30
0.000000000000000
11
-48.6034739454094
21
13.0054758550679
31
0.000000000000000
  0
LINE
  5
F10737
330
F10738
100
AcDbEntity
8
Geo
100
AcDbLine
10
-48.6034739454094
20
13.0054758550679
30
0.000000000000000
11
-48.5034739454094
21
12.9438429791678
31
0.000000000000000
  0
LINE
  5
F10739
330
F1073A
100
AcDbEntity
8
Geo
100
AcDbLine
10
-48.5034739454094
20
12.9438429791678
30
0.000000000000000
11
-48.4034739454094
21
12.8813969094936
31
0.000000000000000
  0
LINE
  5
F1073B
330
F1073C
100
AcDbEntity
8
Geo
100
AcDbLine
10
-48.4034739454094
20
12.8813969094936
30
0.000000000000000
11
-48.3034739454094
21
12.8181461433506
31
0.000000000000000
  0
LINE
  5
F1073D
330
F1073E
100
AcDbEntity
8
Geo
100
AcDbLine
10
-48.3034739454094
20
12.8181461433506
30
0.000000000000000
11
-48.2034739454094
21
12.7540992875425
31
0.000000000000000
  0
LINE
  5
F1073F
330
F10740
100
AcDbEntity
8
Geo
100
AcDbLine
10
-48.2034739454094
20
12.7540992875425
30
0.000000000000000
11
-48.1034739454094
21
12.5461778319920
31
0.000000000000000
  0
LINE
  5
F10741
330
F10742
100
AcDbEntity
8
Geo
100
AcDbLine
10
-48.1034739454094
20
12.5461778319920
30
0.000000000000000
11
-48.0034739454094
21
12.5577801376566
31
0.000000000000000
  0
LINE
  5
F10743
330
F10744
100
AcDbEntity
8
Geo
100
AcDbLine
10
-48.0034739454094
20
12.5577801376566
30
0.000000000000000
11
-47.9034739454094
21
12.5719000825878
31
0.000000000000000
  0
LINE
  5
F10745
330
F10746
100
AcDbEntity
8
Geo
100
AcDbLine
10
-47.9034739454094
20
12.5719000825878
30
0.000000000000000
11
-47.8034739454094
21
12.5885159622473
31
0.000000000000000
  0
LINE
  5
F10747
330
F10748
100
AcDbEntity
8
Geo
100
AcDbLine
10
-47.8034739454094
20
12.5885159622473
30
0.000000000000000
11
-47.7034739454094
21
12.6076020402021
31
0.000000000000000
  0
LINE
  5
F10749
330
F1074A
100
AcDbEntity
8
Geo
100
AcDbLine
10
-47.7034739454094
20
12.6076020402021
30
0.000000000000000
11
-47.6034739454094
21
12.6291284911735
31
0.000000000000000
  0
LINE
  5
F1074B
330
F1074C
100
AcDbEntity
8
Geo
100
AcDbLine
10
-47.6034739454094
20
12.6291284911735
30
0.000000000000000
11
-47.5034739454094
21
12.6530613359515
31
0.000000000000000
  0
LINE
  5
F1074D
330
F1074E
100
AcDbEntity
8
Geo
100
AcDbLine
10
-47.5034739454094
20
12.6530613359515
30
0.000000000000000
11
-47.4034739454094
21
12.6793623684189
31
0.000000000000000
  0
LINE
  5
F1074F
330
F10750
100
AcDbEntity
8
Geo
100
AcDbLine
10
-47.4034739454094
20
12.6793623684189
30
0.000000000000000
11
-47.3034739454094
21
12.7079890749689
31
0.000000000000000
  0
LINE
  5
F10751
330
F10752
100
AcDbEntity
8
Geo
100
AcDbLine
10
-47.3034739454094
20
12.7079890749689
30
0.000000000000000
11
-47.2034739454094
21
12.7388945466339
31
0.000000000000000
  0
LINE
  5
F10753
330
F10754
100
AcDbEntity
8
Geo
100
AcDbLine
10
-47.2034739454094
20
12.7388945466339
30
0.000000000000000
11
-47.1034739454094
21
12.7720273842828
31
0.000000000000000
  0
LINE
  5
F10755
330
F10756
100
AcDbEntity
8
Geo
100
AcDbLine
10
-47.1034739454094
20
12.7720273842828
30
0.000000000000000
11
-47.0034739454094
21
12.8073315972809
31
0.000000000000000
  0
LINE
  5
F10757
330
F10758
100
AcDbEntity
8
Geo
100
AcDbLine
10
-47.0034739454094
20
12.8073315972809
30
0.000000000000000
11
-46.9034739454094
21
12.8447464960492
31
0.000000000000000
  0
LINE
  5
F10759
330
F1075A
100
AcDbEntity
8
Geo
100
AcDbLine
10
-46.9034739454094
20
12.8447464960492
30
0.000000000000000
11
-46.8034739454094
21
12.8842065789999
31
0.000000000000000
  0
LINE
  5
F1075B
330
F1075C
100
AcDbEntity
8
Geo
100
AcDbLine
10
-46.8034739454094
20
12.8842065789999
30
0.000000000000000
11
-46.7034739454094
21
12.9256414143681
31
0.000000000000000
  0
LINE
  5
F1075D
330
F1075E
100
AcDbEntity
8
Geo
100
AcDbLine
10
-46.7034739454094
20
12.9256414143681
30
0.000000000000000
11
-46.6034739454094
21
12.9689755175061
31
0.000000000000000
  0
LINE
  5
F1075F
330
F10760
100
AcDbEntity
8
Geo
100
AcDbLine
10
-46.6034739454094
20
12.9689755175061
30
0.000000000000000
11
-46.5034739454094
21
13.0141282242498
31
0.000000000000000
  0
LINE
  5
F10761
330
F10762
100
AcDbEntity
8
Geo
100
AcDbLine
10
-46.5034739454094
20
13.0141282242498
30
0.000000000000000
11
-46.4034739454094
21
13.0610135610168
31
0.000000000000000
  0
LINE
  5
F10763
330
F10764
100
AcDbEntity
8
Geo
100
AcDbLine
10
-46.4034739454094
20
13.0610135610168
30
0.000000000000000
11
-46.3034739454094
21
13.1095401123452
31
0.000000000000000
  0
LINE
  5
F10765
330
F10766
100
AcDbEntity
8
Geo
100
AcDbLine
10
-46.3034739454094
20
13.1095401123452
30
0.000000000000000
11
-46.2034739454094
21
13.1596108866308
31
0.000000000000000
  0
LINE
  5
F10767
330
F10768
100
AcDbEntity
8
Geo
100
AcDbLine
10
-68.2034739454094
20
6.96687369459567
30
0.000000000000000
11
-68.1034739454094
21
8.22854106096635
31
0.000000000000000
  0
LINE
  5
F10769
330
F1076A
100
AcDbEntity
8
Geo
100
AcDbLine
10
-68.2034739454094
20
6.96687369459567
30
0.000000000000000
11
-68.1034739454094
21
6.94810612170037
31
0.000000000000000
  0
LINE
  5
F1076B
330
F1076C
100
AcDbEntity
8
Geo
100
AcDbLine
10
-68.1034739454094
20
8.22768254500409
30
0.000000000000000
11
-68.0034739454094
21
8.74391417992980
31
0.000000000000000
  0
LINE
  5
F1076D
330
F1076E
100
AcDbEntity
8
Geo
100
AcDbLine
10
-68.1034739454094
20
6.94811949231526
30
0.000000000000000
11
-68.0034739454094
21
6.92137038673099
31
0.000000000000000
  0
LINE
  5
F1076F
330
F10770
100
AcDbEntity
8
Geo
100
AcDbLine
10
-68.0034739454094
20
8.74391417992980
30
0.000000000000000
11
-67.9034739454094
21
9.13562658357311
31
0.000000000000000
  0
LINE
  5
F10771
330
F10772
100
AcDbEntity
8
Geo
100
AcDbLine
10
-68.0034739454094
20
6.92137038673099
30
0.000000000000000
11
-67.9034739454094
21
6.88691776194818
31
0.000000000000000
  0
LINE
  5
F10773
330
F10774
100
AcDbEntity
8
Geo
100
AcDbLine
10
-67.9034739454094
20
9.13562658357311
30
0.000000000000000
11
-67.8034739454094
21
9.46192531815903
31
0.000000000000000
  0
LINE
  5
F10775
330
F10776
100
AcDbEntity
8
Geo
100
AcDbLine
10
-67.9034739454094
20
6.88691776194818
30
0.000000000000000
11
-67.8034739454094
21
6.84634785202061
31
0.000000000000000
  0
LINE
  5
F10777
330
F10778
100
AcDbEntity
8
Geo
100
AcDbLine
10
-67.8034739454094
20
9.46192531815903
30
0.000000000000000
11
-67.7034739454094
21
9.74573642011947
31
0.000000000000000
  0
LINE
  5
F10779
330
F1077A
100
AcDbEntity
8
Geo
100
AcDbLine
10
-67.8034739454094
20
6.84634785202061
30
0.000000000000000
11
-67.7034739454094
21
6.80059684085509
31
0.000000000000000
  0
LINE
  5
F1077B
330
F1077C
100
AcDbEntity
8
Geo
100
AcDbLine
10
-67.7034739454094
20
9.74573642011947
30
0.000000000000000
11
-67.6034739454094
21
9.99882590766229
31
0.000000000000000
  0
LINE
  5
F1077D
330
F1077E
100
AcDbEntity
8
Geo
100
AcDbLine
10
-67.7034739454094
20
6.80059684085509
30
0.000000000000000
11
-67.6034739454094
21
6.75031032326656
31
0.000000000000000
  0
LINE
  5
F1077F
330
F10780
100
AcDbEntity
8
Geo
100
AcDbLine
10
-67.6034739454094
20
9.99882590766229
30
0.000000000000000
11
-67.5034739454094
21
10.2281842221114
31
0.000000000000000
  0
LINE
  5
F10781
330
F10782
100
AcDbEntity
8
Geo
100
AcDbLine
10
-67.6034739454094
20
6.75031032326656
30
0.000000000000000
11
-67.5034739454094
21
6.69597317047699
31
0.000000000000000
  0
LINE
  5
F10783
330
F10784
100
AcDbEntity
8
Geo
100
AcDbLine
10
-67.5034739454094
20
10.2281842221114
30
0.000000000000000
11
-67.4034739454094
21
10.4383643874867
31
0.000000000000000
  0
LINE
  5
F10785
330
F10786
100
AcDbEntity
8
Geo
100
AcDbLine
10
-67.5034739454094
20
6.69597317047699
30
0.000000000000000
11
-67.4034739454094
21
6.63797007981771
31
0.000000000000000
  0
LINE
  5
F10787
330
F10788
100
AcDbEntity
8
Geo
100
AcDbLine
10
-67.4034739454094
20
10.4383643874867
30
0.000000000000000
11
-67.3034739454094
21
10.6325264845511
31
0.000000000000000
  0
LINE
  5
F10789
330
F1078A
100
AcDbEntity
8
Geo
100
AcDbLine
10
-67.4034739454094
20
6.63797007981771
30
0.000000000000000
11
-67.3034739454094
21
6.57661825258457
31
0.000000000000000
  0
LINE
  5
F1078B
330
F1078C
100
AcDbEntity
8
Geo
100
AcDbLine
10
-67.3034739454094
20
10.6325264845511
30
0.000000000000000
11
-67.2034739454094
21
10.8129687400723
31
0.000000000000000
  0
LINE
  5
F1078D
330
F1078E
100
AcDbEntity
8
Geo
100
AcDbLine
10
-67.3034739454094
20
6.57661825258457
30
0.000000000000000
11
-67.2034739454094
21
6.51218682764966
31
0.000000000000000
  0
LINE
  5
F1078F
330
F10790
100
AcDbEntity
8
Geo
100
AcDbLine
10
-67.2034739454094
20
10.8129687400723
30
0.000000000000000
11
-67.1034739454094
21
10.9814236538955
31
0.000000000000000
  0
LINE
  5
F10791
330
F10792
100
AcDbEntity
8
Geo
100
AcDbLine
10
-67.2034739454094
20
6.51218682764966
30
0.000000000000000
11
-67.1034739454094
21
6.44490927357378
31
0.000000000000000
  0
LINE
  5
F10793
330
F10794
100
AcDbEntity
8
Geo
100
AcDbLine
10
-67.1034739454094
20
10.9814236538955
30
0.000000000000000
11
-67.0034739454094
21
11.1392349766171
31
0.000000000000000
  0
LINE
  5
F10795
330
F10796
100
AcDbEntity
8
Geo
100
AcDbLine
10
-67.1034739454094
20
6.44490927357378
30
0.000000000000000
11
-67.0034739454094
21
6.37499171871499
31
0.000000000000000
  0
LINE
  5
F10797
330
F10798
100
AcDbEntity
8
Geo
100
AcDbLine
10
-67.0034739454094
20
11.1392349766171
30
0.000000000000000
11
-66.9034739454094
21
11.2874693771517
31
0.000000000000000
  0
LINE
  5
F10799
330
F1079A
100
AcDbEntity
8
Geo
100
AcDbLine
10
-67.0034739454094
20
6.37499171871499
30
0.000000000000000
11
-66.9034739454094
21
6.30261878745088
31
0.000000000000000
  0
LINE
  5
F1079B
330
F1079C
100
AcDbEntity
8
Geo
100
AcDbLine
10
-66.9034739454094
20
11.2874693771517
30
0.000000000000000
11
-66.8034739454094
21
11.4269900484179
31
0.000000000000000
  0
LINE
  5
F1079D
330
F1079E
100
AcDbEntity
8
Geo
100
AcDbLine
10
-66.9034739454094
20
6.30261878745088
30
0.000000000000000
11
-66.8034739454094
21
6.22795782790229
31
0.000000000000000
  0
LINE
  5
F1079F
330
F107A0
100
AcDbEntity
8
Geo
100
AcDbLine
10
-66.8034739454094
20
11.4269900484179
30
0.000000000000000
11
-66.7034739454094
21
11.5585070018747
31
0.000000000000000
  0
LINE
  5
F107A1
330
F107A2
100
AcDbEntity
8
Geo
100
AcDbLine
10
-66.8034739454094
20
6.22795782790229
30
0.000000000000000
11
-66.7034739454094
21
6.15116205982451
31
0.000000000000000
  0
LINE
  5
F107A3
330
F107A4
100
AcDbEntity
8
Geo
100
AcDbLine
10
-66.7034739454094
20
11.5585070018747
30
0.000000000000000
11
-66.6034739454094
21
11.6826124860564
31
0.000000000000000
  0
LINE
  5
F107A5
330
F107A6
100
AcDbEntity
8
Geo
100
AcDbLine
10
-66.7034739454094
20
6.15116205982451
30
0.000000000000000
11
-66.6034739454094
21
6.07237297309074
31
0.000000000000000
  0
LINE
  5
F107A7
330
F107A8
100
AcDbEntity
8
Geo
100
AcDbLine
10
-66.6034739454094
20
11.6826124860564
30
0.000000000000000
11
-66.5034739454094
21
11.7998065776094
31
0.000000000000000
  0
LINE
  5
F107A9
330
F107AA
100
AcDbEntity
8
Geo
100
AcDbLine
10
-66.6034739454094
20
6.07237297309074
30
0.000000000000000
11
-66.5034739454094
21
5.99172219130368
31
0.000000000000000
  0
LINE
  5
F107AB
330
F107AC
100
AcDbEntity
8
Geo
100
AcDbLine
10
-66.5034739454094
20
11.7998065776094
30
0.000000000000000
11
-66.4034739454094
21
11.9105160851154
31
0.000000000000000
  0
LINE
  5
F107AD
330
F107AE
100
AcDbEntity
8
Geo
100
AcDbLine
10
-66.5034739454094
20
5.99172219130368
30
0.000000000000000
11
-66.4034739454094
21
5.90933294439500
31
0.000000000000000
  0
LINE
  5
F107AF
330
F107B0
100
AcDbEntity
8
Geo
100
AcDbLine
10
-66.4034739454094
20
11.9105160851154
30
0.000000000000000
11
-66.3034739454094
21
12.0151087846464
31
0.000000000000000
  0
LINE
  5
F107B1
330
F107B2
100
AcDbEntity
8
Geo
100
AcDbLine
10
-66.4034739454094
20
5.90933294439500
30
0.000000000000000
11
-66.3034739454094
21
5.82532124938828
31
0.000000000000000
  0
LINE
  5
F107B3
330
F107B4
100
AcDbEntity
8
Geo
100
AcDbLine
10
-66.3034739454094
20
12.0151087846464
30
0.000000000000000
11
-66.2034739454094
21
12.1139043228082
31
0.000000000000000
  0
LINE
  5
F107B5
330
F107B6
100
AcDbEntity
8
Geo
100
AcDbLine
10
-66.3034739454094
20
5.82532124938828
30
0.000000000000000
11
-66.2034739454094
21
5.73979686936118
31
0.000000000000000
  0
LINE
  5
F107B7
330
F107B8
100
AcDbEntity
8
Geo
100
AcDbLine
10
-66.2034739454094
20
12.1139043228082
30
0.000000000000000
11
-66.1034739454094
21
12.2071826935021
31
0.000000000000000
  0
LINE
  5
F107B9
330
F107BA
100
AcDbEntity
8
Geo
100
AcDbLine
10
-66.2034739454094
20
5.73979686936118
30
0.000000000000000
11
-66.1034739454094
21
5.65286410111887
31
0.000000000000000
  0
LINE
  5
F107BB
330
F107BC
100
AcDbEntity
8
Geo
100
AcDbLine
10
-66.1034739454094
20
12.2071826935021
30
0.000000000000000
11
-66.0034739454094
21
12.2951909170171
31
0.000000000000000
  0
LINE
  5
F107BD
330
F107BE
100
AcDbEntity
8
Geo
100
AcDbLine
10
-66.1034739454094
20
5.65286410111887
30
0.000000000000000
11
-66.0034739454094
21
5.56462242869550
31
0.000000000000000
  0
LINE
  5
F107BF
330
F107C0
100
AcDbEntity
8
Geo
100
AcDbLine
10
-66.0034739454094
20
12.2951909170171
30
0.000000000000000
11
-65.9034739454094
21
12.3781483661975
31
0.000000000000000
  0
LINE
  5
F107C1
330
F107C2
100
AcDbEntity
8
Geo
100
AcDbLine
10
-66.0034739454094
20
5.56462242869550
30
0.000000000000000
11
-65.9034739454094
21
5.47516707041484
31
0.000000000000000
  0
LINE
  5
F107C3
330
F107C4
100
AcDbEntity
8
Geo
100
AcDbLine
10
-65.9034739454094
20
12.3781483661975
30
0.000000000000000
11
-65.8034739454094
21
12.4562510599632
31
0.000000000000000
  0
LINE
  5
F107C5
330
F107C6
100
AcDbEntity
8
Geo
100
AcDbLine
10
-65.9034739454094
20
5.47516707041484
30
0.000000000000000
11
-65.8034739454094
21
5.38458944053959
31
0.000000000000000
  0
LINE
  5
F107C7
330
F107C8
100
AcDbEntity
8
Geo
100
AcDbLine
10
-65.8034739454094
20
12.4562510599632
30
0.000000000000000
11
-65.7034739454094
21
12.5296751585388
31
0.000000000000000
  0
LINE
  5
F107C9
330
F107CA
100
AcDbEntity
8
Geo
100
AcDbLine
10
-65.8034739454094
20
5.38458944053959
30
0.000000000000000
11
-65.7034739454094
21
5.29297754167316
31
0.000000000000000
  0
LINE
  5
F107CB
330
F107CC
100
AcDbEntity
8
Geo
100
AcDbLine
10
-65.7034739454094
20
12.5296751585388
30
0.000000000000000
11
-65.6034739454094
21
12.5985798343740
31
0.000000000000000
  0
LINE
  5
F107CD
330
F107CE
100
AcDbEntity
8
Geo
100
AcDbLine
10
-65.7034739454094
20
5.29297754167316
30
0.000000000000000
11
-65.6034739454094
21
5.20041630048952
31
0.000000000000000
  0
LINE
  5
F107CF
330
F107D0
100
AcDbEntity
8
Geo
100
AcDbLine
10
-65.6034739454094
20
12.5985798343740
30
0.000000000000000
11
-65.5034739454094
21
12.6631096496299
31
0.000000000000000
  0
LINE
  5
F107D1
330
F107D2
100
AcDbEntity
8
Geo
100
AcDbLine
10
-65.6034739454094
20
5.20041630048952
30
0.000000000000000
11
-65.5034739454094
21
5.10698785668494
31
0.000000000000000
  0
LINE
  5
F107D3
330
F107D4
100
AcDbEntity
8
Geo
100
AcDbLine
10
-65.5034739454094
20
12.6631096496299
30
0.000000000000000
11
-65.4034739454094
21
12.7233965398732
31
0.000000000000000
  0
LINE
  5
F107D5
330
F107D6
100
AcDbEntity
8
Geo
100
AcDbLine
10
-65.5034739454094
20
5.10698785668494
30
0.000000000000000
11
-65.4034739454094
21
5.01277181301455
31
0.000000000000000
  0
LINE
  5
F107D7
330
F107D8
100
AcDbEntity
8
Geo
100
AcDbLine
10
-65.4034739454094
20
12.7233965398732
30
0.000000000000000
11
-65.3034739454094
21
12.7795614806818
31
0.000000000000000
  0
LINE
  5
F107D9
330
F107DA
100
AcDbEntity
8
Geo
100
AcDbLine
10
-65.4034739454094
20
5.01277181301455
30
0.000000000000000
11
-65.3034739454094
21
4.91784545272155
31
0.000000000000000
  0
LINE
  5
F107DB
330
F107DC
100
AcDbEntity
8
Geo
100
AcDbLine
10
-65.3034739454094
20
12.7795614806818
30
0.000000000000000
11
-65.2034739454094
21
12.8317158968160
31
0.000000000000000
  0
LINE
  5
F107DD
330
F107DE
100
AcDbEntity
8
Geo
100
AcDbLine
10
-65.3034739454094
20
4.91784545272155
30
0.000000000000000
11
-65.2034739454094
21
4.82228392946284
31
0.000000000000000
  0
LINE
  5
F107DF
330
F107E0
100
AcDbEntity
8
Geo
100
AcDbLine
10
-65.2034739454094
20
12.8317158968160
30
0.000000000000000
11
-65.1034739454094
21
12.8799628607848
31
0.000000000000000
  0
LINE
  5
F107E1
330
F107E2
100
AcDbEntity
8
Geo
100
AcDbLine
10
-65.2034739454094
20
4.82228392946284
30
0.000000000000000
11
-65.1034739454094
21
4.72616043389393
31
0.000000000000000
  0
LINE
  5
F107E3
330
F107E4
100
AcDbEntity
8
Geo
100
AcDbLine
10
-65.1034739454094
20
12.8799628607848
30
0.000000000000000
11
-65.0034739454094
21
12.9243981178943
31
0.000000000000000
  0
LINE
  5
F107E5
330
F107E6
100
AcDbEntity
8
Geo
100
AcDbLine
10
-65.1034739454094
20
4.72616043389393
30
0.000000000000000
11
-65.0034739454094
21
4.62954634033324
31
0.000000000000000
  0
LINE
  5
F107E7
330
F107E8
100
AcDbEntity
8
Geo
100
AcDbLine
10
-65.0034739454094
20
12.9243981178943
30
0.000000000000000
11
-64.9034739454094
21
12.9651109673878
31
0.000000000000000
  0
LINE
  5
F107E9
330
F107EA
100
AcDbEntity
8
Geo
100
AcDbLine
10
-65.0034739454094
20
4.62954634033324
30
0.000000000000000
11
-64.9034739454094
21
4.53251133633561
31
0.000000000000000
  0
LINE
  5
F107EB
330
F107EC
100
AcDbEntity
8
Geo
100
AcDbLine
10
-64.9034739454094
20
12.9651109673878
30
0.000000000000000
11
-64.8034739454094
21
13.0021850234975
31
0.000000000000000
  0
LINE
  5
F107ED
330
F107EE
100
AcDbEntity
8
Geo
100
AcDbLine
10
-64.9034739454094
20
4.53251133633561
30
0.000000000000000
11
-64.8034739454094
21
4.43512353753109
31
0.000000000000000
  0
LINE
  5
F107EF
330
F107F0
100
AcDbEntity
8
Geo
100
AcDbLine
10
-64.8034739454094
20
13.0021850234975
30
0.000000000000000
11
-64.7034739454094
21
13.0356988757053
31
0.000000000000000
  0
LINE
  5
F107F1
330
F107F2
100
AcDbEntity
8
Geo
100
AcDbLine
10
-64.8034739454094
20
4.43512353753109
30
0.000000000000000
11
-64.7034739454094
21
4.33744958970253
31
0.000000000000000
  0
LINE
  5
F107F3
330
F107F4
100
AcDbEntity
8
Geo
100
AcDbLine
10
-64.7034739454094
20
13.0356988757053
30
0.000000000000000
11
-64.6034739454094
21
13.0657266639511
31
0.000000000000000
  0
LINE
  5
F107F5
330
F107F6
100
AcDbEntity
8
Geo
100
AcDbLine
10
-64.7034739454094
20
4.33744958970253
30
0.000000000000000
11
-64.6034739454094
21
4.23955475976469
31
0.000000000000000
  0
LINE
  5
F107F7
330
F107F8
100
AcDbEntity
8
Geo
100
AcDbLine
10
-64.6034739454094
20
13.0657266639511
30
0.000000000000000
11
-64.5034739454094
21
13.0923385817034
31
0.000000000000000
  0
LINE
  5
F107F9
330
F107FA
100
AcDbEntity
8
Geo
100
AcDbLine
10
-64.6034739454094
20
4.23955475976469
30
0.000000000000000
11
-64.5034739454094
21
4.14150301705261
31
0.000000000000000
  0
LINE
  5
F107FB
330
F107FC
100
AcDbEntity
8
Geo
100
AcDbLine
10
-64.5034739454094
20
13.0923385817034
30
0.000000000000000
11
-64.4034739454094
21
13.1156013175553
31
0.000000000000000
  0
LINE
  5
F107FD
330
F107FE
100
AcDbEntity
8
Geo
100
AcDbLine
10
-64.5034739454094
20
4.14150301705261
30
0.000000000000000
11
-64.4034739454094
21
4.04335710611783
31
0.000000000000000
  0
LINE
  5
F107FF
330
F10800
100
AcDbEntity
8
Geo
100
AcDbLine
10
-64.4034739454094
20
13.1156013175553
30
0.000000000000000
11
-64.3034739454094
21
13.1355784441905
31
0.000000000000000
  0
LINE
  5
F10801
330
F10802
100
AcDbEntity
8
Geo
100
AcDbLine
10
-64.4034739454094
20
4.04335710611783
30
0.000000000000000
11
-64.3034739454094
21
3.94517861205699
31
0.000000000000000
  0
LINE
  5
F10803
330
F10804
100
AcDbEntity
8
Geo
100
AcDbLine
10
-64.3034739454094
20
13.1355784441905
30
0.000000000000000
11
-64.2034739454094
21
13.1523307621069
31
0.000000000000000
  0
LINE
  5
F10805
330
F10806
100
AcDbEntity
8
Geo
100
AcDbLine
10
-64.3034739454094
20
3.94517861205699
30
0.000000000000000
11
-64.2034739454094
21
3.84702801925314
31
0.000000000000000
  0
LINE
  5
F10807
330
F10808
100
AcDbEntity
8
Geo
100
AcDbLine
10
-64.2034739454094
20
13.1523307621069
30
0.000000000000000
11
-64.1034739454094
21
13.1659166042839
31
0.000000000000000
  0
LINE
  5
F10809
330
F1080A
100
AcDbEntity
8
Geo
100
AcDbLine
10
-64.2034739454094
20
3.84702801925314
30
0.000000000000000
11
-64.1034739454094
21
3.74896476428914
31
0.000000000000000
  0
LINE
  5
F1080B
330
F1080C
100
AcDbEntity
8
Geo
100
AcDbLine
10
-64.1034739454094
20
13.1659166042839
30
0.000000000000000
11
-64.0034739454094
21
13.1763921070098
31
0.000000000000000
  0
LINE
  5
F1080D
330
F1080E
100
AcDbEntity
8
Geo
100
AcDbLine
10
-64.1034739454094
20
3.74896476428914
30
0.000000000000000
11
-64.0034739454094
21
3.65104728369077
31
0.000000000000000
  0
LINE
  5
F1080F
330
F10810
100
AcDbEntity
8
Geo
100
AcDbLine
10
-64.0034739454094
20
13.1763921070098
30
0.000000000000000
11
-63.9034739454094
21
13.1838114512809
31
0.000000000000000
  0
LINE
  5
F10811
330
F10812
100
AcDbEntity
8
Geo
100
AcDbLine
10
-64.0034739454094
20
3.65104728369077
30
0.000000000000000
11
-63.9034739454094
21
3.55333305707147
31
0.000000000000000
  0
LINE
  5
F10813
330
F10814
100
AcDbEntity
8
Geo
100
AcDbLine
10
-63.9034739454094
20
13.1838114512809
30
0.000000000000000
11
-63.8034739454094
21
13.1882270785199
31
0.000000000000000
  0
LINE
  5
F10815
330
F10816
100
AcDbEntity
8
Geo
100
AcDbLine
10
-63.9034739454094
20
3.55333305707147
30
0.000000000000000
11
-63.8034739454094
21
3.45587864617784
31
0.000000000000000
  0
LINE
  5
F10817
330
F10818
100
AcDbEntity
8
Geo
100
AcDbLine
10
-63.8034739454094
20
13.1882270785199
30
0.000000000000000
11
-63.7034739454094
21
13.1896898838130
31
0.000000000000000
  0
LINE
  5
F10819
330
F1081A
100
AcDbEntity
8
Geo
100
AcDbLine
10
-63.8034739454094
20
3.45587864617784
30
0.000000000000000
11
-63.7034739454094
21
3.35873973027295
31
0.000000000000000
  0
LINE
  5
F1081B
330
F1081C
100
AcDbEntity
8
Geo
100
AcDbLine
10
-63.7034739454094
20
13.1896898838130
30
0.000000000000000
11
-63.6034739454094
21
13.1882493894029
31
0.000000000000000
  0
LINE
  5
F1081D
330
F1081E
100
AcDbEntity
8
Geo
100
AcDbLine
10
-63.7034739454094
20
3.35873973027295
30
0.000000000000000
11
-63.6034739454094
21
3.26197113824180
31
0.000000000000000
  0
LINE
  5
F1081F
330
F10820
100
AcDbEntity
8
Geo
100
AcDbLine
10
-63.6034739454094
20
13.1882493894029
30
0.000000000000000
11
-63.5034739454094
21
13.1839539007912
31
0.000000000000000
  0
LINE
  5
F10821
330
F10822
100
AcDbEntity
8
Geo
100
AcDbLine
10
-63.6034739454094
20
3.26197113824180
30
0.000000000000000
11
-63.5034739454094
21
3.16562687775756
31
0.000000000000000
  0
LINE
  5
F10823
330
F10824
100
AcDbEntity
8
Geo
100
AcDbLine
10
-63.5034739454094
20
13.1839539007912
30
0.000000000000000
11
-63.4034739454094
21
13.1768506474811
31
0.000000000000000
  0
LINE
  5
F10825
330
F10826
100
AcDbEntity
8
Geo
100
AcDbLine
10
-63.5034739454094
20
3.16562687775756
30
0.000000000000000
11
-63.4034739454094
21
3.06976016180842
31
0.000000000000000
  0
LINE
  5
F10827
330
F10828
100
AcDbEntity
8
Geo
100
AcDbLine
10
-63.4034739454094
20
13.1768506474811
30
0.000000000000000
11
-63.3034739454094
21
13.1669859101156
31
0.000000000000000
  0
LINE
  5
F10829
330
F1082A
100
AcDbEntity
8
Geo
100
AcDbLine
10
-63.4034739454094
20
3.06976016180842
30
0.000000000000000
11
-63.3034739454094
21
2.97442343285099
31
0.000000000000000
  0
LINE
  5
F1082B
330
F1082C
100
AcDbEntity
8
Geo
100
AcDbLine
10
-63.3034739454094
20
13.1669859101156
30
0.000000000000000
11
-63.2034739454094
21
13.1544051355373
31
0.000000000000000
  0
LINE
  5
F1082D
330
F1082E
100
AcDbEntity
8
Geo
100
AcDbLine
10
-63.3034739454094
20
2.97442343285099
30
0.000000000000000
11
-63.2034739454094
21
2.87966838482694
31
0.000000000000000
  0
LINE
  5
F1082F
330
F10830
100
AcDbEntity
8
Geo
100
AcDbLine
10
-63.2034739454094
20
13.1544051355373
30
0.000000000000000
11
-63.1034739454094
21
13.1391530410963
31
0.000000000000000
  0
LINE
  5
F10831
330
F10832
100
AcDbEntity
8
Geo
100
AcDbLine
10
-63.2034739454094
20
2.87966838482694
30
0.000000000000000
11
-63.1034739454094
21
2.78554598325447
31
0.000000000000000
  0
LINE
  5
F10833
330
F10834
100
AcDbEntity
8
Geo
100
AcDbLine
10
-63.1034739454094
20
13.1391530410963
30
0.000000000000000
11
-63.0034739454094
21
13.1212737093672
31
0.000000000000000
  0
LINE
  5
F10835
330
F10836
100
AcDbEntity
8
Geo
100
AcDbLine
10
-63.1034739454094
20
2.78554598325447
30
0.000000000000000
11
-63.0034739454094
21
2.69210648358375
31
0.000000000000000
  0
LINE
  5
F10837
330
F10838
100
AcDbEntity
8
Geo
100
AcDbLine
10
-63.0034739454094
20
13.1212737093672
30
0.000000000000000
11
-62.9034739454094
21
13.1008106742900
31
0.000000000000000
  0
LINE
  5
F10839
330
F1083A
100
AcDbEntity
8
Geo
100
AcDbLine
10
-63.0034739454094
20
2.69210648358375
30
0.000000000000000
11
-62.9034739454094
21
2.59939944798650
31
0.000000000000000
  0
LINE
  5
F1083B
330
F1083C
100
AcDbEntity
8
Geo
100
AcDbLine
10
-62.9034739454094
20
13.1008106742900
30
0.000000000000000
11
-62.8034739454094
21
13.0778069996274
31
0.000000000000000
  0
LINE
  5
F1083D
330
F1083E
100
AcDbEntity
8
Geo
100
AcDbLine
10
-62.9034739454094
20
2.59939944798650
30
0.000000000000000
11
-62.8034739454094
21
2.50747376073301
31
0.000000000000000
  0
LINE
  5
F1083F
330
F10840
100
AcDbEntity
8
Geo
100
AcDbLine
10
-62.8034739454094
20
13.0778069996274
30
0.000000000000000
11
-62.7034739454094
21
13.0523053505247
31
0.000000000000000
  0
LINE
  5
F10841
330
F10842
100
AcDbEntity
8
Geo
100
AcDbLine
10
-62.8034739454094
20
2.50747376073301
30
0.000000000000000
11
-62.7034739454094
21
2.41637764229488
31
0.000000000000000
  0
LINE
  5
F10843
330
F10844
100
AcDbEntity
8
Geo
100
AcDbLine
10
-62.7034739454094
20
13.0523053505247
30
0.000000000000000
11
-62.6034739454094
21
13.0243480588651
31
0.000000000000000
  0
LINE
  5
F10845
330
F10846
100
AcDbEntity
8
Geo
100
AcDbLine
10
-62.7034739454094
20
2.41637764229488
30
0.000000000000000
11
-62.6034739454094
21
2.32615866229922
31
0.000000000000000
  0
LINE
  5
F10847
330
F10848
100
AcDbEntity
8
Geo
100
AcDbLine
10
-62.6034739454094
20
13.0243480588651
30
0.000000000000000
11
-62.5034739454094
21
12.9939771830351
31
0.000000000000000
  0
LINE
  5
F10849
330
F1084A
100
AcDbEntity
8
Geo
100
AcDbLine
10
-62.6034739454094
20
2.32615866229922
30
0.000000000000000
11
-62.5034739454094
21
2.23686375144828
31
0.000000000000000
  0
LINE
  5
F1084B
330
F1084C
100
AcDbEntity
8
Geo
100
AcDbLine
10
-62.5034739454094
20
12.9939771830351
30
0.000000000000000
11
-62.4034739454094
21
12.9612345626459
31
0.000000000000000
  0
LINE
  5
F1084D
330
F1084E
100
AcDbEntity
8
Geo
100
AcDbLine
10
-62.5034739454094
20
2.23686375144828
30
0.000000000000000
11
-62.4034739454094
21
2.14853921250872
31
0.000000000000000
  0
LINE
  5
F1084F
330
F10850
100
AcDbEntity
8
Geo
100
AcDbLine
10
-62.4034739454094
20
12.9612345626459
30
0.000000000000000
11
-62.3034739454094
21
12.9261618686933
31
0.000000000000000
  0
LINE
  5
F10851
330
F10852
100
AcDbEntity
8
Geo
100
AcDbLine
10
-62.4034739454094
20
2.14853921250872
30
0.000000000000000
11
-62.3034739454094
21
2.06123073046571
31
0.000000000000000
  0
LINE
  5
F10853
330
F10854
100
AcDbEntity
8
Geo
100
AcDbLine
10
-62.3034739454094
20
12.9261618686933
30
0.000000000000000
11
-62.2034739454094
21
12.8888006495912
31
0.000000000000000
  0
LINE
  5
F10855
330
F10856
100
AcDbEntity
8
Geo
100
AcDbLine
10
-62.3034739454094
20
2.06123073046571
30
0.000000000000000
11
-62.2034739454094
21
1.97498338192950
31
0.000000000000000
  0
LINE
  5
F10857
330
F10858
100
AcDbEntity
8
Geo
100
AcDbLine
10
-62.2034739454094
20
12.8888006495912
30
0.000000000000000
11
-62.1034739454094
21
12.8491923734633
31
0.000000000000000
  0
LINE
  5
F10859
330
F1085A
100
AcDbEntity
8
Geo
100
AcDbLine
10
-62.2034739454094
20
1.97498338192950
30
0.000000000000000
11
-62.1034739454094
21
1.88984164387493
31
0.000000000000000
  0
LINE
  5
F1085B
330
F1085C
100
AcDbEntity
8
Geo
100
AcDbLine
10
-62.1034739454094
20
12.8491923734633
30
0.000000000000000
11
-62.0034739454094
21
12.8073784670403
31
0.000000000000000
  0
LINE
  5
F1085D
330
F1085E
100
AcDbEntity
8
Geo
100
AcDbLine
10
-62.1034739454094
20
1.88984164387493
30
0.000000000000000
11
-62.0034739454094
21
1.80584940178867
31
0.000000000000000
  0
LINE
  5
F1085F
330
F10860
100
AcDbEntity
8
Geo
100
AcDbLine
10
-62.0034739454094
20
12.8073784670403
30
0.000000000000000
11
-61.9034739454094
21
12.7634003514729
31
0.000000000000000
  0
LINE
  5
F10861
330
F10862
100
AcDbEntity
8
Geo
100
AcDbLine
10
-62.0034739454094
20
1.80584940178867
30
0.000000000000000
11
-61.9034739454094
21
1.72304995729336
31
0.000000000000000
  0
LINE
  5
F10863
330
F10864
100
AcDbEntity
8
Geo
100
AcDbLine
10
-61.9034739454094
20
12.7634003514729
30
0.000000000000000
11
-61.8034739454094
21
12.7172994753418
31
0.000000000000000
  0
LINE
  5
F10865
330
F10866
100
AcDbEntity
8
Geo
100
AcDbLine
10
-61.9034739454094
20
1.72304995729336
30
0.000000000000000
11
-61.8034739454094
21
1.64148603531331
31
0.000000000000000
  0
LINE
  5
F10867
330
F10868
100
AcDbEntity
8
Geo
100
AcDbLine
10
-61.8034739454094
20
12.7172994753418
30
0.000000000000000
11
-61.7034739454094
21
12.6691173451156
31
0.000000000000000
  0
LINE
  5
F10869
330
F1086A
100
AcDbEntity
8
Geo
100
AcDbLine
10
-61.8034739454094
20
1.64148603531331
30
0.000000000000000
11
-61.7034739454094
21
1.56119979084233
31
0.000000000000000
  0
LINE
  5
F1086B
330
F1086C
100
AcDbEntity
8
Geo
100
AcDbLine
10
-61.7034739454094
20
12.6691173451156
30
0.000000000000000
11
-61.6034739454094
21
12.6188955532875
31
0.000000000000000
  0
LINE
  5
F1086D
330
F1086E
100
AcDbEntity
8
Geo
100
AcDbLine
10
-61.7034739454094
20
1.56119979084233
30
0.000000000000000
11
-61.6034739454094
21
1.48223281537057
31
0.000000000000000
  0
LINE
  5
F1086F
330
F10870
100
AcDbEntity
8
Geo
100
AcDbLine
10
-61.6034739454094
20
12.6188955532875
30
0.000000000000000
11
-61.5034739454094
21
12.5666758043958
31
0.000000000000000
  0
LINE
  5
F10871
330
F10872
100
AcDbEntity
8
Geo
100
AcDbLine
10
-61.6034739454094
20
1.48223281537057
30
0.000000000000000
11
-61.5034739454094
21
1.40462614302437
31
0.000000000000000
  0
LINE
  5
F10873
330
F10874
100
AcDbEntity
8
Geo
100
AcDbLine
10
-61.5034739454094
20
12.5666758043958
30
0.000000000000000
11
-61.4034739454094
21
12.5124999391192
31
0.000000000000000
  0
LINE
  5
F10875
330
F10876
100
AcDbEntity
8
Geo
100
AcDbLine
10
-61.5034739454094
20
1.40462614302437
30
0.000000000000000
11
-61.4034739454094
21
1.32842025647021
31
0.000000000000000
  0
LINE
  5
F10877
330
F10878
100
AcDbEntity
8
Geo
100
AcDbLine
10
-61.4034739454094
20
12.5124999391192
30
0.000000000000000
11
-61.3034739454094
21
12.4564099566164
31
0.000000000000000
  0
LINE
  5
F10879
330
F1087A
100
AcDbEntity
8
Geo
100
AcDbLine
10
-61.4034739454094
20
1.32842025647021
30
0.000000000000000
11
-61.3034739454094
21
1.25365509263177
31
0.000000000000000
  0
LINE
  5
F1087B
330
F1087C
100
AcDbEntity
8
Geo
100
AcDbLine
10
-61.3034739454094
20
12.4564099566164
30
0.000000000000000
11
-61.2034739454094
21
12.3984480352689
31
0.000000000000000
  0
LINE
  5
F1087D
330
F1087E
100
AcDbEntity
8
Geo
100
AcDbLine
10
-61.3034739454094
20
1.25365509263177
30
0.000000000000000
11
-61.2034739454094
21
1.18037004826714
31
0.000000000000000
  0
LINE
  5
F1087F
330
F10880
100
AcDbEntity
8
Geo
100
AcDbLine
10
-61.2034739454094
20
12.3984480352689
30
0.000000000000000
11
-61.1034739454094
21
12.3386565519709
31
0.000000000000000
  0
LINE
  5
F10881
330
F10882
100
AcDbEntity
8
Geo
100
AcDbLine
10
-61.2034739454094
20
1.18037004826714
30
0.000000000000000
11
-61.1034739454094
21
1.10860398545169
31
0.000000000000000
  0
LINE
  5
F10883
330
F10884
100
AcDbEntity
8
Geo
100
AcDbLine
10
-61.1034739454094
20
12.3386565519709
30
0.000000000000000
11
-61.0034739454094
21
12.2770781000985
31
0.000000000000000
  0
LINE
  5
F10885
330
F10886
100
AcDbEntity
8
Geo
100
AcDbLine
10
-61.1034739454094
20
1.10860398545169
30
0.000000000000000
11
-61.0034739454094
21
1.03839523701070
31
0.000000000000000
  0
LINE
  5
F10887
330
F10888
100
AcDbEntity
8
Geo
100
AcDbLine
10
-61.0034739454094
20
12.2770781000985
30
0.000000000000000
11
-60.9034739454094
21
12.2137555062802
31
0.000000000000000
  0
LINE
  5
F10889
330
F1088A
100
AcDbEntity
8
Geo
100
AcDbLine
10
-61.0034739454094
20
1.03839523701070
30
0.000000000000000
11
-60.9034739454094
21
0.969781611945360
31
0.000000000000000
  0
LINE
  5
F1088B
330
F1088C
100
AcDbEntity
8
Geo
100
AcDbLine
10
-60.9034739454094
20
12.2137555062802
30
0.000000000000000
11
-60.8034739454094
21
12.1487318460837
31
0.000000000000000
  0
LINE
  5
F1088D
330
F1088E
100
AcDbEntity
8
Geo
100
AcDbLine
10
-60.9034739454094
20
0.969781611945360
30
0.000000000000000
11
-60.8034739454094
21
0.902800400894477
31
0.000000000000000
  0
LINE
  5
F1088F
330
F10890
100
AcDbEntity
8
Geo
100
AcDbLine
10
-60.8034739454094
20
12.1487318460837
30
0.000000000000000
11
-60.7034739454094
21
12.0820504587225
31
0.000000000000000
  0
LINE
  5
F10891
330
F10892
100
AcDbEntity
8
Geo
100
AcDbLine
10
-60.8034739454094
20
0.902800400894477
30
0.000000000000000
11
-60.7034739454094
21
0.837488381674537
31
0.000000000000000
  0
LINE
  5
F10893
330
F10894
100
AcDbEntity
8
Geo
100
AcDbLine
10
-60.7034739454094
20
12.0820504587225
30
0.000000000000000
11
-60.6034739454094
21
12.0137549608818
31
0.000000000000000
  0
LINE
  5
F10895
330
F10896
100
AcDbEntity
8
Geo
100
AcDbLine
10
-60.7034739454094
20
0.837488381674537
30
0.000000000000000
11
-60.6034739454094
21
0.773881824940134
31
0.000000000000000
  0
LINE
  5
F10897
330
F10898
100
AcDbEntity
8
Geo
100
AcDbLine
10
-60.6034739454094
20
12.0137549608818
30
0.000000000000000
11
-60.5034739454094
21
11.9438892597565
31
0.000000000000000
  0
LINE
  5
F10899
330
F1089A
100
AcDbEntity
8
Geo
100
AcDbLine
10
-60.6034739454094
20
0.773881824940134
30
0.000000000000000
11
-60.5034739454094
21
0.712016500007402
31
0.000000000000000
  0
LINE
  5
F1089B
330
F1089C
100
AcDbEntity
8
Geo
100
AcDbLine
10
-60.5034739454094
20
11.9438892597565
30
0.000000000000000
11
-60.4034739454094
21
11.8724975653857
31
0.000000000000000
  0
LINE
  5
F1089D
330
F1089E
100
AcDbEntity
8
Geo
100
AcDbLine
10
-60.5034739454094
20
0.712016500007402
30
0.000000000000000
11
-60.4034739454094
21
0.651927680883315
31
0.000000000000000
  0
LINE
  5
F1089F
330
F108A0
100
AcDbEntity
8
Geo
100
AcDbLine
10
-60.4034739454094
20
11.8724975653857
30
0.000000000000000
11
-60.3034739454094
21
11.7996244023694
31
0.000000000000000
  0
LINE
  5
F108A1
330
F108A2
100
AcDbEntity
8
Geo
100
AcDbLine
10
-60.4034739454094
20
0.651927680883315
30
0.000000000000000
11
-60.3034739454094
21
0.593650152544595
31
0.000000000000000
  0
LINE
  5
F108A3
330
F108A4
100
AcDbEntity
8
Geo
100
AcDbLine
10
-60.3034739454094
20
11.7996244023694
30
0.000000000000000
11
-60.2034739454094
21
11.7253146210427
31
0.000000000000000
  0
LINE
  5
F108A5
330
F108A6
100
AcDbEntity
8
Geo
100
AcDbLine
10
-60.3034739454094
20
0.593650152544595
30
0.000000000000000
11
-60.2034739454094
21
0.537218217511062
31
0.000000000000000
  0
LINE
  5
F108A7
330
F108A8
100
AcDbEntity
8
Geo
100
AcDbLine
10
-60.2034739454094
20
11.7253146210427
30
0.000000000000000
11
-60.1034739454094
21
11.6499795738048
31
0.000000000000000
  0
LINE
  5
F108A9
330
F108AA
100
AcDbEntity
8
Geo
100
AcDbLine
10
-60.2034739454094
20
0.537218217511062
30
0.000000000000000
11
-60.1034739454094
21
0.482159167214120
31
0.000000000000000
  0
LINE
  5
F108AB
330
F108AC
100
AcDbEntity
8
Geo
100
AcDbLine
10
-60.1034739454094
20
11.6499795738048
30
0.000000000000000
11
-60.0034739454094
21
11.5740073943516
31
0.000000000000000
  0
LINE
  5
F108AD
330
F108AE
100
AcDbEntity
8
Geo
100
AcDbLine
10
-60.1034739454094
20
0.482159167214120
30
0.000000000000000
11
-60.0034739454094
21
0.427982638061020
31
0.000000000000000
  0
LINE
  5
F108AF
330
F108B0
100
AcDbEntity
8
Geo
100
AcDbLine
10
-60.0034739454094
20
11.5740073943516
30
0.000000000000000
11
-59.9034739454094
21
11.4974084205444
31
0.000000000000000
  0
LINE
  5
F108B1
330
F108B2
100
AcDbEntity
8
Geo
100
AcDbLine
10
-60.0034739454094
20
0.427982638061020
30
0.000000000000000
11
-59.9034739454094
21
0.374696002085116
31
0.000000000000000
  0
LINE
  5
F108B3
330
F108B4
100
AcDbEntity
8
Geo
100
AcDbLine
10
-59.9034739454094
20
11.4974084205444
30
0.000000000000000
11
-59.8034739454094
21
11.4201930755350
31
0.000000000000000
  0
LINE
  5
F108B5
330
F108B6
100
AcDbEntity
8
Geo
100
AcDbLine
10
-59.9034739454094
20
0.374696002085116
30
0.000000000000000
11
-59.8034739454094
21
0.322306510228166
31
0.000000000000000
  0
LINE
  5
F108B7
330
F108B8
100
AcDbEntity
8
Geo
100
AcDbLine
10
-59.8034739454094
20
11.4201930755350
30
0.000000000000000
11
-59.7034739454094
21
11.3423718663476
31
0.000000000000000
  0
LINE
  5
F108B9
330
F108BA
100
AcDbEntity
8
Geo
100
AcDbLine
10
-59.8034739454094
20
0.322306510228166
30
0.000000000000000
11
-59.7034739454094
21
0.270821291353668
31
0.000000000000000
  0
LINE
  5
F108BB
330
F108BC
100
AcDbEntity
8
Geo
100
AcDbLine
10
-59.7034739454094
20
11.3423718663476
30
0.000000000000000
11
-59.6034739454094
21
11.2639553824488
31
0.000000000000000
  0
LINE
  5
F108BD
330
F108BE
100
AcDbEntity
8
Geo
100
AcDbLine
10
-59.7034739454094
20
0.270821291353668
30
0.000000000000000
11
-59.6034739454094
21
0.220247351276815
31
0.000000000000000
  0
LINE
  5
F108BF
330
F108C0
100
AcDbEntity
8
Geo
100
AcDbLine
10
-59.6034739454094
20
11.2639553824488
30
0.000000000000000
11
-59.5034739454094
21
11.1849542943070
31
0.000000000000000
  0
LINE
  5
F108C1
330
F108C2
100
AcDbEntity
8
Geo
100
AcDbLine
10
-59.6034739454094
20
0.220247351276815
30
0.000000000000000
11
-59.5034739454094
21
0.170591571811162
31
0.000000000000000
  0
LINE
  5
F108C3
330
F108C4
100
AcDbEntity
8
Geo
100
AcDbLine
10
-59.5034739454094
20
11.1849542943070
30
0.000000000000000
11
-59.4034739454094
21
11.1053793519398
31
0.000000000000000
  0
LINE
  5
F108C5
330
F108C6
100
AcDbEntity
8
Geo
100
AcDbLine
10
-59.5034739454094
20
0.170591571811162
30
0.000000000000000
11
-59.4034739454094
21
0.121860709832210
31
0.000000000000000
  0
LINE
  5
F108C7
330
F108C8
100
AcDbEntity
8
Geo
100
AcDbLine
10
-59.4034739454094
20
11.1053793519398
30
0.000000000000000
11
-59.3034739454094
21
11.0252413834521
31
0.000000000000000
  0
LINE
  5
F108C9
330
F108CA
100
AcDbEntity
8
Geo
100
AcDbLine
10
-59.4034739454094
20
0.121860709832210
30
0.000000000000000
11
-59.3034739454094
21
0.0740613963579548
31
0.000000000000000
  0
LINE
  5
F108CB
330
F108CC
100
AcDbEntity
8
Geo
100
AcDbLine
10
-59.3034739454094
20
11.0252413834521
30
0.000000000000000
11
-59.2034739454094
21
10.9445512935620
31
0.000000000000000
  0
LINE
  5
F108CD
330
F108CE
100
AcDbEntity
8
Geo
100
AcDbLine
10
-59.3034739454094
20
0.0740613963579548
30
0.000000000000000
11
-59.2034739454094
21
0.0272001356465790
31
0.000000000000000
  0
LINE
  5
F108CF
330
F108D0
100
AcDbEntity
8
Geo
100
AcDbLine
10
-59.2034739454094
20
10.9445512935620
30
0.000000000000000
11
-59.1034739454094
21
10.8633200621169
31
0.000000000000000
  0
LINE
  5
F108D1
330
F108D2
100
AcDbEntity
8
Geo
100
AcDbLine
10
-59.2034739454094
20
0.0272001356465790
30
0.000000000000000
11
-59.1034739454094
21
-0.0187166956886049
31
0.000000000000000
  0
LINE
  5
F108D3
330
F108D4
100
AcDbEntity
8
Geo
100
AcDbLine
10
-59.1034739454094
20
10.8633200621169
30
0.000000000000000
11
-59.0034739454094
21
10.7815587426000
31
0.000000000000000
  0
LINE
  5
F108D5
330
F108D6
100
AcDbEntity
8
Geo
100
AcDbLine
10
-59.1034739454094
20
-0.0187166956886049
30
0.000000000000000
11
-59.0034739454094
21
-0.0636828495468533
31
0.000000000000000
  0
LINE
  5
F108D7
330
F108D8
100
AcDbEntity
8
Geo
100
AcDbLine
10
-59.0034739454094
20
10.7815587426000
30
0.000000000000000
11
-58.9034739454094
21
10.6992784606258
31
0.000000000000000
  0
LINE
  5
F108D9
330
F108DA
100
AcDbEntity
8
Geo
100
AcDbLine
10
-59.0034739454094
20
-0.0636828495468533
30
0.000000000000000
11
-58.9034739454094
21
-0.107692207190201
31
0.000000000000000
  0
LINE
  5
F108DB
330
F108DC
100
AcDbEntity
8
Geo
100
AcDbLine
10
-58.9034739454094
20
10.6992784606258
30
0.000000000000000
11
-58.8034739454094
21
10.6164904124260
31
0.000000000000000
  0
LINE
  5
F108DD
330
F108DE
100
AcDbEntity
8
Geo
100
AcDbLine
10
-58.9034739454094
20
-0.107692207190201
30
0.000000000000000
11
-58.8034739454094
21
-0.150738780076052
31
0.000000000000000
  0
LINE
  5
F108DF
330
F108E0
100
AcDbEntity
8
Geo
100
AcDbLine
10
-58.8034739454094
20
10.6164904124260
30
0.000000000000000
11
-58.7034739454094
21
10.5332058633265
31
0.000000000000000
  0
LINE
  5
F108E1
330
F108E2
100
AcDbEntity
8
Geo
100
AcDbLine
10
-58.8034739454094
20
-0.150738780076052
30
0.000000000000000
11
-58.7034739454094
21
-0.192816710672076
31
0.000000000000000
  0
LINE
  5
F108E3
330
F108E4
100
AcDbEntity
8
Geo
100
AcDbLine
10
-58.7034739454094
20
10.5332058633265
30
0.000000000000000
11
-58.6034739454094
21
10.4494361462142
31
0.000000000000000
  0
LINE
  5
F108E5
330
F108E6
100
AcDbEntity
8
Geo
100
AcDbLine
10
-58.7034739454094
20
-0.192816710672076
30
0.000000000000000
11
-58.6034739454094
21
-0.233920273253270
31
0.000000000000000
  0
LINE
  5
F108E7
330
F108E8
100
AcDbEntity
8
Geo
100
AcDbLine
10
-58.6034739454094
20
10.4494361462142
30
0.000000000000000
11
-58.5034739454094
21
10.3651926599948
31
0.000000000000000
  0
LINE
  5
F108E9
330
F108EA
100
AcDbEntity
8
Geo
100
AcDbLine
10
-58.6034739454094
20
-0.233920273253270
30
0.000000000000000
11
-58.5034739454094
21
-0.274043874681071
31
0.000000000000000
  0
LINE
  5
F108EB
330
F108EC
100
AcDbEntity
8
Geo
100
AcDbLine
10
-58.5034739454094
20
10.3651926599948
30
0.000000000000000
11
-58.4034739454094
21
10.2804868680417
31
0.000000000000000
  0
LINE
  5
F108ED
330
F108EE
100
AcDbEntity
8
Geo
100
AcDbLine
10
-58.5034739454094
20
-0.274043874681071
30
0.000000000000000
11
-58.4034739454094
21
-0.313182055164448
31
0.000000000000000
  0
LINE
  5
F108EF
330
F108F0
100
AcDbEntity
8
Geo
100
AcDbLine
10
-58.4034739454094
20
10.2804868680417
30
0.000000000000000
11
-58.3034739454094
21
10.1953302966365
31
0.000000000000000
  0
LINE
  5
F108F1
330
F108F2
100
AcDbEntity
8
Geo
100
AcDbLine
10
-58.4034739454094
20
-0.313182055164448
30
0.000000000000000
11
-58.3034739454094
21
-0.351329489002838
31
0.000000000000000
  0
LINE
  5
F108F3
330
F108F4
100
AcDbEntity
8
Geo
100
AcDbLine
10
-58.3034739454094
20
10.1953302966365
30
0.000000000000000
11
-58.2034739454094
21
10.1097345334001
31
0.000000000000000
  0
LINE
  5
F108F5
330
F108F6
100
AcDbEntity
8
Geo
100
AcDbLine
10
-58.3034739454094
20
-0.351329489002838
30
0.000000000000000
11
-58.2034739454094
21
-0.388480985310834
31
0.000000000000000
  0
LINE
  5
F108F7
330
F108F8
100
AcDbEntity
8
Geo
100
AcDbLine
10
-58.2034739454094
20
10.1097345334001
30
0.000000000000000
11
-58.1034739454094
21
10.0237112257162
31
0.000000000000000
  0
LINE
  5
F108F9
330
F108FA
100
AcDbEntity
8
Geo
100
AcDbLine
10
-58.2034739454094
20
-0.388480985310834
30
0.000000000000000
11
-58.1034739454094
21
-0.424631488724533
31
0.000000000000000
  0
LINE
  5
F108FB
330
F108FC
100
AcDbEntity
8
Geo
100
AcDbLine
10
-58.1034739454094
20
10.0237112257162
30
0.000000000000000
11
-58.0034739454094
21
9.93727207914625
31
0.000000000000000
  0
LINE
  5
F108FD
330
F108FE
100
AcDbEntity
8
Geo
100
AcDbLine
10
-58.1034739454094
20
-0.424631488724533
30
0.000000000000000
11
-58.0034739454094
21
-0.459776080089441
31
0.000000000000000
  0
LINE
  5
F108FF
330
F10900
100
AcDbEntity
8
Geo
100
AcDbLine
10
-58.0034739454094
20
9.93727207914625
30
0.000000000000000
11
-57.9034739454094
21
9.85042885583678
31
0.000000000000000
  0
LINE
  5
F10901
330
F10902
100
AcDbEntity
8
Geo
100
AcDbLine
10
-58.0034739454094
20
-0.459776080089441
30
0.000000000000000
11
-57.9034739454094
21
-0.493909977129842
31
0.000000000000000
  0
LINE
  5
F10903
330
F10904
100
AcDbEntity
8
Geo
100
AcDbLine
10
-57.9034739454094
20
9.85042885583678
30
0.000000000000000
11
-57.8034739454094
21
9.76319337291869
31
0.000000000000000
  0
LINE
  5
F10905
330
F10906
100
AcDbEntity
8
Geo
100
AcDbLine
10
-57.9034739454094
20
-0.493909977129842
30
0.000000000000000
11
-57.8034739454094
21
-0.527028535099546
31
0.000000000000000
  0
LINE
  5
F10907
330
F10908
100
AcDbEntity
8
Geo
100
AcDbLine
10
-57.8034739454094
20
9.76319337291869
30
0.000000000000000
11
-57.7034739454094
21
9.67557750089938
31
0.000000000000000
  0
LINE
  5
F10909
330
F1090A
100
AcDbEntity
8
Geo
100
AcDbLine
10
-57.8034739454094
20
-0.527028535099546
30
0.000000000000000
11
-57.7034739454094
21
-0.559127247413916
31
0.000000000000000
  0
LINE
  5
F1090B
330
F1090C
100
AcDbEntity
8
Geo
100
AcDbLine
10
-57.7034739454094
20
9.67557750089938
30
0.000000000000000
11
-57.6034739454094
21
9.58759316204743
31
0.000000000000000
  0
LINE
  5
F1090D
330
F1090E
100
AcDbEntity
8
Geo
100
AcDbLine
10
-57.7034739454094
20
-0.559127247413916
30
0.000000000000000
11
-57.6034739454094
21
-0.590201746263100
31
0.000000000000000
  0
LINE
  5
F1090F
330
F10910
100
AcDbEntity
8
Geo
100
AcDbLine
10
-57.6034739454094
20
9.58759316204743
30
0.000000000000000
11
-57.5034739454094
21
9.49925232877025
31
0.000000000000000
  0
LINE
  5
F10911
330
F10912
100
AcDbEntity
8
Geo
100
AcDbLine
10
-57.6034739454094
20
-0.590201746263100
30
0.000000000000000
11
-57.5034739454094
21
-0.620247803206379
31
0.000000000000000
  0
LINE
  5
F10913
330
F10914
100
AcDbEntity
8
Geo
100
AcDbLine
10
-57.5034739454094
20
9.49925232877025
30
0.000000000000000
11
-57.4034739454094
21
9.41056702198503
31
0.000000000000000
  0
LINE
  5
F10915
330
F10916
100
AcDbEntity
8
Geo
100
AcDbLine
10
-57.5034739454094
20
-0.620247803206379
30
0.000000000000000
11
-57.4034739454094
21
-0.649261329747547
31
0.000000000000000
  0
LINE
  5
F10917
330
F10918
100
AcDbEntity
8
Geo
100
AcDbLine
10
-57.4034739454094
20
9.41056702198503
30
0.000000000000000
11
-57.3034739454094
21
9.32154930948291
31
0.000000000000000
  0
LINE
  5
F10919
330
F1091A
100
AcDbEntity
8
Geo
100
AcDbLine
10
-57.4034739454094
20
-0.649261329747547
30
0.000000000000000
11
-57.3034739454094
21
-0.677238377891249
31
0.000000000000000
  0
LINE
  5
F1091B
330
F1091C
100
AcDbEntity
8
Geo
100
AcDbLine
10
-57.3034739454094
20
9.32154930948291
30
0.000000000000000
11
-57.2034739454094
21
9.23221130428694
31
0.000000000000000
  0
LINE
  5
F1091D
330
F1091E
100
AcDbEntity
8
Geo
100
AcDbLine
10
-57.3034739454094
20
-0.677238377891249
30
0.000000000000000
11
-57.2034739454094
21
-0.704175140680209
31
0.000000000000000
  0
LINE
  5
F1091F
330
F10920
100
AcDbEntity
8
Geo
100
AcDbLine
10
-57.2034739454094
20
9.23221130428694
30
0.000000000000000
11
-57.1034739454094
21
9.14256516300375
31
0.000000000000000
  0
LINE
  5
F10921
330
F10922
100
AcDbEntity
8
Geo
100
AcDbLine
10
-57.2034739454094
20
-0.704175140680209
30
0.000000000000000
11
-57.1034739454094
21
-0.730067952713249
31
0.000000000000000
  0
LINE
  5
F10923
330
F10924
100
AcDbEntity
8
Geo
100
AcDbLine
10
-57.1034739454094
20
9.14256516300375
30
0.000000000000000
11
-57.0034739454094
21
9.05262308416938
31
0.000000000000000
  0
LINE
  5
F10925
330
F10926
100
AcDbEntity
8
Geo
100
AcDbLine
10
-57.1034739454094
20
-0.730067952713249
30
0.000000000000000
11
-57.0034739454094
21
-0.754913290644065
31
0.000000000000000
  0
LINE
  5
F10927
330
F10928
100
AcDbEntity
8
Geo
100
AcDbLine
10
-57.0034739454094
20
9.05262308416938
30
0.000000000000000
11
-56.9034739454094
21
8.96239730658937
31
0.000000000000000
  0
LINE
  5
F10929
330
F1092A
100
AcDbEntity
8
Geo
100
AcDbLine
10
-57.0034739454094
20
-0.754913290644065
30
0.000000000000000
11
-56.9034739454094
21
-0.778707773660652
31
0.000000000000000
  0
LINE
  5
F1092B
330
F1092C
100
AcDbEntity
8
Geo
100
AcDbLine
10
-56.9034739454094
20
8.96239730658937
30
0.000000000000000
11
-56.8034739454094
21
8.87190010767336
31
0.000000000000000
  0
LINE
  5
F1092D
330
F1092E
100
AcDbEntity
8
Geo
100
AcDbLine
10
-56.9034739454094
20
-0.778707773660652
30
0.000000000000000
11
-56.8034739454094
21
-0.801448163945363
31
0.000000000000000
  0
LINE
  5
F1092F
330
F10930
100
AcDbEntity
8
Geo
100
AcDbLine
10
-56.8034739454094
20
8.87190010767336
30
0.000000000000000
11
-56.7034739454094
21
8.78114380176447
31
0.000000000000000
  0
LINE
  5
F10931
330
F10932
100
AcDbEntity
8
Geo
100
AcDbLine
10
-56.8034739454094
20
-0.801448163945363
30
0.000000000000000
11
-56.7034739454094
21
-0.823131367115475
31
0.000000000000000
  0
LINE
  5
F10933
330
F10934
100
AcDbEntity
8
Geo
100
AcDbLine
10
-56.7034739454094
20
8.78114380176447
30
0.000000000000000
11
-56.6034739454094
21
8.69014073846362
31
0.000000000000000
  0
LINE
  5
F10935
330
F10936
100
AcDbEntity
8
Geo
100
AcDbLine
10
-56.7034739454094
20
-0.823131367115475
30
0.000000000000000
11
-56.6034739454094
21
-0.843754432644268
31
0.000000000000000
  0
LINE
  5
F10937
330
F10938
100
AcDbEntity
8
Geo
100
AcDbLine
10
-56.6034739454094
20
8.69014073846362
30
0.000000000000000
11
-56.5034739454094
21
8.59890330094905
31
0.000000000000000
  0
LINE
  5
F10939
330
F1093A
100
AcDbEntity
8
Geo
100
AcDbLine
10
-56.6034739454094
20
-0.843754432644268
30
0.000000000000000
11
-56.5034739454094
21
-0.863314554262510
31
0.000000000000000
  0
LINE
  5
F1093B
330
F1093C
100
AcDbEntity
8
Geo
100
AcDbLine
10
-56.5034739454094
20
8.59890330094905
30
0.000000000000000
11
-56.4034739454094
21
8.50744390429134
31
0.000000000000000
  0
LINE
  5
F1093D
330
F1093E
100
AcDbEntity
8
Geo
100
AcDbLine
10
-56.5034739454094
20
-0.863314554262510
30
0.000000000000000
11
-56.4034739454094
21
-0.881809070340315
31
0.000000000000000
  0
LINE
  5
F1093F
330
F10940
100
AcDbEntity
8
Geo
100
AcDbLine
10
-56.4034739454094
20
8.50744390429134
30
0.000000000000000
11
-56.3034739454094
21
8.41577499376399
31
0.000000000000000
  0
LINE
  5
F10941
330
F10942
100
AcDbEntity
8
Geo
100
AcDbLine
10
-56.4034739454094
20
-0.881809070340315
30
0.000000000000000
11
-56.3034739454094
21
-0.899235464249332
31
0.000000000000000
  0
LINE
  5
F10943
330
F10944
100
AcDbEntity
8
Geo
100
AcDbLine
10
-56.3034739454094
20
8.41577499376399
30
0.000000000000000
11
-56.2034739454094
21
8.32390904314994
31
0.000000000000000
  0
LINE
  5
F10945
330
F10946
100
AcDbEntity
8
Geo
100
AcDbLine
10
-56.3034739454094
20
-0.899235464249332
30
0.000000000000000
11
-56.2034739454094
21
-0.915591364705185
31
0.000000000000000
  0
LINE
  5
F10947
330
F10948
100
AcDbEntity
8
Geo
100
AcDbLine
10
-56.2034739454094
20
8.32390904314994
30
0.000000000000000
11
-56.1034739454094
21
8.23185855304425
31
0.000000000000000
  0
LINE
  5
F10949
330
F1094A
100
AcDbEntity
8
Geo
100
AcDbLine
10
-56.2034739454094
20
-0.915591364705185
30
0.000000000000000
11
-56.1034739454094
21
-0.930874546090146
31
0.000000000000000
  0
LINE
  5
F1094B
330
F1094C
100
AcDbEntity
8
Geo
100
AcDbLine
10
-56.1034739454094
20
8.23185855304425
30
0.000000000000000
11
-56.0034739454094
21
8.13963604915303
31
0.000000000000000
  0
LINE
  5
F1094D
330
F1094E
100
AcDbEntity
8
Geo
100
AcDbLine
10
-56.1034739454094
20
-0.930874546090146
30
0.000000000000000
11
-56.0034739454094
21
-0.945082928755989
31
0.000000000000000
  0
LINE
  5
F1094F
330
F10950
100
AcDbEntity
8
Geo
100
AcDbLine
10
-56.0034739454094
20
8.13963604915303
30
0.000000000000000
11
-55.9034739454094
21
8.04725408058908
31
0.000000000000000
  0
LINE
  5
F10951
330
F10952
100
AcDbEntity
8
Geo
100
AcDbLine
10
-56.0034739454094
20
-0.945082928755989
30
0.000000000000000
11
-55.9034739454094
21
-0.958214579306965
31
0.000000000000000
  0
LINE
  5
F10953
330
F10954
100
AcDbEntity
8
Geo
100
AcDbLine
10
-55.9034739454094
20
8.04725408058908
30
0.000000000000000
11
-55.8034739454094
21
7.95472521816422
31
0.000000000000000
  0
LINE
  5
F10955
330
F10956
100
AcDbEntity
8
Geo
100
AcDbLine
10
-55.9034739454094
20
-0.958214579306965
30
0.000000000000000
11
-55.8034739454094
21
-0.970267710862903
31
0.000000000000000
  0
LINE
  5
F10957
330
F10958
100
AcDbEntity
8
Geo
100
AcDbLine
10
-55.8034739454094
20
7.95472521816422
30
0.000000000000000
11
-55.7034739454094
21
7.86206205267874
31
0.000000000000000
  0
LINE
  5
F10959
330
F1095A
100
AcDbEntity
8
Geo
100
AcDbLine
10
-55.8034739454094
20
-0.970267710862903
30
0.000000000000000
11
-55.7034739454094
21
-0.981240683302349
31
0.000000000000000
  0
LINE
  5
F1095B
330
F1095C
100
AcDbEntity
8
Geo
100
AcDbLine
10
-55.7034739454094
20
7.86206205267874
30
0.000000000000000
11
-55.6034739454094
21
7.76927719320817
31
0.000000000000000
  0
LINE
  5
F1095D
330
F1095E
100
AcDbEntity
8
Geo
100
AcDbLine
10
-55.7034739454094
20
-0.981240683302349
30
0.000000000000000
11
-55.6034739454094
21
-0.991132003485743
31
0.000000000000000
  0
LINE
  5
F1095F
330
F10960
100
AcDbEntity
8
Geo
100
AcDbLine
10
-55.6034739454094
20
7.76927719320817
30
0.000000000000000
11
-55.5034739454094
21
7.67638326538742
31
0.000000000000000
  0
LINE
  5
F10961
330
F10962
100
AcDbEntity
8
Geo
100
AcDbLine
10
-55.6034739454094
20
-0.991132003485743
30
0.000000000000000
11
-55.5034739454094
21
-0.999940325458602
31
0.000000000000000
  0
LINE
  5
F10963
330
F10964
100
AcDbEntity
8
Geo
100
AcDbLine
10
-55.5034739454094
20
7.67638326538742
30
0.000000000000000
11
-55.4034739454094
21
7.58339290969282
31
0.000000000000000
  0
LINE
  5
F10965
330
F10966
100
AcDbEntity
8
Geo
100
AcDbLine
10
-55.5034739454094
20
-0.999940325458602
30
0.000000000000000
11
-55.4034739454094
21
-1.00766445063467
31
0.000000000000000
  0
LINE
  5
F10967
330
F10968
100
AcDbEntity
8
Geo
100
AcDbLine
10
-55.4034739454094
20
7.58339290969282
30
0.000000000000000
11
-55.3034739454094
21
7.49031877972205
31
0.000000000000000
  0
LINE
  5
F10969
330
F1096A
100
AcDbEntity
8
Geo
100
AcDbLine
10
-55.4034739454094
20
-1.00766445063467
30
0.000000000000000
11
-55.3034739454094
21
-1.01430332795900
31
0.000000000000000
  0
LINE
  5
F1096B
330
F1096C
100
AcDbEntity
8
Geo
100
AcDbLine
10
-55.3034739454094
20
7.49031877972205
30
0.000000000000000
11
-55.2034739454094
21
7.39717354047230
31
0.000000000000000
  0
LINE
  5
F1096D
330
F1096E
100
AcDbEntity
8
Geo
100
AcDbLine
10
-55.3034739454094
20
-1.01430332795900
30
0.000000000000000
11
-55.2034739454094
21
-1.01985605405102
31
0.000000000000000
  0
LINE
  5
F1096F
330
F10970
100
AcDbEntity
8
Geo
100
AcDbLine
10
-55.2034739454094
20
7.39717354047230
30
0.000000000000000
11
-55.1034739454094
21
7.30396986661695
31
0.000000000000000
  0
LINE
  5
F10971
330
F10972
100
AcDbEntity
8
Geo
100
AcDbLine
10
-55.2034739454094
20
-1.01985605405102
30
0.000000000000000
11
-55.1034739454094
21
-1.02432187332738
31
0.000000000000000
  0
LINE
  5
F10973
330
F10974
100
AcDbEntity
8
Geo
100
AcDbLine
10
-55.1034739454094
20
7.30396986661695
30
0.000000000000000
11
-55.0034739454094
21
7.21072044078079
31
0.000000000000000
  0
LINE
  5
F10975
330
F10976
100
AcDbEntity
8
Geo
100
AcDbLine
10
-55.1034739454094
20
-1.02432187332738
30
0.000000000000000
11
-55.0034739454094
21
-1.02770017810487
31
0.000000000000000
  0
LINE
  5
F10977
330
F10978
100
AcDbEntity
8
Geo
100
AcDbLine
10
-55.0034739454094
20
7.21072044078079
30
0.000000000000000
11
-54.9034739454094
21
7.11743795181427
31
0.000000000000000
  0
LINE
  5
F10979
330
F1097A
100
AcDbEntity
8
Geo
100
AcDbLine
10
-55.0034739454094
20
-1.02770017810487
30
0.000000000000000
11
-54.9034739454094
21
-1.02999050868300
31
0.000000000000000
  0
LINE
  5
F1097B
330
F1097C
100
AcDbEntity
8
Geo
100
AcDbLine
10
-54.9034739454094
20
7.11743795181427
30
0.000000000000000
11
-54.8034739454094
21
7.02413509306693
31
0.000000000000000
  0
LINE
  5
F1097D
330
F1097E
100
AcDbEntity
8
Geo
100
AcDbLine
10
-54.9034739454094
20
-1.02999050868300
30
0.000000000000000
11
-54.8034739454094
21
-1.03119255340666
31
0.000000000000000
  0
LINE
  5
F1097F
330
F10980
100
AcDbEntity
8
Geo
100
AcDbLine
10
-54.8034739454094
20
7.02413509306693
30
0.000000000000000
11
-54.7034739454094
21
6.93082456066007
31
0.000000000000000
  0
LINE
  5
F10981
330
F10982
100
AcDbEntity
8
Geo
100
AcDbLine
10
-54.7034739454094
20
6.93082456066007
30
0.000000000000000
11
-54.6034739454094
21
6.83751905175920
31
0.000000000000000
  0
LINE
  5
F10983
330
F10984
100
AcDbEntity
8
Geo
100
AcDbLine
10
-54.7034739454094
20
14.9667900196764
30
0.000000000000000
11
-54.6034739454094
21
14.9658151500989
31
0.000000000000000
  0
LINE
  5
F10985
330
F10986
100
AcDbEntity
8
Geo
100
AcDbLine
10
-54.6034739454094
20
6.83751905175920
30
0.000000000000000
11
-54.5034739454094
21
6.74423126284624
31
0.000000000000000
  0
LINE
  5
F10987
330
F10988
100
AcDbEntity
8
Geo
100
AcDbLine
10
-54.6034739454094
20
14.9658151500989
30
0.000000000000000
11
-54.5034739454094
21
14.9637519482969
31
0.000000000000000
  0
LINE
  5
F10989
330
F1098A
100
AcDbEntity
8
Geo
100
AcDbLine
10
-54.5034739454094
20
6.74423126284624
30
0.000000000000000
11
-54.4034739454094
21
6.65097388799190
31
0.000000000000000
  0
LINE
  5
F1098B
330
F1098C
100
AcDbEntity
8
Geo
100
AcDbLine
10
-54.5034739454094
20
14.9637519482969
30
0.000000000000000
11
-54.4034739454094
21
14.9606006950190
31
0.000000000000000
  0
LINE
  5
F1098D
330
F1098E
100
AcDbEntity
8
Geo
100
AcDbLine
10
-54.4034739454094
20
6.65097388799190
30
0.000000000000000
11
-54.3034739454094
21
6.55775961712830
31
0.000000000000000
  0
LINE
  5
F1098F
330
F10990
100
AcDbEntity
8
Geo
100
AcDbLine
10
-54.4034739454094
20
14.9606006950190
30
0.000000000000000
11
-54.3034739454094
21
14.9563618190698
31
0.000000000000000
  0
LINE
  5
F10991
330
F10992
100
AcDbEntity
8
Geo
100
AcDbLine
10
-54.3034739454094
20
6.55775961712830
30
0.000000000000000
11
-54.2034739454094
21
6.46460113432223
31
0.000000000000000
  0
LINE
  5
F10993
330
F10994
100
AcDbEntity
8
Geo
100
AcDbLine
10
-54.3034739454094
20
14.9563618190698
30
0.000000000000000
11
-54.2034739454094
21
14.9510358972515
31
0.000000000000000
  0
LINE
  5
F10995
330
F10996
100
AcDbEntity
8
Geo
100
AcDbLine
10
-54.2034739454094
20
6.46460113432223
30
0.000000000000000
11
-54.1034739454094
21
6.37151111604914
31
0.000000000000000
  0
LINE
  5
F10997
330
F10998
100
AcDbEntity
8
Geo
100
AcDbLine
10
-54.2034739454094
20
14.9510358972515
30
0.000000000000000
11
-54.1034739454094
21
14.9446236542851
31
0.000000000000000
  0
LINE
  5
F10999
330
F1099A
100
AcDbEntity
8
Geo
100
AcDbLine
10
-54.1034739454094
20
6.37151111604914
30
0.000000000000000
11
-54.0034739454094
21
6.27850222946823
31
0.000000000000000
  0
LINE
  5
F1099B
330
F1099C
100
AcDbEntity
8
Geo
100
AcDbLine
10
-54.1034739454094
20
14.9446236542851
30
0.000000000000000
11
-54.0034739454094
21
14.9371259627121
31
0.000000000000000
  0
LINE
  5
F1099D
330
F1099E
100
AcDbEntity
8
Geo
100
AcDbLine
10
-54.0034739454094
20
6.27850222946823
30
0.000000000000000
11
-53.9034739454094
21
6.18558713069876
31
0.000000000000000
  0
LINE
  5
F1099F
330
F109A0
100
AcDbEntity
8
Geo
100
AcDbLine
10
-54.0034739454094
20
14.9371259627121
30
0.000000000000000
11
-53.9034739454094
21
14.9285438427756
31
0.000000000000000
  0
LINE
  5
F109A1
330
F109A2
100
AcDbEntity
8
Geo
100
AcDbLine
10
-53.9034739454094
20
6.18558713069876
30
0.000000000000000
11
-53.8034739454094
21
6.09277846309787
31
0.000000000000000
  0
LINE
  5
F109A3
330
F109A4
100
AcDbEntity
8
Geo
100
AcDbLine
10
-53.9034739454094
20
14.9285438427756
30
0.000000000000000
11
-53.8034739454094
21
14.9188784622817
31
0.000000000000000
  0
LINE
  5
F109A5
330
F109A6
100
AcDbEntity
8
Geo
100
AcDbLine
10
-53.8034739454094
20
6.09277846309787
30
0.000000000000000
11
-53.7034739454094
21
6.00008885554017
31
0.000000000000000
  0
LINE
  5
F109A7
330
F109A8
100
AcDbEntity
8
Geo
100
AcDbLine
10
-53.8034739454094
20
14.9188784622817
30
0.000000000000000
11
-53.7034739454094
21
14.9081311364402
31
0.000000000000000
  0
LINE
  5
F109A9
330
F109AA
100
AcDbEntity
8
Geo
100
AcDbLine
10
-53.7034739454094
20
6.00008885554017
30
0.000000000000000
11
-53.6034739454094
21
5.90753092069924
31
0.000000000000000
  0
LINE
  5
F109AB
330
F109AC
100
AcDbEntity
8
Geo
100
AcDbLine
10
-53.7034739454094
20
14.9081311364402
30
0.000000000000000
11
-53.6034739454094
21
14.8963033276860
31
0.000000000000000
  0
LINE
  5
F109AD
330
F109AE
100
AcDbEntity
8
Geo
100
AcDbLine
10
-53.6034739454094
20
5.90753092069924
30
0.000000000000000
11
-53.5034739454094
21
5.81511725333140
31
0.000000000000000
  0
LINE
  5
F109AF
330
F109B0
100
AcDbEntity
8
Geo
100
AcDbLine
10
-53.6034739454094
20
14.8963033276860
30
0.000000000000000
11
-53.5034739454094
21
14.8833966454798
31
0.000000000000000
  0
LINE
  5
F109B1
330
F109B2
100
AcDbEntity
8
Geo
100
AcDbLine
10
-53.5034739454094
20
5.81511725333140
30
0.000000000000000
11
-53.4034739454094
21
5.72286042856187
31
0.000000000000000
  0
LINE
  5
F109B3
330
F109B4
100
AcDbEntity
8
Geo
100
AcDbLine
10
-53.5034739454094
20
14.8833966454798
30
0.000000000000000
11
-53.4034739454094
21
14.8694128460895
31
0.000000000000000
  0
LINE
  5
F109B5
330
F109B6
100
AcDbEntity
8
Geo
100
AcDbLine
10
-53.4034739454094
20
5.72286042856187
30
0.000000000000000
11
-53.3034739454094
21
5.63077300017361
31
0.000000000000000
  0
LINE
  5
F109B7
330
F109B8
100
AcDbEntity
8
Geo
100
AcDbLine
10
-53.4034739454094
20
14.8694128460895
30
0.000000000000000
11
-53.3034739454094
21
14.8543538323508
31
0.000000000000000
  0
LINE
  5
F109B9
330
F109BA
100
AcDbEntity
8
Geo
100
AcDbLine
10
-53.3034739454094
20
5.63077300017361
30
0.000000000000000
11
-53.2034739454094
21
5.53886749889912
31
0.000000000000000
  0
LINE
  5
F109BB
330
F109BC
100
AcDbEntity
8
Geo
100
AcDbLine
10
-53.3034739454094
20
14.8543538323508
30
0.000000000000000
11
-53.2034739454094
21
14.8382216534085
31
0.000000000000000
  0
LINE
  5
F109BD
330
F109BE
100
AcDbEntity
8
Geo
100
AcDbLine
10
-53.2034739454094
20
5.53886749889912
30
0.000000000000000
11
-53.1034739454094
21
5.44715643071525
31
0.000000000000000
  0
LINE
  5
F109BF
330
F109C0
100
AcDbEntity
8
Geo
100
AcDbLine
10
-53.2034739454094
20
14.8382216534085
30
0.000000000000000
11
-53.1034739454094
21
14.8210185044375
31
0.000000000000000
  0
LINE
  5
F109C1
330
F109C2
100
AcDbEntity
8
Geo
100
AcDbLine
10
-53.1034739454094
20
5.44715643071525
30
0.000000000000000
11
-53.0034739454094
21
5.35565227514155
31
0.000000000000000
  0
LINE
  5
F109C3
330
F109C4
100
AcDbEntity
8
Geo
100
AcDbLine
10
-53.1034739454094
20
14.8210185044375
30
0.000000000000000
11
-53.0034739454094
21
14.8027467263443
31
0.000000000000000
  0
LINE
  5
F109C5
330
F109C6
100
AcDbEntity
8
Geo
100
AcDbLine
10
-53.0034739454094
20
5.35565227514155
30
0.000000000000000
11
-52.9034739454094
21
5.26436748354203
31
0.000000000000000
  0
LINE
  5
F109C7
330
F109C8
100
AcDbEntity
8
Geo
100
AcDbLine
10
-53.0034739454094
20
14.8027467263443
30
0.000000000000000
11
-52.9034739454094
21
14.7834088054483
31
0.000000000000000
  0
LINE
  5
F109C9
330
F109CA
100
AcDbEntity
8
Geo
100
AcDbLine
10
-52.9034739454094
20
5.26436748354203
30
0.000000000000000
11
-52.8034739454094
21
5.17331447743096
31
0.000000000000000
  0
LINE
  5
F109CB
330
F109CC
100
AcDbEntity
8
Geo
100
AcDbLine
10
-52.9034739454094
20
14.7834088054483
30
0.000000000000000
11
-52.8034739454094
21
14.7630073731437
31
0.000000000000000
  0
LINE
  5
F109CD
330
F109CE
100
AcDbEntity
8
Geo
100
AcDbLine
10
-52.8034739454094
20
5.17331447743096
30
0.000000000000000
11
-52.7034739454094
21
5.08250564678250
31
0.000000000000000
  0
LINE
  5
F109CF
330
F109D0
100
AcDbEntity
8
Geo
100
AcDbLine
10
-52.8034739454094
20
14.7630073731437
30
0.000000000000000
11
-52.7034739454094
21
14.7415452055410
31
0.000000000000000
  0
LINE
  5
F109D1
330
F109D2
100
AcDbEntity
8
Geo
100
AcDbLine
10
-52.7034739454094
20
5.08250564678250
30
0.000000000000000
11
-52.6034739454094
21
4.99195334834485
31
0.000000000000000
  0
LINE
  5
F109D3
330
F109D4
100
AcDbEntity
8
Geo
100
AcDbLine
10
-52.7034739454094
20
14.7415452055410
30
0.000000000000000
11
-52.6034739454094
21
14.7190252230898
31
0.000000000000000
  0
LINE
  5
F109D5
330
F109D6
100
AcDbEntity
8
Geo
100
AcDbLine
10
-52.6034739454094
20
4.99195334834485
30
0.000000000000000
11
-52.5034739454094
21
4.90166990395876
31
0.000000000000000
  0
LINE
  5
F109D7
330
F109D8
100
AcDbEntity
8
Geo
100
AcDbLine
10
-52.6034739454094
20
14.7190252230898
30
0.000000000000000
11
-52.5034739454094
21
14.6954504901809
31
0.000000000000000
  0
LINE
  5
F109D9
330
F109DA
100
AcDbEntity
8
Geo
100
AcDbLine
10
-52.5034739454094
20
4.90166990395876
30
0.000000000000000
11
-52.4034739454094
21
4.81166759888082
31
0.000000000000000
  0
LINE
  5
F109DB
330
F109DC
100
AcDbEntity
8
Geo
100
AcDbLine
10
-52.5034739454094
20
14.6954504901809
30
0.000000000000000
11
-52.4034739454094
21
14.6708242147296
31
0.000000000000000
  0
LINE
  5
F109DD
330
F109DE
100
AcDbEntity
8
Geo
100
AcDbLine
10
-52.4034739454094
20
4.81166759888082
30
0.000000000000000
11
-52.3034739454094
21
4.72195868011184
31
0.000000000000000
  0
LINE
  5
F109DF
330
F109E0
100
AcDbEntity
8
Geo
100
AcDbLine
10
-52.4034739454094
20
14.6708242147296
30
0.000000000000000
11
-52.3034739454094
21
14.6451497477392
31
0.000000000000000
  0
LINE
  5
F109E1
330
F109E2
100
AcDbEntity
8
Geo
100
AcDbLine
10
-52.3034739454094
20
4.72195868011184
30
0.000000000000000
11
-52.2034739454094
21
4.63255535473024
31
0.000000000000000
  0
LINE
  5
F109E3
330
F109E4
100
AcDbEntity
8
Geo
100
AcDbLine
10
-52.3034739454094
20
14.6451497477392
30
0.000000000000000
11
-52.2034739454094
21
14.6184305828447
31
0.000000000000000
  0
LINE
  5
F109E5
330
F109E6
100
AcDbEntity
8
Geo
100
AcDbLine
10
-52.2034739454094
20
4.63255535473024
30
0.000000000000000
11
-52.1034739454094
21
4.54346978823107
31
0.000000000000000
  0
LINE
  5
F109E7
330
F109E8
100
AcDbEntity
8
Geo
100
AcDbLine
10
-52.2034739454094
20
14.6184305828447
30
0.000000000000000
11
-52.1034739454094
21
14.5906703558380
31
0.000000000000000
  0
LINE
  5
F109E9
330
F109EA
100
AcDbEntity
8
Geo
100
AcDbLine
10
-52.1034739454094
20
4.54346978823107
30
0.000000000000000
11
-52.0034739454094
21
4.45471410287054
31
0.000000000000000
  0
LINE
  5
F109EB
330
F109EC
100
AcDbEntity
8
Geo
100
AcDbLine
10
-52.1034739454094
20
14.5906703558380
30
0.000000000000000
11
-52.0034739454094
21
14.5618728441724
31
0.000000000000000
  0
LINE
  5
F109ED
330
F109EE
100
AcDbEntity
8
Geo
100
AcDbLine
10
-52.0034739454094
20
4.45471410287054
30
0.000000000000000
11
-51.9034739454094
21
4.36630037601653
31
0.000000000000000
  0
LINE
  5
F109EF
330
F109F0
100
AcDbEntity
8
Geo
100
AcDbLine
10
-52.0034739454094
20
14.5618728441724
30
0.000000000000000
11
-51.9034739454094
21
14.5320419664493
31
0.000000000000000
  0
LINE
  5
F109F1
330
F109F2
100
AcDbEntity
8
Geo
100
AcDbLine
10
-51.9034739454094
20
4.36630037601653
30
0.000000000000000
11
-51.8034739454094
21
4.27824063850515
31
0.000000000000000
  0
LINE
  5
F109F3
330
F109F4
100
AcDbEntity
8
Geo
100
AcDbLine
10
-51.9034739454094
20
14.5320419664493
30
0.000000000000000
11
-51.8034739454094
21
14.5011817818846
31
0.000000000000000
  0
LINE
  5
F109F5
330
F109F6
100
AcDbEntity
8
Geo
100
AcDbLine
10
-51.8034739454094
20
4.27824063850515
30
0.000000000000000
11
-51.7034739454094
21
4.19054687300366
31
0.000000000000000
  0
LINE
  5
F109F7
330
F109F8
100
AcDbEntity
8
Geo
100
AcDbLine
10
-51.8034739454094
20
14.5011817818846
30
0.000000000000000
11
-51.7034739454094
21
14.4692964897562
31
0.000000000000000
  0
LINE
  5
F109F9
330
F109FA
100
AcDbEntity
8
Geo
100
AcDbLine
10
-51.7034739454094
20
4.19054687300366
30
0.000000000000000
11
-51.6034739454094
21
4.10323101237992
31
0.000000000000000
  0
LINE
  5
F109FB
330
F109FC
100
AcDbEntity
8
Geo
100
AcDbLine
10
-51.7034739454094
20
14.4692964897562
30
0.000000000000000
11
-51.6034739454094
21
14.4363904288330
31
0.000000000000000
  0
LINE
  5
F109FD
330
F109FE
100
AcDbEntity
8
Geo
100
AcDbLine
10
-51.6034739454094
20
4.10323101237992
30
0.000000000000000
11
-51.5034739454094
21
4.01630493807866
31
0.000000000000000
  0
LINE
  5
F109FF
330
F10A00
100
AcDbEntity
8
Geo
100
AcDbLine
10
-51.6034739454094
20
14.4363904288330
30
0.000000000000000
11
-51.5034739454094
21
14.4024680767843
31
0.000000000000000
  0
LINE
  5
F10A01
330
F10A02
100
AcDbEntity
8
Geo
100
AcDbLine
10
-51.5034739454094
20
4.01630493807866
30
0.000000000000000
11
-51.4034739454094
21
3.92978047850471
31
0.000000000000000
  0
LINE
  5
F10A03
330
F10A04
100
AcDbEntity
8
Geo
100
AcDbLine
10
-51.5034739454094
20
14.4024680767843
30
0.000000000000000
11
-51.4034739454094
21
14.3675340495704
31
0.000000000000000
  0
LINE
  5
F10A05
330
F10A06
100
AcDbEntity
8
Geo
100
AcDbLine
10
-51.4034739454094
20
3.92978047850471
30
0.000000000000000
11
-51.3034739454094
21
3.84366940741346
31
0.000000000000000
  0
LINE
  5
F10A07
330
F10A08
100
AcDbEntity
8
Geo
100
AcDbLine
10
-51.4034739454094
20
14.3675340495704
30
0.000000000000000
11
-51.3034739454094
21
14.3315931008147
31
0.000000000000000
  0
LINE
  5
F10A09
330
F10A0A
100
AcDbEntity
8
Geo
100
AcDbLine
10
-51.3034739454094
20
3.84366940741346
30
0.000000000000000
11
-51.2034739454094
21
3.75798344230874
31
0.000000000000000
  0
LINE
  5
F10A0B
330
F10A0C
100
AcDbEntity
8
Geo
100
AcDbLine
10
-51.3034739454094
20
14.3315931008147
30
0.000000000000000
11
-51.2034739454094
21
14.2946501211566
31
0.000000000000000
  0
LINE
  5
F10A0D
330
F10A0E
100
AcDbEntity
8
Geo
100
AcDbLine
10
-51.2034739454094
20
3.75798344230874
30
0.000000000000000
11
-51.1034739454094
21
3.67273424284837
31
0.000000000000000
  0
LINE
  5
F10A0F
330
F10A10
100
AcDbEntity
8
Geo
100
AcDbLine
10
-51.2034739454094
20
14.2946501211566
30
0.000000000000000
11
-51.1034739454094
21
14.2567101375863
31
0.000000000000000
  0
LINE
  5
F10A11
330
F10A12
100
AcDbEntity
8
Geo
100
AcDbLine
10
-51.1034739454094
20
3.67273424284837
30
0.000000000000000
11
-51.0034739454094
21
3.58793340925763
31
0.000000000000000
  0
LINE
  5
F10A13
330
F10A14
100
AcDbEntity
8
Geo
100
AcDbLine
10
-51.1034739454094
20
14.2567101375863
30
0.000000000000000
11
-51.0034739454094
21
14.2177783127606
31
0.000000000000000
  0
LINE
  5
F10A15
330
F10A16
100
AcDbEntity
8
Geo
100
AcDbLine
10
-51.0034739454094
20
3.58793340925763
30
0.000000000000000
11
-50.9034739454094
21
3.50359248075069
31
0.000000000000000
  0
LINE
  5
F10A17
330
F10A18
100
AcDbEntity
8
Geo
100
AcDbLine
10
-51.0034739454094
20
14.2177783127606
30
0.000000000000000
11
-50.9034739454094
21
14.1778599443003
31
0.000000000000000
  0
LINE
  5
F10A19
330
F10A1A
100
AcDbEntity
8
Geo
100
AcDbLine
10
-50.9034739454094
20
3.50359248075069
30
0.000000000000000
11
-50.8034739454094
21
3.41972293396046
31
0.000000000000000
  0
LINE
  5
F10A1B
330
F10A1C
100
AcDbEntity
8
Geo
100
AcDbLine
10
-50.9034739454094
20
14.1778599443003
30
0.000000000000000
11
-50.8034739454094
21
14.1369604640696
31
0.000000000000000
  0
LINE
  5
F10A1D
330
F10A1E
100
AcDbEntity
8
Geo
100
AcDbLine
10
-50.8034739454094
20
3.41972293396046
30
0.000000000000000
11
-50.7034739454094
21
3.33633618137693
31
0.000000000000000
  0
LINE
  5
F10A1F
330
F10A20
100
AcDbEntity
8
Geo
100
AcDbLine
10
-50.8034739454094
20
14.1369604640696
30
0.000000000000000
11
-50.7034739454094
21
14.0950854374365
31
0.000000000000000
  0
LINE
  5
F10A21
330
F10A22
100
AcDbEntity
8
Geo
100
AcDbLine
10
-50.7034739454094
20
3.33633618137693
30
0.000000000000000
11
-50.6034739454094
21
3.25344356979420
31
0.000000000000000
  0
LINE
  5
F10A23
330
F10A24
100
AcDbEntity
8
Geo
100
AcDbLine
10
-50.7034739454094
20
14.0950854374365
30
0.000000000000000
11
-50.6034739454094
21
14.0522405625162
31
0.000000000000000
  0
LINE
  5
F10A25
330
F10A26
100
AcDbEntity
8
Geo
100
AcDbLine
10
-50.6034739454094
20
3.25344356979420
30
0.000000000000000
11
-50.5034739454094
21
3.17105637876648
31
0.000000000000000
  0
LINE
  5
F10A27
330
F10A28
100
AcDbEntity
8
Geo
100
AcDbLine
10
-50.6034739454094
20
14.0522405625162
30
0.000000000000000
11
-50.5034739454094
21
14.0084316693950
31
0.000000000000000
  0
LINE
  5
F10A29
330
F10A2A
100
AcDbEntity
8
Geo
100
AcDbLine
10
-50.5034739454094
20
3.17105637876648
30
0.000000000000000
11
-50.4034739454094
21
3.08918581907322
31
0.000000000000000
  0
LINE
  5
F10A2B
330
F10A2C
100
AcDbEntity
8
Geo
100
AcDbLine
10
-50.5034739454094
20
14.0084316693950
30
0.000000000000000
11
-50.4034739454094
21
13.9636647193374
31
0.000000000000000
  0
LINE
  5
F10A2D
330
F10A2E
100
AcDbEntity
8
Geo
100
AcDbLine
10
-50.4034739454094
20
3.08918581907322
30
0.000000000000000
11
-50.3034739454094
21
3.00784303119362
31
0.000000000000000
  0
LINE
  5
F10A2F
330
F10A30
100
AcDbEntity
8
Geo
100
AcDbLine
10
-50.4034739454094
20
13.9636647193374
30
0.000000000000000
11
-50.3034739454094
21
13.9179458039749
31
0.000000000000000
  0
LINE
  5
F10A31
330
F10A32
100
AcDbEntity
8
Geo
100
AcDbLine
10
-50.3034739454094
20
3.00784303119362
30
0.000000000000000
11
-50.2034739454094
21
2.92703908379072
31
0.000000000000000
  0
LINE
  5
F10A33
330
F10A34
100
AcDbEntity
8
Geo
100
AcDbLine
10
-50.3034739454094
20
13.9179458039749
30
0.000000000000000
11
-50.2034739454094
21
13.8712811444771
31
0.000000000000000
  0
LINE
  5
F10A35
330
F10A36
100
AcDbEntity
8
Geo
100
AcDbLine
10
-50.2034739454094
20
2.92703908379072
30
0.000000000000000
11
-50.1034739454094
21
2.84678497220520
31
0.000000000000000
  0
LINE
  5
F10A37
330
F10A38
100
AcDbEntity
8
Geo
100
AcDbLine
10
-50.2034739454094
20
13.8712811444771
30
0.000000000000000
11
-50.1034739454094
21
13.8236770907047
31
0.000000000000000
  0
LINE
  5
F10A39
330
F10A3A
100
AcDbEntity
8
Geo
100
AcDbLine
10
-50.1034739454094
20
2.84678497220520
30
0.000000000000000
11
-50.0034739454094
21
2.76709161695923
31
0.000000000000000
  0
LINE
  5
F10A3B
330
F10A3C
100
AcDbEntity
8
Geo
100
AcDbLine
10
-50.1034739454094
20
13.8236770907047
30
0.000000000000000
11
-50.0034739454094
21
13.7751401203461
31
0.000000000000000
  0
LINE
  5
F10A3D
330
F10A3E
100
AcDbEntity
8
Geo
100
AcDbLine
10
-50.0034739454094
20
2.76709161695923
30
0.000000000000000
11
-49.9034739454094
21
2.68796986227044
31
0.000000000000000
  0
LINE
  5
F10A3F
330
F10A40
100
AcDbEntity
8
Geo
100
AcDbLine
10
-50.0034739454094
20
13.7751401203461
30
0.000000000000000
11
-49.9034739454094
21
13.7256768380358
31
0.000000000000000
  0
LINE
  5
F10A41
330
F10A42
100
AcDbEntity
8
Geo
100
AcDbLine
10
-49.9034739454094
20
2.68796986227044
30
0.000000000000000
11
-49.8034739454094
21
2.60943047457632
31
0.000000000000000
  0
LINE
  5
F10A43
330
F10A44
100
AcDbEntity
8
Geo
100
AcDbLine
10
-49.9034739454094
20
13.7256768380358
30
0.000000000000000
11
-49.8034739454094
21
13.6752939744553
31
0.000000000000000
  0
LINE
  5
F10A45
330
F10A46
100
AcDbEntity
8
Geo
100
AcDbLine
10
-49.8034739454094
20
2.60943047457632
30
0.000000000000000
11
-49.7034739454094
21
2.53148414106918
31
0.000000000000000
  0
LINE
  5
F10A47
330
F10A48
100
AcDbEntity
8
Geo
100
AcDbLine
10
-49.8034739454094
20
13.6752939744553
30
0.000000000000000
11
-49.7034739454094
21
13.6239983854174
31
0.000000000000000
  0
LINE
  5
F10A49
330
F10A4A
100
AcDbEntity
8
Geo
100
AcDbLine
10
-49.7034739454094
20
2.53148414106918
30
0.000000000000000
11
-49.6034739454094
21
2.45414146824188
31
0.000000000000000
  0
LINE
  5
F10A4B
330
F10A4C
100
AcDbEntity
8
Geo
100
AcDbLine
10
-49.7034739454094
20
13.6239983854174
30
0.000000000000000
11
-49.6034739454094
21
13.5717970509338
31
0.000000000000000
  0
LINE
  5
F10A4D
330
F10A4E
100
AcDbEntity
8
Geo
100
AcDbLine
10
-49.6034739454094
20
2.45414146824188
30
0.000000000000000
11
-49.5034739454094
21
2.37741298044460
31
0.000000000000000
  0
LINE
  5
F10A4F
330
F10A50
100
AcDbEntity
8
Geo
100
AcDbLine
10
-49.6034739454094
20
13.5717970509338
30
0.000000000000000
11
-49.5034739454094
21
13.5186970742644
31
0.000000000000000
  0
LINE
  5
F10A51
330
F10A52
100
AcDbEntity
8
Geo
100
AcDbLine
10
-49.5034739454094
20
2.37741298044460
30
0.000000000000000
11
-49.4034739454094
21
2.30130911845270
31
0.000000000000000
  0
LINE
  5
F10A53
330
F10A54
100
AcDbEntity
8
Geo
100
AcDbLine
10
-49.5034739454094
20
13.5186970742644
30
0.000000000000000
11
-49.4034739454094
21
13.4647056809516
31
0.000000000000000
  0
LINE
  5
F10A55
330
F10A56
100
AcDbEntity
8
Geo
100
AcDbLine
10
-49.4034739454094
20
2.30130911845270
30
0.000000000000000
11
-49.3034739454094
21
2.22584023804603
31
0.000000000000000
  0
LINE
  5
F10A57
330
F10A58
100
AcDbEntity
8
Geo
100
AcDbLine
10
-49.4034739454094
20
13.4647056809516
30
0.000000000000000
11
-49.3034739454094
21
13.4098302178364
31
0.000000000000000
  0
LINE
  5
F10A59
330
F10A5A
100
AcDbEntity
8
Geo
100
AcDbLine
10
-49.3034739454094
20
2.22584023804603
30
0.000000000000000
11
-49.2034739454094
21
2.15101660859977
31
0.000000000000000
  0
LINE
  5
F10A5B
330
F10A5C
100
AcDbEntity
8
Geo
100
AcDbLine
10
-49.3034739454094
20
13.4098302178364
30
0.000000000000000
11
-49.2034739454094
21
13.3540781520591
31
0.000000000000000
  0
LINE
  5
F10A5D
330
F10A5E
100
AcDbEntity
8
Geo
100
AcDbLine
10
-49.2034739454094
20
2.15101660859977
30
0.000000000000000
11
-49.1034739454094
21
2.07684841168701
31
0.000000000000000
  0
LINE
  5
F10A5F
330
F10A60
100
AcDbEntity
8
Geo
100
AcDbLine
10
-49.2034739454094
20
13.3540781520591
30
0.000000000000000
11
-49.1034739454094
21
13.2974570700432
31
0.000000000000000
  0
LINE
  5
F10A61
330
F10A62
100
AcDbEntity
8
Geo
100
AcDbLine
10
-49.1034739454094
20
2.07684841168701
30
0.000000000000000
11
-49.0034739454094
21
2.00334573969332
31
0.000000000000000
  0
LINE
  5
F10A63
330
F10A64
100
AcDbEntity
8
Geo
100
AcDbLine
10
-49.1034739454094
20
13.2974570700432
30
0.000000000000000
11
-49.0034739454094
21
13.2399746764627
31
0.000000000000000
  0
LINE
  5
F10A65
330
F10A66
100
AcDbEntity
8
Geo
100
AcDbLine
10
-49.0034739454094
20
2.00334573969332
30
0.000000000000000
11
-48.9034739454094
21
1.93051859444346
31
0.000000000000000
  0
LINE
  5
F10A67
330
F10A68
100
AcDbEntity
8
Geo
100
AcDbLine
10
-49.0034739454094
20
13.2399746764627
30
0.000000000000000
11
-48.9034739454094
21
13.1816387931944
31
0.000000000000000
  0
LINE
  5
F10A69
330
F10A6A
100
AcDbEntity
8
Geo
100
AcDbLine
10
-48.9034739454094
20
1.93051859444346
30
0.000000000000000
11
-48.8034739454094
21
1.85837688584031
31
0.000000000000000
  0
LINE
  5
F10A6B
330
F10A6C
100
AcDbEntity
8
Geo
100
AcDbLine
10
-48.9034739454094
20
13.1816387931944
30
0.000000000000000
11
-48.8034739454094
21
13.1224573582526
31
0.000000000000000
  0
LINE
  5
F10A6D
330
F10A6E
100
AcDbEntity
8
Geo
100
AcDbLine
10
-48.8034739454094
20
1.85837688584031
30
0.000000000000000
11
-48.7034739454094
21
1.78693043051648
31
0.000000000000000
  0
LINE
  5
F10A6F
330
F10A70
100
AcDbEntity
8
Geo
100
AcDbLine
10
-48.8034739454094
20
13.1224573582526
30
0.000000000000000
11
-48.7034739454094
21
13.0624384247099
31
0.000000000000000
  0
LINE
  5
F10A71
330
F10A72
100
AcDbEntity
8
Geo
100
AcDbLine
10
-48.7034739454094
20
1.78693043051648
30
0.000000000000000
11
-48.6034739454094
21
1.71618895049846
31
0.000000000000000
  0
LINE
  5
F10A73
330
F10A74
100
AcDbEntity
8
Geo
100
AcDbLine
10
-48.7034739454094
20
13.0624384247099
30
0.000000000000000
11
-48.6034739454094
21
13.0015901596007
31
0.000000000000000
  0
LINE
  5
F10A75
330
F10A76
100
AcDbEntity
8
Geo
100
AcDbLine
10
-48.6034739454094
20
1.71618895049846
30
0.000000000000000
11
-48.5034739454094
21
1.64616207188371
31
0.000000000000000
  0
LINE
  5
F10A77
330
F10A78
100
AcDbEntity
8
Geo
100
AcDbLine
10
-48.6034739454094
20
13.0015901596007
30
0.000000000000000
11
-48.5034739454094
21
12.9399208428101
31
0.000000000000000
  0
LINE
  5
F10A79
330
F10A7A
100
AcDbEntity
8
Geo
100
AcDbLine
10
-48.5034739454094
20
1.64616207188371
30
0.000000000000000
11
-48.4034739454094
21
1.57685932353082
31
0.000000000000000
  0
LINE
  5
F10A7B
330
F10A7C
100
AcDbEntity
8
Geo
100
AcDbLine
10
-48.5034739454094
20
12.9399208428101
30
0.000000000000000
11
-48.4034739454094
21
12.8774388659473
31
0.000000000000000
  0
LINE
  5
F10A7D
330
F10A7E
100
AcDbEntity
8
Geo
100
AcDbLine
10
-48.4034739454094
20
1.57685932353082
30
0.000000000000000
11
-48.3034739454094
21
1.50829013576284
31
0.000000000000000
  0
LINE
  5
F10A7F
330
F10A80
100
AcDbEntity
8
Geo
100
AcDbLine
10
-48.4034739454094
20
12.8774388659473
30
0.000000000000000
11
-48.3034739454094
21
12.8141527312037
31
0.000000000000000
  0
LINE
  5
F10A81
330
F10A82
100
AcDbEntity
8
Geo
100
AcDbLine
10
-68.2034739454094
20
6.96774193548400
30
0.000000000000000
11
-68.2034739454094
21
6.96774193548400
31
0.000000000000000
  0
LINE
  5
F10A83
330
F10A84
100
AcDbEntity
8
Geo
100
AcDbLine
10
-68.2034739454094
20
6.96774193548400
30
0.000000000000000
11
-68.2034739454094
21
6.96774193548400
31
0.000000000000000
  0
LINE
  5
F10A85
330
F10A86
100
AcDbEntity
8
Geo
100
AcDbLine
10
81.7965260545906
20
14.4677419354840
30
0.000000000000000
11
81.7965260545906
21
6.96774193548400
31
0.000000000000000
  0
ARC
  5
F10A87
330
F10A88
100
AcDbEntity
8
Geo
100
AcDbCircle
10
-60.2034739454094
20
6.96774193548400
30
0.000000000000000
 40
8.00000000000000
100
AcDbArc
 50
180.000000000000
 51
270.000000000000
  0
LINE
  5
F10A89
330
F10A8A
100
AcDbEntity
8
Geo
100
AcDbLine
10
-60.2034739454094
20
-1.03225806451600
30
0.000000000000000
11
-48.2034739454094
21
-1.03225806451600
31
0.000000000000000
  0
LINE
  5
F10A8B
330
F10A8C
100
AcDbEntity
8
Geo
100
AcDbLine
10
-48.2034739454094
20
-1.03225806451600
30
0.000000000000000
11
-48.2034739454094
21
-0.732258064516000
31
0.000000000000000
  0
LINE
  5
F10A8D
330
F10A8E
100
AcDbEntity
8
Geo
100
AcDbLine
10
-48.2034739454094
20
-0.732258064516000
30
0.000000000000000
11
31.7965260545906
21
-0.732258064516000
31
0.000000000000000
  0
LINE
  5
F10A8F
330
F10A90
100
AcDbEntity
8
Geo
100
AcDbLine
10
31.7965260545906
20
-0.732258064516000
30
0.000000000000000
11
31.7965260545906
21
-1.03225806451600
31
0.000000000000000
  0
LINE
  5
F10A91
330
F10A92
100
AcDbEntity
8
Geo
100
AcDbLine
10
31.7965260545906
20
-1.03225806451600
30
0.000000000000000
11
81.2965260545906
21
-1.03225806451600
31
0.000000000000000
  0
LINE
  5
F10A93
330
F10A94
100
AcDbEntity
8
Geo
100
AcDbLine
10
81.2965260545906
20
-1.03225806451600
30
0.000000000000000
11
81.7965260545906
21
-0.532258064516000
31
0.000000000000000
  0
LINE
  5
F10A95
330
F10A96
100
AcDbEntity
8
Geo
100
AcDbLine
10
-60.2034739454094
20
14.9677419354840
30
0.000000000000000
11
-60.2034739454094
21
-1.03225806451600
31
0.000000000000000
  0
LINE
  5
F10A97
330
F10A98
100
AcDbEntity
8
Geo
100
AcDbLine
10
-48.2034739454094
20
14.9677419354840
30
0.000000000000000
11
-48.2034739454094
21
-1.03225806451600
31
0.000000000000000
  0
LINE
  5
F10A99
330
F10A9A
100
AcDbEntity
8
Geo
100
AcDbLine
10
-48.2034739454094
20
14.6677419354840
30
0.000000000000000
11
-48.2034739454094
21
-0.732258064516000
31
0.000000000000000
  0
LINE
  5
F10A9B
330
F10A9C
100
AcDbEntity
8
Geo
100
AcDbLine
10
31.7965260545906
20
14.6677419354840
30
0.000000000000000
11
31.7965260545906
21
-0.732258064516000
31
0.000000000000000
  0
LINE
  5
F10A9D
330
F10A9E
100
AcDbEntity
8
Geo
100
AcDbLine
10
81.2965260545906
20
14.9677419354840
30
0.000000000000000
11
81.2965260545906
21
-1.03225806451600
31
0.000000000000000
  0
LINE
  5
F10A9F
330
F10AA0
100
AcDbEntity
8
Geo
100
AcDbLine
10
81.7965260545906
20
14.4677419354840
30
0.000000000000000
11
81.7965260545906
21
-0.532258064516000
31
0.000000000000000
  0
LWPOLYLINE
  5
F10AA1
330
F10AA2
100
AcDbEntity
8
Rahmen
100
AcDbPolyline
90
   4
70
   1
43
   0.0
 10
-170.977667493797
 20
108.000000000000
 10
-170.977667493797
 20
108.000000000000
 10
-170.977667493797
 20
108.000000000000
 10
-170.977667493797
 20
108.000000000000
  0
TEXT
  5
F10AA3
330
F10AA4
 100
AcDbEntity
8
Text
100
AcDbText
10
-170.977667493797
20
108.500000000000
30
0.000000000000000
40
1.00000000000000
1
 -       
100
AcDbText
  0
LWPOLYLINE
  5
F10AA5
330
F10AA6
100
AcDbEntity
8
Rahmen
100
AcDbPolyline
90
   4
70
   1
43
   0.0
 10
-125.687344913151
 20
102.908188585608
 10
134.263027295285
 20
102.908188585608
 10
134.263027295285
 20
-103.176178660050
 10
-125.687344913151
 20
-103.176178660050
  0
TEXT
  5
F10AA7
330
F10AA8
 100
AcDbEntity
8
Text
100
AcDbText
10
-124.615384615385
20
-102.676178660050
30
0.000000000000000
40
1.00000000000000
1
ISBESketcher
100
AcDbText
  0
LWPOLYLINE
  5
F10AA9
330
F10AAA
100
AcDbEntity
8
Rahmen
100
AcDbPolyline
90
   4
70
   1
43
   0.0
 10
94.3325062034740
 20
-100.228287841191
 10
134.263027295285
 20
-100.228287841191
 10
134.263027295285
 20
-103.176178660050
 10
94.3325062034740
 20
-103.176178660050
  0
TEXT
  5
F10AAB
330
F10AAC
 100
AcDbEntity
8
Text
100
AcDbText
10
95.4044665012407
20
-101.228287841191
30
0.000000000000000
40
0.750000000000000
1
Created by:
100
AcDbText
  0
TEXT
  5
F10AAD
330
F10AAE
 100
AcDbEntity
8
Text
100
AcDbText
10
118.987593052109
20
-101.228287841191
30
0.000000000000000
40
0.750000000000000
1
nsarkol
100
AcDbText
  0
LWPOLYLINE
  5
F10AAF
330
F10AB0
100
AcDbEntity
8
Rahmen
100
AcDbPolyline
90
   4
70
   1
43
   0.0
 10
54.4019851116625
 20
-100.228287841191
 10
94.3325062034740
 20
-100.228287841191
 10
94.3325062034740
 20
-103.176178660050
 10
54.4019851116625
 20
-103.176178660050
  0
TEXT
  5
F10AB1
330
F10AB2
 100
AcDbEntity
8
Text
100
AcDbText
10
55.4739454094293
20
-101.228287841191
30
0.000000000000000
40
0.750000000000000
1
Created for:
100
AcDbText
  0
TEXT
  5
F10AB3
330
F10AB4
 100
AcDbEntity
8
Text
100
AcDbText
10
82.2729528535980
20
-102.568238213400
30
0.000000000000000
40
0.750000000000000
1

100
AcDbText
  0
LWPOLYLINE
  5
F10AB5
330
F10AB6
100
AcDbEntity
8
Rahmen
100
AcDbPolyline
90
   4
70
   1
43
   0.0
 10
121.131513647643
 20
-97.0124069478908
 10
134.263027295285
 20
-97.0124069478908
 10
134.263027295285
 20
-100.228287841191
 10
121.131513647643
 20
-100.228287841191
  0
TEXT
  5
F10AB7
330
F10AB8
 100
AcDbEntity
8
Text
100
AcDbText
10
121.935483870968
20
-98.0124069478908
30
0.000000000000000
40
0.750000000000000
1
Pages
100
AcDbText
  0
TEXT
  5
F10AB9
330
F10ABA
 100
AcDbEntity
8
Text
100
AcDbText
10
132.119106699752
20
-99.3523573200993
30
0.000000000000000
40
0.750000000000000
1

100
AcDbText
  0
LWPOLYLINE
  5
F10ABB
330
F10ABC
100
AcDbEntity
8
Rahmen
100
AcDbPolyline
90
   4
70
   1
43
   0.0
 10
121.131513647643
 20
-94.0645161290323
 10
134.263027295285
 20
-94.0645161290323
 10
134.263027295285
 20
-97.0124069478908
 10
121.131513647643
 20
-97.0124069478908
  0
TEXT
  5
F10ABD
330
F10ABE
 100
AcDbEntity
8
Text
100
AcDbText
10
121.935483870968
20
-95.0645161290323
30
0.000000000000000
40
0.750000000000000
1
Page
100
AcDbText
  0
TEXT
  5
F10ABF
330
F10AC0
 100
AcDbEntity
8
Text
100
AcDbText
10
132.119106699752
20
-96.4044665012407
30
0.000000000000000
40
0.750000000000000
1

100
AcDbText
  0
LWPOLYLINE
  5
F10AC1
330
F10AC2
100
AcDbEntity
8
Rahmen
100
AcDbPolyline
90
   4
70
   1
43
   0.0
 10
54.4019851116625
 20
-94.0645161290323
 10
121.131513647643
 20
-94.0645161290323
 10
121.131513647643
 20
-100.228287841191
 10
54.4019851116625
 20
-100.228287841191
  0
TEXT
  5
F10AC3
330
F10AC4
 100
AcDbEntity
8
Text
100
AcDbText
10
55.4739454094293
20
-95.0645161290323
30
0.000000000000000
40
0.750000000000000
1
Date:
100
AcDbText
  0
TEXT
  5
F10AC5
330
F10AC6
 100
AcDbEntity
8
Text
100
AcDbText
10
82.8089330024814
20
-98.0124069478908
30
0.000000000000000
40
0.750000000000000
1
05.07.2016
100
AcDbText
  0
LWPOLYLINE
  5
F10AC7
330
F10AC8
100
AcDbEntity
8
Rahmen
100
AcDbPolyline
90
   4
70
   1
43
   0.0
 10
54.4019851116625
 20
-88.1687344913151
 10
134.263027295285
 20
-88.1687344913151
 10
134.263027295285
 20
-94.0645161290323
 10
54.4019851116625
 20
-94.0645161290323
  0
TEXT
  5
F10AC9
330
F10ACA
 100
AcDbEntity
8
Text
100
AcDbText
10
-170.977667493797
20
106.000000000000
30
0.000000000000000
40
1.50000000000000
1

100
AcDbText
  0
TEXT
  5
F10ACB
330
F10ACC
 100
AcDbEntity
8
Text
100
AcDbText
10
75.3052109181141
20
-91.7700578990902
30
0.000000000000000
40
2.50000000000000
1
VHKF41601501603
100
AcDbText
  0
LWPOLYLINE
  5
F10ACD
330
F10ACE
100
AcDbEntity
8
Rahmen
100
AcDbPolyline
90
   4
70
   1
43
   0.0
 10
94.3325062034740
 20
-82.0049627791563
 10
134.263027295285
 20
-82.0049627791563
 10
134.263027295285
 20
-88.1687344913151
 10
94.3325062034740
 20
-88.1687344913151
  0
TEXT
  5
F10ACF
330
F10AD0
 100
AcDbEntity
8
Text
100
AcDbText
10
95.4044665012407
20
-83.0049627791563
30
0.000000000000000
40
0.750000000000000
1
Work piece material:
100
AcDbText
  0
TEXT
  5
F10AD1
330
F10AD2
 100
AcDbEntity
8
Text
100
AcDbText
10
114.163771712159
20
-87.5607940446650
30
0.000000000000000
40
0.750000000000000
1

100
AcDbText
  0
LWPOLYLINE
  5
F10AD3
330
F10AD4
100
AcDbEntity
8
Rahmen
100
AcDbPolyline
90
   4
70
   1
43
   0.0
 10
54.4019851116625
 20
-82.0049627791563
 10
94.3325062034740
 20
-82.0049627791563
 10
94.3325062034740
 20
-88.1687344913151
 10
54.4019851116625
 20
-88.1687344913151
  0
TEXT
  5
F10AD5
330
F10AD6
 100
AcDbEntity
8
Text
100
AcDbText
10
55.4739454094293
20
-83.0049627791563
30
0.000000000000000
40
0.750000000000000
1
Tool material:
100
AcDbText
  0
TEXT
  5
F10AD7
330
F10AD8
 100
AcDbEntity
8
Text
100
AcDbText
10
74.2332506203474
20
-87.5607940446650
30
0.000000000000000
40
0.750000000000000
1

100
AcDbText
  0
LWPOLYLINE
  5
F10AD9
330
F10ADA
100
AcDbEntity
8
Rahmen
100
AcDbPolyline
90
   4
70
   1
43
   0.0
 10
94.3325062034740
 20
-79.0570719602978
 10
134.263027295285
 20
-79.0570719602978
 10
134.263027295285
 20
-82.0049627791563
 10
94.3325062034740
 20
-82.0049627791563
  0
TEXT
  5
F10ADB
330
F10ADC
 100
AcDbEntity
8
Text
100
AcDbText
10
-170.977667493797
20
106.000000000000
30
0.000000000000000
40
1.50000000000000
1

100
AcDbText
  0
TEXT
  5
F10ADD
330
F10ADE
 100
AcDbEntity
8
Text
100
AcDbText
10
114.163771712159
20
-81.3970223325062
30
0.000000000000000
40
0.750000000000000
1

100
AcDbText
  0
LWPOLYLINE
  5
F10ADF
330
F10AE0
100
AcDbEntity
8
Rahmen
100
AcDbPolyline
90
   4
70
   1
43
   0.0
 10
54.4019851116625
 20
-79.0570719602978
 10
94.3325062034740
 20
-79.0570719602978
 10
94.3325062034740
 20
-82.0049627791563
 10
54.4019851116625
 20
-82.0049627791563
  0
TEXT
  5
F10AE1
330
F10AE2
 100
AcDbEntity
8
Text
100
AcDbText
10
55.4739454094293
20
-80.0570719602978
30
0.000000000000000
40
0.750000000000000
1
Scale:
100
AcDbText
  0
TEXT
  5
F10AE3
330
F10AE4
 100
AcDbEntity
8
Text
100
AcDbText
10
80.3970223325062
20
-80.0570719602978
30
0.000000000000000
40
0.750000000000000
1
1 : 1
100
AcDbText
0
VIEWPORT
5
294
102
{ACAD_XDICTIONARY
360
58A
102
}
330
25D
100
AcDbEntity
67
1
8
0
60
1
100
AcDbViewport
10
0.0
20
0.0
30
0.0
40
10.0
41
10.0
68
-1
69
1
12
0.0
22
0.0
13
0.0
23
0.0
14
1.0
24
1.0
15
0.0
25
0.0
16
0.0
26
0.0
36
1.0
17
0.0
27
0.0
37
0.0
42
0.0
43
0.0
44
0.0
45
10.0
50
0.0
51
0.0000000000007958
72
100
90
32800
1

281
0
71
0
74
0
110
0.0
120
0.0
130
0.0
111
1.0
121
0.0
131
0.0
112
0.0
122
1.0
132
0.0
79
0
146
0.0
1001
VD_INVISIBLE_NOT_FOR_READ
1000
VD_INVISIBLE_NOT_FOR_READ
0
VIEWPORT
5
295
102
{ACAD_XDICTIONARY
360
58C
102
}
330
25D
100
AcDbEntity
67
1
8
0
60
1
100
AcDbViewport
10
0.0
20
0.0
30
0.0
40
10.0
41
10.0
68
0
69
2
12
0.0
22
0.0
13
0.0
23
0.0
14
1.0
24
1.0
15
0.0
25
0.0
16
0.0
26
0.0
36
1.0
17
0.0
27
0.0
37
0.0
42
0.0
43
0.0
44
0.0
45
10.0
50
0.0
51
0.0000000000007958
72
100
90
163872
1

281
0
71
0
74
0
110
0.0
120
0.0
130
0.0
111
1.0
121
0.0
131
0.0
112
0.0
122
1.0
132
0.0
79
0
146
0.0
1001
VD_INVISIBLE_NOT_FOR_READ
1000
VD_INVISIBLE_NOT_FOR_READ
0
ENDSEC
0
SECTION
2
OBJECTS
0
DICTIONARY
5
13
330
0
100
AcDbDictionary
281
1
3
ACAD_COLOR
350
FA7
3
ACAD_GROUP
350
14
3
ACAD_LAYOUT
350
FCF
3
ACAD_MATERIAL
350
F7A
3
ACAD_MLEADERSTYLE
350
FCD
3
ACAD_MLINESTYLE
350
16
3
ACAD_PLOTSETTINGS
350
17
3
ACAD_PLOTSTYLENAME
350
18
3
ACAD_SCALELIST
350
FAB
3
ACAD_TABLESTYLE
350
FA8
3
ACAD_VISUALSTYLE
350
F93
3
ACDB_RECOMPOSE_DATA
350
107E
3
AcDbVariableDictionary
350
FF0
3
DWGPROPS
350
107F
0
DICTIONARY
5
F10014
330
F10013
100
AcDbDictionary
280
1
281
1
3
ACAD_MTEXT_2008_RT
360
F10015
0
DICTIONARY
5
F10019
330
F10018
100
AcDbDictionary
280
1
281
1
3
ACAD_MTEXT_2008_RT
360
F1001A
0
DICTIONARY
5
F10023
330
F10022
100
AcDbDictionary
280
1
281
1
3
ACAD_MTEXT_2008_RT
360
F10024
0
DICTIONARY
5
F10028
330
F10027
100
AcDbDictionary
280
1
281
1
3
ACAD_MTEXT_2008_RT
360
F10029
0
DICTIONARY
5
F1000A
330
F10009
100
AcDbDictionary
280
1
281
1
3
ACAD_MTEXT_2008_RT
360
F1000B
0
DICTIONARY
5
F10005
330
F10004
100
AcDbDictionary
280
1
281
1
3
ACAD_MTEXT_2008_RT
360
F10006
0
DICTIONARY
5
F1000F
330
F1000E
100
AcDbDictionary
280
1
281
1
3
ACAD_MTEXT_2008_RT
360
F10010
0
DICTIONARY
5
F1001E
330
F1001D
100
AcDbDictionary
280
1
281
1
3
ACAD_MTEXT_2008_RT
360
F1001F
0
DICTIONARY
5
FA7
102
{ACAD_REACTORS
330
13
102
}
330
13
100
AcDbDictionary
281
1
0
DICTIONARY
5
14
330
13
100
AcDbDictionary
281
1
0
DICTIONARY
5
FCF
102
{ACAD_REACTORS
330
13
102
}
330
13
100
AcDbDictionary
281
1
3
Layout1
350
FD1
3
Model
350
FD0
0
DICTIONARY
5
F7A
102
{ACAD_REACTORS
330
13
102
}
330
13
100
AcDbDictionary
281
1
3
ByBlock
350
F83
3
ByLayer
350
F7B
3
Global
350
F8B
0
DICTIONARY
5
FCD
102
{ACAD_REACTORS
330
13
102
}
330
13
100
AcDbDictionary
281
1
3
Standard
350
FCE
0
DICTIONARY
5
16
330
13
100
AcDbDictionary
281
1
3
Standard
350
FAA
0
DICTIONARY
5
17
102
{ACAD_REACTORS
330
13
102
}
330
13
100
AcDbDictionary
281
1
0
ACDBDICTIONARYWDFLT
5
18
102
{ACAD_REACTORS
330
13
102
}
330
13
100
AcDbDictionary
281
1
3
Normal
350
19
100
AcDbDictionaryWithDefault
340
19
0
DICTIONARY
5
FAB
102
{ACAD_REACTORS
330
13
102
}
330
13
100
AcDbDictionary
281
1
3
A0
350
FAC
3
A1
350
FAD
3
A2
350
FAE
3
A3
350
FAF
3
A4
350
FB0
3
A5
350
FB1
3
A6
350
FB2
3
A7
350
FB3
3
A8
350
FB4
3
A9
350
FB5
3
B0
350
FB6
3
B1
350
FB7
3
B2
350
FB8
3
B3
350
FB9
3
B4
350
FBA
3
B5
350
FBB
3
B6
350
FBC
3
B7
350
FBD
3
B8
350
FBE
3
B9
350
FBF
3
C0
350
FC0
3
C1
350
FC1
3
C2
350
FC2
3
C3
350
FC3
3
C4
350
FC4
3
C5
350
FC5
3
C6
350
FC6
3
C7
350
FC7
3
C8
350
FC8
3
C9
350
FC9
3
D0
350
FCA
3
D1
350
FCB
3
D2
350
FCC
0
DICTIONARY
5
FA8
102
{ACAD_REACTORS
330
13
102
}
330
13
100
AcDbDictionary
281
1
3
Standard
350
FA9
0
DICTIONARY
5
F93
102
{ACAD_REACTORS
330
13
102
}
330
13
100
AcDbDictionary
281
1
3
2dWireframe
350
F99
3
3D Hidden
350
F9B
3
3dWireframe
350
F9A
3
Basic
350
F98
3
Brighten
350
F9F
3
ColorChange
350
FA3
3
Conceptual
350
F9C
3
Dim
350
F9E
3
EdgeColorOff
350
FA6
3
Facepattern
350
FA2
3
Flat
350
F94
3
FlatWithEdges
350
F95
3
Gouraud
350
F96
3
GouraudWithEdges
350
F97
3
JitterOff
350
FA4
3
Linepattern
350
FA1
3
OverhangOff
350
FA5
3
Realistic
350
F9D
3
Thicken
350
FA0
0
XRECORD
5
107E
102
{ACAD_REACTORS
330
13
102
}
330
13
100
AcDbXrecord
280
1
90
1
330
FA9
330
F10013
330
F10018
330
F10022
330
F10027
330
F10009
330
F10004
330
F1000E
330
F1001D
0
DICTIONARY
5
FF0
102
{ACAD_REACTORS
330
13
102
}
330
13
100
AcDbDictionary
281
1
3
CANNOSCALE
350
FF3
3
CMLEADERSTYLE
350
FF2
3
CTABLESTYLE
350
FF1
3
DIMASSOC
350
FF6
3
INDEXCTL
350
FF5
3
SORTENTS
350
FF4
3
XCLIPFRAME
350
1078
0
XRECORD
5
107F
102
{ACAD_REACTORS
330
13
102
}
330
13
100
AcDbXrecord
280
1
1
DWGPROPS COOKIE
2

3

4

6

7

8

9

300
=
301
=
302
=
303
=
304
=
305
=
306
=
307
=
308
=
309
=
40
0.0
41
0.0
42
0.0
1

90
0
0
XRECORD
5
F10015
102
{ACAD_REACTORS
330
F10014
102
}
330
F10014
100
AcDbXrecord
280
1
40
48458.0
1
\A1;100
0
XRECORD
5
F1001A
102
{ACAD_REACTORS
330
F10019
102
}
330
F10019
100
AcDbXrecord
280
1
40
48458.0
1
\A1;50
0
XRECORD
5
F10024
102
{ACAD_REACTORS
330
F10023
102
}
330
F10023
100
AcDbXrecord
280
1
40
48458.0
1
\A1;20
0
XRECORD
5
F10029
102
{ACAD_REACTORS
330
F10028
102
}
330
F10028
100
AcDbXrecord
280
1
40
48458.0
1
\A1;150
0
XRECORD
5
F1000B
102
{ACAD_REACTORS
330
F1000A
102
}
330
F1000A
100
AcDbXrecord
280
1
40
48458.0
1
\A1;R8
0
XRECORD
5
F10006
102
{ACAD_REACTORS
330
F10005
102
}
330
F10005
100
AcDbXrecord
280
1
40
48458.0
1
\A1;16
0
XRECORD
5
F10010
102
{ACAD_REACTORS
330
F1000F
102
}
330
F1000F
100
AcDbXrecord
280
1
40
48458.0
1
\A1;15.4
0
LAYOUT
5
FD1
102
{ACAD_XDICTIONARY
360
10A9
102
}
102
{ACAD_REACTORS
330
FCF
102
}
330
FCF
100
AcDbPlotSettings
1

2
Microsoft XPS Document Writer
4

6

40
0.0
41
0.0
42
0.0
43
0.0
44
0.0
45
0.0
46
0.0
47
0.0
48
0.0
49
0.0
140
0.0
141
0.0
142
1.0
143
1.0
70
688
72
0
73
0
74
5
7

75
16
147
1.0
148
0.0
149
0.0
100
AcDbLayout
1
Layout1
70
1
71
1
10
0.0
20
0.0
11
12.0
21
9.0
12
0.0
22
0.0
32
0.0
14
1.000000000000000E+20
24
1.000000000000000E+20
34
1.000000000000000E+20
15
-1.000000000000000E+20
25
-1.000000000000000E+20
35
-1.000000000000000E+20
146
0.0
13
0.0
23
0.0
33
0.0
16
1.0
26
0.0
36
0.0
17
0.0
27
1.0
37
0.0
76
0
330
25D
0
LAYOUT
5
FD0
102
{ACAD_XDICTIONARY
360
10A7
102
}
102
{ACAD_REACTORS
330
FCF
102
}
330
FCF
100
AcDbPlotSettings
1

2
Microsoft XPS Document Writer
4

6

40
0.0
41
0.0
42
0.0
43
0.0
44
0.0
45
0.0
46
0.0
47
0.0
48
0.0
49
0.0
140
0.0
141
0.0
142
1.0
143
1.0
70
1712
72
0
73
0
74
0
7

75
0
147
1.0
148
0.0
149
0.0
100
AcDbLayout
1
Model
70
1
71
0
10
0.0
20
0.0
11
12.0
21
9.0
12
0.0
22
0.0
32
0.0
14
0.0
24
0.0
34
0.0
15
0.0
25
0.0
35
0.0
146
0.0
13
0.0
23
0.0
33
0.0
16
1.0
26
0.0
36
0.0
17
0.0
27
1.0
37
0.0
76
0
330
261
331
26B
0
MATERIAL
5
F83
102
{ACAD_XDICTIONARY
360
F84
102
}
102
{ACAD_REACTORS
330
F7A
102
}
330
F7A
100
AcDbMaterial
1
ByBlock
72
0
43
0.0208333333333333
43
0.0
43
0.0
43
0.0
43
0.0
43
0.0208333333333333
43
0.0
43
0.0
43
0.0
43
0.0
43
1.0
43
0.0
43
0.0
43
0.0
43
0.0
43
1.0
77
0
47
0.0208333333333333
47
0.0
47
0.0
47
0.0
47
0.0
47
0.0208333333333333
47
0.0
47
0.0
47
0.0
47
0.0
47
1.0
47
0.0
47
0.0
47
0.0
47
0.0
47
1.0
171
0
49
0.0208333333333333
49
0.0
49
0.0
49
0.0
49
0.0
49
0.0208333333333333
49
0.0
49
0.0
49
0.0
49
0.0
49
1.0
49
0.0
49
0.0
49
0.0
49
0.0
49
1.0
175
0
142
0.0208333333333333
142
0.0
142
0.0
142
0.0
142
0.0
142
0.0208333333333333
142
0.0
142
0.0
142
0.0
142
0.0
142
1.0
142
0.0
142
0.0
142
0.0
142
0.0
142
1.0
179
0
144
0.0208333333333333
144
0.0
144
0.0
144
0.0
144
0.0
144
0.0208333333333333
144
0.0
144
0.0
144
0.0
144
0.0
144
1.0
144
0.0
144
0.0
144
0.0
144
0.0
144
1.0
147
0.0208333333333333
147
0.0
147
0.0
147
0.0
147
0.0
147
0.0208333333333333
147
0.0
147
0.0
147
0.0
147
0.0
147
1.0
147
0.0
147
0.0
147
0.0
147
0.0
147
1.0
0
MATERIAL
5
F7B
102
{ACAD_XDICTIONARY
360
F7C
102
}
102
{ACAD_REACTORS
330
F7A
102
}
330
F7A
100
AcDbMaterial
1
ByLayer
72
0
43
0.0208333333333333
43
0.0
43
0.0
43
0.0
43
0.0
43
0.0208333333333333
43
0.0
43
0.0
43
0.0
43
0.0
43
1.0
43
0.0
43
0.0
43
0.0
43
0.0
43
1.0
77
0
47
0.0208333333333333
47
0.0
47
0.0
47
0.0
47
0.0
47
0.0208333333333333
47
0.0
47
0.0
47
0.0
47
0.0
47
1.0
47
0.0
47
0.0
47
0.0
47
0.0
47
1.0
171
0
49
0.0208333333333333
49
0.0
49
0.0
49
0.0
49
0.0
49
0.0208333333333333
49
0.0
49
0.0
49
0.0
49
0.0
49
1.0
49
0.0
49
0.0
49
0.0
49
0.0
49
1.0
175
0
142
0.0208333333333333
142
0.0
142
0.0
142
0.0
142
0.0
142
0.0208333333333333
142
0.0
142
0.0
142
0.0
142
0.0
142
1.0
142
0.0
142
0.0
142
0.0
142
0.0
142
1.0
179
0
144
0.0208333333333333
144
0.0
144
0.0
144
0.0
144
0.0
144
0.0208333333333333
144
0.0
144
0.0
144
0.0
144
0.0
144
1.0
144
0.0
144
0.0
144
0.0
144
0.0
144
1.0
147
0.0208333333333333
147
0.0
147
0.0
147
0.0
147
0.0
147
0.0208333333333333
147
0.0
147
0.0
147
0.0
147
0.0
147
1.0
147
0.0
147
0.0
147
0.0
147
0.0
147
1.0
0
MATERIAL
5
F8B
102
{ACAD_XDICTIONARY
360
F8C
102
}
102
{ACAD_REACTORS
330
F7A
102
}
330
F7A
100
AcDbMaterial
1
Global
72
0
43
0.0208333333333333
43
0.0
43
0.0
43
0.0
43
0.0
43
0.0208333333333333
43
0.0
43
0.0
43
0.0
43
0.0
43
1.0
43
0.0
43
0.0
43
0.0
43
0.0
43
1.0
77
0
47
0.0208333333333333
47
0.0
47
0.0
47
0.0
47
0.0
47
0.0208333333333333
47
0.0
47
0.0
47
0.0
47
0.0
47
1.0
47
0.0
47
0.0
47
0.0
47
0.0
47
1.0
171
0
49
0.0208333333333333
49
0.0
49
0.0
49
0.0
49
0.0
49
0.0208333333333333
49
0.0
49
0.0
49
0.0
49
0.0
49
1.0
49
0.0
49
0.0
49
0.0
49
0.0
49
1.0
175
0
142
0.0208333333333333
142
0.0
142
0.0
142
0.0
142
0.0
142
0.0208333333333333
142
0.0
142
0.0
142
0.0
142
0.0
142
1.0
142
0.0
142
0.0
142
0.0
142
0.0
142
1.0
179
0
144
0.0208333333333333
144
0.0
144
0.0
144
0.0
144
0.0
144
0.0208333333333333
144
0.0
144
0.0
144
0.0
144
0.0
144
1.0
144
0.0
144
0.0
144
0.0
144
0.0
144
1.0
147
0.0208333333333333
147
0.0
147
0.0
147
0.0
147
0.0
147
0.0208333333333333
147
0.0
147
0.0
147
0.0
147
0.0
147
1.0
147
0.0
147
0.0
147
0.0
147
0.0
147
1.0
0
MLEADERSTYLE
5
FCE
102
{ACAD_REACTORS
330
FCD
102
}
330
FCD
100
AcDbMLeaderStyle
170
2
171
1
172
0
90
2
40
0.0
41
0.0
173
1
91
-1056964608
340
256
92
-2
290
1
42
0.09
291
1
43
0.36
3
Standard
44
0.18
300

342
253
174
1
178
6
175
1
176
0
93
-1056964608
45
0.18
292
0
297
0
46
0.18
94
-1056964608
47
1.0
49
1.0
140
1.0
293
1
141
0.0
294
1
177
0
142
1.0
295
0
296
0
143
0.125
1001
ACAD_MLEADERVER
1070
2
0
MLINESTYLE
5
FAA
102
{ACAD_REACTORS
330
16
102
}
330
16
100
AcDbMlineStyle
2
STANDARD
70
0
3

62
256
51
90.0
52
90.0
71
2
49
0.5
62
256
6
BYLAYER
49
-0.5
62
256
6
BYLAYER
0
ACDBPLACEHOLDER
5
19
102
{ACAD_REACTORS
330
18
102
}
330
18
0
SCALE
5
FAC
102
{ACAD_REACTORS
330
FAB
102
}
330
FAB
100
AcDbScale
70
0
300
1:1
140
1.0
141
1.0
290
1
0
SCALE
5
FAD
102
{ACAD_REACTORS
330
FAB
102
}
330
FAB
100
AcDbScale
70
0
300
1:2
140
1.0
141
2.0
290
0
0
SCALE
5
FAE
102
{ACAD_REACTORS
330
FAB
102
}
330
FAB
100
AcDbScale
70
0
300
1:4
140
1.0
141
4.0
290
0
0
SCALE
5
FAF
102
{ACAD_REACTORS
330
FAB
102
}
330
FAB
100
AcDbScale
70
0
300
1:5
140
1.0
141
5.0
290
0
0
SCALE
5
FB0
102
{ACAD_REACTORS
330
FAB
102
}
330
FAB
100
AcDbScale
70
0
300
1:8
140
1.0
141
8.0
290
0
0
SCALE
5
FB1
102
{ACAD_REACTORS
330
FAB
102
}
330
FAB
100
AcDbScale
70
0
300
1:10
140
1.0
141
10.0
290
0
0
SCALE
5
FB2
102
{ACAD_REACTORS
330
FAB
102
}
330
FAB
100
AcDbScale
70
0
300
1:16
140
1.0
141
16.0
290
0
0
SCALE
5
FB3
102
{ACAD_REACTORS
330
FAB
102
}
330
FAB
100
AcDbScale
70
0
300
1:20
140
1.0
141
20.0
290
0
0
SCALE
5
FB4
102
{ACAD_REACTORS
330
FAB
102
}
330
FAB
100
AcDbScale
70
0
300
1:30
140
1.0
141
30.0
290
0
0
SCALE
5
FB5
102
{ACAD_REACTORS
330
FAB
102
}
330
FAB
100
AcDbScale
70
0
300
1:40
140
1.0
141
40.0
290
0
0
SCALE
5
FB6
102
{ACAD_REACTORS
330
FAB
102
}
330
FAB
100
AcDbScale
70
0
300
1:50
140
1.0
141
50.0
290
0
0
SCALE
5
FB7
102
{ACAD_REACTORS
330
FAB
102
}
330
FAB
100
AcDbScale
70
0
300
1:100
140
1.0
141
100.0
290
0
0
SCALE
5
FB8
102
{ACAD_REACTORS
330
FAB
102
}
330
FAB
100
AcDbScale
70
0
300
2:1
140
2.0
141
1.0
290
0
0
SCALE
5
FB9
102
{ACAD_REACTORS
330
FAB
102
}
330
FAB
100
AcDbScale
70
0
300
4:1
140
4.0
141
1.0
290
0
0
SCALE
5
FBA
102
{ACAD_REACTORS
330
FAB
102
}
330
FAB
100
AcDbScale
70
0
300
8:1
140
8.0
141
1.0
290
0
0
SCALE
5
FBB
102
{ACAD_REACTORS
330
FAB
102
}
330
FAB
100
AcDbScale
70
0
300
10:1
140
10.0
141
1.0
290
0
0
SCALE
5
FBC
102
{ACAD_REACTORS
330
FAB
102
}
330
FAB
100
AcDbScale
70
0
300
100:1
140
100.0
141
1.0
290
0
0
SCALE
5
FBD
102
{ACAD_REACTORS
330
FAB
102
}
330
FAB
100
AcDbScale
70
0
300
1/128" = 1'-0"
140
0.0078125
141
12.0
290
0
0
SCALE
5
FBE
102
{ACAD_REACTORS
330
FAB
102
}
330
FAB
100
AcDbScale
70
0
300
1/64" = 1'-0"
140
0.015625
141
12.0
290
0
0
SCALE
5
FBF
102
{ACAD_REACTORS
330
FAB
102
}
330
FAB
100
AcDbScale
70
0
300
1/32" = 1'-0"
140
0.03125
141
12.0
290
0
0
SCALE
5
FC0
102
{ACAD_REACTORS
330
FAB
102
}
330
FAB
100
AcDbScale
70
0
300
1/16" = 1'-0"
140
0.0625
141
12.0
290
0
0
SCALE
5
FC1
102
{ACAD_REACTORS
330
FAB
102
}
330
FAB
100
AcDbScale
70
0
300
3/32" = 1'-0"
140
0.09375
141
12.0
290
0
0
SCALE
5
FC2
102
{ACAD_REACTORS
330
FAB
102
}
330
FAB
100
AcDbScale
70
0
300
1/8" = 1'-0"
140
0.125
141
12.0
290
0
0
SCALE
5
FC3
102
{ACAD_REACTORS
330
FAB
102
}
330
FAB
100
AcDbScale
70
0
300
3/16" = 1'-0"
140
0.1875
141
12.0
290
0
0
SCALE
5
FC4
102
{ACAD_REACTORS
330
FAB
102
}
330
FAB
100
AcDbScale
70
0
300
1/4" = 1'-0"
140
0.25
141
12.0
290
0
0
SCALE
5
FC5
102
{ACAD_REACTORS
330
FAB
102
}
330
FAB
100
AcDbScale
70
0
300
3/8" = 1'-0"
140
0.375
141
12.0
290
0
0
SCALE
5
FC6
102
{ACAD_REACTORS
330
FAB
102
}
330
FAB
100
AcDbScale
70
0
300
1/2" = 1'-0"
140
0.5
141
12.0
290
0
0
SCALE
5
FC7
102
{ACAD_REACTORS
330
FAB
102
}
330
FAB
100
AcDbScale
70
0
300
3/4" = 1'-0"
140
0.75
141
12.0
290
0
0
SCALE
5
FC8
102
{ACAD_REACTORS
330
FAB
102
}
330
FAB
100
AcDbScale
70
0
300
1" = 1'-0"
140
1.0
141
12.0
290
0
0
SCALE
5
FC9
102
{ACAD_REACTORS
330
FAB
102
}
330
FAB
100
AcDbScale
70
0
300
1-1/2" = 1'-0"
140
1.5
141
12.0
290
0
0
SCALE
5
FCA
102
{ACAD_REACTORS
330
FAB
102
}
330
FAB
100
AcDbScale
70
0
300
3" = 1'-0"
140
3.0
141
12.0
290
0
0
SCALE
5
FCB
102
{ACAD_REACTORS
330
FAB
102
}
330
FAB
100
AcDbScale
70
0
300
6" = 1'-0"
140
6.0
141
12.0
290
0
0
SCALE
5
FCC
102
{ACAD_REACTORS
330
FAB
102
}
330
FAB
100
AcDbScale
70
0
300
1'-0" = 1'-0"
140
12.0
141
12.0
290
0
0
TABLESTYLE
5
FA9
102
{ACAD_XDICTIONARY
360
FF8
102
}
102
{ACAD_REACTORS
330
FA8
102
}
330
FA8
100
AcDbTableStyle
3
Standard
70
0
71
0
40
0.06
41
0.06
280
0
281
0
7
Standard
140
0.18
170
2
62
0
63
7
283
0
274
-2
284
1
64
0
275
-2
285
1
65
0
276
-2
286
1
66
0
277
-2
287
1
67
0
278
-2
288
1
68
0
279
-2
289
1
69
0
7
Standard
140
0.25
170
5
62
0
63
7
283
0
274
-2
284
1
64
0
275
-2
285
1
65
0
276
-2
286
1
66
0
277
-2
287
1
67
0
278
-2
288
1
68
0
279
-2
289
1
69
0
7
Standard
140
0.18
170
5
62
0
63
7
283
0
274
-2
284
1
64
0
275
-2
285
1
65
0
276
-2
286
1
66
0
277
-2
287
1
67
0
278
-2
288
1
68
0
279
-2
289
1
69
0
0
VISUALSTYLE
5
F99
102
{ACAD_XDICTIONARY
360
108A
102
}
102
{ACAD_REACTORS
330
F93
102
}
330
F93
100
AcDbVisualStyle
2

70
4
71
0
72
2
73
0
90
0
40
-0.6
41
-30.0
62
5
63
7
74
1
91
4
64
7
65
257
75
1
175
1
42
1.0
92
0
66
257
43
1.0
76
1
77
6
78
2
67
7
79
5
170
0
171
0
290
0
174
0
93
1
44
0.0
173
0
291
0
45
0.0
1001
ACAD
1000
AcDbSavedByObjectVersion
1070
0
0
VISUALSTYLE
5
F9B
102
{ACAD_XDICTIONARY
360
108E
102
}
102
{ACAD_REACTORS
330
F93
102
}
330
F93
100
AcDbVisualStyle
2

70
6
71
1
72
2
73
2
90
0
40
-0.6
41
-30.0
62
5
63
7
74
2
91
2
64
7
65
257
75
2
175
1
42
179.0
92
0
66
257
43
1.0
76
1
77
6
78
2
67
7
79
3
170
0
171
0
290
0
174
0
93
1
44
0.0
173
0
291
0
45
0.0
1001
ACAD
1000
AcDbSavedByObjectVersion
1070
0
0
VISUALSTYLE
5
F9A
102
{ACAD_XDICTIONARY
360
108C
102
}
102
{ACAD_REACTORS
330
F93
102
}
330
F93
100
AcDbVisualStyle
2

70
5
71
0
72
2
73
0
90
0
40
-0.6
41
-30.0
62
5
63
7
74
1
91
4
64
7
65
257
75
1
175
1
42
1.0
92
0
66
257
43
1.0
76
1
77
6
78
2
67
7
79
5
170
0
171
0
290
0
174
0
93
1
44
0.0
173
0
291
0
45
0.0
1001
ACAD
1000
AcDbSavedByObjectVersion
1070
0
0
VISUALSTYLE
5
F98
102
{ACAD_XDICTIONARY
360
1088
102
}
102
{ACAD_REACTORS
330
F93
102
}
330
F93
100
AcDbVisualStyle
2

70
7
71
1
72
0
73
1
90
0
40
-0.6
41
-30.0
62
5
63
7
74
0
91
4
64
7
65
257
75
1
175
1
42
1.0
92
8
66
7
43
1.0
76
1
77
6
78
2
67
7
79
5
170
0
171
0
290
0
174
0
93
1
44
0.0
173
0
291
1
45
0.0
1001
ACAD
1000
AcDbSavedByObjectVersion
1070
0
0
VISUALSTYLE
5
F9F
102
{ACAD_XDICTIONARY
360
1096
102
}
102
{ACAD_REACTORS
330
F93
102
}
330
F93
100
AcDbVisualStyle
2

70
12
71
2
72
2
73
0
90
0
40
-0.6
41
-30.0
62
5
63
7
74
1
91
4
64
7
65
257
75
1
175
1
42
1.0
92
8
66
7
43
1.0
76
1
77
6
78
2
67
7
79
5
170
0
171
0
290
0
174
0
93
1
44
50.0
173
0
291
1
45
0.0
1001
ACAD
1000
AcDbSavedByObjectVersion
1070
0
0
VISUALSTYLE
5
FA3
102
{ACAD_XDICTIONARY
360
109E
102
}
102
{ACAD_REACTORS
330
F93
102
}
330
F93
100
AcDbVisualStyle
2

70
16
71
2
72
2
73
3
90
0
40
-0.6
41
-30.0
62
5
63
8
74
1
91
4
64
7
65
257
75
1
175
1
42
1.0
92
8
66
8
43
1.0
76
1
77
6
78
2
67
7
79
5
170
0
171
0
290
0
174
0
93
1
44
0.0
173
0
291
1
45
0.0
1001
ACAD
1000
AcDbSavedByObjectVersion
1070
0
0
VISUALSTYLE
5
F9C
102
{ACAD_XDICTIONARY
360
1090
102
}
102
{ACAD_REACTORS
330
F93
102
}
330
F93
100
AcDbVisualStyle
2

70
9
71
3
72
2
73
0
90
0
40
-0.6
41
-30.0
62
5
63
7
74
2
91
2
64
7
65
257
75
1
175
1
42
179.0
92
8
66
7
43
1.0
76
1
77
6
78
2
67
7
79
3
170
0
171
0
290
0
174
0
93
1
44
0.0
173
0
291
0
45
0.0
1001
ACAD
1000
AcDbSavedByObjectVersion
1070
0
0
VISUALSTYLE
5
F9E
102
{ACAD_XDICTIONARY
360
1094
102
}
102
{ACAD_REACTORS
330
F93
102
}
330
F93
100
AcDbVisualStyle
2

70
11
71
2
72
2
73
0
90
0
40
-0.6
41
-30.0
62
5
63
7
74
1
91
4
64
7
65
257
75
1
175
1
42
1.0
92
8
66
7
43
1.0
76
1
77
6
78
2
67
7
79
5
170
0
171
0
290
0
174
0
93
1
44
-50.0
173
0
291
1
45
0.0
1001
ACAD
1000
AcDbSavedByObjectVersion
1070
0
0
VISUALSTYLE
5
FA6
102
{ACAD_XDICTIONARY
360
10A4
102
}
102
{ACAD_REACTORS
330
F93
102
}
330
F93
100
AcDbVisualStyle
2

70
22
71
2
72
2
73
0
90
0
40
-0.6
41
-30.0
62
5
63
7
74
1
91
4
64
7
65
257
75
1
175
1
42
1.0
92
8
66
7
43
1.0
76
1
77
6
78
2
67
7
79
5
170
0
171
0
290
0
174
0
93
1
44
0.0
173
0
291
1
45
0.0
1001
ACAD
1000
AcDbSavedByObjectVersion
1070
0
0
VISUALSTYLE
5
FA2
102
{ACAD_XDICTIONARY
360
109C
102
}
102
{ACAD_REACTORS
330
F93
102
}
330
F93
100
AcDbVisualStyle
2

70
15
71
2
72
2
73
0
90
0
40
-0.6
41
-30.0
62
5
63
7
74
1
91
4
64
7
65
257
75
1
175
1
42
1.0
92
8
66
7
43
1.0
76
1
77
6
78
2
67
7
79
5
170
0
171
0
290
0
174
0
93
1
44
0.0
173
0
291
1
45
0.0
1001
ACAD
1000
AcDbSavedByObjectVersion
1070
0
0
VISUALSTYLE
5
F94
102
{ACAD_XDICTIONARY
360
1080
102
}
102
{ACAD_REACTORS
330
F93
102
}
330
F93
100
AcDbVisualStyle
2

70
0
71
2
72
1
73
1
90
2
40
-0.6
41
30.0
62
5
63
7
74
0
91
4
64
7
65
257
75
1
175
1
42
1.0
92
8
66
7
43
1.0
76
1
77
6
78
2
67
7
79
5
170
0
171
0
290
0
174
0
93
13
44
0.0
173
0
291
1
45
0.0
1001
ACAD
1000
AcDbSavedByObjectVersion
1070
0
0
VISUALSTYLE
5
F95
102
{ACAD_XDICTIONARY
360
1082
102
}
102
{ACAD_REACTORS
330
F93
102
}
330
F93
100
AcDbVisualStyle
2

70
1
71
2
72
1
73
1
90
2
40
-0.6
41
30.0
62
5
63
7
74
1
91
4
64
7
65
257
75
1
175
1
42
1.0
92
0
66
257
43
1.0
76
1
77
6
78
2
67
7
79
5
170
0
171
0
290
0
174
0
93
13
44
0.0
173
0
291
1
45
0.0
1001
ACAD
1000
AcDbSavedByObjectVersion
1070
0
0
VISUALSTYLE
5
F96
102
{ACAD_XDICTIONARY
360
1084
102
}
102
{ACAD_REACTORS
330
F93
102
}
330
F93
100
AcDbVisualStyle
2

70
2
71
2
72
2
73
1
90
2
40
-0.6
41
30.0
62
5
63
7
74
0
91
4
64
7
65
257
75
1
175
1
42
1.0
92
0
66
7
43
1.0
76
1
77
6
78
2
67
7
79
5
170
0
171
0
290
0
174
0
93
13
44
0.0
173
0
291
1
45
0.0
1001
ACAD
1000
AcDbSavedByObjectVersion
1070
0
0
VISUALSTYLE
5
F97
102
{ACAD_XDICTIONARY
360
1086
102
}
102
{ACAD_REACTORS
330
F93
102
}
330
F93
100
AcDbVisualStyle
2

70
3
71
2
72
2
73
1
90
2
40
-0.6
41
30.0
62
5
63
7
74
1
91
4
64
7
65
257
75
1
175
1
42
1.0
92
0
66
257
43
1.0
76
1
77
6
78
2
67
7
79
5
170
0
171
0
290
0
174
0
93
13
44
0.0
173
0
291
1
45
0.0
1001
ACAD
1000
AcDbSavedByObjectVersion
1070
0
0
VISUALSTYLE
5
FA4
102
{ACAD_XDICTIONARY
360
10A0
102
}
102
{ACAD_REACTORS
330
F93
102
}
330
F93
100
AcDbVisualStyle
2

70
20
71
2
72
2
73
0
90
0
40
-0.6
41
-30.0
62
5
63
7
74
1
91
4
64
7
65
257
75
1
175
1
42
1.0
92
10
66
7
43
1.0
76
1
77
6
78
2
67
7
79
5
170
0
171
0
290
0
174
0
93
1
44
0.0
173
0
291
1
45
0.0
1001
ACAD
1000
AcDbSavedByObjectVersion
1070
0
0
VISUALSTYLE
5
FA1
102
{ACAD_XDICTIONARY
360
109A
102
}
102
{ACAD_REACTORS
330
F93
102
}
330
F93
100
AcDbVisualStyle
2

70
14
71
2
72
2
73
0
90
0
40
-0.6
41
-30.0
62
5
63
7
74
1
91
4
64
7
65
257
75
7
175
7
42
1.0
92
8
66
7
43
1.0
76
1
77
6
78
2
67
7
79
5
170
0
171
0
290
0
174
0
93
1
44
0.0
173
0
291
1
45
0.0
1001
ACAD
1000
AcDbSavedByObjectVersion
1070
0
0
VISUALSTYLE
5
FA5
102
{ACAD_XDICTIONARY
360
10A2
102
}
102
{ACAD_REACTORS
330
F93
102
}
330
F93
100
AcDbVisualStyle
2

70
21
71
2
72
2
73
0
90
0
40
-0.6
41
-30.0
62
5
63
7
74
1
91
4
64
7
65
257
75
1
175
1
42
1.0
92
9
66
7
43
1.0
76
1
77
6
78
2
67
7
79
5
170
0
171
0
290
0
174
0
93
1
44
0.0
173
0
291
1
45
0.0
1001
ACAD
1000
AcDbSavedByObjectVersion
1070
0
0
VISUALSTYLE
5
F9D
102
{ACAD_XDICTIONARY
360
1092
102
}
102
{ACAD_REACTORS
330
F93
102
}
330
F93
100
AcDbVisualStyle
2

70
8
71
2
72
2
73
0
90
0
40
-0.6
41
-30.0
62
5
63
7
74
1
91
0
64
7
65
257
75
1
175
1
42
1.0
92
8
66
8
43
1.0
76
1
77
6
78
2
67
7
79
5
170
0
171
0
290
0
174
0
93
13
44
0.0
173
0
291
0
45
0.0
1001
ACAD
1000
AcDbSavedByObjectVersion
1070
0
0
VISUALSTYLE
5
FA0
102
{ACAD_XDICTIONARY
360
1098
102
}
102
{ACAD_REACTORS
330
F93
102
}
330
F93
100
AcDbVisualStyle
2

70
13
71
2
72
2
73
0
90
0
40
-0.6
41
-30.0
62
5
63
7
74
1
91
4
64
7
65
257
75
1
175
1
42
1.0
92
12
66
7
43
1.0
76
1
77
6
78
2
67
7
79
5
170
0
171
0
290
0
174
0
93
1
44
0.0
173
0
291
1
45
0.0
1001
ACAD
1000
AcDbSavedByObjectVersion
1070
0
0
DICTIONARYVAR
5
FF3
102
{ACAD_REACTORS
330
FF0
102
}
330
FF0
100
DictionaryVariables
280
0
1
1:1
0
DICTIONARYVAR
5
FF2
102
{ACAD_REACTORS
330
FF0
102
}
330
FF0
100
DictionaryVariables
280
0
1
STANDARD
0
DICTIONARYVAR
5
FF1
102
{ACAD_REACTORS
330
FF0
102
}
330
FF0
100
DictionaryVariables
280
0
1
STANDARD
0
DICTIONARYVAR
5
FF6
102
{ACAD_REACTORS
330
FF0
102
}
330
FF0
100
DictionaryVariables
280
0
1
1
0
DICTIONARYVAR
5
FF5
102
{ACAD_REACTORS
330
FF0
102
}
330
FF0
100
DictionaryVariables
280
0
1
0
0
DICTIONARYVAR
5
FF4
102
{ACAD_REACTORS
330
FF0
102
}
330
FF0
100
DictionaryVariables
280
0
1
127
0
DICTIONARYVAR
5
1078
102
{ACAD_REACTORS
330
FF0
102
}
330
FF0
100
DictionaryVariables
280
0
1
2
0
DICTIONARY
5
10A9
330
FD1
100
AcDbDictionary
280
1
281
1
3
ACAD_XREC_ROUNDTRIP
360
10AA
0
DICTIONARY
5
10A7
330
FD0
100
AcDbDictionary
280
1
281
1
3
ACAD_XREC_ROUNDTRIP
360
10A8
0
DICTIONARY
5
F84
330
F83
100
AcDbDictionary
280
1
281
1
3
ACAD_XREC_ROUNDTRIP
360
FFF
3
BUMPTILE
360
F86
3
DIFFUSETILE
360
F85
3
OPACITYTILE
360
F89
3
REFLECTIONTILE
360
F88
3
REFRACTIONTILE
360
F8A
3
SPECULARTILE
360
F87
0
DICTIONARY
5
F7C
330
F7B
100
AcDbDictionary
280
1
281
1
3
ACAD_XREC_ROUNDTRIP
360
FFE
3
BUMPTILE
360
F7E
3
DIFFUSETILE
360
F7D
3
OPACITYTILE
360
F81
3
REFLECTIONTILE
360
F80
3
REFRACTIONTILE
360
F82
3
SPECULARTILE
360
F7F
0
DICTIONARY
5
F8C
330
F8B
100
AcDbDictionary
280
1
281
1
3
ACAD_XREC_ROUNDTRIP
360
1000
3
BUMPTILE
360
F8E
3
DIFFUSETILE
360
F8D
3
OPACITYTILE
360
F91
3
REFLECTIONTILE
360
F90
3
REFRACTIONTILE
360
F92
3
SPECULARTILE
360
F8F
0
DICTIONARY
5
FF8
330
FA9
100
AcDbDictionary
280
1
281
1
3
ACAD_ROUNDTRIP_2008_TABLESTYLE_CELLSTYLEMAP
360
1079
3
ACAD_XREC_ROUNDTRIP
360
10A6
0
DICTIONARY
5
108A
330
F99
100
AcDbDictionary
280
1
281
1
3
ACAD_XREC_ROUNDTRIP
360
108B
0
DICTIONARY
5
108E
330
F9B
100
AcDbDictionary
280
1
281
1
3
ACAD_XREC_ROUNDTRIP
360
108F
0
DICTIONARY
5
108C
330
F9A
100
AcDbDictionary
280
1
281
1
3
ACAD_XREC_ROUNDTRIP
360
108D
0
DICTIONARY
5
1088
330
F98
100
AcDbDictionary
280
1
281
1
3
ACAD_XREC_ROUNDTRIP
360
1089
0
DICTIONARY
5
1096
330
F9F
100
AcDbDictionary
280
1
281
1
3
ACAD_XREC_ROUNDTRIP
360
1097
0
DICTIONARY
5
109E
330
FA3
100
AcDbDictionary
280
1
281
1
3
ACAD_XREC_ROUNDTRIP
360
109F
0
DICTIONARY
5
1090
330
F9C
100
AcDbDictionary
280
1
281
1
3
ACAD_XREC_ROUNDTRIP
360
1091
0
DICTIONARY
5
1094
330
F9E
100
AcDbDictionary
280
1
281
1
3
ACAD_XREC_ROUNDTRIP
360
1095
0
DICTIONARY
5
10A4
330
FA6
100
AcDbDictionary
280
1
281
1
3
ACAD_XREC_ROUNDTRIP
360
10A5
0
DICTIONARY
5
109C
330
FA2
100
AcDbDictionary
280
1
281
1
3
ACAD_XREC_ROUNDTRIP
360
109D
0
DICTIONARY
5
1080
330
F94
100
AcDbDictionary
280
1
281
1
3
ACAD_XREC_ROUNDTRIP
360
1081
0
DICTIONARY
5
1082
330
F95
100
AcDbDictionary
280
1
281
1
3
ACAD_XREC_ROUNDTRIP
360
1083
0
DICTIONARY
5
1084
330
F96
100
AcDbDictionary
280
1
281
1
3
ACAD_XREC_ROUNDTRIP
360
1085
0
DICTIONARY
5
1086
330
F97
100
AcDbDictionary
280
1
281
1
3
ACAD_XREC_ROUNDTRIP
360
1087
0
DICTIONARY
5
10A0
330
FA4
100
AcDbDictionary
280
1
281
1
3
ACAD_XREC_ROUNDTRIP
360
10A1
0
DICTIONARY
5
109A
330
FA1
100
AcDbDictionary
280
1
281
1
3
ACAD_XREC_ROUNDTRIP
360
109B
0
DICTIONARY
5
10A2
330
FA5
100
AcDbDictionary
280
1
281
1
3
ACAD_XREC_ROUNDTRIP
360
10A3
0
DICTIONARY
5
1092
330
F9D
100
AcDbDictionary
280
1
281
1
3
ACAD_XREC_ROUNDTRIP
360
1093
0
DICTIONARY
5
1098
330
FA0
100
AcDbDictionary
280
1
281
1
3
ACAD_XREC_ROUNDTRIP
360
1099
0
XRECORD
5
10AA
102
{ACAD_REACTORS
330
10A9
102
}
330
10A9
100
AcDbXrecord
280
1
102
SHADEPLOT
70
0
102
SHADEPLOTRESLEVEL
70
2
102
SHADEPLOTCUSTOMDPI
70
300
0
XRECORD
5
10A8
102
{ACAD_REACTORS
330
10A7
102
}
330
10A7
100
AcDbXrecord
280
1
102
SHADEPLOT
70
0
102
SHADEPLOTRESLEVEL
70
2
102
SHADEPLOTCUSTOMDPI
70
300
0
XRECORD
5
FFF
102
{ACAD_REACTORS
330
F84
102
}
330
F84
100
AcDbXrecord
280
1
102
MATERIAL
148
0.0
149
0.0
149
0.0
93
0
94
127
282
0
72
0
77
0
171
0
175
0
179
0
273
0
0
XRECORD
5
F86
102
{ACAD_REACTORS
330
F84
102
}
330
F84
100
AcDbXrecord
280
1
270
1
271
1
0
XRECORD
5
F85
102
{ACAD_REACTORS
330
F84
102
}
330
F84
100
AcDbXrecord
280
1
270
1
271
1
0
XRECORD
5
F89
102
{ACAD_REACTORS
330
F84
102
}
330
F84
100
AcDbXrecord
280
1
270
1
271
1
0
XRECORD
5
F88
102
{ACAD_REACTORS
330
F84
102
}
330
F84
100
AcDbXrecord
280
1
270
1
271
1
0
XRECORD
5
F8A
102
{ACAD_REACTORS
330
F84
102
}
330
F84
100
AcDbXrecord
280
1
270
1
271
1
0
XRECORD
5
F87
102
{ACAD_REACTORS
330
F84
102
}
330
F84
100
AcDbXrecord
280
1
270
1
271
1
0
XRECORD
5
FFE
102
{ACAD_REACTORS
330
F7C
102
}
330
F7C
100
AcDbXrecord
280
1
102
MATERIAL
148
0.0
149
0.0
149
0.0
93
0
94
127
282
0
72
0
77
0
171
0
175
0
179
0
273
0
0
XRECORD
5
F7E
102
{ACAD_REACTORS
330
F7C
102
}
330
F7C
100
AcDbXrecord
280
1
270
1
271
1
0
XRECORD
5
F7D
102
{ACAD_REACTORS
330
F7C
102
}
330
F7C
100
AcDbXrecord
280
1
270
1
271
1
0
XRECORD
5
F81
102
{ACAD_REACTORS
330
F7C
102
}
330
F7C
100
AcDbXrecord
280
1
270
1
271
1
0
XRECORD
5
F80
102
{ACAD_REACTORS
330
F7C
102
}
330
F7C
100
AcDbXrecord
280
1
270
1
271
1
0
XRECORD
5
F82
102
{ACAD_REACTORS
330
F7C
102
}
330
F7C
100
AcDbXrecord
280
1
270
1
271
1
0
XRECORD
5
F7F
102
{ACAD_REACTORS
330
F7C
102
}
330
F7C
100
AcDbXrecord
280
1
270
1
271
1
0
XRECORD
5
1000
102
{ACAD_REACTORS
330
F8C
102
}
330
F8C
100
AcDbXrecord
280
1
102
MATERIAL
148
0.0
149
0.0
149
0.0
93
0
94
127
282
0
72
0
77
0
171
0
175
0
179
0
273
0
0
XRECORD
5
F8E
102
{ACAD_REACTORS
330
F8C
102
}
330
F8C
100
AcDbXrecord
280
1
270
1
271
1
0
XRECORD
5
F8D
102
{ACAD_REACTORS
330
F8C
102
}
330
F8C
100
AcDbXrecord
280
1
270
1
271
1
0
XRECORD
5
F91
102
{ACAD_REACTORS
330
F8C
102
}
330
F8C
100
AcDbXrecord
280
1
270
1
271
1
0
XRECORD
5
F90
102
{ACAD_REACTORS
330
F8C
102
}
330
F8C
100
AcDbXrecord
280
1
270
1
271
1
0
XRECORD
5
F92
102
{ACAD_REACTORS
330
F8C
102
}
330
F8C
100
AcDbXrecord
280
1
270
1
271
1
0
XRECORD
5
F8F
102
{ACAD_REACTORS
330
F8C
102
}
330
F8C
100
AcDbXrecord
280
1
270
1
271
1
0
CELLSTYLEMAP
5
1079
102
{ACAD_REACTORS
330
FF8
102
}
330
FF8
100
AcDbCellStyleMap
90
3
300
CELLSTYLE
1
TABLEFORMAT_BEGIN
90
5
170
1
91
0
92
32768
62
257
93
1
300
CONTENTFORMAT
1
CONTENTFORMAT_BEGIN
90
0
91
0
92
512
93
0
300

40
0.0
140
1.0
94
5
62
0
340
253
144
0.25
309
CONTENTFORMAT_END
171
1
301
MARGIN
1
CELLMARGIN_BEGIN
40
0.06
40
0.06
40
0.06
40
0.06
40
0.18
40
0.18
309
CELLMARGIN_END
94
6
95
1
302
GRIDFORMAT
1
GRIDFORMAT_BEGIN
90
0
91
1
62
0
92
-2
340
0
93
0
40
0.045
309
GRIDFORMAT_END
95
2
302
GRIDFORMAT
1
GRIDFORMAT_BEGIN
90
0
91
1
62
0
92
-2
340
0
93
0
40
0.045
309
GRIDFORMAT_END
95
4
302
GRIDFORMAT
1
GRIDFORMAT_BEGIN
90
0
91
1
62
0
92
-2
340
0
93
0
40
0.045
309
GRIDFORMAT_END
95
8
302
GRIDFORMAT
1
GRIDFORMAT_BEGIN
90
0
91
1
62
0
92
-2
340
0
93
0
40
0.045
309
GRIDFORMAT_END
95
16
302
GRIDFORMAT
1
GRIDFORMAT_BEGIN
90
0
91
1
62
0
92
-2
340
0
93
0
40
0.045
309
GRIDFORMAT_END
95
32
302
GRIDFORMAT
1
GRIDFORMAT_BEGIN
90
0
91
1
62
0
92
-2
340
0
93
0
40
0.045
309
GRIDFORMAT_END
309
TABLEFORMAT_END
1
CELLSTYLE_BEGIN
90
1
91
1
300
_TITLE
309
CELLSTYLE_END
300
CELLSTYLE
1
TABLEFORMAT_BEGIN
90
5
170
1
91
0
92
0
62
257
93
1
300
CONTENTFORMAT
1
CONTENTFORMAT_BEGIN
90
0
91
0
92
512
93
0
300

40
0.0
140
1.0
94
5
62
0
340
253
144
0.18
309
CONTENTFORMAT_END
171
1
301
MARGIN
1
CELLMARGIN_BEGIN
40
0.06
40
0.06
40
0.06
40
0.06
40
0.18
40
0.18
309
CELLMARGIN_END
94
6
95
1
302
GRIDFORMAT
1
GRIDFORMAT_BEGIN
90
0
91
1
62
0
92
-2
340
0
93
0
40
0.045
309
GRIDFORMAT_END
95
2
302
GRIDFORMAT
1
GRIDFORMAT_BEGIN
90
0
91
1
62
0
92
-2
340
0
93
0
40
0.045
309
GRIDFORMAT_END
95
4
302
GRIDFORMAT
1
GRIDFORMAT_BEGIN
90
0
91
1
62
0
92
-2
340
0
93
0
40
0.045
309
GRIDFORMAT_END
95
8
302
GRIDFORMAT
1
GRIDFORMAT_BEGIN
90
0
91
1
62
0
92
-2
340
0
93
0
40
0.045
309
GRIDFORMAT_END
95
16
302
GRIDFORMAT
1
GRIDFORMAT_BEGIN
90
0
91
1
62
0
92
-2
340
0
93
0
40
0.045
309
GRIDFORMAT_END
95
32
302
GRIDFORMAT
1
GRIDFORMAT_BEGIN
90
0
91
1
62
0
92
-2
340
0
93
0
40
0.045
309
GRIDFORMAT_END
309
TABLEFORMAT_END
1
CELLSTYLE_BEGIN
90
2
91
1
300
_HEADER
309
CELLSTYLE_END
300
CELLSTYLE
1
TABLEFORMAT_BEGIN
90
5
170
1
91
0
92
0
62
257
93
1
300
CONTENTFORMAT
1
CONTENTFORMAT_BEGIN
90
0
91
0
92
512
93
0
300

40
0.0
140
1.0
94
2
62
0
340
253
144
0.18
309
CONTENTFORMAT_END
171
1
301
MARGIN
1
CELLMARGIN_BEGIN
40
0.06
40
0.06
40
0.06
40
0.06
40
0.18
40
0.18
309
CELLMARGIN_END
94
6
95
1
302
GRIDFORMAT
1
GRIDFORMAT_BEGIN
90
0
91
1
62
0
92
-2
340
0
93
0
40
0.045
309
GRIDFORMAT_END
95
2
302
GRIDFORMAT
1
GRIDFORMAT_BEGIN
90
0
91
1
62
0
92
-2
340
0
93
0
40
0.045
309
GRIDFORMAT_END
95
4
302
GRIDFORMAT
1
GRIDFORMAT_BEGIN
90
0
91
1
62
0
92
-2
340
0
93
0
40
0.045
309
GRIDFORMAT_END
95
8
302
GRIDFORMAT
1
GRIDFORMAT_BEGIN
90
0
91
1
62
0
92
-2
340
0
93
0
40
0.045
309
GRIDFORMAT_END
95
16
302
GRIDFORMAT
1
GRIDFORMAT_BEGIN
90
0
91
1
62
0
92
-2
340
0
93
0
40
0.045
309
GRIDFORMAT_END
95
32
302
GRIDFORMAT
1
GRIDFORMAT_BEGIN
90
0
91
1
62
0
92
-2
340
0
93
0
40
0.045
309
GRIDFORMAT_END
309
TABLEFORMAT_END
1
CELLSTYLE_BEGIN
90
3
91
2
300
_DATA
309
CELLSTYLE_END
0
XRECORD
5
10A6
102
{ACAD_REACTORS
330
FF8
102
}
330
FF8
100
AcDbXrecord
280
1
102
ACAD_ROUNDTRIP_PRE2007_TABLESTYLE
90
512
91
0
1

92
512
93
0
2

94
512
95
0
3

0
XRECORD
5
108B
102
{ACAD_REACTORS
330
108A
102
}
330
108A
100
AcDbXrecord
280
1
102
RTVSPropertyOp0
70
1
102
RTVSPropertyOp1
70
1
102
RTVSPropertyOp2
70
1
102
RTVSPropertyOp3
70
1
102
RTVSPropertyOp4
70
1
102
RTVSPropertyOp5
70
1
102
RTVSPropertyOp6
70
1
102
RTVSPropertyOp7
70
1
102
RTVSPropertyOp8
70
1
102
RTVSPropertyOp9
70
1
102
RTVSPropertyOp10
70
1
102
RTVSPropertyOp11
70
1
102
RTVSPropertyOp12
70
1
102
RTVSPropertyOp13
70
1
102
RTVSPropertyOp14
70
1
102
RTVSPropertyOp15
70
1
102
RTVSPropertyOp16
70
1
102
RTVSPropertyOp17
70
1
102
RTVSPropertyOp18
70
1
102
RTVSPropertyOp19
70
1
102
RTVSPropertyOp20
70
1
102
RTVSPropertyOp21
70
1
102
RTVSPropertyOp22
70
1
102
RTVSPropertyOp23
70
1
102
RTVSPropertyOp24
70
1
102
RTVSPropertyOp25
70
1
102
RTVSPropertyOp26
70
1
102
RTVSPropertyOp27
70
1
0
XRECORD
5
108F
102
{ACAD_REACTORS
330
108E
102
}
330
108E
100
AcDbXrecord
280
1
102
RTVSPropertyOp0
70
1
102
RTVSPropertyOp1
70
1
102
RTVSPropertyOp2
70
1
102
RTVSPropertyOp3
70
1
102
RTVSPropertyOp4
70
1
102
RTVSPropertyOp5
70
1
102
RTVSPropertyOp6
70
1
102
RTVSPropertyOp7
70
1
102
RTVSPropertyOp8
70
1
102
RTVSPropertyOp9
70
1
102
RTVSPropertyOp10
70
1
102
RTVSPropertyOp11
70
1
102
RTVSPropertyOp12
70
1
102
RTVSPropertyOp13
70
1
102
RTVSPropertyOp14
70
1
102
RTVSPropertyOp15
70
1
102
RTVSPropertyOp16
70
1
102
RTVSPropertyOp17
70
1
102
RTVSPropertyOp18
70
1
102
RTVSPropertyOp19
70
1
102
RTVSPropertyOp20
70
1
102
RTVSPropertyOp21
70
1
102
RTVSPropertyOp22
70
1
102
RTVSPropertyOp23
70
1
102
RTVSPropertyOp24
70
1
102
RTVSPropertyOp25
70
1
102
RTVSPropertyOp26
70
1
102
RTVSPropertyOp27
70
1
0
XRECORD
5
108D
102
{ACAD_REACTORS
330
108C
102
}
330
108C
100
AcDbXrecord
280
1
102
RTVSPropertyOp0
70
1
102
RTVSPropertyOp1
70
1
102
RTVSPropertyOp2
70
1
102
RTVSPropertyOp3
70
1
102
RTVSPropertyOp4
70
1
102
RTVSPropertyOp5
70
1
102
RTVSPropertyOp6
70
1
102
RTVSPropertyOp7
70
1
102
RTVSPropertyOp8
70
1
102
RTVSPropertyOp9
70
1
102
RTVSPropertyOp10
70
1
102
RTVSPropertyOp11
70
1
102
RTVSPropertyOp12
70
1
102
RTVSPropertyOp13
70
1
102
RTVSPropertyOp14
70
1
102
RTVSPropertyOp15
70
1
102
RTVSPropertyOp16
70
1
102
RTVSPropertyOp17
70
1
102
RTVSPropertyOp18
70
1
102
RTVSPropertyOp19
70
1
102
RTVSPropertyOp20
70
1
102
RTVSPropertyOp21
70
1
102
RTVSPropertyOp22
70
1
102
RTVSPropertyOp23
70
1
102
RTVSPropertyOp24
70
1
102
RTVSPropertyOp25
70
1
102
RTVSPropertyOp26
70
1
102
RTVSPropertyOp27
70
1
0
XRECORD
5
1089
102
{ACAD_REACTORS
330
1088
102
}
330
1088
100
AcDbXrecord
280
1
102
RTVSPropertyOp0
70
1
102
RTVSPropertyOp1
70
1
102
RTVSPropertyOp2
70
1
102
RTVSPropertyOp3
70
1
102
RTVSPropertyOp4
70
1
102
RTVSPropertyOp5
70
1
102
RTVSPropertyOp6
70
1
102
RTVSPropertyOp7
70
1
102
RTVSPropertyOp8
70
1
102
RTVSPropertyOp9
70
1
102
RTVSPropertyOp10
70
1
102
RTVSPropertyOp11
70
1
102
RTVSPropertyOp12
70
1
102
RTVSPropertyOp13
70
1
102
RTVSPropertyOp14
70
1
102
RTVSPropertyOp15
70
1
102
RTVSPropertyOp16
70
1
102
RTVSPropertyOp17
70
1
102
RTVSPropertyOp18
70
1
102
RTVSPropertyOp19
70
1
102
RTVSPropertyOp20
70
1
102
RTVSPropertyOp21
70
1
102
RTVSPropertyOp22
70
1
102
RTVSPropertyOp23
70
1
102
RTVSPropertyOp24
70
1
102
RTVSPropertyOp25
70
1
102
RTVSPropertyOp26
70
1
102
RTVSPropertyOp27
70
1
0
XRECORD
5
1097
102
{ACAD_REACTORS
330
1096
102
}
330
1096
100
AcDbXrecord
280
1
102
RTVSPropertyOp0
70
1
102
RTVSPropertyOp1
70
1
102
RTVSPropertyOp2
70
1
102
RTVSPropertyOp3
70
1
102
RTVSPropertyOp4
70
1
102
RTVSPropertyOp5
70
1
102
RTVSPropertyOp6
70
1
102
RTVSPropertyOp7
70
1
102
RTVSPropertyOp8
70
1
102
RTVSPropertyOp9
70
1
102
RTVSPropertyOp10
70
1
102
RTVSPropertyOp11
70
1
102
RTVSPropertyOp12
70
1
102
RTVSPropertyOp13
70
1
102
RTVSPropertyOp14
70
1
102
RTVSPropertyOp15
70
1
102
RTVSPropertyOp16
70
1
102
RTVSPropertyOp17
70
1
102
RTVSPropertyOp18
70
1
102
RTVSPropertyOp19
70
1
102
RTVSPropertyOp20
70
1
102
RTVSPropertyOp21
70
1
102
RTVSPropertyOp22
70
1
102
RTVSPropertyOp23
70
1
102
RTVSPropertyOp24
70
1
102
RTVSPropertyOp25
70
1
102
RTVSPropertyOp26
70
1
102
RTVSPropertyOp27
70
1
0
XRECORD
5
109F
102
{ACAD_REACTORS
330
109E
102
}
330
109E
100
AcDbXrecord
280
1
102
RTVSPropertyOp0
70
1
102
RTVSPropertyOp1
70
1
102
RTVSPropertyOp2
70
1
102
RTVSPropertyOp3
70
1
102
RTVSPropertyOp4
70
1
102
RTVSPropertyOp5
70
1
102
RTVSPropertyOp6
70
1
102
RTVSPropertyOp7
70
1
102
RTVSPropertyOp8
70
1
102
RTVSPropertyOp9
70
1
102
RTVSPropertyOp10
70
1
102
RTVSPropertyOp11
70
1
102
RTVSPropertyOp12
70
1
102
RTVSPropertyOp13
70
1
102
RTVSPropertyOp14
70
1
102
RTVSPropertyOp15
70
1
102
RTVSPropertyOp16
70
1
102
RTVSPropertyOp17
70
1
102
RTVSPropertyOp18
70
1
102
RTVSPropertyOp19
70
1
102
RTVSPropertyOp20
70
1
102
RTVSPropertyOp21
70
1
102
RTVSPropertyOp22
70
1
102
RTVSPropertyOp23
70
1
102
RTVSPropertyOp24
70
1
102
RTVSPropertyOp25
70
1
102
RTVSPropertyOp26
70
1
102
RTVSPropertyOp27
70
1
0
XRECORD
5
1091
102
{ACAD_REACTORS
330
1090
102
}
330
1090
100
AcDbXrecord
280
1
102
RTVSPropertyOp0
70
1
102
RTVSPropertyOp1
70
1
102
RTVSPropertyOp2
70
1
102
RTVSPropertyOp3
70
1
102
RTVSPropertyOp4
70
1
102
RTVSPropertyOp5
70
1
102
RTVSPropertyOp6
70
1
102
RTVSPropertyOp7
70
1
102
RTVSPropertyOp8
70
1
102
RTVSPropertyOp9
70
1
102
RTVSPropertyOp10
70
1
102
RTVSPropertyOp11
70
1
102
RTVSPropertyOp12
70
1
102
RTVSPropertyOp13
70
1
102
RTVSPropertyOp14
70
1
102
RTVSPropertyOp15
70
1
102
RTVSPropertyOp16
70
1
102
RTVSPropertyOp17
70
1
102
RTVSPropertyOp18
70
1
102
RTVSPropertyOp19
70
1
102
RTVSPropertyOp20
70
1
102
RTVSPropertyOp21
70
1
102
RTVSPropertyOp22
70
1
102
RTVSPropertyOp23
70
1
102
RTVSPropertyOp24
70
1
102
RTVSPropertyOp25
70
1
102
RTVSPropertyOp26
70
1
102
RTVSPropertyOp27
70
1
0
XRECORD
5
1095
102
{ACAD_REACTORS
330
1094
102
}
330
1094
100
AcDbXrecord
280
1
102
RTVSPropertyOp0
70
1
102
RTVSPropertyOp1
70
1
102
RTVSPropertyOp2
70
1
102
RTVSPropertyOp3
70
1
102
RTVSPropertyOp4
70
1
102
RTVSPropertyOp5
70
1
102
RTVSPropertyOp6
70
1
102
RTVSPropertyOp7
70
1
102
RTVSPropertyOp8
70
1
102
RTVSPropertyOp9
70
1
102
RTVSPropertyOp10
70
1
102
RTVSPropertyOp11
70
1
102
RTVSPropertyOp12
70
1
102
RTVSPropertyOp13
70
1
102
RTVSPropertyOp14
70
1
102
RTVSPropertyOp15
70
1
102
RTVSPropertyOp16
70
1
102
RTVSPropertyOp17
70
1
102
RTVSPropertyOp18
70
1
102
RTVSPropertyOp19
70
1
102
RTVSPropertyOp20
70
1
102
RTVSPropertyOp21
70
1
102
RTVSPropertyOp22
70
1
102
RTVSPropertyOp23
70
1
102
RTVSPropertyOp24
70
1
102
RTVSPropertyOp25
70
1
102
RTVSPropertyOp26
70
1
102
RTVSPropertyOp27
70
1
0
XRECORD
5
10A5
102
{ACAD_REACTORS
330
10A4
102
}
330
10A4
100
AcDbXrecord
280
1
102
RTVSPropertyOp0
70
0
102
RTVSPropertyOp1
70
0
102
RTVSPropertyOp2
70
0
102
RTVSPropertyOp3
70
0
102
RTVSPropertyOp4
70
0
102
RTVSPropertyOp5
70
0
102
RTVSPropertyOp6
70
0
102
RTVSPropertyOp7
70
0
102
RTVSPropertyOp8
70
0
102
RTVSPropertyOp9
70
0
102
RTVSPropertyOp10
70
0
102
RTVSPropertyOp11
70
0
102
RTVSPropertyOp12
70
0
102
RTVSPropertyOp13
70
0
102
RTVSPropertyOp14
70
2
102
RTVSPropertyOp15
70
0
102
RTVSPropertyOp16
70
0
102
RTVSPropertyOp17
70
0
102
RTVSPropertyOp18
70
0
102
RTVSPropertyOp19
70
0
102
RTVSPropertyOp20
70
0
102
RTVSPropertyOp21
70
0
102
RTVSPropertyOp22
70
0
102
RTVSPropertyOp23
70
0
102
RTVSPropertyOp24
70
0
102
RTVSPropertyOp25
70
0
102
RTVSPropertyOp26
70
0
102
RTVSPropertyOp27
70
0
0
XRECORD
5
109D
102
{ACAD_REACTORS
330
109C
102
}
330
109C
100
AcDbXrecord
280
1
102
RTVSPropertyOp0
70
1
102
RTVSPropertyOp1
70
1
102
RTVSPropertyOp2
70
1
102
RTVSPropertyOp3
70
1
102
RTVSPropertyOp4
70
1
102
RTVSPropertyOp5
70
1
102
RTVSPropertyOp6
70
1
102
RTVSPropertyOp7
70
1
102
RTVSPropertyOp8
70
1
102
RTVSPropertyOp9
70
1
102
RTVSPropertyOp10
70
1
102
RTVSPropertyOp11
70
1
102
RTVSPropertyOp12
70
1
102
RTVSPropertyOp13
70
1
102
RTVSPropertyOp14
70
1
102
RTVSPropertyOp15
70
1
102
RTVSPropertyOp16
70
1
102
RTVSPropertyOp17
70
1
102
RTVSPropertyOp18
70
1
102
RTVSPropertyOp19
70
1
102
RTVSPropertyOp20
70
1
102
RTVSPropertyOp21
70
1
102
RTVSPropertyOp22
70
1
102
RTVSPropertyOp23
70
1
102
RTVSPropertyOp24
70
1
102
RTVSPropertyOp25
70
1
102
RTVSPropertyOp26
70
1
102
RTVSPropertyOp27
70
1
0
XRECORD
5
1081
102
{ACAD_REACTORS
330
1080
102
}
330
1080
100
AcDbXrecord
280
1
102
RTVSPropertyOp0
70
1
102
RTVSPropertyOp1
70
1
102
RTVSPropertyOp2
70
1
102
RTVSPropertyOp3
70
1
102
RTVSPropertyOp4
70
1
102
RTVSPropertyOp5
70
1
102
RTVSPropertyOp6
70
1
102
RTVSPropertyOp7
70
1
102
RTVSPropertyOp8
70
1
102
RTVSPropertyOp9
70
1
102
RTVSPropertyOp10
70
1
102
RTVSPropertyOp11
70
1
102
RTVSPropertyOp12
70
1
102
RTVSPropertyOp13
70
1
102
RTVSPropertyOp14
70
1
102
RTVSPropertyOp15
70
1
102
RTVSPropertyOp16
70
1
102
RTVSPropertyOp17
70
1
102
RTVSPropertyOp18
70
1
102
RTVSPropertyOp19
70
1
102
RTVSPropertyOp20
70
1
102
RTVSPropertyOp21
70
1
102
RTVSPropertyOp22
70
1
102
RTVSPropertyOp23
70
1
102
RTVSPropertyOp24
70
1
102
RTVSPropertyOp25
70
1
102
RTVSPropertyOp26
70
1
102
RTVSPropertyOp27
70
1
0
XRECORD
5
1083
102
{ACAD_REACTORS
330
1082
102
}
330
1082
100
AcDbXrecord
280
1
102
RTVSPropertyOp0
70
1
102
RTVSPropertyOp1
70
1
102
RTVSPropertyOp2
70
1
102
RTVSPropertyOp3
70
1
102
RTVSPropertyOp4
70
1
102
RTVSPropertyOp5
70
1
102
RTVSPropertyOp6
70
1
102
RTVSPropertyOp7
70
1
102
RTVSPropertyOp8
70
1
102
RTVSPropertyOp9
70
1
102
RTVSPropertyOp10
70
1
102
RTVSPropertyOp11
70
1
102
RTVSPropertyOp12
70
1
102
RTVSPropertyOp13
70
1
102
RTVSPropertyOp14
70
1
102
RTVSPropertyOp15
70
1
102
RTVSPropertyOp16
70
1
102
RTVSPropertyOp17
70
1
102
RTVSPropertyOp18
70
1
102
RTVSPropertyOp19
70
1
102
RTVSPropertyOp20
70
1
102
RTVSPropertyOp21
70
1
102
RTVSPropertyOp22
70
1
102
RTVSPropertyOp23
70
1
102
RTVSPropertyOp24
70
1
102
RTVSPropertyOp25
70
1
102
RTVSPropertyOp26
70
1
102
RTVSPropertyOp27
70
1
0
XRECORD
5
1085
102
{ACAD_REACTORS
330
1084
102
}
330
1084
100
AcDbXrecord
280
1
102
RTVSPropertyOp0
70
1
102
RTVSPropertyOp1
70
1
102
RTVSPropertyOp2
70
1
102
RTVSPropertyOp3
70
1
102
RTVSPropertyOp4
70
1
102
RTVSPropertyOp5
70
1
102
RTVSPropertyOp6
70
1
102
RTVSPropertyOp7
70
1
102
RTVSPropertyOp8
70
1
102
RTVSPropertyOp9
70
1
102
RTVSPropertyOp10
70
1
102
RTVSPropertyOp11
70
1
102
RTVSPropertyOp12
70
1
102
RTVSPropertyOp13
70
1
102
RTVSPropertyOp14
70
1
102
RTVSPropertyOp15
70
1
102
RTVSPropertyOp16
70
1
102
RTVSPropertyOp17
70
1
102
RTVSPropertyOp18
70
1
102
RTVSPropertyOp19
70
1
102
RTVSPropertyOp20
70
1
102
RTVSPropertyOp21
70
1
102
RTVSPropertyOp22
70
1
102
RTVSPropertyOp23
70
1
102
RTVSPropertyOp24
70
1
102
RTVSPropertyOp25
70
1
102
RTVSPropertyOp26
70
1
102
RTVSPropertyOp27
70
1
0
XRECORD
5
1087
102
{ACAD_REACTORS
330
1086
102
}
330
1086
100
AcDbXrecord
280
1
102
RTVSPropertyOp0
70
1
102
RTVSPropertyOp1
70
1
102
RTVSPropertyOp2
70
1
102
RTVSPropertyOp3
70
1
102
RTVSPropertyOp4
70
1
102
RTVSPropertyOp5
70
1
102
RTVSPropertyOp6
70
1
102
RTVSPropertyOp7
70
1
102
RTVSPropertyOp8
70
1
102
RTVSPropertyOp9
70
1
102
RTVSPropertyOp10
70
1
102
RTVSPropertyOp11
70
1
102
RTVSPropertyOp12
70
1
102
RTVSPropertyOp13
70
1
102
RTVSPropertyOp14
70
1
102
RTVSPropertyOp15
70
1
102
RTVSPropertyOp16
70
1
102
RTVSPropertyOp17
70
1
102
RTVSPropertyOp18
70
1
102
RTVSPropertyOp19
70
1
102
RTVSPropertyOp20
70
1
102
RTVSPropertyOp21
70
1
102
RTVSPropertyOp22
70
1
102
RTVSPropertyOp23
70
1
102
RTVSPropertyOp24
70
1
102
RTVSPropertyOp25
70
1
102
RTVSPropertyOp26
70
1
102
RTVSPropertyOp27
70
1
0
XRECORD
5
10A1
102
{ACAD_REACTORS
330
10A0
102
}
330
10A0
100
AcDbXrecord
280
1
102
RTVSPropertyOp0
70
0
102
RTVSPropertyOp1
70
0
102
RTVSPropertyOp2
70
0
102
RTVSPropertyOp3
70
0
102
RTVSPropertyOp4
70
0
102
RTVSPropertyOp5
70
0
102
RTVSPropertyOp6
70
0
102
RTVSPropertyOp7
70
0
102
RTVSPropertyOp8
70
0
102
RTVSPropertyOp9
70
0
102
RTVSPropertyOp10
70
0
102
RTVSPropertyOp11
70
0
102
RTVSPropertyOp12
70
0
102
RTVSPropertyOp13
70
0
102
RTVSPropertyOp14
70
2
102
RTVSPropertyOp15
70
0
102
RTVSPropertyOp16
70
0
102
RTVSPropertyOp17
70
0
102
RTVSPropertyOp18
70
0
102
RTVSPropertyOp19
70
0
102
RTVSPropertyOp20
70
0
102
RTVSPropertyOp21
70
0
102
RTVSPropertyOp22
70
0
102
RTVSPropertyOp23
70
0
102
RTVSPropertyOp24
70
0
102
RTVSPropertyOp25
70
0
102
RTVSPropertyOp26
70
0
102
RTVSPropertyOp27
70
0
0
XRECORD
5
109B
102
{ACAD_REACTORS
330
109A
102
}
330
109A
100
AcDbXrecord
280
1
102
RTVSPropertyOp0
70
1
102
RTVSPropertyOp1
70
1
102
RTVSPropertyOp2
70
1
102
RTVSPropertyOp3
70
1
102
RTVSPropertyOp4
70
1
102
RTVSPropertyOp5
70
1
102
RTVSPropertyOp6
70
1
102
RTVSPropertyOp7
70
1
102
RTVSPropertyOp8
70
1
102
RTVSPropertyOp9
70
1
102
RTVSPropertyOp10
70
1
102
RTVSPropertyOp11
70
1
102
RTVSPropertyOp12
70
1
102
RTVSPropertyOp13
70
1
102
RTVSPropertyOp14
70
1
102
RTVSPropertyOp15
70
1
102
RTVSPropertyOp16
70
1
102
RTVSPropertyOp17
70
1
102
RTVSPropertyOp18
70
1
102
RTVSPropertyOp19
70
1
102
RTVSPropertyOp20
70
1
102
RTVSPropertyOp21
70
1
102
RTVSPropertyOp22
70
1
102
RTVSPropertyOp23
70
1
102
RTVSPropertyOp24
70
1
102
RTVSPropertyOp25
70
1
102
RTVSPropertyOp26
70
1
102
RTVSPropertyOp27
70
1
0
XRECORD
5
10A3
102
{ACAD_REACTORS
330
10A2
102
}
330
10A2
100
AcDbXrecord
280
1
102
RTVSPropertyOp0
70
0
102
RTVSPropertyOp1
70
0
102
RTVSPropertyOp2
70
0
102
RTVSPropertyOp3
70
0
102
RTVSPropertyOp4
70
0
102
RTVSPropertyOp5
70
0
102
RTVSPropertyOp6
70
0
102
RTVSPropertyOp7
70
0
102
RTVSPropertyOp8
70
0
102
RTVSPropertyOp9
70
0
102
RTVSPropertyOp10
70
0
102
RTVSPropertyOp11
70
0
102
RTVSPropertyOp12
70
0
102
RTVSPropertyOp13
70
0
102
RTVSPropertyOp14
70
2
102
RTVSPropertyOp15
70
0
102
RTVSPropertyOp16
70
0
102
RTVSPropertyOp17
70
0
102
RTVSPropertyOp18
70
0
102
RTVSPropertyOp19
70
0
102
RTVSPropertyOp20
70
0
102
RTVSPropertyOp21
70
0
102
RTVSPropertyOp22
70
0
102
RTVSPropertyOp23
70
0
102
RTVSPropertyOp24
70
0
102
RTVSPropertyOp25
70
0
102
RTVSPropertyOp26
70
0
102
RTVSPropertyOp27
70
0
0
XRECORD
5
1093
102
{ACAD_REACTORS
330
1092
102
}
330
1092
100
AcDbXrecord
280
1
102
RTVSPropertyOp0
70
1
102
RTVSPropertyOp1
70
1
102
RTVSPropertyOp2
70
1
102
RTVSPropertyOp3
70
1
102
RTVSPropertyOp4
70
1
102
RTVSPropertyOp5
70
1
102
RTVSPropertyOp6
70
1
102
RTVSPropertyOp7
70
1
102
RTVSPropertyOp8
70
1
102
RTVSPropertyOp9
70
1
102
RTVSPropertyOp10
70
1
102
RTVSPropertyOp11
70
1
102
RTVSPropertyOp12
70
1
102
RTVSPropertyOp13
70
1
102
RTVSPropertyOp14
70
1
102
RTVSPropertyOp15
70
1
102
RTVSPropertyOp16
70
1
102
RTVSPropertyOp17
70
1
102
RTVSPropertyOp18
70
1
102
RTVSPropertyOp19
70
1
102
RTVSPropertyOp20
70
1
102
RTVSPropertyOp21
70
1
102
RTVSPropertyOp22
70
1
102
RTVSPropertyOp23
70
1
102
RTVSPropertyOp24
70
1
102
RTVSPropertyOp25
70
1
102
RTVSPropertyOp26
70
1
102
RTVSPropertyOp27
70
1
0
XRECORD
5
1099
102
{ACAD_REACTORS
330
1098
102
}
330
1098
100
AcDbXrecord
280
1
102
RTVSPropertyOp0
70
1
102
RTVSPropertyOp1
70
1
102
RTVSPropertyOp2
70
1
102
RTVSPropertyOp3
70
1
102
RTVSPropertyOp4
70
1
102
RTVSPropertyOp5
70
1
102
RTVSPropertyOp6
70
1
102
RTVSPropertyOp7
70
1
102
RTVSPropertyOp8
70
1
102
RTVSPropertyOp9
70
1
102
RTVSPropertyOp10
70
1
102
RTVSPropertyOp11
70
1
102
RTVSPropertyOp12
70
1
102
RTVSPropertyOp13
70
1
102
RTVSPropertyOp14
70
1
102
RTVSPropertyOp15
70
1
102
RTVSPropertyOp16
70
1
102
RTVSPropertyOp17
70
1
102
RTVSPropertyOp18
70
1
102
RTVSPropertyOp19
70
1
102
RTVSPropertyOp20
70
1
102
RTVSPropertyOp21
70
1
102
RTVSPropertyOp22
70
1
102
RTVSPropertyOp23
70
1
102
RTVSPropertyOp24
70
1
102
RTVSPropertyOp25
70
1
102
RTVSPropertyOp26
70
1
102
RTVSPropertyOp27
70
1
0
ENDSEC
0
EOF
