0
SECTION
2
HEADER
9
$ACADVER
1
AC1015
9
$ACADMAINTVER
70
20
9
$DWGCODEPAGE
3
ANSI_1252
9
$INSBASE
10
0.0
20
0.0
30
0.0
9
$EXTMIN
10
-150.000000000000
20
-105.000000000000
30
0.0
9
$EXTMAX
10
150.000000000000
20
105.000000000000
30
0.0
9
$LIMMIN
10
0.0
20
0.0
9
$LIMMAX
10
12.0
20
9.0
9
$ORTHOMODE
70
0
9
$REGENMODE
70
1
9
$FILLMODE
70
1
9
$QTEXTMODE
70
0
9
$MIRRTEXT
70
1
9
$LTSCALE
40
1.0
9
$ATTMODE
70
1
9
$TEXTSIZE
40
0.2
9
$TRACEWID
40
0.05
9
$TEXTSTYLE
7
Standard
9
$CLAYER
8
0
9
$CELTYPE
6
ByLayer
9
$CECOLOR
62
256
9
$CELTSCALE
40
1.0
9
$DISPSILH
70
0
9
$DIMSCALE
40
1.0
9
$DIMASZ
40
2.5
9
$DIMEXO
40
0.625
9
$DIMDLI
40
0.38
9
$DIMRND
40
0.0
9
$DIMDLE
40
0.0
9
$DIMEXE
40
1.25
9
$DIMTP
40
0.0
9
$DIMTM
40
0.000000001
9
$DIMTXT
40
2.5
9
$DIMCEN
40
0.09
9
$DIMTSZ
40
0.0
9
$DIMTOL
70
1
9
$DIMLIM
70
0
9
$DIMTIH
70
0
9
$DIMTOH
70
0
9
$DIMSE1
70
0
9
$DIMSE2
70
0
9
$DIMTAD
70
1
9
$DIMZIN
70
0
9
$DIMBLK
1
VDDIM_DEFAULT
9
$DIMASO
70
1
9
$DIMSHO
70
1
9
$DIMPOST
1

9
$DIMAPOST
1

9
$DIMALT
70
0
9
$DIMALTD
70
2
9
$DIMALTF
40
25.4
9
$DIMLFAC
40
1.00000000000000
9
$DIMTOFL
70
0
9
$DIMTVP
40
0.0
9
$DIMTIX
70
0
9
$DIMSOXD
70
0
9
$DIMSAH
70
0
9
$DIMBLK1
1

9
$DIMBLK2
1

9
$DIMSTYLE
2
BEM-ISBE
9
$DIMCLRD
70
0
9
$DIMCLRE
70
0
9
$DIMCLRT
70
0
9
$DIMTFAC
40
0.5
9
$DIMGAP
40
0.625
9
$DIMJUST
70
0
9
$DIMSD1
70
0
9
$DIMSD2
70
0
9
$DIMTOLJ
70
1
9
$DIMTZIN
70
0
9
$DIMALTZ
70
0
9
$DIMALTTZ
70
0
9
$DIMUPT
70
0
9
$DIMDEC
70
3
9
$DIMTDEC
70
3
9
$DIMALTU
70
2
9
$DIMALTTD
70
2
9
$DIMTXSTY
7
Standard
9
$DIMAUNIT
70
0
9
$DIMADEC
70
3
9
$DIMALTRND
40
0.0
9
$DIMAZIN
70
0
9
$DIMDSEP
70
46
9
$DIMATFIT
70
3
9
$DIMFRAC
70
0
9
$DIMLDRBLK
1

9
$DIMLUNIT
70
2
9
$DIMLWD
70
-2
9
$DIMLWE
70
-2
9
$DIMTMOVE
70
0
9
$LUNITS
70
2
9
$LUPREC
70
4
9
$SKETCHINC
40
0.1
9
$FILLETRAD
40
0.5
9
$AUNITS
70
0
9
$AUPREC
70
0
9
$MENU
1
.
9
$ELEVATION
40
0.0
9
$PELEVATION
40
0.0
9
$THICKNESS
40
0.0
9
$LIMCHECK
70
0
9
$CHAMFERA
40
0.5
9
$CHAMFERB
40
0.5
9
$CHAMFERC
40
1.0
9
$CHAMFERD
40
0.0
9
$SKPOLY
70
0
9
$TDCREATE
40
0.0
9
$TDUCREATE
40
0.0
9
$TDUPDATE
40
0.0
9
$TDUUPDATE
40
0.0
9
$TDINDWG
40
0.0
9
$TDUSRTIMER
40
0.0
9
$USRTIMER
70
1
9
$ANGBASE
50
0.0
9
$ANGDIR
70
0
9
$PDMODE
70
0
9
$PDSIZE
40
0.0
9
$PLINEWID
40
0.0
9
$SPLFRAME
70
0
9
$SPLINETYPE
70
6
9
$SPLINESEGS
70
8
9
$HANDSEED
5
10AB
9
$SURFTAB1
70
6
9
$SURFTAB2
70
6
9
$SURFTYPE
70
6
9
$SURFU
70
6
9
$SURFV
70
6
9
$UCSBASE
2

9
$UCSNAME
2

9
$UCSORG
10
0.0
20
0.0
30
0.0
9
$UCSXDIR
10
1.0
20
0.0
30
0.0
9
$UCSYDIR
10
0.0
20
1.0
30
0.0
9
$UCSORTHOREF
2

9
$UCSORTHOVIEW
70
0
9
$UCSORGTOP
10
0.0
20
0.0
30
0.0
9
$UCSORGBOTTOM
10
0.0
20
0.0
30
0.0
9
$UCSORGLEFT
10
0.0
20
0.0
30
0.0
9
$UCSORGRIGHT
10
0.0
20
0.0
30
0.0
9
$UCSORGFRONT
10
0.0
20
0.0
30
0.0
9
$UCSORGBACK
10
0.0
20
0.0
30
0.0
9
$PUCSBASE
2

9
$PUCSNAME
2

9
$PUCSORG
10
0.0
20
0.0
30
0.0
9
$PUCSXDIR
10
1.0
20
0.0
30
0.0
9
$PUCSYDIR
10
0.0
20
1.0
30
0.0
9
$PUCSORTHOREF
2

9
$PUCSORTHOVIEW
70
0
9
$PUCSORGTOP
10
0.0
20
0.0
30
0.0
9
$PUCSORGBOTTOM
10
0.0
20
0.0
30
0.0
9
$PUCSORGLEFT
10
0.0
20
0.0
30
0.0
9
$PUCSORGRIGHT
10
0.0
20
0.0
30
0.0
9
$PUCSORGFRONT
10
0.0
20
0.0
30
0.0
9
$PUCSORGBACK
10
0.0
20
0.0
30
0.0
9
$USERI1
70
0
9
$USERI2
70
0
9
$USERI3
70
0
9
$USERI4
70
0
9
$USERI5
70
0
9
$USERR1
40
0.0
9
$USERR2
40
0.0
9
$USERR3
40
0.0
9
$USERR4
40
0.0
9
$USERR5
40
0.0
9
$WORLDVIEW
70
1
9
$SHADEDGE
70
3
9
$SHADEDIF
70
70
9
$TILEMODE
70
1
9
$MAXACTVP
70
64
9
$PINSBASE
10
0.0
20
0.0
30
0.0
9
$PLIMCHECK
70
0
9
$PEXTMIN
10
1.000000000000000E+20
20
1.000000000000000E+20
30
1.000000000000000E+20
9
$PEXTMAX
10
-1.000000000000000E+20
20
-1.000000000000000E+20
30
-1.000000000000000E+20
9
$PLIMMIN
10
0.0
20
0.0
9
$PLIMMAX
10
12.0
20
9.0
9
$UNITMODE
70
0
9
$VISRETAIN
70
1
9
$PLINEGEN
70
0
9
$PSLTSCALE
70
1
9
$TREEDEPTH
70
3020
9
$CMLSTYLE
2
Standard
9
$CMLJUST
70
0
9
$CMLSCALE
40
1.0
9
$PROXYGRAPHICS
70
1
9
$MEASUREMENT
70
0
9
$CELWEIGHT
370
-1
9
$ENDCAPS
280
0
9
$JOINSTYLE
280
0
9
$LWDISPLAY
290
0
9
$INSUNITS
70
4
9
$HYPERLINKBASE
1

9
$STYLESHEET
1

9
$XEDIT
290
1
9
$CEPSNTYPE
380
0
9
$PSTYLEMODE
290
0
9
$FINGERPRINTGUID
2
{FAEB1C30-E019-11D5-929B-00C0DF256EC4}
9
$VERSIONGUID
2
{04C5C4E4-4947-4D90-8812-D401569E61F7}
9
$EXTNAMES
290
1
9
$PSVPSCALE
40
0.0
9
$OLESTARTUP
290
0
0
ENDSEC
0
SECTION
2
TABLES
0
TABLE
2
VPORT
5
24A
330
0
100
AcDbSymbolTable
70
1
0
VPORT
5
26B
330
24A
100
AcDbSymbolTableRecord
100
AcDbViewportTableRecord
2
*Active
70
0
10
0.0
20
0.0
11
1.0
21
1.0
12
0.000000000000000
22
0.000000000000000
13
0.0
23
0.0
14
10.0
24
10.0
15
10.0
25
10.0
16
0.0
26
0.0
36
1.0
17
0.0
27
0.0
37
0.0
40
210.000000000000
41
1.42857142857143
42
1.0
43
0.0
44
0.0
50
0.0
51
0.0000000000007958
71
0
72
100
73
1
74
3
75
0
76
0
77
0
78
1
281
0
65
1
110
0.0
120
0.0
130
0.0
111
1.0
121
0.0
131
0.0
112
0.0
122
1.0
132
0.0
79
0
146
0.0
0
ENDTAB
0
TABLE
2
LTYPE
5
247
330
0
100
AcDbSymbolTable
70
25
0
LTYPE
5
256
330
247
100
AcDbSymbolTableRecord
100
AcDbLinetypeTableRecord
2
ByBlock
70
0
3

72
65
73
0
40
0.0
0
LTYPE
5
257
330
247
100
AcDbSymbolTableRecord
100
AcDbLinetypeTableRecord
2
ByLayer
70
0
3

72
65
73
0
40
0.0
0
LTYPE
5
258
330
247
100
AcDbSymbolTableRecord
100
AcDbLinetypeTableRecord
2
Continuous
70
0
3
Solid line
72
65
73
0
40
0.0
0
LTYPE
5
273
330
247
100
AcDbSymbolTableRecord
100
AcDbLinetypeTableRecord
2
CENTER
70
0
3
Center ____ _ ____ _ ____ _ ____ _ ____ _ ____
72
65
73
4
40
2.0
49
1.25
74
0
49
-0.25
74
0
49
0.25
74
0
49
-0.25
74
0
0
LTYPE
5
274
330
247
100
AcDbSymbolTableRecord
100
AcDbLinetypeTableRecord
2
DASHDOT
70
0
3
Dashdot __ . __ . __ . __ . __ . __ . __ . __
72
65
73
4
40
1.0
49
0.5
74
0
49
-0.25
74
0
49
0.0
74
0
49
-0.25
74
0
0
LTYPE
5
275
330
247
100
AcDbSymbolTableRecord
100
AcDbLinetypeTableRecord
2
DASHED
70
0
3
Dashed __ __ __ __ __ __ __ __ __ __ __ __ __ _
72
65
73
2
40
0.75
49
0.5
74
0
49
-0.25
74
0
0
LTYPE
5
276
330
247
100
AcDbSymbolTableRecord
100
AcDbLinetypeTableRecord
2
HIDDEN
70
0
3
Hidden __ __ __ __ __ __ __ __ __ __ __ __ __ __
72
65
73
2
40
0.375
49
0.25
74
0
49
-0.125
74
0
0
LTYPE
5
277
330
247
100
AcDbSymbolTableRecord
100
AcDbLinetypeTableRecord
2
HIDDEN2
70
0
3
Hidden2 _ _ _ _ _ _ _ _ _ _ _ _ _ _ _ _ _
72
65
73
2
40
0.1875
49
0.125
74
0
49
-0.0625
74
0
0
LTYPE
5
278
330
247
100
AcDbSymbolTableRecord
100
AcDbLinetypeTableRecord
2
BORDER
70
0
3
Border __ __ . __ __ . __ __ . __ __ . __ __ .
72
65
73
6
40
1.75
49
0.5
74
0
49
-0.25
74
0
49
0.5
74
0
49
-0.25
74
0
49
0.0
74
0
49
-0.25
74
0
0
LTYPE
5
279
330
247
100
AcDbSymbolTableRecord
100
AcDbLinetypeTableRecord
2
BORDER2
70
0
3
Border2 __.__.__.__.__.__.__.__.__.__.__.
72
65
73
6
40
0.875
49
0.25
74
0
49
-0.125
74
0
49
0.25
74
0
49
-0.125
74
0
49
0.0
74
0
49
-0.125
74
0
0
LTYPE
5
27A
330
247
100
AcDbSymbolTableRecord
100
AcDbLinetypeTableRecord
2
BORDERX2
70
0
3
Borderx2  ____  ____  .  ____  ____  .  ___
72
65
73
6
40
3.5
49
1.0
74
0
49
-0.5
74
0
49
1.0
74
0
49
-0.5
74
0
49
0.0
74
0
49
-0.5
74
0
0
LTYPE
5
27B
330
247
100
AcDbSymbolTableRecord
100
AcDbLinetypeTableRecord
2
CENTER2
70
0
3
Center2  ___ _ ___ _ ___ _ ___ _ ___ _ ___
72
65
73
4
40
1.125
49
0.75
74
0
49
-0.125
74
0
49
0.125
74
0
49
-0.125
74
0
0
LTYPE
5
27C
330
247
100
AcDbSymbolTableRecord
100
AcDbLinetypeTableRecord
2
CENTERX2
70
0
3
Centerx2  ________  __  ________  __  _____
72
65
73
4
40
4.0
49
2.5
74
0
49
-0.5
74
0
49
0.5
74
0
49
-0.5
74
0
0
LTYPE
5
27D
330
247
100
AcDbSymbolTableRecord
100
AcDbLinetypeTableRecord
2
DASHDOT2
70
0
3
Dashdot2  _._._._._._._._._._._._._._._.
72
65
73
4
40
0.5
49
0.25
74
0
49
-0.125
74
0
49
0.0
74
0
49
-0.125
74
0
0
LTYPE
5
27E
330
247
100
AcDbSymbolTableRecord
100
AcDbLinetypeTableRecord
2
DASHDOTX2
70
0
3
Dashdotx2 ____  .  ____  .  ____  .  ___
72
65
73
4
40
2.0
49
1.0
74
0
49
-0.5
74
0
49
0.0
74
0
49
-0.5
74
0
0
LTYPE
5
27F
330
247
100
AcDbSymbolTableRecord
100
AcDbLinetypeTableRecord
2
DASHED2
70
0
3
Dashed2 _ _ _ _ _ _ _ _ _ _ _ _ _ _ _ _ _
72
65
73
2
40
0.375
49
0.25
74
0
49
-0.125
74
0
0
LTYPE
5
280
330
247
100
AcDbSymbolTableRecord
100
AcDbLinetypeTableRecord
2
DASHEDX2
70
0
3
Dashedx2 ____  ____  ____  ____  ____  ___
72
65
73
2
40
1.5
49
1.0
74
0
49
-0.5
74
0
0
LTYPE
5
281
330
247
100
AcDbSymbolTableRecord
100
AcDbLinetypeTableRecord
2
DIVIDE
70
0
3
Divide ____ . . ____ . . ____ . . ____ . . ____
72
65
73
6
40
1.25
49
0.5
74
0
49
-0.25
74
0
49
0.0
74
0
49
-0.25
74
0
49
0.0
74
0
49
-0.25
74
0
0
LTYPE
5
282
330
247
100
AcDbSymbolTableRecord
100
AcDbLinetypeTableRecord
2
DIVIDE2
70
0
3
Divide2 __..__..__..__..__..__..__..__.._
72
65
73
6
40
0.625
49
0.25
74
0
49
-0.125
74
0
49
0.0
74
0
49
-0.125
74
0
49
0.0
74
0
49
-0.125
74
0
0
LTYPE
5
283
330
247
100
AcDbSymbolTableRecord
100
AcDbLinetypeTableRecord
2
DIVIDEX2
70
0
3
Dividex2 ________  .  .  ________  .  .  _
72
65
73
6
40
2.5
49
1.0
74
0
49
-0.5
74
0
49
0.0
74
0
49
-0.5
74
0
49
0.0
74
0
49
-0.5
74
0
0
LTYPE
5
284
330
247
100
AcDbSymbolTableRecord
100
AcDbLinetypeTableRecord
2
DOT
70
0
3
Dot . . . . . . . . . . . . . . . . . . . . . . . .
72
65
73
2
40
0.25
49
0.0
74
0
49
-0.25
74
0
0
LTYPE
5
285
330
247
100
AcDbSymbolTableRecord
100
AcDbLinetypeTableRecord
2
DOT2
70
0
3
Dot2 ........................................
72
65
73
2
40
0.125
49
0.0
74
0
49
-0.125
74
0
0
LTYPE
5
286
330
247
100
AcDbSymbolTableRecord
100
AcDbLinetypeTableRecord
2
DOTX2
70
0
3
Dotx2 .  .  .  .  .  .  .  .  .  .  .  .  .  .
72
65
73
2
40
0.5
49
0.0
74
0
49
-0.5
74
0
0
LTYPE
5
287
330
247
100
AcDbSymbolTableRecord
100
AcDbLinetypeTableRecord
2
HIDDENX2
70
0
3
Hiddenx2 ____ ____ ____ ____ ____ ____ ____
72
65
73
2
40
0.75
49
0.5
74
0
49
-0.25
74
0
0
LTYPE
5
288
330
247
100
AcDbSymbolTableRecord
100
AcDbLinetypeTableRecord
2
PHANTOM
70
0
3
Phantom ______  __  __  ______  __  __  ______
72
65
73
6
40
2.5
49
1.25
74
0
49
-0.25
74
0
49
0.25
74
0
49
-0.25
74
0
49
0.25
74
0
49
-0.25
74
0
0
LTYPE
5
289
330
247
100
AcDbSymbolTableRecord
100
AcDbLinetypeTableRecord
2
PHANTOM2
70
0
3
Phantom2 ___ _ _ ___ _ _ ___ _ _ ___ _ _
72
65
73
6
40
1.25
49
0.625
74
0
49
-0.125
74
0
49
0.125
74
0
49
-0.125
74
0
49
0.125
74
0
49
-0.125
74
0
0
LTYPE
5
28A
330
247
100
AcDbSymbolTableRecord
100
AcDbLinetypeTableRecord
2
PHANTOMX2
70
0
3
Phantomx2 ____________    ____    ____   _
72
65
73
6
40
5.0
49
2.5
74
0
49
-0.5
74
0
49
0.5
74
0
49
-0.5
74
0
49
0.5
74
0
49
-0.5
74
0
0
ENDTAB
0
TABLE
2
LAYER
5
244
330
0
100
AcDbSymbolTable
70
6
0
LAYER
5
252
330
244
100
AcDbSymbolTableRecord
100
AcDbLayerTableRecord
2
0
70
0
62
7
6
Continuous
370
0
390
251
0
LAYER
5
23F
330
244
100
AcDbSymbolTableRecord
100
AcDbLayerTableRecord
2
Bemassung
70
0
 62
   7
6
Continuous
370
0
390
251
0
LAYER
5
240
330
244
100
AcDbSymbolTableRecord
100
AcDbLayerTableRecord
2
Rahmen
70
0
 62
   7
6
Continuous
370
0
390
251
0
LAYER
5
241
330
244
100
AcDbSymbolTableRecord
100
AcDbLayerTableRecord
2
Geo
70
0
 62
   7
6
Continuous
370
0
390
251
0
LAYER
5
33A
330
244
100
AcDbSymbolTableRecord
100
AcDbLayerTableRecord
2
Defpoints
70
0
62
7
6
Continuous
290
0
370
-3
390
251
0
LAYER
5
57E
330
244
100
AcDbSymbolTableRecord
100
AcDbLayerTableRecord
2
Text
70
0
 62
   7
6
Continuous
370
0
390
251
1001
AcAecLayerStandard
1000

1000

0
ENDTAB
0
TABLE
2
STYLE
5
245
330
0
100
AcDbSymbolTable
70
2
0
STYLE
5
253
330
245
100
AcDbSymbolTableRecord
100
AcDbTextStyleTableRecord
2
Standard
70
0
40
0.0
41
1.0
50
0.0
71
0
42
0.2
3
Arial
4

1001
ACAD
1000
Arial
1071
0
0
STYLE
5
132
330
245
100
AcDbSymbolTableRecord
100
AcDbTextStyleTableRecord
2
Beschriftung
70
0
40
0.0
41
1.0
50
0.0
71
0
42
0.2
3
Arial
4

1001
ACAD
1000
Arial
1071
0
1001
AcadAnnotative
1000
AnnotativeData
1070
1
1070
1
0
ENDTAB
0
TABLE
2
VIEW
5
248
330
0
100
AcDbSymbolTable
70
0
0
ENDTAB
0
TABLE
2
UCS
5
249
330
0
100
AcDbSymbolTable
70
0
0
ENDTAB
0
TABLE
2
APPID
5
24B
330
0
100
AcDbSymbolTable
70
13
0
APPID
5
254
330
24B
100
AcDbSymbolTableRecord
100
AcDbRegAppTableRecord
2
ACAD
70
0
0
APPID
5
26C
330
24B
100
AcDbSymbolTableRecord
100
AcDbRegAppTableRecord
2
VD_INVISIBLE_NOT_FOR_READ
70
0
0
APPID
5
26D
330
24B
100
AcDbSymbolTableRecord
100
AcDbRegAppTableRecord
2
VD_TEMPHATCH
70
0
0
APPID
5
26E
330
24B
100
AcDbSymbolTableRecord
100
AcDbRegAppTableRecord
2
VDEXTRAPARAM
70
0
0
APPID
5
26F
330
24B
100
AcDbSymbolTableRecord
100
AcDbRegAppTableRecord
2
PE_URL
70
0
0
APPID
5
270
330
24B
100
AcDbSymbolTableRecord
100
AcDbRegAppTableRecord
2
VD_UNKNOWN
70
0
0
APPID
5
28F
330
24B
100
AcDbSymbolTableRecord
100
AcDbRegAppTableRecord
2
AcadAnnotative
70
0
0
APPID
5
290
330
24B
100
AcDbSymbolTableRecord
100
AcDbRegAppTableRecord
2
ACAD_DSTYLE_DIMJAG
70
0
0
APPID
5
291
330
24B
100
AcDbSymbolTableRecord
100
AcDbRegAppTableRecord
2
ACAD_DSTYLE_DIMTALN
70
0
0
APPID
5
293
330
24B
100
AcDbSymbolTableRecord
100
AcDbRegAppTableRecord
2
ACAD_PSEXT
70
0
0
APPID
5
42A
330
24B
100
AcDbSymbolTableRecord
100
AcDbRegAppTableRecord
2
ACAD_MLEADERVER
70
0
0
APPID
5
532
330
24B
100
AcDbSymbolTableRecord
100
AcDbRegAppTableRecord
2
ACAD_EXEMPT_FROM_CAD_STANDARDS
70
0
0
APPID
5
57F
330
24B
100
AcDbSymbolTableRecord
100
AcDbRegAppTableRecord
2
AcAecLayerStandard
70
0
0
ENDTAB
0
TABLE
2
DIMSTYLE
5
24C
330
0
100
AcDbSymbolTable
70
3
100
AcDbDimStyleTable
71
2
340
27
340
269
0
DIMSTYLE
105
269
330
24C
100
AcDbSymbolTableRecord
100
AcDbDimStyleTableRecord
2
Standard
70
0
172
1
174
1
288
1
340
253
342
23C
0
DIMSTYLE
105
137
330
24C
100
AcDbSymbolTableRecord
100
AcDbDimStyleTableRecord
2
Beschriftung
70
0
41
2.5
42
0.625
44
1.25
73
0
74
0
77
1
140
2.5
147
0.625
172
1
174
1
271
2
288
1
340
253
342
23C
1001
AcadAnnotative
1000
AnnotativeData
1070
1
1070
1
1001
ACAD_DSTYLE_DIMJAG
1070
388
1040
1.5
1001
ACAD_DSTYLE_DIMTALN
1070
392
1070
0
0
DIMSTYLE
105
27
102
{ACAD_REACTORS
330
F10017
330
F1001C
330
F10026
330
F1002B
330
F10003
330
F1000D
330
F10008
330
F10012
330
F10021
102
}
330
24C
100
AcDbSymbolTableRecord
100
AcDbDimStyleTableRecord
2
BEM-ISBE
70
0
41
2.5
42
0.625
44
1.25
48
0.000000001
71
1
73
0
74
0
77
1
140
2.5
144
1.00000000000000
146
0.5
147
0.625
171
 3
172
 1
179
 3
271
 3
272
 3
274
 3
340
253
342
23C
1001
ACAD_DSTYLE_DIMJAG
1070
388
1040
1.5
1001
ACAD_DSTYLE_DIMTALN
1070
392
1070
1
0
ENDTAB
0
TABLE
2
BLOCK_RECORD
5
243
330
0
100
AcDbSymbolTable
70
5
0
BLOCK_RECORD
5
261
330
243
100
AcDbSymbolTableRecord
100
AcDbBlockTableRecord
2
*Model_Space
340
FD0
0
BLOCK_RECORD
5
25D
330
243
100
AcDbSymbolTableRecord
100
AcDbBlockTableRecord
2
*Paper_Space
340
FD1
0
BLOCK_RECORD
5
265
330
243
100
AcDbSymbolTableRecord
100
AcDbBlockTableRecord
2
*Paper_Space0
340
0
0
BLOCK_RECORD
5
23C
330
243
100
AcDbSymbolTableRecord
100
AcDbBlockTableRecord
2
VDDIM_DEFAULT
340
0
102
{BLKREFS
102
}
0
BLOCK_RECORD
5
23E
330
243
100
AcDbSymbolTableRecord
100
AcDbBlockTableRecord
2
VDDIM_NONE
340
0
0
BLOCK_RECORD
5
F10016
330
243
100
AcDbSymbolTableRecord
100
AcDbBlockTableRecord
2
*D7
340
0
0
BLOCK_RECORD
5
F1001B
330
243
100
AcDbSymbolTableRecord
100
AcDbBlockTableRecord
2
*D8
340
0
0
BLOCK_RECORD
5
F10025
330
243
100
AcDbSymbolTableRecord
100
AcDbBlockTableRecord
2
*D10
340
0
0
BLOCK_RECORD
5
F1002A
330
243
100
AcDbSymbolTableRecord
100
AcDbBlockTableRecord
2
*D11
340
0
0
BLOCK_RECORD
5
F10002
330
243
100
AcDbSymbolTableRecord
100
AcDbBlockTableRecord
2
*D3
340
0
0
BLOCK_RECORD
5
F1000C
330
243
100
AcDbSymbolTableRecord
100
AcDbBlockTableRecord
2
*D5
340
0
0
BLOCK_RECORD
5
F10007
330
243
100
AcDbSymbolTableRecord
100
AcDbBlockTableRecord
2
*D4
340
0
0
BLOCK_RECORD
5
F10011
330
243
100
AcDbSymbolTableRecord
100
AcDbBlockTableRecord
2
*D6
340
0
0
BLOCK_RECORD
5
F10020
330
243
100
AcDbSymbolTableRecord
100
AcDbBlockTableRecord
2
*D9
340
0
0
ENDTAB
0
ENDSEC
0
SECTION
2
BLOCKS
0
BLOCK
5
262
330
261
100
AcDbEntity
8
0
100
AcDbBlockBegin
2
*Model_Space
70
0
10
0.0
20
0.0
30
0.0
3
*Model_Space
1

0
ENDBLK
5
263
330
261
100
AcDbEntity
8
0
100
AcDbBlockEnd
0
BLOCK
5
25E
330
25D
100
AcDbEntity
67
1
8
0
100
AcDbBlockBegin
2
*Paper_Space
70
0
10
0.0
20
0.0
30
0.0
3
*Paper_Space
1

0
ENDBLK
5
25F
330
25D
100
AcDbEntity
67
1
8
0
100
AcDbBlockEnd
0
BLOCK
5
266
330
265
100
AcDbEntity
8
0
100
AcDbBlockBegin
2
*Paper_Space0
70
0
10
0.0
20
0.0
30
0.0
3
*Paper_Space0
1

0
VIEWPORT
5
296
102
{ACAD_XDICTIONARY
360
58E
102
}
330
265
100
AcDbEntity
8
0
60
1
100
AcDbViewport
10
0.0
20
0.0
30
0.0
40
10.0
41
10.0
69
0
12
0.0
22
0.0
13
0.0
23
0.0
14
1.0
24
1.0
15
0.0
25
0.0
16
0.0
26
0.0
36
1.0
17
0.0
27
0.0
37
0.0
42
0.0
43
0.0
44
0.0
45
10.0
50
0.0
51
0.0000000000007958
72
100
90
163872
1

281
0
71
0
74
0
110
0.0
120
0.0
130
0.0
111
1.0
121
0.0
131
0.0
112
0.0
122
1.0
132
0.0
79
0
146
0.0
1001
VD_INVISIBLE_NOT_FOR_READ
1000
VD_INVISIBLE_NOT_FOR_READ
0
VIEWPORT
5
297
102
{ACAD_XDICTIONARY
360
590
102
}
330
265
100
AcDbEntity
8
0
60
1
100
AcDbViewport
10
0.0
20
0.0
30
0.0
40
10.0
41
10.0
69
0
12
0.0
22
0.0
13
0.0
23
0.0
14
1.0
24
1.0
15
0.0
25
0.0
16
0.0
26
0.0
36
1.0
17
0.0
27
0.0
37
0.0
42
0.0
43
0.0
44
0.0
45
10.0
50
0.0
51
0.0000000000007958
72
100
90
163872
1

281
0
71
0
74
0
110
0.0
120
0.0
130
0.0
111
1.0
121
0.0
131
0.0
112
0.0
122
1.0
132
0.0
79
0
146
0.0
1001
VD_INVISIBLE_NOT_FOR_READ
1000
VD_INVISIBLE_NOT_FOR_READ
0
ENDBLK
5
267
330
265
100
AcDbEntity
8
0
100
AcDbBlockEnd
0
BLOCK
5
28B
330
23C
100
AcDbEntity
8
0
100
AcDbBlockBegin
2
VDDIM_DEFAULT
70
0
10
0.0
20
0.0
30
0.0
3
VDDIM_DEFAULT
1

0
LWPOLYLINE
5
23D
330
23C
100
AcDbEntity
8
0
6
Continuous
62
0
100
AcDbPolyline
90
4
70
0
43
0.0
10
0.0
20
0.0
10
-1.0
20
-0.1665
10
-1.0
20
0.1665
10
0.0
20
0.0
1001
VDEXTRAPARAM
1071
1
1071
0
1071
0
1040
1.0
1000

1000

1040
0.0
1040
0.0
0
HATCH
5
292
330
23C
100
AcDbEntity
8
0
6
Continuous
62
0
100
AcDbHatch
10
0.0
20
0.0
30
0.0
210
0.0
220
0.0
230
1.0
2
SOLID
70
1
71
0
91
1
92
2
72
0
73
1
93
3
10
0.0
20
0.0
10
-1.0
20
-0.1665
10
-1.0
20
0.1665
97
0
75
0
76
1
98
1
10
0.0
20
0.0
1001
VDEXTRAPARAM
1071
1
1071
0
1071
0
1040
1.0
1000

1000

1040
0.0
1040
0.0
1001
VD_TEMPHATCH
1000
VD_TEMPHATCH
0
ENDBLK
5
28C
330
23C
100
AcDbEntity
8
0
100
AcDbBlockEnd
0
BLOCK
5
28D
330
23E
100
AcDbEntity
8
0
100
AcDbBlockBegin
2
VDDIM_NONE
70
0
10
0.0
20
0.0
30
0.0
3
VDDIM_NONE
1

0
ENDBLK
5
28E
330
23E
100
AcDbEntity
8
0
100
AcDbBlockEnd
  0
BLOCK
  5
F1002F
330
F10016
100
AcDbEntity
  8
0
100
AcDbBlockBegin
  2
*D7
 70
     1
 10
0.0
 20
0.0
 30
0.0
  3
*D7
  1

  0
LINE
  5
F10030
330
F10016
100
AcDbEntity
  8
Bemassung
 62
     0
370
    -2
100
AcDbLine
10
-84.6337598704073
20
-9.53204788245446
30
0.000000000000000
11
-84.6337598704073
21
33.4679521175455
31
0.000000000000000
  0
LINE
  5
F10031
330
F10016
100
AcDbEntity
  8
Bemassung
 62
     0
370
    -2
100
AcDbLine
10
-54.6337598704073
20
11.1679521175455
30
0.000000000000000
11
-54.6337598704073
21
23.4679521175455
31
0.000000000000000
  0
LINE
  5
F10032
330
F10016
100
AcDbEntity
  8
Bemassung
 62
     0
370
    -2
100
AcDbLine
10
-84.6337598704073
20
21.4679521175455
30
0.000000000000000
11
-53.7081838164997
21
21.4679521175455
31
0.000000000000000
  0
INSERT
  5
F10033
330
F10016
100
AcDbEntity
  8
Bemassung
 62
     0
370
    -2
100
AcDbBlockReference
  2
VDDIM_DEFAULT
10
-84.6337598704073
20
21.4679521175455
30
0.000000000000000
 41
2.50000000000000
 42
2.50000000000000
 43
2.50000000000000
 50
180.000000000000
  0
INSERT
  5
F10034
330
F10016
100
AcDbEntity
  8
Bemassung
 62
     0
370
    -2
100
AcDbBlockReference
  2
VDDIM_DEFAULT
10
-54.6337598704073
20
21.4679521175455
30
0.000000000000000
 41
2.50000000000000
 42
2.50000000000000
 43
2.50000000000000
  0
MTEXT
  5
F10035
330
F10016
100
AcDbEntity
  8
Bemassung
 62
     0
100
AcDbMText
10
-69.6337598704073
20
22.1346187842122
30
0.000000000000000
 40
2.50000000000000
 41
0.0
 71
     8
 72
     1
  1
30
 11
1.00000000000000
 21
0.000000000000000
 31
0.0
 73
     1
 44
1.0
1001
ACAD
1000
MTEXTBEGIN
1070
73
1070
1
1070
44
1040
1.0
1070
74
1070
0
1000
MTEXTEND
  0
POINT
  5
F10036
330
F10016
100
AcDbEntity
  8
Bemassung
 62
     0
100
AcDbPoint
10
-84.6337598704073
20
-9.53204788245446
30
0.000000000000000
  0
POINT
  5
F10037
330
F10016
100
AcDbEntity
  8
Bemassung
 62
     0
100
AcDbPoint
10
-54.6337598704073
20
11.1679521175455
30
0.000000000000000
  0
ENDBLK
  5
F10038
330
F10016
100
AcDbEntity
  8
0
100
AcDbBlockEnd
  0
BLOCK
  5
F10039
330
F1001B
100
AcDbEntity
  8
0
100
AcDbBlockBegin
  2
*D8
 70
     1
 10
0.0
 20
0.0
 30
0.0
  3
*D8
  1

  0
LINE
  5
F1003A
330
F1001B
100
AcDbEntity
  8
Bemassung
 62
     0
370
    -2
100
AcDbLine
10
-54.6337598704073
20
11.1679521175455
30
0.000000000000000
11
-54.6337598704073
21
28.4679521175455
31
0.000000000000000
  0
LINE
  5
F1003B
330
F1001B
100
AcDbEntity
  8
Bemassung
 62
     0
370
    -2
100
AcDbLine
10
4.36624012959271
20
10.9679521175455
30
0.000000000000000
11
4.36624012959271
21
33.4679521175455
31
0.000000000000000
  0
LINE
  5
F1003C
330
F1001B
100
AcDbEntity
  8
Bemassung
 62
     0
370
    -2
100
AcDbLine
10
-54.6337598704073
20
26.4679521175455
30
0.000000000000000
11
35.2821528035958
21
26.4679521175455
31
0.000000000000000
  0
INSERT
  5
F1003D
330
F1001B
100
AcDbEntity
  8
Bemassung
 62
     0
370
    -2
100
AcDbBlockReference
  2
VDDIM_DEFAULT
10
-54.6337598704073
20
26.4679521175455
30
0.000000000000000
 41
2.50000000000000
 42
2.50000000000000
 43
2.50000000000000
 50
180.000000000000
  0
INSERT
  5
F1003E
330
F1001B
100
AcDbEntity
  8
Bemassung
 62
     0
370
    -2
100
AcDbBlockReference
  2
VDDIM_DEFAULT
10
4.36624012959271
20
26.4679521175455
30
0.000000000000000
 41
2.50000000000000
 42
2.50000000000000
 43
2.50000000000000
  0
MTEXT
  5
F1003F
330
F1001B
100
AcDbEntity
  8
Bemassung
 62
     0
100
AcDbMText
10
-25.1337598704073
20
27.1346187842122
30
0.000000000000000
 40
2.50000000000000
 41
0.0
 71
     8
 72
     1
  1
59
 11
1.00000000000000
 21
0.000000000000000
 31
0.0
 73
     1
 44
1.0
1001
ACAD
1000
MTEXTBEGIN
1070
73
1070
1
1070
44
1040
1.0
1070
74
1070
0
1000
MTEXTEND
  0
POINT
  5
F10040
330
F1001B
100
AcDbEntity
  8
Bemassung
 62
     0
100
AcDbPoint
10
-54.6337598704073
20
11.1679521175455
30
0.000000000000000
  0
POINT
  5
F10041
330
F1001B
100
AcDbEntity
  8
Bemassung
 62
     0
100
AcDbPoint
10
4.36624012959271
20
10.9679521175455
30
0.000000000000000
  0
ENDBLK
  5
F10042
330
F1001B
100
AcDbEntity
  8
0
100
AcDbBlockEnd
  0
BLOCK
  5
F10043
330
F10025
100
AcDbEntity
  8
0
100
AcDbBlockBegin
  2
*D10
 70
     1
 10
0.0
 20
0.0
 30
0.0
  3
*D10
  1

  0
LINE
  5
F10044
330
F10025
100
AcDbEntity
  8
Bemassung
 62
     0
370
    -2
100
AcDbLine
10
-67.6337598704073
20
-2.23204788245446
30
0.000000000000000
11
-67.6337598704073
21
-9.53204788245446
31
0.000000000000000
  0
LINE
  5
F10045
330
F10025
100
AcDbEntity
  8
Bemassung
 62
     0
370
    -2
100
AcDbLine
10
-84.6337598704073
20
-9.53204788245446
30
0.000000000000000
11
-84.6337598704073
21
33.4679521175455
31
0.000000000000000
  0
LINE
  5
F10046
330
F10025
100
AcDbEntity
  8
Bemassung
 62
     0
370
    -2
100
AcDbLine
10
-66.7389116787280
20
-7.53204788245446
30
0.000000000000000
11
-84.6337598704073
21
-7.53204788245446
31
0.000000000000000
  0
INSERT
  5
F10047
330
F10025
100
AcDbEntity
  8
Bemassung
 62
     0
370
    -2
100
AcDbBlockReference
  2
VDDIM_DEFAULT
10
-67.6337598704073
20
-7.53204788245446
30
0.000000000000000
 41
2.50000000000000
 42
2.50000000000000
 43
2.50000000000000
  0
INSERT
  5
F10048
330
F10025
100
AcDbEntity
  8
Bemassung
 62
     0
370
    -2
100
AcDbBlockReference
  2
VDDIM_DEFAULT
10
-84.6337598704073
20
-7.53204788245446
30
0.000000000000000
 41
2.50000000000000
 42
2.50000000000000
 43
2.50000000000000
 50
180.000000000000
  0
MTEXT
  5
F10049
330
F10025
100
AcDbEntity
  8
Bemassung
 62
     0
100
AcDbMText
10
-76.1337598704073
20
-6.86538121578780
30
0.000000000000000
 40
2.50000000000000
 41
0.0
 71
     8
 72
     1
  1
17
 11
1.00000000000000
 21
0.000000000000000
 31
0.0
 73
     1
 44
1.0
1001
ACAD
1000
MTEXTBEGIN
1070
73
1070
1
1070
44
1040
1.0
1070
74
1070
0
1000
MTEXTEND
  0
POINT
  5
F1004A
330
F10025
100
AcDbEntity
  8
Bemassung
 62
     0
100
AcDbPoint
10
-67.6337598704073
20
-2.23204788245446
30
0.000000000000000
  0
POINT
  5
F1004B
330
F10025
100
AcDbEntity
  8
Bemassung
 62
     0
100
AcDbPoint
10
-84.6337598704073
20
-9.53204788245446
30
0.000000000000000
  0
ENDBLK
  5
F1004C
330
F10025
100
AcDbEntity
  8
0
100
AcDbBlockEnd
  0
BLOCK
  5
F1004D
330
F1002A
100
AcDbEntity
  8
0
100
AcDbBlockBegin
  2
*D11
 70
     1
 10
0.0
 20
0.0
 30
0.0
  3
*D11
  1

  0
LINE
  5
F1004E
330
F1002A
100
AcDbEntity
  8
Bemassung
 62
     0
370
    -2
100
AcDbLine
10
4.36624012959271
20
10.9679521175455
30
0.000000000000000
11
4.36624012959271
21
33.4679521175455
31
0.000000000000000
  0
LINE
  5
F1004F
330
F1002A
100
AcDbEntity
  8
Bemassung
 62
     0
370
    -2
100
AcDbLine
10
-84.6337598704073
20
-9.53204788245446
30
0.000000000000000
11
-84.6337598704073
21
33.4679521175455
31
0.000000000000000
  0
LINE
  5
F10050
330
F1002A
100
AcDbEntity
  8
Bemassung
 62
     0
370
    -2
100
AcDbLine
10
5.24791419431355
20
31.4679521175455
30
0.000000000000000
11
-84.6337598704073
21
31.4679521175455
31
0.000000000000000
  0
INSERT
  5
F10051
330
F1002A
100
AcDbEntity
  8
Bemassung
 62
     0
370
    -2
100
AcDbBlockReference
  2
VDDIM_DEFAULT
10
4.36624012959271
20
31.4679521175455
30
0.000000000000000
 41
2.50000000000000
 42
2.50000000000000
 43
2.50000000000000
  0
INSERT
  5
F10052
330
F1002A
100
AcDbEntity
  8
Bemassung
 62
     0
370
    -2
100
AcDbBlockReference
  2
VDDIM_DEFAULT
10
-84.6337598704073
20
31.4679521175455
30
0.000000000000000
 41
2.50000000000000
 42
2.50000000000000
 43
2.50000000000000
 50
180.000000000000
  0
MTEXT
  5
F10053
330
F1002A
100
AcDbEntity
  8
Bemassung
 62
     0
100
AcDbMText
10
-40.1337598704073
20
32.1346187842122
30
0.000000000000000
 40
2.50000000000000
 41
0.0
 71
     8
 72
     1
  1
89
 11
1.00000000000000
 21
0.000000000000000
 31
0.0
 73
     1
 44
1.0
1001
ACAD
1000
MTEXTBEGIN
1070
73
1070
1
1070
44
1040
1.0
1070
74
1070
0
1000
MTEXTEND
  0
POINT
  5
F10054
330
F1002A
100
AcDbEntity
  8
Bemassung
 62
     0
100
AcDbPoint
10
4.36624012959271
20
10.9679521175455
30
0.000000000000000
  0
POINT
  5
F10055
330
F1002A
100
AcDbEntity
  8
Bemassung
 62
     0
100
AcDbPoint
10
-84.6337598704073
20
-9.53204788245446
30
0.000000000000000
  0
ENDBLK
  5
F10056
330
F1002A
100
AcDbEntity
  8
0
100
AcDbBlockEnd
  0
BLOCK
  5
F10057
330
F10002
100
AcDbEntity
  8
0
100
AcDbBlockBegin
  2
*D3
 70
     1
 10
0.0
 20
0.0
 30
0.0
  3
*D3
  1

 0
ARC
  5
F10058
330
F10002
100
AcDbEntity
  8
Bemassung
 62
     0
370
   -2
100
AcDbCircle
10
-84.6331506974264
20
10.4330526208430
30
0.000000000000000
 40
13.3806233427542
100
AcDbArc
 50
90.0000000000000
 51
113.896701291562
  0
LINE
  5
F10059
330
F10002
100
AcDbEntity
  8
Bemassung
 62
     0
370
    -2
100
AcDbLine
10
-84.6331506974264
20
10.4330526208430
30
0.000000000000000
11
-84.6331506974264
21
25.8136759635972
31
0.000000000000000
  0
LINE
  5
F1005A
330
F10002
100
AcDbEntity
  8
Bemassung
 62
     0
370
    -2
100
AcDbLine
10
-84.6331506974264
20
10.4330526208430
30
0.000000000000000
11
-85.1699267110592
21
25.8043065034274
31
0.000000000000000
  0
INSERT
  5
F1005B
330
F10002
100
AcDbEntity
  8
Bemassung
 62
     0
370
    -2
100
AcDbBlockReference
  2
VDDIM_DEFAULT
10
-84.6331506974264
20
23.8136759635972
30
0.000000000000000
 41
2.50000000000000
 42
2.50000000000000
 43
2.50000000000000
 50
179.785899687237
  0
INSERT
  5
F1005C
330
F10002
100
AcDbEntity
  8
Bemassung
 62
     0
370
    -2
100
AcDbBlockReference
  2
VDDIM_DEFAULT
10
-85.1001277176542
20
23.8055248493892
30
0.000000000000000
 41
2.50000000000000
 42
2.50000000000000
 43
2.50000000000000
 50
2.21410031276408
  0
MTEXT
  5
F1005D
330
F10002
100
AcDbEntity
  8
Bemassung
 62
     0
100
AcDbMText
10
-91.2231452697334
20
22.0783543592105
30
0.000000000000000
 40
2.50000000000000
 41
0.0
 71
     8
 72
     1
  1
2°
 11
0.870783404645588
 21
0.491666820310094
 31
0.0
 73
     1
 44
1.0
1001
ACAD
1000
MTEXTBEGIN
1070
73
1070
1
1070
44
1040
1.0
1070
74
1070
0
1000
MTEXTEND
  0
POINT
  5
F1005E
330
F10002
100
AcDbEntity
  8
Bemassung
 62
     0
100
AcDbPoint
10
-84.6331506974264
20
10.4330526208430
30
0.000000000000000
  0
POINT
  5
F1005F
330
F10002
100
AcDbEntity
  8
Bemassung
 62
     0
100
AcDbPoint
10
-84.6331506974264
20
23.8136759635972
30
0.000000000000000
  0
POINT
  5
F10060
330
F10002
100
AcDbEntity
  8
Bemassung
 62
     0
100
AcDbPoint
10
-85.1001277176542
20
23.8055248493892
30
0.000000000000000
  0
POINT
  5
F10061
330
F10002
100
AcDbEntity
  8
Bemassung
 62
     0
100
AcDbPoint
10
-84.8666747743883
20
23.8116380298516
30
0.000000000000000
  0
ENDBLK
  5
F10062
330
F10002
100
AcDbEntity
  8
0
100
AcDbBlockEnd
  0
BLOCK
  5
F10063
330
F1000C
100
AcDbEntity
  8
0
100
AcDbBlockBegin
  2
*D5
 70
     1
 10
0.0
 20
0.0
 30
0.0
  3
*D5
  1

  0
LINE
  5
F10064
330
F1000C
100
AcDbEntity
  8
Bemassung
 62
     0
370
    -2
100
AcDbLine
10
-84.3530996707459
20
11.1626104880045
30
0.000000000000000
11
-95.5312894237304
21
21.9572628551251
31
0.000000000000000
  0
INSERT
  5
F10065
330
F1000C
100
AcDbEntity
  8
Bemassung
 62
     0
370
    -2
100
AcDbBlockReference
  2
VDDIM_DEFAULT
10
-84.3530996707459
20
11.1626104880045
30
0.000000000000000
 41
2.50000000000000
 42
2.50000000000000
 43
2.50000000000000
 50
316.000000000000
  0
MTEXT
  5
F10066
330
F1000C
100
AcDbEntity
  8
Bemassung
 62
     0
100
AcDbMText
10
-91.5464976741325
20
18.1091941925945
30
0.000000000000000
 40
2.50000000000000
 41
0.0
 71
     8
 72
     1
  1
R1
 11
0.719339800338653
 21
-0.694658370458996
 31
0.0
 73
     1
 44
1.0
1001
ACAD
1000
MTEXTBEGIN
1070
73
1070
1
1070
44
1040
1.0
1070
74
1070
0
1000
MTEXTEND
  0
POINT
  5
F10067
330
F1000C
100
AcDbEntity
  8
Bemassung
 62
     0
100
AcDbPoint
10
-84.3530996707459
20
11.1626104880045
30
0.000000000000000
  0
POINT
  5
F10068
330
F1000C
100
AcDbEntity
  8
Bemassung
 62
     0
100
AcDbPoint
10
-83.6337598704073
20
10.4679521175455
30
0.000000000000000
  0
ENDBLK
  5
F10069
330
F1000C
100
AcDbEntity
  8
0
100
AcDbBlockEnd
  0
BLOCK
  5
F1006A
330
F10007
100
AcDbEntity
  8
0
100
AcDbBlockBegin
  2
*D4
 70
     1
 10
0.0
 20
0.0
 30
0.0
  3
*D4
  1

  0
LINE
  5
F1006B
330
F10007
100
AcDbEntity
  8
Bemassung
 62
     0
370
    -2
100
AcDbLine
10
-83.6337598704073
20
-2.53204788245446
30
0.000000000000000
11
-96.6337598704073
21
-2.53204788245446
31
0.000000000000000
  0
LINE
  5
F1006C
330
F10007
100
AcDbEntity
  8
Bemassung
 62
     0
370
    -2
100
AcDbLine
10
-83.6337598704073
20
11.4679521175455
30
0.000000000000000
11
-96.6337598704073
21
11.4679521175455
31
0.000000000000000
  0
LINE
  5
F1006D
330
F10007
100
AcDbEntity
  8
Bemassung
 62
     0
370
    -2
100
AcDbLine
10
-94.6337598704073
20
-2.53204788245446
30
0.000000000000000
11
-94.6337598704073
21
11.4679521175455
31
0.000000000000000
  0
INSERT
  5
F1006E
330
F10007
100
AcDbEntity
  8
Bemassung
 62
     0
370
    -2
100
AcDbBlockReference
  2
VDDIM_DEFAULT
10
-94.6337598704073
20
-2.53204788245446
30
0.000000000000000
 41
2.50000000000000
 42
2.50000000000000
 43
2.50000000000000
 50
270.000000000000
  0
INSERT
  5
F1006F
330
F10007
100
AcDbEntity
  8
Bemassung
 62
     0
370
    -2
100
AcDbBlockReference
  2
VDDIM_DEFAULT
10
-94.6337598704073
20
11.4679521175455
30
0.000000000000000
 41
2.50000000000000
 42
2.50000000000000
 43
2.50000000000000
 50
90.0000000000000
  0
MTEXT
  5
F10070
330
F10007
100
AcDbEntity
  8
Bemassung
 62
     0
100
AcDbMText
10
-93.9670932037406
20
4.46795211754554
30
0.000000000000000
 40
2.50000000000000
 41
0.0
 71
     8
 72
     1
  1
14
 11
6.12323399573677e-017
 21
1.00000000000000
 31
0.0
 73
     1
 44
1.0
1001
ACAD
1000
MTEXTBEGIN
1070
73
1070
1
1070
44
1040
1.0
1070
74
1070
0
1000
MTEXTEND
  0
POINT
  5
F10071
330
F10007
100
AcDbEntity
  8
Bemassung
 62
     0
100
AcDbPoint
10
-83.6337598704073
20
-2.53204788245446
30
0.000000000000000
  0
POINT
  5
F10072
330
F10007
100
AcDbEntity
  8
Bemassung
 62
     0
100
AcDbPoint
10
-83.6337598704073
20
11.4679521175455
30
0.000000000000000
  0
ENDBLK
  5
F10073
330
F10007
100
AcDbEntity
  8
0
100
AcDbBlockEnd
  0
BLOCK
  5
F10074
330
F10011
100
AcDbEntity
  8
0
100
AcDbBlockBegin
  2
*D6
 70
     1
 10
0.0
 20
0.0
 30
0.0
  3
*D6
  1

  0
LINE
  5
F10075
330
F10011
100
AcDbEntity
  8
Bemassung
 62
     0
370
    -2
100
AcDbLine
10
-67.6337598704073
20
-2.23204788245446
30
0.000000000000000
11
-59.9670932037406
21
-2.23204788245446
31
0.000000000000000
  0
LINE
  5
F10076
330
F10011
100
AcDbEntity
  8
Bemassung
 62
     0
370
    -2
100
AcDbLine
10
-67.6337598704073
20
11.1679521175455
30
0.000000000000000
11
-59.9670932037406
21
11.1679521175455
31
0.000000000000000
  0
LINE
  5
F10077
330
F10011
100
AcDbEntity
  8
Bemassung
 62
     0
370
    -2
100
AcDbLine
10
-61.9670932037406
20
-29.1341222549800
30
0.000000000000000
11
-61.9670932037406
21
11.1679521175455
31
0.000000000000000
  0
INSERT
  5
F10078
330
F10011
100
AcDbEntity
  8
Bemassung
 62
     0
370
    -2
100
AcDbBlockReference
  2
VDDIM_DEFAULT
10
-61.9670932037406
20
-2.23204788245446
30
0.000000000000000
 41
2.50000000000000
 42
2.50000000000000
 43
2.50000000000000
 50
270.000000000000
  0
INSERT
  5
F10079
330
F10011
100
AcDbEntity
  8
Bemassung
 62
     0
370
    -2
100
AcDbBlockReference
  2
VDDIM_DEFAULT
10
-61.9670932037406
20
11.1679521175455
30
0.000000000000000
 41
2.50000000000000
 42
2.50000000000000
 43
2.50000000000000
 50
90.0000000000000
  0
MTEXT
  5
F1007A
330
F10011
100
AcDbEntity
  8
Bemassung
 62
     0
100
AcDbMText
10
-61.3004265370740
20
-9.95817379683781
30
0.000000000000000
 40
2.50000000000000
 41
0.0
 71
     8
 72
     1
  1
13.4
 11
6.12323399573677e-017
 21
1.00000000000000
 31
0.0
 73
     1
 44
1.0
1001
ACAD
1000
MTEXTBEGIN
1070
73
1070
1
1070
44
1040
1.0
1070
74
1070
0
1000
MTEXTEND
  0
POINT
  5
F1007B
330
F10011
100
AcDbEntity
  8
Bemassung
 62
     0
100
AcDbPoint
10
-67.6337598704073
20
-2.23204788245446
30
0.000000000000000
  0
POINT
  5
F1007C
330
F10011
100
AcDbEntity
  8
Bemassung
 62
     0
100
AcDbPoint
10
-67.6337598704073
20
11.1679521175455
30
0.000000000000000
  0
ENDBLK
  5
F1007D
330
F10011
100
AcDbEntity
  8
0
100
AcDbBlockEnd
  0
BLOCK
  5
F1007E
330
F10020
100
AcDbEntity
  8
0
100
AcDbBlockBegin
  2
*D9
 70
     1
 10
0.0
 20
0.0
 30
0.0
  3
*D9
  1

  0
LINE
  5
F1007F
330
F10020
100
AcDbEntity
  8
Bemassung
 62
     0
370
    -2
100
AcDbLine
10
3.86624012959271
20
-2.53204788245446
30
0.000000000000000
11
16.3662401295927
21
-2.53204788245446
31
0.000000000000000
  0
LINE
  5
F10080
330
F10020
100
AcDbEntity
  8
Bemassung
 62
     0
370
    -2
100
AcDbLine
10
3.86624012959271
20
11.4679521175455
30
0.000000000000000
11
16.3662401295927
21
11.4679521175455
31
0.000000000000000
  0
LINE
  5
F10081
330
F10020
100
AcDbEntity
  8
Bemassung
 62
     0
370
    -2
100
AcDbLine
10
14.3662401295927
20
-2.53204788245446
30
0.000000000000000
11
14.3662401295927
21
11.4679521175455
31
0.000000000000000
  0
INSERT
  5
F10082
330
F10020
100
AcDbEntity
  8
Bemassung
 62
     0
370
    -2
100
AcDbBlockReference
  2
VDDIM_DEFAULT
10
14.3662401295927
20
-2.53204788245446
30
0.000000000000000
 41
2.50000000000000
 42
2.50000000000000
 43
2.50000000000000
 50
270.000000000000
  0
INSERT
  5
F10083
330
F10020
100
AcDbEntity
  8
Bemassung
 62
     0
370
    -2
100
AcDbBlockReference
  2
VDDIM_DEFAULT
10
14.3662401295927
20
11.4679521175455
30
0.000000000000000
 41
2.50000000000000
 42
2.50000000000000
 43
2.50000000000000
 50
90.0000000000000
  0
MTEXT
  5
F10084
330
F10020
100
AcDbEntity
  8
Bemassung
 62
     0
100
AcDbMText
10
15.0329067962594
20
4.46795211754554
30
0.000000000000000
 40
2.50000000000000
 41
0.0
 71
     8
 72
     1
  1
14h6
 11
6.12323399573677e-017
 21
1.00000000000000
 31
0.0
 73
     1
 44
1.0
  0
POINT
  5
F10085
330
F10020
100
AcDbEntity
  8
Bemassung
 62
     0
100
AcDbPoint
10
3.86624012959271
20
-2.53204788245446
30
0.000000000000000
  0
POINT
  5
F10086
330
F10020
100
AcDbEntity
  8
Bemassung
 62
     0
100
AcDbPoint
10
3.86624012959271
20
11.4679521175455
30
0.000000000000000
  0
ENDBLK
  5
F10087
330
F10020
100
AcDbEntity
  8
0
100
AcDbBlockEnd
0
ENDSEC
0
SECTION
2
ENTITIES
  0
DIMENSION
  5
F10017
330
261
100
AcDbEntity
  8
Bemassung
100
AcDbDimension
  2
*D7
10
-54.6337598704073
20
21.4679521175455
30
0.000000000000000
11
-69.6337598704073
21
22.1346187842122
31
0.000000000000000
 70
32
 1
30
 71
     8
  3
BEM-ISBE
100
AcDbAlignedDimension
13
-84.6337598704073
23
-9.53204788245446
33
0.000000000000000
14
-54.6337598704073
24
11.1679521175455
34
0.000000000000000
100
AcDbRotatedDimension
1001
ACAD
1000
DSTYLE
1002
{
1070
284
1070
8
1070
78
1070
8
1070
144
1040
1.00000000000000
1070
147
1040
0.625
1070
 72
1070
 0
1070
 71
1070
 0
1002
}
  0
DIMENSION
  5
F1001C
330
261
100
AcDbEntity
  8
Bemassung
100
AcDbDimension
  2
*D8
10
4.36624012959271
20
26.4679521175455
30
0.000000000000000
11
-25.1337598704073
21
27.1346187842122
31
0.000000000000000
 70
32
 1
59
 71
     8
  3
BEM-ISBE
100
AcDbAlignedDimension
13
-54.6337598704073
23
11.1679521175455
33
0.000000000000000
14
4.36624012959271
24
10.9679521175455
34
0.000000000000000
100
AcDbRotatedDimension
1001
ACAD
1000
DSTYLE
1002
{
1070
284
1070
8
1070
78
1070
8
1070
144
1040
1.00000000000000
1070
147
1040
0.625
1070
 72
1070
 0
1070
 71
1070
 0
1002
}
  0
DIMENSION
  5
F10026
330
261
100
AcDbEntity
  8
Bemassung
100
AcDbDimension
  2
*D10
10
-84.6337598704073
20
-7.53204788245446
30
0.000000000000000
11
-76.1337598704073
21
-6.86538121578780
31
0.000000000000000
 70
32
 1
17
 71
     8
  3
BEM-ISBE
100
AcDbAlignedDimension
13
-67.6337598704073
23
-2.23204788245446
33
0.000000000000000
14
-84.6337598704073
24
-9.53204788245446
34
0.000000000000000
100
AcDbRotatedDimension
1001
ACAD
1000
DSTYLE
1002
{
1070
284
1070
8
1070
78
1070
8
1070
144
1040
1.00000000000000
1070
147
1040
0.625
1070
 72
1070
 0
1070
 71
1070
 0
1002
}
  0
DIMENSION
  5
F1002B
330
261
100
AcDbEntity
  8
Bemassung
100
AcDbDimension
  2
*D11
10
-84.6337598704073
20
31.4679521175455
30
0.000000000000000
11
-40.1337598704073
21
32.1346187842122
31
0.000000000000000
 70
32
 1
89
 71
     8
  3
BEM-ISBE
100
AcDbAlignedDimension
13
4.36624012959271
23
10.9679521175455
33
0.000000000000000
14
-84.6337598704073
24
-9.53204788245446
34
0.000000000000000
100
AcDbRotatedDimension
1001
ACAD
1000
DSTYLE
1002
{
1070
284
1070
8
1070
78
1070
8
1070
144
1040
1.00000000000000
1070
147
1040
0.625
1070
 72
1070
 0
1070
 71
1070
 0
1002
}
  0
DIMENSION
  5
F10003
330
261
100
AcDbEntity
  8
Bemassung
100
AcDbDimension
  2
*D3
10
-84.6331506974264
20
10.4330526208430
30
0.000000000000000
11
-91.2231452697334
21
22.0783543592105
31
0.000000000000000
 70
34
 1
2°
 71
     8
  3
BEM-ISBE
100
AcDb2LineAngularDimension
13
-84.6331506974264
23
10.4330526208430
33
0.000000000000000
14
-90.0534933505949
24
22.6666525228711
34
0.000000000000000
15
-84.6331506974264
25
23.8136759635972
35
0.000000000000000
16
-84.8666747743883
26
23.8116380298516
36
0.000000000000000
1001
ACAD
1000
DSTYLE
1002
{
1070
284
1070
8
1070
79
1070
2
1070
147
1040
0.625
1070
 72
1070
 0
1070
 71
1070
 0
1002
}
  0
DIMENSION
  5
F1000D
330
261
100
AcDbEntity
  8
Bemassung
100
AcDbDimension
  2
*D5
10
-83.6337598704073
20
10.4679521175455
30
0.000000000000000
11
-91.5464976741325
21
18.1091941925945
31
0.000000000000000
 70
164
 1
R1
 71
     8
  3
BEM-ISBE
100
AcDbRadialDimension
15
-84.3530996707459
25
11.1626104880045
35
0.000000000000000
40
0.0
1001
ACAD
1000
DSTYLE
1002
{
1070
284
1070
8
1070
78
1070
8
1070
144
1040
1.00000000000000
1070
147
1040
0.625
1070
 72
1070
 0
1070
 71
1070
 0
1002
}
  0
DIMENSION
  5
F10008
330
261
100
AcDbEntity
  8
Bemassung
100
AcDbDimension
  2
*D4
10
-94.6337598704073
20
11.4679521175455
30
0.000000000000000
11
-93.9670932037406
21
4.46795211754554
31
0.000000000000000
 70
32
 1
14
 71
     8
  3
BEM-ISBE
100
AcDbAlignedDimension
13
-83.6337598704073
23
-2.53204788245446
33
0.000000000000000
14
-83.6337598704073
24
11.4679521175455
34
0.000000000000000
50
90.0000000000000
100
AcDbRotatedDimension
1001
ACAD
1000
DSTYLE
1002
{
1070
284
1070
8
1070
78
1070
8
1070
144
1040
1.00000000000000
1070
147
1040
0.625
1070
 72
1070
 0
1070
 71
1070
 0
1002
}
  0
DIMENSION
  5
F10012
330
261
100
AcDbEntity
  8
Bemassung
100
AcDbDimension
  2
*D6
10
-61.9670932037406
20
11.1679521175455
30
0.000000000000000
11
-61.3004265370740
21
-9.95817379683781
31
0.000000000000000
 70
32
 1
13.4
 71
     8
  3
BEM-ISBE
100
AcDbAlignedDimension
13
-67.6337598704073
23
-2.23204788245446
33
0.000000000000000
14
-67.6337598704073
24
11.1679521175455
34
0.000000000000000
50
90.0000000000000
100
AcDbRotatedDimension
1001
ACAD
1000
DSTYLE
1002
{
1070
284
1070
8
1070
78
1070
8
1070
144
1040
1.00000000000000
1070
147
1040
0.625
1070
 72
1070
 0
1070
 71
1070
 0
1002
}
  0
DIMENSION
  5
F10021
330
261
100
AcDbEntity
  8
Bemassung
100
AcDbDimension
  2
*D9
10
14.3662401295927
20
11.4679521175455
30
0.000000000000000
11
15.0329067962594
21
4.46795211754554
31
0.000000000000000
 70
32
 1
14h6
 71
     8
  3
BEM-ISBE
100
AcDbAlignedDimension
13
3.86624012959271
23
-2.53204788245446
33
0.000000000000000
14
3.86624012959271
24
11.4679521175455
34
0.000000000000000
50
90.0000000000000
100
AcDbRotatedDimension
1001
ACAD
1000
DSTYLE
1002
{
1070
284
1070
8
1070
78
1070
8
1070
144
1040
1.00000000000000
1070
147
1040
0.625
1070
 72
1070
 0
1070
 71
1070
 0
1002
}
  0
LINE
  5
F10088
330
F10089
100
AcDbEntity
8
Geo
100
AcDbLine
10
-84.4248447977556
20
4.46795211754554
30
0.000000000000000
11
-84.6331506974264
21
10.4330526208430
31
0.000000000000000
  0
ARC
  5
F1008A
330
F1008B
100
AcDbEntity
8
Geo
100
AcDbCircle
10
-83.6337598704073
20
10.4679521175455
30
0.000000000000000
 40
1.00000000000000
100
AcDbArc
 50
90.0000000000000
 51
182.000000000000
  0
LINE
  5
F1008C
330
F1008D
100
AcDbEntity
8
Geo
100
AcDbLine
10
-83.6337598704073
20
11.4679521175455
30
0.000000000000000
11
-67.6337598704073
21
11.4679521175455
31
0.000000000000000
  0
LINE
  5
F1008E
330
F1008F
100
AcDbEntity
8
Geo
100
AcDbLine
10
-67.6337598704073
20
11.4679521175455
30
0.000000000000000
11
-67.6337598704073
21
11.1679521175455
31
0.000000000000000
  0
LINE
  5
F10090
330
F10091
100
AcDbEntity
8
Geo
100
AcDbLine
10
-67.6337598704073
20
11.1679521175455
30
0.000000000000000
11
-54.6337598704073
21
11.1679521175455
31
0.000000000000000
  0
LINE
  5
F10092
330
F10093
100
AcDbEntity
8
Geo
100
AcDbLine
10
-54.6337598704073
20
11.1679521175455
30
0.000000000000000
11
-54.6337598704073
21
11.4679521175455
31
0.000000000000000
  0
LINE
  5
F10094
330
F10095
100
AcDbEntity
8
Geo
100
AcDbLine
10
-54.6337598704073
20
11.4679521175455
30
0.000000000000000
11
3.86624012959271
21
11.4679521175455
31
0.000000000000000
  0
LINE
  5
F10096
330
F10097
100
AcDbEntity
8
Geo
100
AcDbLine
10
3.86624012959271
20
11.4679521175455
30
0.000000000000000
11
4.36624012959271
21
10.9679521175455
31
0.000000000000000
  0
LINE
  5
F10098
330
F10099
100
AcDbEntity
8
Geo
100
AcDbLine
10
-81.4337598704073
20
11.4657723388037
30
0.000000000000000
11
-81.3337598704073
21
11.4673110797359
31
0.000000000000000
  0
LINE
  5
F1009A
330
F1009B
100
AcDbEntity
8
Geo
100
AcDbLine
10
-81.3337598704073
20
11.4673110797359
30
0.000000000000000
11
-81.2337598704073
21
11.4584816800955
31
0.000000000000000
  0
LINE
  5
F1009C
330
F1009D
100
AcDbEntity
8
Geo
100
AcDbLine
10
-81.2337598704073
20
11.4584816800955
30
0.000000000000000
11
-81.1337598704073
21
11.4392972188598
31
0.000000000000000
  0
LINE
  5
F1009E
330
F1009F
100
AcDbEntity
8
Geo
100
AcDbLine
10
-81.1337598704073
20
11.4392972188598
30
0.000000000000000
11
-81.0337598704073
21
11.4097861139442
31
0.000000000000000
  0
LINE
  5
F100A0
330
F100A1
100
AcDbEntity
8
Geo
100
AcDbLine
10
-81.0337598704073
20
11.4097861139442
30
0.000000000000000
11
-80.9337598704073
21
11.3699920801069
31
0.000000000000000
  0
LINE
  5
F100A2
330
F100A3
100
AcDbEntity
8
Geo
100
AcDbLine
10
-80.9337598704073
20
11.3699920801069
30
0.000000000000000
11
-80.8337598704073
21
11.3199740641941
31
0.000000000000000
  0
LINE
  5
F100A4
330
F100A5
100
AcDbEntity
8
Geo
100
AcDbLine
10
-80.8337598704073
20
11.3199740641941
30
0.000000000000000
11
-80.7337598704073
21
11.2598061578223
31
0.000000000000000
  0
LINE
  5
F100A6
330
F100A7
100
AcDbEntity
8
Geo
100
AcDbLine
10
-80.7337598704073
20
11.2598061578223
30
0.000000000000000
11
-80.6337598704073
21
11.1895774876266
31
0.000000000000000
  0
LINE
  5
F100A8
330
F100A9
100
AcDbEntity
8
Geo
100
AcDbLine
10
-80.6337598704073
20
11.1895774876266
30
0.000000000000000
11
-80.5337598704073
21
11.1093920832372
31
0.000000000000000
  0
LINE
  5
F100AA
330
F100AB
100
AcDbEntity
8
Geo
100
AcDbLine
10
-80.5337598704073
20
11.1093920832372
30
0.000000000000000
11
-80.4337598704073
21
11.0193687231806
31
0.000000000000000
  0
LINE
  5
F100AC
330
F100AD
100
AcDbEntity
8
Geo
100
AcDbLine
10
-80.4337598704073
20
11.0193687231806
30
0.000000000000000
11
-80.3337598704073
21
10.9196407589333
31
0.000000000000000
  0
LINE
  5
F100AE
330
F100AF
100
AcDbEntity
8
Geo
100
AcDbLine
10
-80.3337598704073
20
10.9196407589333
30
0.000000000000000
11
-80.2337598704073
21
10.8103559173883
31
0.000000000000000
  0
LINE
  5
F100B0
330
F100B1
100
AcDbEntity
8
Geo
100
AcDbLine
10
-80.2337598704073
20
10.8103559173883
30
0.000000000000000
11
-80.1337598704073
21
10.6916760820275
31
0.000000000000000
  0
LINE
  5
F100B2
330
F100B3
100
AcDbEntity
8
Geo
100
AcDbLine
10
-80.1337598704073
20
10.6916760820275
30
0.000000000000000
11
-80.0337598704073
21
10.5637770531238
31
0.000000000000000
  0
LINE
  5
F100B4
330
F100B5
100
AcDbEntity
8
Geo
100
AcDbLine
10
-80.0337598704073
20
10.5637770531238
30
0.000000000000000
11
-79.9337598704073
21
10.4268482873286
31
0.000000000000000
  0
LINE
  5
F100B6
330
F100B7
100
AcDbEntity
8
Geo
100
AcDbLine
10
-79.9337598704073
20
10.4268482873286
30
0.000000000000000
11
-79.8337598704073
21
10.2810926170298
31
0.000000000000000
  0
LINE
  5
F100B8
330
F100B9
100
AcDbEntity
8
Geo
100
AcDbLine
10
-79.8337598704073
20
10.2810926170298
30
0.000000000000000
11
-79.7337598704073
21
10.1267259498966
31
0.000000000000000
  0
LINE
  5
F100BA
330
F100BB
100
AcDbEntity
8
Geo
100
AcDbLine
10
-79.7337598704073
20
10.1267259498966
30
0.000000000000000
11
-79.6337598704073
21
9.96397694905552
31
0.000000000000000
  0
LINE
  5
F100BC
330
F100BD
100
AcDbEntity
8
Geo
100
AcDbLine
10
-79.6337598704073
20
9.96397694905552
30
0.000000000000000
11
-79.5337598704073
21
9.79308669437233
31
0.000000000000000
  0
LINE
  5
F100BE
330
F100BF
100
AcDbEntity
8
Geo
100
AcDbLine
10
-79.5337598704073
20
9.79308669437233
30
0.000000000000000
11
-79.4337598704073
21
9.61430832534058
31
0.000000000000000
  0
LINE
  5
F100C0
330
F100C1
100
AcDbEntity
8
Geo
100
AcDbLine
10
-79.4337598704073
20
9.61430832534058
30
0.000000000000000
11
-79.3337598704073
21
9.42790666610654
31
0.000000000000000
  0
LINE
  5
F100C2
330
F100C3
100
AcDbEntity
8
Geo
100
AcDbLine
10
-79.3337598704073
20
9.42790666610654
30
0.000000000000000
11
-79.2337598704073
21
9.23415783318548
31
0.000000000000000
  0
LINE
  5
F100C4
330
F100C5
100
AcDbEntity
8
Geo
100
AcDbLine
10
-79.2337598704073
20
9.23415783318548
30
0.000000000000000
11
-79.1337598704073
21
9.03334882645074
31
0.000000000000000
  0
LINE
  5
F100C6
330
F100C7
100
AcDbEntity
8
Geo
100
AcDbLine
10
-79.1337598704073
20
9.03334882645074
30
0.000000000000000
11
-79.0337598704073
21
8.82577710400117
31
0.000000000000000
  0
LINE
  5
F100C8
330
F100C9
100
AcDbEntity
8
Geo
100
AcDbLine
10
-79.0337598704073
20
8.82577710400117
30
0.000000000000000
11
-78.9337598704073
21
8.61175014153687
31
0.000000000000000
  0
LINE
  5
F100CA
330
F100CB
100
AcDbEntity
8
Geo
100
AcDbLine
10
-78.9337598704073
20
8.61175014153687
30
0.000000000000000
11
-78.8337598704073
21
8.39158497689590
31
0.000000000000000
  0
LINE
  5
F100CC
330
F100CD
100
AcDbEntity
8
Geo
100
AcDbLine
10
-78.8337598704073
20
8.39158497689590
30
0.000000000000000
11
-78.7337598704073
21
8.16560774042656
31
0.000000000000000
  0
LINE
  5
F100CE
330
F100CF
100
AcDbEntity
8
Geo
100
AcDbLine
10
-78.7337598704073
20
8.16560774042656
30
0.000000000000000
11
-78.6337598704073
21
7.93415317189095
31
0.000000000000000
  0
LINE
  5
F100D0
330
F100D1
100
AcDbEntity
8
Geo
100
AcDbLine
10
-78.6337598704073
20
7.93415317189095
30
0.000000000000000
11
-78.5337598704073
21
7.69756412461546
31
0.000000000000000
  0
LINE
  5
F100D2
330
F100D3
100
AcDbEntity
8
Geo
100
AcDbLine
10
-78.5337598704073
20
7.69756412461546
30
0.000000000000000
11
-78.4337598704073
21
7.45619105762260
31
0.000000000000000
  0
LINE
  5
F100D4
330
F100D5
100
AcDbEntity
8
Geo
100
AcDbLine
10
-78.4337598704073
20
7.45619105762260
30
0.000000000000000
11
-78.3337598704073
21
7.21039151649654
31
0.000000000000000
  0
LINE
  5
F100D6
330
F100D7
100
AcDbEntity
8
Geo
100
AcDbLine
10
-78.3337598704073
20
7.21039151649654
30
0.000000000000000
11
-78.2337598704073
21
6.96052960375136
31
0.000000000000000
  0
LINE
  5
F100D8
330
F100D9
100
AcDbEntity
8
Geo
100
AcDbLine
10
-78.2337598704073
20
6.96052960375136
30
0.000000000000000
11
-78.1337598704073
21
6.70697543948650
31
0.000000000000000
  0
LINE
  5
F100DA
330
F100DB
100
AcDbEntity
8
Geo
100
AcDbLine
10
-78.1337598704073
20
6.70697543948650
30
0.000000000000000
11
-78.0337598704073
21
6.45010461312837
31
0.000000000000000
  0
LINE
  5
F100DC
330
F100DD
100
AcDbEntity
8
Geo
100
AcDbLine
10
-78.0337598704073
20
6.45010461312837
30
0.000000000000000
11
-77.9337598704073
21
6.19029762707026
31
0.000000000000000
  0
LINE
  5
F100DE
330
F100DF
100
AcDbEntity
8
Geo
100
AcDbLine
10
-77.9337598704073
20
6.19029762707026
30
0.000000000000000
11
-77.8337598704073
21
5.92793933303471
31
0.000000000000000
  0
LINE
  5
F100E0
330
F100E1
100
AcDbEntity
8
Geo
100
AcDbLine
10
-77.8337598704073
20
5.92793933303471
30
0.000000000000000
11
-77.7337598704073
21
5.66341836199315
31
0.000000000000000
  0
LINE
  5
F100E2
330
F100E3
100
AcDbEntity
8
Geo
100
AcDbLine
10
-77.7337598704073
20
5.66341836199315
30
0.000000000000000
11
-77.6337598704073
21
5.39712654848742
31
0.000000000000000
  0
LINE
  5
F100E4
330
F100E5
100
AcDbEntity
8
Geo
100
AcDbLine
10
-77.6337598704073
20
5.39712654848742
30
0.000000000000000
11
-77.5337598704073
21
5.12945835020583
31
0.000000000000000
  0
LINE
  5
F100E6
330
F100E7
100
AcDbEntity
8
Geo
100
AcDbLine
10
-77.5337598704073
20
5.12945835020583
30
0.000000000000000
11
-77.4337598704073
21
4.86081026367348
31
0.000000000000000
  0
LINE
  5
F100E8
330
F100E9
100
AcDbEntity
8
Geo
100
AcDbLine
10
-77.4337598704073
20
4.86081026367348
30
0.000000000000000
11
-77.3337598704073
21
4.59158023692258
31
0.000000000000000
  0
LINE
  5
F100EA
330
F100EB
100
AcDbEntity
8
Geo
100
AcDbLine
10
-77.3337598704073
20
4.59158023692258
30
0.000000000000000
11
-77.2337598704073
21
4.32216708001258
31
0.000000000000000
  0
LINE
  5
F100EC
330
F100ED
100
AcDbEntity
8
Geo
100
AcDbLine
10
-77.2337598704073
20
4.32216708001258
30
0.000000000000000
11
-77.1337598704073
21
4.05296987427335
31
0.000000000000000
  0
LINE
  5
F100EE
330
F100EF
100
AcDbEntity
8
Geo
100
AcDbLine
10
-77.1337598704073
20
4.05296987427335
30
0.000000000000000
11
-77.0337598704073
21
3.78438738114660
31
0.000000000000000
  0
LINE
  5
F100F0
330
F100F1
100
AcDbEntity
8
Geo
100
AcDbLine
10
-77.0337598704073
20
3.78438738114660
30
0.000000000000000
11
-76.9337598704073
21
3.51681745150111
31
0.000000000000000
  0
LINE
  5
F100F2
330
F100F3
100
AcDbEntity
8
Geo
100
AcDbLine
10
-76.9337598704073
20
3.51681745150111
30
0.000000000000000
11
-76.8337598704073
21
3.25065643629684
31
0.000000000000000
  0
LINE
  5
F100F4
330
F100F5
100
AcDbEntity
8
Geo
100
AcDbLine
10
-76.8337598704073
20
3.25065643629684
30
0.000000000000000
11
-76.7337598704073
21
2.98629859947071
31
0.000000000000000
  0
LINE
  5
F100F6
330
F100F7
100
AcDbEntity
8
Geo
100
AcDbLine
10
-76.7337598704073
20
2.98629859947071
30
0.000000000000000
11
-76.6337598704073
21
2.72413553391409
31
0.000000000000000
  0
LINE
  5
F100F8
330
F100F9
100
AcDbEntity
8
Geo
100
AcDbLine
10
-76.6337598704073
20
2.72413553391409
30
0.000000000000000
11
-76.5337598704073
21
2.46455558140676
31
0.000000000000000
  0
LINE
  5
F100FA
330
F100FB
100
AcDbEntity
8
Geo
100
AcDbLine
10
-76.5337598704073
20
2.46455558140676
30
0.000000000000000
11
-76.4337598704073
21
2.20794325736675
31
0.000000000000000
  0
LINE
  5
F100FC
330
F100FD
100
AcDbEntity
8
Geo
100
AcDbLine
10
-76.4337598704073
20
2.20794325736675
30
0.000000000000000
11
-76.3337598704073
21
1.95467868126825
31
0.000000000000000
  0
LINE
  5
F100FE
330
F100FF
100
AcDbEntity
8
Geo
100
AcDbLine
10
-76.3337598704073
20
1.95467868126825
30
0.000000000000000
11
-76.2337598704073
21
1.70513701357113
31
0.000000000000000
  0
LINE
  5
F10100
330
F10101
100
AcDbEntity
8
Geo
100
AcDbLine
10
-76.2337598704073
20
1.70513701357113
30
0.000000000000000
11
-76.1337598704073
21
1.45968789999627
31
0.000000000000000
  0
LINE
  5
F10102
330
F10103
100
AcDbEntity
8
Geo
100
AcDbLine
10
-76.1337598704073
20
1.45968789999627
30
0.000000000000000
11
-76.0337598704073
21
1.21869492396993
31
0.000000000000000
  0
LINE
  5
F10104
330
F10105
100
AcDbEntity
8
Geo
100
AcDbLine
10
-76.0337598704073
20
1.21869492396993
30
0.000000000000000
11
-75.9337598704073
21
0.982515068048063
31
0.000000000000000
  0
LINE
  5
F10106
330
F10107
100
AcDbEntity
8
Geo
100
AcDbLine
10
-75.9337598704073
20
0.982515068048063
30
0.000000000000000
11
-75.8337598704073
21
0.751498185118606
31
0.000000000000000
  0
LINE
  5
F10108
330
F10109
100
AcDbEntity
8
Geo
100
AcDbLine
10
-75.8337598704073
20
0.751498185118606
30
0.000000000000000
11
-75.7337598704073
21
0.525986480164869
31
0.000000000000000
  0
LINE
  5
F1010A
330
F1010B
100
AcDbEntity
8
Geo
100
AcDbLine
10
-75.7337598704073
20
0.525986480164869
30
0.000000000000000
11
-75.6337598704073
21
0.306314003357781
31
0.000000000000000
  0
LINE
  5
F1010C
330
F1010D
100
AcDbEntity
8
Geo
100
AcDbLine
10
-75.6337598704073
20
0.306314003357781
30
0.000000000000000
11
-75.5337598704073
21
0.0928061552278425
31
0.000000000000000
  0
LINE
  5
F1010E
330
F1010F
100
AcDbEntity
8
Geo
100
AcDbLine
10
-75.5337598704073
20
0.0928061552278425
30
0.000000000000000
11
-75.4337598704073
21
-0.114220795350224
31
0.000000000000000
  0
LINE
  5
F10110
330
F10111
100
AcDbEntity
8
Geo
100
AcDbLine
10
-75.4337598704073
20
-0.114220795350224
30
0.000000000000000
11
-75.3337598704073
21
-0.314460179646112
31
0.000000000000000
  0
LINE
  5
F10112
330
F10113
100
AcDbEntity
8
Geo
100
AcDbLine
10
-75.3337598704073
20
-0.314460179646112
30
0.000000000000000
11
-75.2337598704073
21
-0.507615383341885
31
0.000000000000000
  0
LINE
  5
F10114
330
F10115
100
AcDbEntity
8
Geo
100
AcDbLine
10
-75.2337598704073
20
-0.507615383341885
30
0.000000000000000
11
-75.1337598704073
21
-0.693400285906357
31
0.000000000000000
  0
LINE
  5
F10116
330
F10117
100
AcDbEntity
8
Geo
100
AcDbLine
10
-75.1337598704073
20
-0.693400285906357
30
0.000000000000000
11
-75.0337598704073
21
-0.871539684425026
31
0.000000000000000
  0
LINE
  5
F10118
330
F10119
100
AcDbEntity
8
Geo
100
AcDbLine
10
-75.0337598704073
20
-0.871539684425026
30
0.000000000000000
11
-74.9337598704073
21
-1.04176970125777
31
0.000000000000000
  0
LINE
  5
F1011A
330
F1011B
100
AcDbEntity
8
Geo
100
AcDbLine
10
-74.9337598704073
20
-1.04176970125777
30
0.000000000000000
11
-74.8337598704073
21
-1.20383817492039
31
0.000000000000000
  0
LINE
  5
F1011C
330
F1011D
100
AcDbEntity
8
Geo
100
AcDbLine
10
-74.8337598704073
20
-1.20383817492039
30
0.000000000000000
11
-74.7337598704073
21
-1.35750503361114
31
0.000000000000000
  0
LINE
  5
F1011E
330
F1011F
100
AcDbEntity
8
Geo
100
AcDbLine
10
-74.7337598704073
20
-1.35750503361114
30
0.000000000000000
11
-74.6337598704073
21
-1.50254265082866
31
0.000000000000000
  0
LINE
  5
F10120
330
F10121
100
AcDbEntity
8
Geo
100
AcDbLine
10
-74.6337598704073
20
-1.50254265082866
30
0.000000000000000
11
-74.5337598704073
21
-1.63873618255484
31
0.000000000000000
  0
LINE
  5
F10122
330
F10123
100
AcDbEntity
8
Geo
100
AcDbLine
10
-74.5337598704073
20
-1.63873618255484
30
0.000000000000000
11
-74.4337598704073
21
-1.76588388550296
31
0.000000000000000
  0
LINE
  5
F10124
330
F10125
100
AcDbEntity
8
Geo
100
AcDbLine
10
-74.4337598704073
20
-1.76588388550296
30
0.000000000000000
11
-74.3337598704073
21
-1.88379741595971
31
0.000000000000000
  0
LINE
  5
F10126
330
F10127
100
AcDbEntity
8
Geo
100
AcDbLine
10
-74.3337598704073
20
-1.88379741595971
30
0.000000000000000
11
-74.2337598704073
21
-1.99230210877850
31
0.000000000000000
  0
LINE
  5
F10128
330
F10129
100
AcDbEntity
8
Geo
100
AcDbLine
10
-74.2337598704073
20
-1.99230210877850
30
0.000000000000000
11
-74.1337598704073
21
-2.09123723611070
31
0.000000000000000
  0
LINE
  5
F1012A
330
F1012B
100
AcDbEntity
8
Geo
100
AcDbLine
10
-74.1337598704073
20
-2.09123723611070
30
0.000000000000000
11
-74.0337598704073
21
-2.18045624549151
31
0.000000000000000
  0
LINE
  5
F1012C
330
F1012D
100
AcDbEntity
8
Geo
100
AcDbLine
10
-74.0337598704073
20
-2.18045624549151
30
0.000000000000000
11
-73.9337598704073
21
-2.25982697692801
31
0.000000000000000
  0
LINE
  5
F1012E
330
F1012F
100
AcDbEntity
8
Geo
100
AcDbLine
10
-73.9337598704073
20
-2.25982697692801
30
0.000000000000000
11
-73.8337598704073
21
-2.32923185866750
31
0.000000000000000
  0
LINE
  5
F10130
330
F10131
100
AcDbEntity
8
Geo
100
AcDbLine
10
-73.8337598704073
20
-2.32923185866750
30
0.000000000000000
11
-73.7337598704073
21
-2.38856808135642
31
0.000000000000000
  0
LINE
  5
F10132
330
F10133
100
AcDbEntity
8
Geo
100
AcDbLine
10
-73.7337598704073
20
-2.38856808135642
30
0.000000000000000
11
-73.6337598704073
21
-2.43774775033167
31
0.000000000000000
  0
LINE
  5
F10134
330
F10135
100
AcDbEntity
8
Geo
100
AcDbLine
10
-73.6337598704073
20
-2.43774775033167
30
0.000000000000000
11
-73.5337598704073
21
-2.47669801581887
31
0.000000000000000
  0
LINE
  5
F10136
330
F10137
100
AcDbEntity
8
Geo
100
AcDbLine
10
-73.5337598704073
20
-2.47669801581887
30
0.000000000000000
11
-73.4337598704073
21
-2.50536118084460
31
0.000000000000000
  0
LINE
  5
F10138
330
F10139
100
AcDbEntity
8
Geo
100
AcDbLine
10
-73.4337598704073
20
-2.50536118084460
30
0.000000000000000
11
-73.3337598704073
21
-2.52369478670288
31
0.000000000000000
  0
LINE
  5
F1013A
330
F1013B
100
AcDbEntity
8
Geo
100
AcDbLine
10
-73.3337598704073
20
-2.52369478670288
30
0.000000000000000
11
-73.2337598704073
21
-2.53167167584919
31
0.000000000000000
  0
LINE
  5
F1013C
330
F1013D
100
AcDbEntity
8
Geo
100
AcDbLine
10
-84.6337598704073
20
10.4679521175455
30
0.000000000000000
11
-84.5337598704073
21
10.8990752745816
31
0.000000000000000
  0
LINE
  5
F1013E
330
F1013F
100
AcDbEntity
8
Geo
100
AcDbLine
10
-84.5337598704073
20
10.8990752745816
30
0.000000000000000
11
-84.4337598704073
21
11.0484062171471
31
0.000000000000000
  0
LINE
  5
F10140
330
F10141
100
AcDbEntity
8
Geo
100
AcDbLine
10
-84.4337598704073
20
11.0484062171471
30
0.000000000000000
11
-84.3337598704073
21
11.1373837204066
31
0.000000000000000
  0
LINE
  5
F10142
330
F10143
100
AcDbEntity
8
Geo
100
AcDbLine
10
-84.3337598704073
20
11.1373837204066
30
0.000000000000000
11
-84.2337598704073
21
11.1875185944669
31
0.000000000000000
  0
LINE
  5
F10144
330
F10145
100
AcDbEntity
8
Geo
100
AcDbLine
10
-84.2337598704073
20
11.1875185944669
30
0.000000000000000
11
-84.1337598704073
21
11.2072208525832
31
0.000000000000000
  0
LINE
  5
F10146
330
F10147
100
AcDbEntity
8
Geo
100
AcDbLine
10
-84.1337598704073
20
11.2072208525832
30
0.000000000000000
11
-84.0337598704073
21
11.2008451320381
31
0.000000000000000
  0
LINE
  5
F10148
330
F10149
100
AcDbEntity
8
Geo
100
AcDbLine
10
-84.0337598704073
20
11.2008451320381
30
0.000000000000000
11
-83.9337598704073
21
11.1710122691340
31
0.000000000000000
  0
LINE
  5
F1014A
330
F1014B
100
AcDbEntity
8
Geo
100
AcDbLine
10
-83.9337598704073
20
11.1710122691340
30
0.000000000000000
11
-83.8337598704073
21
11.1194602092290
31
0.000000000000000
  0
LINE
  5
F1014C
330
F1014D
100
AcDbEntity
8
Geo
100
AcDbLine
10
-83.8337598704073
20
11.1194602092290
30
0.000000000000000
11
-83.7337598704073
21
11.0474205488445
31
0.000000000000000
  0
LINE
  5
F1014E
330
F1014F
100
AcDbEntity
8
Geo
100
AcDbLine
10
-83.7337598704073
20
11.0474205488445
30
0.000000000000000
11
-83.6337598704073
21
10.9558035335473
31
0.000000000000000
  0
LINE
  5
F10150
330
F10151
100
AcDbEntity
8
Geo
100
AcDbLine
10
-83.6337598704073
20
10.9558035335473
30
0.000000000000000
11
-83.5337598704073
21
10.8498612684321
31
0.000000000000000
  0
LINE
  5
F10152
330
F10153
100
AcDbEntity
8
Geo
100
AcDbLine
10
-83.5337598704073
20
10.8498612684321
30
0.000000000000000
11
-83.4337598704073
21
10.7344654902803
31
0.000000000000000
  0
LINE
  5
F10154
330
F10155
100
AcDbEntity
8
Geo
100
AcDbLine
10
-83.4337598704073
20
10.7344654902803
30
0.000000000000000
11
-83.3337598704073
21
10.6097871346954
31
0.000000000000000
  0
LINE
  5
F10156
330
F10157
100
AcDbEntity
8
Geo
100
AcDbLine
10
-83.3337598704073
20
10.6097871346954
30
0.000000000000000
11
-83.2337598704073
21
10.4760108875500
31
0.000000000000000
  0
LINE
  5
F10158
330
F10159
100
AcDbEntity
8
Geo
100
AcDbLine
10
-83.2337598704073
20
10.4760108875500
30
0.000000000000000
11
-83.1337598704073
21
10.3333349114105
31
0.000000000000000
  0
LINE
  5
F1015A
330
F1015B
100
AcDbEntity
8
Geo
100
AcDbLine
10
-83.1337598704073
20
10.3333349114105
30
0.000000000000000
11
-83.0337598704073
21
10.1819705519995
31
0.000000000000000
  0
LINE
  5
F1015C
330
F1015D
100
AcDbEntity
8
Geo
100
AcDbLine
10
-83.0337598704073
20
10.1819705519995
30
0.000000000000000
11
-82.9337598704073
21
10.0221420251293
31
0.000000000000000
  0
LINE
  5
F1015E
330
F1015F
100
AcDbEntity
8
Geo
100
AcDbLine
10
-82.9337598704073
20
10.0221420251293
30
0.000000000000000
11
-82.8337598704073
21
9.85408608457180
31
0.000000000000000
  0
LINE
  5
F10160
330
F10161
100
AcDbEntity
8
Geo
100
AcDbLine
10
-82.8337598704073
20
9.85408608457180
30
0.000000000000000
11
-82.7337598704073
21
9.67805167135493
31
0.000000000000000
  0
LINE
  5
F10162
330
F10163
100
AcDbEntity
8
Geo
100
AcDbLine
10
-82.7337598704073
20
9.67805167135493
30
0.000000000000000
11
-82.6337598704073
21
9.49429954500709
31
0.000000000000000
  0
LINE
  5
F10164
330
F10165
100
AcDbEntity
8
Geo
100
AcDbLine
10
-82.6337598704073
20
9.49429954500709
30
0.000000000000000
11
-82.5337598704073
21
9.30310189729424
31
0.000000000000000
  0
LINE
  5
F10166
330
F10167
100
AcDbEntity
8
Geo
100
AcDbLine
10
-82.5337598704073
20
9.30310189729424
30
0.000000000000000
11
-82.4337598704073
21
9.10474194902263
31
0.000000000000000
  0
LINE
  5
F10168
330
F10169
100
AcDbEntity
8
Geo
100
AcDbLine
10
-82.4337598704073
20
9.10474194902263
30
0.000000000000000
11
-82.3337598704073
21
8.89951353050428
31
0.000000000000000
  0
LINE
  5
F1016A
330
F1016B
100
AcDbEntity
8
Geo
100
AcDbLine
10
-82.3337598704073
20
8.89951353050428
30
0.000000000000000
11
-82.2337598704073
21
8.68772064630648
31
0.000000000000000
  0
LINE
  5
F1016C
330
F1016D
100
AcDbEntity
8
Geo
100
AcDbLine
10
-82.2337598704073
20
8.68772064630648
30
0.000000000000000
11
-82.1337598704073
21
8.46967702493030
31
0.000000000000000
  0
LINE
  5
F1016E
330
F1016F
100
AcDbEntity
8
Geo
100
AcDbLine
10
-82.1337598704073
20
8.46967702493030
30
0.000000000000000
11
-82.0337598704073
21
8.24570565408497
31
0.000000000000000
  0
LINE
  5
F10170
330
F10171
100
AcDbEntity
8
Geo
100
AcDbLine
10
-82.0337598704073
20
8.24570565408497
30
0.000000000000000
11
-81.9337598704073
21
8.01613830224669
31
0.000000000000000
  0
LINE
  5
F10172
330
F10173
100
AcDbEntity
8
Geo
100
AcDbLine
10
-81.9337598704073
20
8.01613830224669
30
0.000000000000000
11
-81.8337598704073
21
7.78131502721040
31
0.000000000000000
  0
LINE
  5
F10174
330
F10175
100
AcDbEntity
8
Geo
100
AcDbLine
10
-81.8337598704073
20
7.78131502721040
30
0.000000000000000
11
-81.7337598704073
21
7.54158367236268
31
0.000000000000000
  0
LINE
  5
F10176
330
F10177
100
AcDbEntity
8
Geo
100
AcDbLine
10
-81.7337598704073
20
7.54158367236268
30
0.000000000000000
11
-81.6337598704073
21
7.29729935142182
31
0.000000000000000
  0
LINE
  5
F10178
330
F10179
100
AcDbEntity
8
Geo
100
AcDbLine
10
-81.6337598704073
20
7.29729935142182
30
0.000000000000000
11
-81.5337598704073
21
7.04882392240838
31
0.000000000000000
  0
LINE
  5
F1017A
330
F1017B
100
AcDbEntity
8
Geo
100
AcDbLine
10
-81.5337598704073
20
7.04882392240838
30
0.000000000000000
11
-81.4337598704073
21
6.79652545162538
31
0.000000000000000
  0
LINE
  5
F1017C
330
F1017D
100
AcDbEntity
8
Geo
100
AcDbLine
10
-81.4337598704073
20
6.79652545162538
30
0.000000000000000
11
-81.3337598704073
21
6.54077766844225
31
0.000000000000000
  0
LINE
  5
F1017E
330
F1017F
100
AcDbEntity
8
Geo
100
AcDbLine
10
-81.3337598704073
20
6.54077766844225
30
0.000000000000000
11
-81.2337598704073
21
6.28195941169001
31
0.000000000000000
  0
LINE
  5
F10180
330
F10181
100
AcDbEntity
8
Geo
100
AcDbLine
10
-81.2337598704073
20
6.28195941169001
30
0.000000000000000
11
-81.1337598704073
21
6.02045406848788
31
0.000000000000000
  0
LINE
  5
F10182
330
F10183
100
AcDbEntity
8
Geo
100
AcDbLine
10
-81.1337598704073
20
6.02045406848788
30
0.000000000000000
11
-81.0337598704073
21
5.75664900633241
31
0.000000000000000
  0
LINE
  5
F10184
330
F10185
100
AcDbEntity
8
Geo
100
AcDbLine
10
-81.0337598704073
20
5.75664900633241
30
0.000000000000000
11
-80.9337598704073
21
5.49093499929062
31
0.000000000000000
  0
LINE
  5
F10186
330
F10187
100
AcDbEntity
8
Geo
100
AcDbLine
10
-80.9337598704073
20
5.49093499929062
30
0.000000000000000
11
-80.8337598704073
21
5.22370564914692
31
0.000000000000000
  0
LINE
  5
F10188
330
F10189
100
AcDbEntity
8
Geo
100
AcDbLine
10
-80.8337598704073
20
5.22370564914692
30
0.000000000000000
11
-80.7337598704073
21
4.95535680236128
31
0.000000000000000
  0
LINE
  5
F1018A
330
F1018B
100
AcDbEntity
8
Geo
100
AcDbLine
10
-80.7337598704073
20
4.95535680236128
30
0.000000000000000
11
-80.6337598704073
21
4.68628596370250
31
0.000000000000000
  0
LINE
  5
F1018C
330
F1018D
100
AcDbEntity
8
Geo
100
AcDbLine
10
-80.6337598704073
20
4.68628596370250
30
0.000000000000000
11
-80.5337598704073
21
4.41689170742492
31
0.000000000000000
  0
LINE
  5
F1018E
330
F1018F
100
AcDbEntity
8
Geo
100
AcDbLine
10
-80.5337598704073
20
4.41689170742492
30
0.000000000000000
11
-80.4337598704073
21
4.14757308686093
31
0.000000000000000
  0
LINE
  5
F10190
330
F10191
100
AcDbEntity
8
Geo
100
AcDbLine
10
-80.4337598704073
20
4.14757308686093
30
0.000000000000000
11
-80.3337598704073
21
3.87872904330387
31
0.000000000000000
  0
LINE
  5
F10192
330
F10193
100
AcDbEntity
8
Geo
100
AcDbLine
10
-80.3337598704073
20
3.87872904330387
30
0.000000000000000
11
-80.2337598704073
21
3.61075781505679
31
0.000000000000000
  0
LINE
  5
F10194
330
F10195
100
AcDbEntity
8
Geo
100
AcDbLine
10
-80.2337598704073
20
3.61075781505679
30
0.000000000000000
11
-80.1337598704073
21
3.34405634752270
31
0.000000000000000
  0
LINE
  5
F10196
330
F10197
100
AcDbEntity
8
Geo
100
AcDbLine
10
-80.1337598704073
20
3.34405634752270
30
0.000000000000000
11
-80.0337598704073
21
3.07901970520980
31
0.000000000000000
  0
LINE
  5
F10198
330
F10199
100
AcDbEntity
8
Geo
100
AcDbLine
10
-80.0337598704073
20
3.07901970520980
30
0.000000000000000
11
-79.9337598704073
21
2.81604048652307
31
0.000000000000000
  0
LINE
  5
F1019A
330
F1019B
100
AcDbEntity
8
Geo
100
AcDbLine
10
-79.9337598704073
20
2.81604048652307
30
0.000000000000000
11
-79.8337598704073
21
2.55550824220877
31
0.000000000000000
  0
LINE
  5
F1019C
330
F1019D
100
AcDbEntity
8
Geo
100
AcDbLine
10
-79.8337598704073
20
2.55550824220877
30
0.000000000000000
11
-79.7337598704073
21
2.29780889831345
31
0.000000000000000
  0
LINE
  5
F1019E
330
F1019F
100
AcDbEntity
8
Geo
100
AcDbLine
10
-79.7337598704073
20
2.29780889831345
30
0.000000000000000
11
-79.6337598704073
21
2.04332418451227
31
0.000000000000000
  0
LINE
  5
F101A0
330
F101A1
100
AcDbEntity
8
Geo
100
AcDbLine
10
-79.6337598704073
20
2.04332418451227
30
0.000000000000000
11
-79.5337598704073
21
1.79243106865337
31
0.000000000000000
  0
LINE
  5
F101A2
330
F101A3
100
AcDbEntity
8
Geo
100
AcDbLine
10
-79.5337598704073
20
1.79243106865337
30
0.000000000000000
11
-79.4337598704073
21
1.54550119835589
31
0.000000000000000
  0
LINE
  5
F101A4
330
F101A5
100
AcDbEntity
8
Geo
100
AcDbLine
10
-79.4337598704073
20
1.54550119835589
30
0.000000000000000
11
-79.3337598704073
21
1.30290035048892
31
0.000000000000000
  0
LINE
  5
F101A6
330
F101A7
100
AcDbEntity
8
Geo
100
AcDbLine
10
-79.3337598704073
20
1.30290035048892
30
0.000000000000000
11
-79.2337598704073
21
1.06498788934673
31
0.000000000000000
  0
LINE
  5
F101A8
330
F101A9
100
AcDbEntity
8
Geo
100
AcDbLine
10
-79.2337598704073
20
1.06498788934673
30
0.000000000000000
11
-79.1337598704073
21
0.832116234322908
31
0.000000000000000
  0
LINE
  5
F101AA
330
F101AB
100
AcDbEntity
8
Geo
100
AcDbLine
10
-79.1337598704073
20
0.832116234322908
30
0.000000000000000
11
-79.0337598704073
21
0.604630337872070
31
0.000000000000000
  0
LINE
  5
F101AC
330
F101AD
100
AcDbEntity
8
Geo
100
AcDbLine
10
-79.0337598704073
20
0.604630337872070
30
0.000000000000000
11
-78.9337598704073
21
0.382867174532222
31
0.000000000000000
  0
LINE
  5
F101AE
330
F101AF
100
AcDbEntity
8
Geo
100
AcDbLine
10
-78.9337598704073
20
0.382867174532222
30
0.000000000000000
11
-78.8337598704073
21
0.167155241764885
31
0.000000000000000
  0
LINE
  5
F101B0
330
F101B1
100
AcDbEntity
8
Geo
100
AcDbLine
10
-78.8337598704073
20
0.167155241764885
30
0.000000000000000
11
-78.7337598704073
21
-0.0421859266477522
31
0.000000000000000
  0
LINE
  5
F101B2
330
F101B3
100
AcDbEntity
8
Geo
100
AcDbLine
10
-78.7337598704073
20
-0.0421859266477522
30
0.000000000000000
11
-78.6337598704073
21
-0.244846233927762
31
0.000000000000000
  0
LINE
  5
F101B4
330
F101B5
100
AcDbEntity
8
Geo
100
AcDbLine
10
-78.6337598704073
20
-0.244846233927762
30
0.000000000000000
11
-78.5337598704073
21
-0.440525479647405
31
0.000000000000000
  0
LINE
  5
F101B6
330
F101B7
100
AcDbEntity
8
Geo
100
AcDbLine
10
-78.5337598704073
20
-0.440525479647405
30
0.000000000000000
11
-78.4337598704073
21
-0.628933804415599
31
0.000000000000000
  0
LINE
  5
F101B8
330
F101B9
100
AcDbEntity
8
Geo
100
AcDbLine
10
-78.4337598704073
20
-0.628933804415599
30
0.000000000000000
11
-78.3337598704073
21
-0.809792119246223
31
0.000000000000000
  0
LINE
  5
F101BA
330
F101BB
100
AcDbEntity
8
Geo
100
AcDbLine
10
-78.3337598704073
20
-0.809792119246223
30
0.000000000000000
11
-78.2337598704073
21
-0.982832518972248
31
0.000000000000000
  0
LINE
  5
F101BC
330
F101BD
100
AcDbEntity
8
Geo
100
AcDbLine
10
-78.2337598704073
20
-0.982832518972248
30
0.000000000000000
11
-78.1337598704073
21
-1.14779867909328
31
0.000000000000000
  0
LINE
  5
F101BE
330
F101BF
100
AcDbEntity
8
Geo
100
AcDbLine
10
-78.1337598704073
20
-1.14779867909328
30
0.000000000000000
11
-78.0337598704073
21
-1.30444623546866
31
0.000000000000000
  0
LINE
  5
F101C0
330
F101C1
100
AcDbEntity
8
Geo
100
AcDbLine
10
-78.0337598704073
20
-1.30444623546866
30
0.000000000000000
11
-77.9337598704073
21
-1.45254314629378
31
0.000000000000000
  0
LINE
  5
F101C2
330
F101C3
100
AcDbEntity
8
Geo
100
AcDbLine
10
-77.9337598704073
20
-1.45254314629378
30
0.000000000000000
11
-77.8337598704073
21
-1.59187003582320
31
0.000000000000000
  0
LINE
  5
F101C4
330
F101C5
100
AcDbEntity
8
Geo
100
AcDbLine
10
-77.8337598704073
20
-1.59187003582320
30
0.000000000000000
11
-77.7337598704073
21
-1.72222051933170
31
0.000000000000000
  0
LINE
  5
F101C6
330
F101C7
100
AcDbEntity
8
Geo
100
AcDbLine
10
-77.7337598704073
20
-1.72222051933170
30
0.000000000000000
11
-77.6337598704073
21
-1.84340150883166
31
0.000000000000000
  0
LINE
  5
F101C8
330
F101C9
100
AcDbEntity
8
Geo
100
AcDbLine
10
-77.6337598704073
20
-1.84340150883166
30
0.000000000000000
11
-77.5337598704073
21
-1.95523349909399
31
0.000000000000000
  0
LINE
  5
F101CA
330
F101CB
100
AcDbEntity
8
Geo
100
AcDbLine
10
-77.5337598704073
20
-1.95523349909399
30
0.000000000000000
11
-77.4337598704073
21
-2.05755083354903
31
0.000000000000000
  0
LINE
  5
F101CC
330
F101CD
100
AcDbEntity
8
Geo
100
AcDbLine
10
-77.4337598704073
20
-2.05755083354903
30
0.000000000000000
11
-77.3337598704073
21
-2.15020194967337
31
0.000000000000000
  0
LINE
  5
F101CE
330
F101CF
100
AcDbEntity
8
Geo
100
AcDbLine
10
-77.3337598704073
20
-2.15020194967337
30
0.000000000000000
11
-77.2337598704073
21
-2.23304960349917
31
0.000000000000000
  0
LINE
  5
F101D0
330
F101D1
100
AcDbEntity
8
Geo
100
AcDbLine
10
-77.2337598704073
20
-2.23304960349917
30
0.000000000000000
11
-77.1337598704073
21
-2.30597107291352
31
0.000000000000000
  0
LINE
  5
F101D2
330
F101D3
100
AcDbEntity
8
Geo
100
AcDbLine
10
-77.1337598704073
20
-2.30597107291352
30
0.000000000000000
11
-77.0337598704073
21
-2.36885833944647
31
0.000000000000000
  0
LINE
  5
F101D4
330
F101D5
100
AcDbEntity
8
Geo
100
AcDbLine
10
-77.0337598704073
20
-2.36885833944647
30
0.000000000000000
11
-76.9337598704073
21
-2.42161824827868
31
0.000000000000000
  0
LINE
  5
F101D6
330
F101D7
100
AcDbEntity
8
Geo
100
AcDbLine
10
-76.9337598704073
20
-2.42161824827868
30
0.000000000000000
11
-76.8337598704073
21
-2.46417264623151
31
0.000000000000000
  0
LINE
  5
F101D8
330
F101D9
100
AcDbEntity
8
Geo
100
AcDbLine
10
-76.8337598704073
20
-2.46417264623151
30
0.000000000000000
11
-76.7337598704073
21
-2.49645849753520
31
0.000000000000000
  0
LINE
  5
F101DA
330
F101DB
100
AcDbEntity
8
Geo
100
AcDbLine
10
-76.7337598704073
20
-2.49645849753520
30
0.000000000000000
11
-76.6337598704073
21
-2.51842797720369
31
0.000000000000000
  0
LINE
  5
F101DC
330
F101DD
100
AcDbEntity
8
Geo
100
AcDbLine
10
-76.6337598704073
20
-2.51842797720369
30
0.000000000000000
11
-76.5337598704073
21
-2.53004854187770
31
0.000000000000000
  0
LINE
  5
F101DE
330
F101DF
100
AcDbEntity
8
Geo
100
AcDbLine
10
-84.6337598704073
20
10.1742912153165
30
0.000000000000000
11
-84.5337598704073
21
10.5077836799881
31
0.000000000000000
  0
LINE
  5
F101E0
330
F101E1
100
AcDbEntity
8
Geo
100
AcDbLine
10
-84.5337598704073
20
10.5077836799881
30
0.000000000000000
11
-84.4337598704073
21
10.5694891671410
31
0.000000000000000
  0
LINE
  5
F101E2
330
F101E3
100
AcDbEntity
8
Geo
100
AcDbLine
10
-84.4337598704073
20
10.5694891671410
30
0.000000000000000
11
-84.3337598704073
21
10.5719150904797
31
0.000000000000000
  0
LINE
  5
F101E4
330
F101E5
100
AcDbEntity
8
Geo
100
AcDbLine
10
-84.3337598704073
20
10.5719150904797
30
0.000000000000000
11
-84.2337598704073
21
10.5363974919907
31
0.000000000000000
  0
LINE
  5
F101E6
330
F101E7
100
AcDbEntity
8
Geo
100
AcDbLine
10
-84.2337598704073
20
10.5363974919907
30
0.000000000000000
11
-84.1337598704073
21
10.4715685015859
31
0.000000000000000
  0
LINE
  5
F101E8
330
F101E9
100
AcDbEntity
8
Geo
100
AcDbLine
10
-84.1337598704073
20
10.4715685015859
30
0.000000000000000
11
-84.0337598704073
21
10.3820966242097
31
0.000000000000000
  0
LINE
  5
F101EA
330
F101EB
100
AcDbEntity
8
Geo
100
AcDbLine
10
-84.0337598704073
20
10.3820966242097
30
0.000000000000000
11
-83.9337598704073
21
10.2709461879517
31
0.000000000000000
  0
LINE
  5
F101EC
330
F101ED
100
AcDbEntity
8
Geo
100
AcDbLine
10
-83.9337598704073
20
10.2709461879517
30
0.000000000000000
11
-83.8337598704073
21
10.1402122975661
31
0.000000000000000
  0
LINE
  5
F101EE
330
F101EF
100
AcDbEntity
8
Geo
100
AcDbLine
10
-83.8337598704073
20
10.1402122975661
30
0.000000000000000
11
-83.7337598704073
21
9.99149483005188
31
0.000000000000000
  0
LINE
  5
F101F0
330
F101F1
100
AcDbEntity
8
Geo
100
AcDbLine
10
-83.7337598704073
20
9.99149483005188
30
0.000000000000000
11
-83.6337598704073
21
9.82608651575112
31
0.000000000000000
  0
LINE
  5
F101F2
330
F101F3
100
AcDbEntity
8
Geo
100
AcDbLine
10
-83.6337598704073
20
9.82608651575112
30
0.000000000000000
11
-83.5337598704073
21
9.64878306942119
31
0.000000000000000
  0
LINE
  5
F101F4
330
F101F5
100
AcDbEntity
8
Geo
100
AcDbLine
10
-83.5337598704073
20
9.64878306942119
30
0.000000000000000
11
-83.4337598704073
21
9.46380526549912
31
0.000000000000000
  0
LINE
  5
F101F6
330
F101F7
100
AcDbEntity
8
Geo
100
AcDbLine
10
-83.4337598704073
20
9.46380526549912
30
0.000000000000000
11
-83.3337598704073
21
9.27142711134531
31
0.000000000000000
  0
LINE
  5
F101F8
330
F101F9
100
AcDbEntity
8
Geo
100
AcDbLine
10
-83.3337598704073
20
9.27142711134531
30
0.000000000000000
11
-83.2337598704073
21
9.07193357644858
31
0.000000000000000
  0
LINE
  5
F101FA
330
F101FB
100
AcDbEntity
8
Geo
100
AcDbLine
10
-83.2337598704073
20
9.07193357644858
30
0.000000000000000
11
-83.1337598704073
21
8.86562017030118
31
0.000000000000000
  0
LINE
  5
F101FC
330
F101FD
100
AcDbEntity
8
Geo
100
AcDbLine
10
-83.1337598704073
20
8.86562017030118
30
0.000000000000000
11
-83.0337598704073
21
8.65279250466106
31
0.000000000000000
  0
LINE
  5
F101FE
330
F101FF
100
AcDbEntity
8
Geo
100
AcDbLine
10
-83.0337598704073
20
8.65279250466106
30
0.000000000000000
11
-82.9337598704073
21
8.43376584084958
31
0.000000000000000
  0
LINE
  5
F10200
330
F10201
100
AcDbEntity
8
Geo
100
AcDbLine
10
-82.9337598704073
20
8.43376584084958
30
0.000000000000000
11
-82.8337598704073
21
8.20886462275537
31
0.000000000000000
  0
LINE
  5
F10202
330
F10203
100
AcDbEntity
8
Geo
100
AcDbLine
10
-82.8337598704073
20
8.20886462275537
30
0.000000000000000
11
-82.7337598704073
21
7.97842199623602
31
0.000000000000000
  0
LINE
  5
F10204
330
F10205
100
AcDbEntity
8
Geo
100
AcDbLine
10
-82.7337598704073
20
7.97842199623602
30
0.000000000000000
11
-82.6337598704073
21
7.74277931562963
31
0.000000000000000
  0
LINE
  5
F10206
330
F10207
100
AcDbEntity
8
Geo
100
AcDbLine
10
-82.6337598704073
20
7.74277931562963
30
0.000000000000000
11
-82.5337598704073
21
7.50228563810711
31
0.000000000000000
  0
LINE
  5
F10208
330
F10209
100
AcDbEntity
8
Geo
100
AcDbLine
10
-82.5337598704073
20
7.50228563810711
30
0.000000000000000
11
-82.4337598704073
21
7.25729720661423
31
0.000000000000000
  0
LINE
  5
F1020A
330
F1020B
100
AcDbEntity
8
Geo
100
AcDbLine
10
-82.4337598704073
20
7.25729720661423
30
0.000000000000000
11
-82.3337598704073
21
7.00817692216953
31
0.000000000000000
  0
LINE
  5
F1020C
330
F1020D
100
AcDbEntity
8
Geo
100
AcDbLine
10
-82.3337598704073
20
7.00817692216953
30
0.000000000000000
11
-82.2337598704073
21
6.75529380629949
31
0.000000000000000
  0
LINE
  5
F1020E
330
F1020F
100
AcDbEntity
8
Geo
100
AcDbLine
10
-82.2337598704073
20
6.75529380629949
30
0.000000000000000
11
-82.1337598704073
21
6.49902245440746
31
0.000000000000000
  0
LINE
  5
F10210
330
F10211
100
AcDbEntity
8
Geo
100
AcDbLine
10
-82.1337598704073
20
6.49902245440746
30
0.000000000000000
11
-82.0337598704073
21
6.23974248088607
31
0.000000000000000
  0
LINE
  5
F10212
330
F10213
100
AcDbEntity
8
Geo
100
AcDbLine
10
-82.0337598704073
20
6.23974248088607
30
0.000000000000000
11
-81.9337598704073
21
5.97783795679492
31
0.000000000000000
  0
LINE
  5
F10214
330
F10215
100
AcDbEntity
8
Geo
100
AcDbLine
10
-81.9337598704073
20
5.97783795679492
30
0.000000000000000
11
-81.8337598704073
21
5.71369684093666
31
0.000000000000000
  0
LINE
  5
F10216
330
F10217
100
AcDbEntity
8
Geo
100
AcDbLine
10
-81.8337598704073
20
5.71369684093666
30
0.000000000000000
11
-81.7337598704073
21
5.44771040517419
31
0.000000000000000
  0
LINE
  5
F10218
330
F10219
100
AcDbEntity
8
Geo
100
AcDbLine
10
-81.7337598704073
20
5.44771040517419
30
0.000000000000000
11
-81.6337598704073
21
5.18027265484019
31
0.000000000000000
  0
LINE
  5
F1021A
330
F1021B
100
AcDbEntity
8
Geo
100
AcDbLine
10
-81.6337598704073
20
5.18027265484019
30
0.000000000000000
11
-81.5337598704073
21
4.91177974509755
31
0.000000000000000
  0
LINE
  5
F1021C
330
F1021D
100
AcDbEntity
8
Geo
100
AcDbLine
10
-81.5337598704073
20
4.91177974509755
30
0.000000000000000
11
-81.4337598704073
21
4.64262939411531
31
0.000000000000000
  0
LINE
  5
F1021E
330
F1021F
100
AcDbEntity
8
Geo
100
AcDbLine
10
-81.4337598704073
20
4.64262939411531
30
0.000000000000000
11
-81.3337598704073
21
4.37322029392932
31
0.000000000000000
  0
LINE
  5
F10220
330
F10221
100
AcDbEntity
8
Geo
100
AcDbLine
10
-81.3337598704073
20
4.37322029392932
30
0.000000000000000
11
-81.2337598704073
21
4.10395151986022
31
0.000000000000000
  0
LINE
  5
F10222
330
F10223
100
AcDbEntity
8
Geo
100
AcDbLine
10
-81.2337598704073
20
4.10395151986022
30
0.000000000000000
11
-81.1337598704073
21
3.83522193936381
31
0.000000000000000
  0
LINE
  5
F10224
330
F10225
100
AcDbEntity
8
Geo
100
AcDbLine
10
-81.1337598704073
20
3.83522193936381
30
0.000000000000000
11
-81.0337598704073
21
3.56742962118918
31
0.000000000000000
  0
LINE
  5
F10226
330
F10227
100
AcDbEntity
8
Geo
100
AcDbLine
10
-81.0337598704073
20
3.56742962118918
30
0.000000000000000
11
-80.9337598704073
21
3.30097124572007
31
0.000000000000000
  0
LINE
  5
F10228
330
F10229
100
AcDbEntity
8
Geo
100
AcDbLine
10
-80.9337598704073
20
3.30097124572007
30
0.000000000000000
11
-80.8337598704073
21
3.03624151737278
31
0.000000000000000
  0
LINE
  5
F1022A
330
F1022B
100
AcDbEntity
8
Geo
100
AcDbLine
10
-80.8337598704073
20
3.03624151737278
30
0.000000000000000
11
-80.7337598704073
21
2.77363257992105
31
0.000000000000000
  0
LINE
  5
F1022C
330
F1022D
100
AcDbEntity
8
Geo
100
AcDbLine
10
-80.7337598704073
20
2.77363257992105
30
0.000000000000000
11
-80.6337598704073
21
2.51353343561407
31
0.000000000000000
  0
LINE
  5
F1022E
330
F1022F
100
AcDbEntity
8
Geo
100
AcDbLine
10
-80.6337598704073
20
2.51353343561407
30
0.000000000000000
11
-80.5337598704073
21
2.25632936894797
31
0.000000000000000
  0
LINE
  5
F10230
330
F10231
100
AcDbEntity
8
Geo
100
AcDbLine
10
-80.5337598704073
20
2.25632936894797
30
0.000000000000000
11
-80.4337598704073
21
2.00240137594443
31
0.000000000000000
  0
LINE
  5
F10232
330
F10233
100
AcDbEntity
8
Geo
100
AcDbLine
10
-80.4337598704073
20
2.00240137594443
30
0.000000000000000
11
-80.3337598704073
21
1.75212559978186
31
0.000000000000000
  0
LINE
  5
F10234
330
F10235
100
AcDbEntity
8
Geo
100
AcDbLine
10
-80.3337598704073
20
1.75212559978186
30
0.000000000000000
11
-80.2337598704073
21
1.50587277361499
31
0.000000000000000
  0
LINE
  5
F10236
330
F10237
100
AcDbEntity
8
Geo
100
AcDbLine
10
-80.2337598704073
20
1.50587277361499
30
0.000000000000000
11
-80.1337598704073
21
1.26400767140838
31
0.000000000000000
  0
LINE
  5
F10238
330
F10239
100
AcDbEntity
8
Geo
100
AcDbLine
10
-80.1337598704073
20
1.26400767140838
30
0.000000000000000
11
-80.0337598704073
21
1.02688856759729
31
0.000000000000000
  0
LINE
  5
F1023A
330
F1023B
100
AcDbEntity
8
Geo
100
AcDbLine
10
-80.0337598704073
20
1.02688856759729
30
0.000000000000000
11
-79.9337598704073
21
0.794866706376225
31
0.000000000000000
  0
LINE
  5
F1023C
330
F1023D
100
AcDbEntity
8
Geo
100
AcDbLine
10
-79.9337598704073
20
0.794866706376225
30
0.000000000000000
11
-79.8337598704073
21
0.568285781401424
31
0.000000000000000
  0
LINE
  5
F1023E
330
F1023F
100
AcDbEntity
8
Geo
100
AcDbLine
10
-79.8337598704073
20
0.568285781401424
30
0.000000000000000
11
-79.7337598704073
21
0.347481426677925
31
0.000000000000000
  0
LINE
  5
F10240
330
F10241
100
AcDbEntity
8
Geo
100
AcDbLine
10
-79.7337598704073
20
0.347481426677925
30
0.000000000000000
11
-79.6337598704073
21
0.132780719385393
31
0.000000000000000
  0
LINE
  5
F10242
330
F10243
100
AcDbEntity
8
Geo
100
AcDbLine
10
-79.6337598704073
20
0.132780719385393
30
0.000000000000000
11
-79.5337598704073
21
-0.0754983046208508
31
0.000000000000000
  0
LINE
  5
F10244
330
F10245
100
AcDbEntity
8
Geo
100
AcDbLine
10
-79.5337598704073
20
-0.0754983046208508
30
0.000000000000000
11
-79.4337598704073
21
-0.277047121915896
31
0.000000000000000
  0
LINE
  5
F10246
330
F10247
100
AcDbEntity
8
Geo
100
AcDbLine
10
-79.4337598704073
20
-0.277047121915896
30
0.000000000000000
11
-79.3337598704073
21
-0.471567178520552
31
0.000000000000000
  0
LINE
  5
F10248
330
F10249
100
AcDbEntity
8
Geo
100
AcDbLine
10
-79.3337598704073
20
-0.471567178520552
30
0.000000000000000
11
-79.2337598704073
21
-0.658770332148934
31
0.000000000000000
  0
LINE
  5
F1024A
330
F1024B
100
AcDbEntity
8
Geo
100
AcDbLine
10
-79.2337598704073
20
-0.658770332148934
30
0.000000000000000
11
-79.1337598704073
21
-0.838379279033240
31
0.000000000000000
  0
LINE
  5
F1024C
330
F1024D
100
AcDbEntity
8
Geo
100
AcDbLine
10
-79.1337598704073
20
-0.838379279033240
30
0.000000000000000
11
-79.0337598704073
21
-1.01012796469342
31
0.000000000000000
  0
LINE
  5
F1024E
330
F1024F
100
AcDbEntity
8
Geo
100
AcDbLine
10
-79.0337598704073
20
-1.01012796469342
30
0.000000000000000
11
-78.9337598704073
21
-1.17376197804329
31
0.000000000000000
  0
LINE
  5
F10250
330
F10251
100
AcDbEntity
8
Geo
100
AcDbLine
10
-78.9337598704073
20
-1.17376197804329
30
0.000000000000000
11
-78.8337598704073
21
-1.32903892824936
31
0.000000000000000
  0
LINE
  5
F10252
330
F10253
100
AcDbEntity
8
Geo
100
AcDbLine
10
-78.8337598704073
20
-1.32903892824936
30
0.000000000000000
11
-78.7337598704073
21
-1.47572880378398
31
0.000000000000000
  0
LINE
  5
F10254
330
F10255
100
AcDbEntity
8
Geo
100
AcDbLine
10
-78.7337598704073
20
-1.47572880378398
30
0.000000000000000
11
-78.6337598704073
21
-1.61361431314112
31
0.000000000000000
  0
LINE
  5
F10256
330
F10257
100
AcDbEntity
8
Geo
100
AcDbLine
10
-78.6337598704073
20
-1.61361431314112
30
0.000000000000000
11
-78.5337598704073
21
-1.74249120670998
31
0.000000000000000
  0
LINE
  5
F10258
330
F10259
100
AcDbEntity
8
Geo
100
AcDbLine
10
-78.5337598704073
20
-1.74249120670998
30
0.000000000000000
11
-78.4337598704073
21
-1.86216857932962
31
0.000000000000000
  0
LINE
  5
F1025A
330
F1025B
100
AcDbEntity
8
Geo
100
AcDbLine
10
-78.4337598704073
20
-1.86216857932962
30
0.000000000000000
11
-78.3337598704073
21
-1.97246915307655
31
0.000000000000000
  0
LINE
  5
F1025C
330
F1025D
100
AcDbEntity
8
Geo
100
AcDbLine
10
-78.3337598704073
20
-1.97246915307655
30
0.000000000000000
11
-78.2337598704073
21
-2.07322953986622
31
0.000000000000000
  0
LINE
  5
F1025E
330
F1025F
100
AcDbEntity
8
Geo
100
AcDbLine
10
-78.2337598704073
20
-2.07322953986622
30
0.000000000000000
11
-78.1337598704073
21
-2.16430048347959
31
0.000000000000000
  0
LINE
  5
F10260
330
F10261
100
AcDbEntity
8
Geo
100
AcDbLine
10
-78.1337598704073
20
-2.16430048347959
30
0.000000000000000
11
-78.0337598704073
21
-2.24554708065616
31
0.000000000000000
  0
LINE
  5
F10262
330
F10263
100
AcDbEntity
8
Geo
100
AcDbLine
10
-78.0337598704073
20
-2.24554708065616
30
0.000000000000000
11
-77.9337598704073
21
-2.31684898092597
31
0.000000000000000
  0
LINE
  5
F10264
330
F10265
100
AcDbEntity
8
Geo
100
AcDbLine
10
-77.9337598704073
20
-2.31684898092597
30
0.000000000000000
11
-77.8337598704073
21
-2.37810056488456
31
0.000000000000000
  0
LINE
  5
F10266
330
F10267
100
AcDbEntity
8
Geo
100
AcDbLine
10
-77.8337598704073
20
-2.37810056488456
30
0.000000000000000
11
-77.7337598704073
21
-2.42921110064688
31
0.000000000000000
  0
LINE
  5
F10268
330
F10269
100
AcDbEntity
8
Geo
100
AcDbLine
10
-77.7337598704073
20
-2.42921110064688
30
0.000000000000000
11
-77.6337598704073
21
-2.47010487824831
31
0.000000000000000
  0
LINE
  5
F1026A
330
F1026B
100
AcDbEntity
8
Geo
100
AcDbLine
10
-77.6337598704073
20
-2.47010487824831
30
0.000000000000000
11
-77.5337598704073
21
-2.50072132179366
31
0.000000000000000
  0
LINE
  5
F1026C
330
F1026D
100
AcDbEntity
8
Geo
100
AcDbLine
10
-77.5337598704073
20
-2.50072132179366
30
0.000000000000000
11
-77.4337598704073
21
-2.52101507918825
31
0.000000000000000
  0
LINE
  5
F1026E
330
F1026F
100
AcDbEntity
8
Geo
100
AcDbLine
10
-77.4337598704073
20
-2.52101507918825
30
0.000000000000000
11
-77.3337598704073
21
-2.53095608931782
31
0.000000000000000
  0
LINE
  5
F10270
330
F10271
100
AcDbEntity
8
Geo
100
AcDbLine
10
-84.6337598704073
20
4.46795211754552
30
0.000000000000000
11
-84.5337598704073
21
4.22029576030208
31
0.000000000000000
  0
LINE
  5
F10272
330
F10273
100
AcDbEntity
8
Geo
100
AcDbLine
10
-84.5337598704073
20
4.22029576030208
30
0.000000000000000
11
-84.4337598704073
21
3.96038552778890
31
0.000000000000000
  0
LINE
  5
F10274
330
F10275
100
AcDbEntity
8
Geo
100
AcDbLine
10
-84.4337598704073
20
3.96038552778890
30
0.000000000000000
11
-84.3337598704073
21
3.69439138366035
31
0.000000000000000
  0
LINE
  5
F10276
330
F10277
100
AcDbEntity
8
Geo
100
AcDbLine
10
-84.3337598704073
20
3.69439138366035
30
0.000000000000000
11
-84.2337598704073
21
3.42515474401862
31
0.000000000000000
  0
LINE
  5
F10278
330
F10279
100
AcDbEntity
8
Geo
100
AcDbLine
10
-84.2337598704073
20
3.42515474401862
30
0.000000000000000
11
-84.1337598704073
21
3.15472640870613
31
0.000000000000000
  0
LINE
  5
F1027A
330
F1027B
100
AcDbEntity
8
Geo
100
AcDbLine
10
-84.1337598704073
20
3.15472640870613
30
0.000000000000000
11
-84.0337598704073
21
2.88481178160183
31
0.000000000000000
  0
LINE
  5
F1027C
330
F1027D
100
AcDbEntity
8
Geo
100
AcDbLine
10
-84.0337598704073
20
2.88481178160183
30
0.000000000000000
11
-83.9337598704073
21
2.61693752516900
31
0.000000000000000
  0
LINE
  5
F1027E
330
F1027F
100
AcDbEntity
8
Geo
100
AcDbLine
10
-83.9337598704073
20
2.61693752516900
30
0.000000000000000
11
-83.8337598704073
21
2.35253469499529
31
0.000000000000000
  0
LINE
  5
F10280
330
F10281
100
AcDbEntity
8
Geo
100
AcDbLine
10
-83.8337598704073
20
2.35253469499529
30
0.000000000000000
11
-83.7337598704073
21
2.09299013746664
31
0.000000000000000
  0
LINE
  5
F10282
330
F10283
100
AcDbEntity
8
Geo
100
AcDbLine
10
-83.7337598704073
20
2.09299013746664
30
0.000000000000000
11
-83.6337598704073
21
1.83968576805113
31
0.000000000000000
  0
LINE
  5
F10284
330
F10285
100
AcDbEntity
8
Geo
100
AcDbLine
10
-83.6337598704073
20
1.83968576805113
30
0.000000000000000
11
-83.5337598704073
21
1.59197652831842
31
0.000000000000000
  0
LINE
  5
F10286
330
F10287
100
AcDbEntity
8
Geo
100
AcDbLine
10
-83.5337598704073
20
1.59197652831842
30
0.000000000000000
11
-83.4337598704073
21
1.34852746717540
31
0.000000000000000
  0
LINE
  5
F10288
330
F10289
100
AcDbEntity
8
Geo
100
AcDbLine
10
-83.4337598704073
20
1.34852746717540
30
0.000000000000000
11
-83.3337598704073
21
1.10969920537348
31
0.000000000000000
  0
LINE
  5
F1028A
330
F1028B
100
AcDbEntity
8
Geo
100
AcDbLine
10
-83.3337598704073
20
1.10969920537348
30
0.000000000000000
11
-83.2337598704073
21
0.875845518880470
31
0.000000000000000
  0
LINE
  5
F1028C
330
F1028D
100
AcDbEntity
8
Geo
100
AcDbLine
10
-83.2337598704073
20
0.875845518880470
30
0.000000000000000
11
-83.1337598704073
21
0.647312814832815
31
0.000000000000000
  0
LINE
  5
F1028E
330
F1028F
100
AcDbEntity
8
Geo
100
AcDbLine
10
-83.1337598704073
20
0.647312814832815
30
0.000000000000000
11
-83.0337598704073
21
0.424439618403150
31
0.000000000000000
  0
LINE
  5
F10290
330
F10291
100
AcDbEntity
8
Geo
100
AcDbLine
10
-83.0337598704073
20
0.424439618403150
30
0.000000000000000
11
-82.9337598704073
21
0.207556071343437
31
0.000000000000000
  0
LINE
  5
F10292
330
F10293
100
AcDbEntity
8
Geo
100
AcDbLine
10
-82.9337598704073
20
0.207556071343437
30
0.000000000000000
11
-82.8337598704073
21
-0.00301655705352832
31
0.000000000000000
  0
LINE
  5
F10294
330
F10295
100
AcDbEntity
8
Geo
100
AcDbLine
10
-82.8337598704073
20
-0.00301655705352832
30
0.000000000000000
11
-82.7337598704073
21
-0.206966345849876
31
0.000000000000000
  0
LINE
  5
F10296
330
F10297
100
AcDbEntity
8
Geo
100
AcDbLine
10
-82.7337598704073
20
-0.206966345849876
30
0.000000000000000
11
-82.6337598704073
21
-0.403991184510718
31
0.000000000000000
  0
LINE
  5
F10298
330
F10299
100
AcDbEntity
8
Geo
100
AcDbLine
10
-82.6337598704073
20
-0.403991184510718
30
0.000000000000000
11
-82.5337598704073
21
-0.593799220420038
31
0.000000000000000
  0
LINE
  5
F1029A
330
F1029B
100
AcDbEntity
8
Geo
100
AcDbLine
10
-82.5337598704073
20
-0.593799220420038
30
0.000000000000000
11
-82.4337598704073
21
-0.776109291201579
31
0.000000000000000
  0
LINE
  5
F1029C
330
F1029D
100
AcDbEntity
8
Geo
100
AcDbLine
10
-82.4337598704073
20
-0.776109291201579
30
0.000000000000000
11
-82.3337598704073
21
-0.950651341204260
31
0.000000000000000
  0
LINE
  5
F1029E
330
F1029F
100
AcDbEntity
8
Geo
100
AcDbLine
10
-82.3337598704073
20
-0.950651341204260
30
0.000000000000000
11
-82.2337598704073
21
-1.11716682153525
31
0.000000000000000
  0
LINE
  5
F102A0
330
F102A1
100
AcDbEntity
8
Geo
100
AcDbLine
10
-82.2337598704073
20
-1.11716682153525
30
0.000000000000000
11
-82.1337598704073
21
-1.27540907304805
31
0.000000000000000
  0
LINE
  5
F102A2
330
F102A3
100
AcDbEntity
8
Geo
100
AcDbLine
10
-82.1337598704073
20
-1.27540907304805
30
0.000000000000000
11
-82.0337598704073
21
-1.42514369171838
31
0.000000000000000
  0
LINE
  5
F102A4
330
F102A5
100
AcDbEntity
8
Geo
100
AcDbLine
10
-82.0337598704073
20
-1.42514369171838
30
0.000000000000000
11
-81.9337598704073
21
-1.56614887586649
31
0.000000000000000
  0
LINE
  5
F102A6
330
F102A7
100
AcDbEntity
8
Geo
100
AcDbLine
10
-81.9337598704073
20
-1.56614887586649
30
0.000000000000000
11
-81.8337598704073
21
-1.69821575471170
31
0.000000000000000
  0
LINE
  5
F102A8
330
F102A9
100
AcDbEntity
8
Geo
100
AcDbLine
10
-81.8337598704073
20
-1.69821575471170
30
0.000000000000000
11
-81.7337598704073
21
-1.82114869777238
31
0.000000000000000
  0
LINE
  5
F102AA
330
F102AB
100
AcDbEntity
8
Geo
100
AcDbLine
10
-81.7337598704073
20
-1.82114869777238
30
0.000000000000000
11
-81.6337598704073
21
-1.93476560465312
31
0.000000000000000
  0
LINE
  5
F102AC
330
F102AD
100
AcDbEntity
8
Geo
100
AcDbLine
10
-81.6337598704073
20
-1.93476560465312
30
0.000000000000000
11
-81.5337598704073
21
-2.03889817478978
31
0.000000000000000
  0
LINE
  5
F102AE
330
F102AF
100
AcDbEntity
8
Geo
100
AcDbLine
10
-81.5337598704073
20
-2.03889817478978
30
0.000000000000000
11
-81.4337598704073
21
-2.13339215675287
31
0.000000000000000
  0
LINE
  5
F102B0
330
F102B1
100
AcDbEntity
8
Geo
100
AcDbLine
10
-81.4337598704073
20
-2.13339215675287
30
0.000000000000000
11
-81.3337598704073
21
-2.21810757674002
31
0.000000000000000
  0
LINE
  5
F102B2
330
F102B3
100
AcDbEntity
8
Geo
100
AcDbLine
10
-81.3337598704073
20
-2.21810757674002
30
0.000000000000000
11
-81.2337598704073
21
-2.29291894591890
31
0.000000000000000
  0
LINE
  5
F102B4
330
F102B5
100
AcDbEntity
8
Geo
100
AcDbLine
10
-81.2337598704073
20
-2.29291894591890
30
0.000000000000000
11
-81.1337598704073
21
-2.35771544631372
31
0.000000000000000
  0
LINE
  5
F102B6
330
F102B7
100
AcDbEntity
8
Geo
100
AcDbLine
10
-81.1337598704073
20
-2.35771544631372
30
0.000000000000000
11
-81.0337598704073
21
-2.41240109495970
31
0.000000000000000
  0
LINE
  5
F102B8
330
F102B9
100
AcDbEntity
8
Geo
100
AcDbLine
10
-81.0337598704073
20
-2.41240109495970
30
0.000000000000000
11
-80.9337598704073
21
-2.45689488608253
31
0.000000000000000
  0
LINE
  5
F102BA
330
F102BB
100
AcDbEntity
8
Geo
100
AcDbLine
10
-80.9337598704073
20
-2.45689488608253
30
0.000000000000000
11
-80.8337598704073
21
-2.49113091109208
31
0.000000000000000
  0
LINE
  5
F102BC
330
F102BD
100
AcDbEntity
8
Geo
100
AcDbLine
10
-80.8337598704073
20
-2.49113091109208
30
0.000000000000000
11
-80.7337598704073
21
-2.51505845621273
31
0.000000000000000
  0
LINE
  5
F102BE
330
F102BF
100
AcDbEntity
8
Geo
100
AcDbLine
10
-80.7337598704073
20
-2.51505845621273
30
0.000000000000000
11
-80.6337598704073
21
-2.52864207760558
31
0.000000000000000
  0
LINE
  5
F102C0
330
F102C1
100
AcDbEntity
8
Geo
100
AcDbLine
10
-84.6337598704073
20
2.61385015129587
30
0.000000000000000
11
-84.5337598704073
21
2.24509057674486
31
0.000000000000000
  0
LINE
  5
F102C2
330
F102C3
100
AcDbEntity
8
Geo
100
AcDbLine
10
-84.5337598704073
20
2.24509057674486
30
0.000000000000000
11
-84.4337598704073
21
1.95175545742265
31
0.000000000000000
  0
LINE
  5
F102C4
330
F102C5
100
AcDbEntity
8
Geo
100
AcDbLine
10
-84.4337598704073
20
1.95175545742265
30
0.000000000000000
11
-84.3337598704073
21
1.67128443272858
31
0.000000000000000
  0
LINE
  5
F102C6
330
F102C7
100
AcDbEntity
8
Geo
100
AcDbLine
10
-84.3337598704073
20
1.67128443272858
30
0.000000000000000
11
-84.2337598704073
21
1.39973264407644
31
0.000000000000000
  0
LINE
  5
F102C8
330
F102C9
100
AcDbEntity
8
Geo
100
AcDbLine
10
-84.2337598704073
20
1.39973264407644
30
0.000000000000000
11
-84.1337598704073
21
1.13645168100113
31
0.000000000000000
  0
LINE
  5
F102CA
330
F102CB
100
AcDbEntity
8
Geo
100
AcDbLine
10
-84.1337598704073
20
1.13645168100113
30
0.000000000000000
11
-84.0337598704073
21
0.881717822050056
31
0.000000000000000
  0
LINE
  5
F102CC
330
F102CD
100
AcDbEntity
8
Geo
100
AcDbLine
10
-84.0337598704073
20
0.881717822050056
30
0.000000000000000
11
-83.9337598704073
21
0.636173126550123
31
0.000000000000000
  0
LINE
  5
F102CE
330
F102CF
100
AcDbEntity
8
Geo
100
AcDbLine
10
-83.9337598704073
20
0.636173126550123
30
0.000000000000000
11
-83.8337598704073
21
0.400641554592209
31
0.000000000000000
  0
LINE
  5
F102D0
330
F102D1
100
AcDbEntity
8
Geo
100
AcDbLine
10
-83.8337598704073
20
0.400641554592209
30
0.000000000000000
11
-83.7337598704073
21
0.176061491213453
31
0.000000000000000
  0
LINE
  5
F102D2
330
F102D3
100
AcDbEntity
8
Geo
100
AcDbLine
10
-83.7337598704073
20
0.176061491213453
30
0.000000000000000
11
-83.6337598704073
21
-0.0365340652244566
31
0.000000000000000
  0
LINE
  5
F102D4
330
F102D5
100
AcDbEntity
8
Geo
100
AcDbLine
10
-83.6337598704073
20
-0.0365340652244566
30
0.000000000000000
11
-83.5337598704073
21
-0.239381591475615
31
0.000000000000000
  0
LINE
  5
F102D6
330
F102D7
100
AcDbEntity
8
Geo
100
AcDbLine
10
-83.5337598704073
20
-0.239381591475615
30
0.000000000000000
11
-83.4337598704073
21
-0.435256150933578
31
0.000000000000000
  0
LINE
  5
F102D8
330
F102D9
100
AcDbEntity
8
Geo
100
AcDbLine
10
-83.4337598704073
20
-0.435256150933578
30
0.000000000000000
11
-83.3337598704073
21
-0.623867594889291
31
0.000000000000000
  0
LINE
  5
F102DA
330
F102DB
100
AcDbEntity
8
Geo
100
AcDbLine
10
-83.3337598704073
20
-0.623867594889291
30
0.000000000000000
11
-83.2337598704073
21
-0.804936533476470
31
0.000000000000000
  0
LINE
  5
F102DC
330
F102DD
100
AcDbEntity
8
Geo
100
AcDbLine
10
-83.2337598704073
20
-0.804936533476470
30
0.000000000000000
11
-83.1337598704073
21
-0.978194749531414
31
0.000000000000000
  0
LINE
  5
F102DE
330
F102DF
100
AcDbEntity
8
Geo
100
AcDbLine
10
-83.1337598704073
20
-0.978194749531414
30
0.000000000000000
11
-83.0337598704073
21
-1.14338559590270
31
0.000000000000000
  0
LINE
  5
F102E0
330
F102E1
100
AcDbEntity
8
Geo
100
AcDbLine
10
-83.0337598704073
20
-1.14338559590270
30
0.000000000000000
11
-82.9337598704073
21
-1.30026437562226
31
0.000000000000000
  0
LINE
  5
F102E2
330
F102E3
100
AcDbEntity
8
Geo
100
AcDbLine
10
-82.9337598704073
20
-1.30026437562226
30
0.000000000000000
11
-82.8337598704073
21
-1.44859870437465
31
0.000000000000000
  0
LINE
  5
F102E4
330
F102E5
100
AcDbEntity
8
Geo
100
AcDbLine
10
-82.8337598704073
20
-1.44859870437465
30
0.000000000000000
11
-82.7337598704073
21
-1.58816885472760
31
0.000000000000000
  0
LINE
  5
F102E6
330
F102E7
100
AcDbEntity
8
Geo
100
AcDbLine
10
-82.7337598704073
20
-1.58816885472760
30
0.000000000000000
11
-82.6337598704073
21
-1.71876808161398
31
0.000000000000000
  0
LINE
  5
F102E8
330
F102E9
100
AcDbEntity
8
Geo
100
AcDbLine
10
-82.6337598704073
20
-1.71876808161398
30
0.000000000000000
11
-82.5337598704073
21
-1.84020292858294
31
0.000000000000000
  0
LINE
  5
F102EA
330
F102EB
100
AcDbEntity
8
Geo
100
AcDbLine
10
-82.5337598704073
20
-1.84020292858294
30
0.000000000000000
11
-82.4337598704073
21
-1.95229351436670
31
0.000000000000000
  0
LINE
  5
F102EC
330
F102ED
100
AcDbEntity
8
Geo
100
AcDbLine
10
-82.4337598704073
20
-1.95229351436670
30
0.000000000000000
11
-82.3337598704073
21
-2.05487379933840
31
0.000000000000000
  0
LINE
  5
F102EE
330
F102EF
100
AcDbEntity
8
Geo
100
AcDbLine
10
-82.3337598704073
20
-2.05487379933840
30
0.000000000000000
11
-82.2337598704073
21
-2.14779183146640
31
0.000000000000000
  0
LINE
  5
F102F0
330
F102F1
100
AcDbEntity
8
Geo
100
AcDbLine
10
-82.2337598704073
20
-2.14779183146640
30
0.000000000000000
11
-82.1337598704073
21
-2.23090997140057
31
0.000000000000000
  0
LINE
  5
F102F2
330
F102F3
100
AcDbEntity
8
Geo
100
AcDbLine
10
-82.1337598704073
20
-2.23090997140057
30
0.000000000000000
11
-82.0337598704073
21
-2.30410509635730
31
0.000000000000000
  0
LINE
  5
F102F4
330
F102F5
100
AcDbEntity
8
Geo
100
AcDbLine
10
-82.0337598704073
20
-2.30410509635730
30
0.000000000000000
11
-81.9337598704073
21
-2.36726878250108
31
0.000000000000000
  0
LINE
  5
F102F6
330
F102F7
100
AcDbEntity
8
Geo
100
AcDbLine
10
-81.9337598704073
20
-2.36726878250108
30
0.000000000000000
11
-81.8337598704073
21
-2.42030746555258
31
0.000000000000000
  0
LINE
  5
F102F8
330
F102F9
100
AcDbEntity
8
Geo
100
AcDbLine
10
-81.8337598704073
20
-2.42030746555258
30
0.000000000000000
11
-81.7337598704073
21
-2.46314257938531
31
0.000000000000000
  0
LINE
  5
F102FA
330
F102FB
100
AcDbEntity
8
Geo
100
AcDbLine
10
-81.7337598704073
20
-2.46314257938531
30
0.000000000000000
11
-81.6337598704073
21
-2.49571067240547
31
0.000000000000000
  0
LINE
  5
F102FC
330
F102FD
100
AcDbEntity
8
Geo
100
AcDbLine
10
-81.6337598704073
20
-2.49571067240547
30
0.000000000000000
11
-81.5337598704073
21
-2.51796350154274
31
0.000000000000000
  0
LINE
  5
F102FE
330
F102FF
100
AcDbEntity
8
Geo
100
AcDbLine
10
-81.5337598704073
20
-2.51796350154274
30
0.000000000000000
11
-81.4337598704073
21
-2.52986810371266
31
0.000000000000000
  0
LINE
  5
F10300
330
F10301
100
AcDbEntity
8
Geo
100
AcDbLine
10
-73.2337598704073
20
11.4675759109403
30
0.000000000000000
11
-73.1337598704073
21
11.4651842672199
31
0.000000000000000
  0
LINE
  5
F10302
330
F10303
100
AcDbEntity
8
Geo
100
AcDbLine
10
-73.1337598704073
20
11.4651842672199
30
0.000000000000000
11
-73.0337598704073
21
11.4524276333714
31
0.000000000000000
  0
LINE
  5
F10304
330
F10305
100
AcDbEntity
8
Geo
100
AcDbLine
10
-73.0337598704073
20
11.4524276333714
30
0.000000000000000
11
-72.9337598704073
21
11.4293249057785
31
0.000000000000000
  0
LINE
  5
F10306
330
F10307
100
AcDbEntity
8
Geo
100
AcDbLine
10
-72.9337598704073
20
11.4293249057785
30
0.000000000000000
11
-72.8337598704073
21
11.3959103064790
31
0.000000000000000
  0
LINE
  5
F10308
330
F10309
100
AcDbEntity
8
Geo
100
AcDbLine
10
-72.8337598704073
20
11.3959103064790
30
0.000000000000000
11
-72.7337598704073
21
11.3522333324718
31
0.000000000000000
  0
LINE
  5
F1030A
330
F1030B
100
AcDbEntity
8
Geo
100
AcDbLine
10
-72.7337598704073
20
11.3522333324718
30
0.000000000000000
11
-72.6337598704073
21
11.2983586823971
31
0.000000000000000
  0
LINE
  5
F1030C
330
F1030D
100
AcDbEntity
8
Geo
100
AcDbLine
10
-72.6337598704073
20
11.2983586823971
30
0.000000000000000
11
-72.5337598704073
21
11.2260039473124
31
0.000000000000000
  0
LINE
  5
F1030E
330
F1030F
100
AcDbEntity
8
Geo
100
AcDbLine
10
-72.5337598704073
20
11.2260039473124
30
0.000000000000000
11
-72.4337598704073
21
11.1428557949412
31
0.000000000000000
  0
LINE
  5
F10310
330
F10311
100
AcDbEntity
8
Geo
100
AcDbLine
10
-72.4337598704073
20
11.1428557949412
30
0.000000000000000
11
-72.3337598704073
21
11.0497751261652
31
0.000000000000000
  0
LINE
  5
F10312
330
F10313
100
AcDbEntity
8
Geo
100
AcDbLine
10
-72.3337598704073
20
11.0497751261652
30
0.000000000000000
11
-72.2337598704073
21
10.9476108471593
31
0.000000000000000
  0
LINE
  5
F10314
330
F10315
100
AcDbEntity
8
Geo
100
AcDbLine
10
-72.2337598704073
20
10.9476108471593
30
0.000000000000000
11
-72.1337598704073
21
10.8371966228355
31
0.000000000000000
  0
LINE
  5
F10316
330
F10317
100
AcDbEntity
8
Geo
100
AcDbLine
10
-72.1337598704073
20
10.8371966228355
30
0.000000000000000
11
-72.0337598704073
21
10.7193480109966
31
0.000000000000000
  0
LINE
  5
F10318
330
F10319
100
AcDbEntity
8
Geo
100
AcDbLine
10
-72.0337598704073
20
10.7193480109966
30
0.000000000000000
11
-71.9337598704073
21
10.5948599617350
31
0.000000000000000
  0
LINE
  5
F1031A
330
F1031B
100
AcDbEntity
8
Geo
100
AcDbLine
10
-71.9337598704073
20
10.5948599617350
30
0.000000000000000
11
-71.8337598704073
21
10.4645046652892
31
0.000000000000000
  0
LINE
  5
F1031C
330
F1031D
100
AcDbEntity
8
Geo
100
AcDbLine
10
-71.8337598704073
20
10.4645046652892
30
0.000000000000000
11
-71.7337598704073
21
10.3290297305344
31
0.000000000000000
  0
LINE
  5
F1031E
330
F1031F
100
AcDbEntity
8
Geo
100
AcDbLine
10
-71.7337598704073
20
10.3290297305344
30
0.000000000000000
11
-71.6337598704073
21
10.1891566755149
31
0.000000000000000
  0
LINE
  5
F10320
330
F10321
100
AcDbEntity
8
Geo
100
AcDbLine
10
-71.6337598704073
20
10.1891566755149
30
0.000000000000000
11
-71.5337598704073
21
10.0455797108998
31
0.000000000000000
  0
LINE
  5
F10322
330
F10323
100
AcDbEntity
8
Geo
100
AcDbLine
10
-71.5337598704073
20
10.0455797108998
30
0.000000000000000
11
-71.4337598704073
21
9.89896479693328
31
0.000000000000000
  0
LINE
  5
F10324
330
F10325
100
AcDbEntity
8
Geo
100
AcDbLine
10
-71.4337598704073
20
9.89896479693328
30
0.000000000000000
11
-71.3337598704073
21
9.74994895433923
31
0.000000000000000
  0
LINE
  5
F10326
330
F10327
100
AcDbEntity
8
Geo
100
AcDbLine
10
-71.3337598704073
20
9.74994895433923
30
0.000000000000000
11
-71.2337598704073
21
9.59913980970308
31
0.000000000000000
  0
LINE
  5
F10328
330
F10329
100
AcDbEntity
8
Geo
100
AcDbLine
10
-71.2337598704073
20
9.59913980970308
30
0.000000000000000
11
-71.1337598704073
21
9.44711535606769
31
0.000000000000000
  0
LINE
  5
F1032A
330
F1032B
100
AcDbEntity
8
Geo
100
AcDbLine
10
-71.1337598704073
20
9.44711535606769
30
0.000000000000000
11
-71.0337598704073
21
9.29442390983044
31
0.000000000000000
  0
LINE
  5
F1032C
330
F1032D
100
AcDbEntity
8
Geo
100
AcDbLine
10
-71.0337598704073
20
9.29442390983044
30
0.000000000000000
11
-70.9337598704073
21
9.14158424549151
31
0.000000000000000
  0
LINE
  5
F1032E
330
F1032F
100
AcDbEntity
8
Geo
100
AcDbLine
10
-70.9337598704073
20
9.14158424549151
30
0.000000000000000
11
-70.8337598704073
21
8.98908589036320
31
0.000000000000000
  0
LINE
  5
F10330
330
F10331
100
AcDbEntity
8
Geo
100
AcDbLine
10
-70.8337598704073
20
8.98908589036320
30
0.000000000000000
11
-70.7337598704073
21
8.83738956199029
31
0.000000000000000
  0
LINE
  5
F10332
330
F10333
100
AcDbEntity
8
Geo
100
AcDbLine
10
-70.7337598704073
20
8.83738956199029
30
0.000000000000000
11
-70.6337598704073
21
8.68692773173566
31
0.000000000000000
  0
LINE
  5
F10334
330
F10335
100
AcDbEntity
8
Geo
100
AcDbLine
10
-70.6337598704073
20
8.68692773173566
30
0.000000000000000
11
-70.5337598704073
21
8.53810529873999
31
0.000000000000000
  0
LINE
  5
F10336
330
F10337
100
AcDbEntity
8
Geo
100
AcDbLine
10
-70.5337598704073
20
8.53810529873999
30
0.000000000000000
11
-70.4337598704073
21
8.39130035925695
31
0.000000000000000
  0
LINE
  5
F10338
330
F10339
100
AcDbEntity
8
Geo
100
AcDbLine
10
-70.4337598704073
20
8.39130035925695
30
0.000000000000000
11
-70.3337598704073
21
8.24686505718226
31
0.000000000000000
  0
LINE
  5
F1033A
330
F1033B
100
AcDbEntity
8
Geo
100
AcDbLine
10
-70.3337598704073
20
8.24686505718226
30
0.000000000000000
11
-70.2337598704073
21
8.10512650242862
31
0.000000000000000
  0
LINE
  5
F1033C
330
F1033D
100
AcDbEntity
8
Geo
100
AcDbLine
10
-70.2337598704073
20
8.10512650242862
30
0.000000000000000
11
-70.1337598704073
21
7.96638774463610
31
0.000000000000000
  0
LINE
  5
F1033E
330
F1033F
100
AcDbEntity
8
Geo
100
AcDbLine
10
-70.1337598704073
20
7.96638774463610
30
0.000000000000000
11
-70.0337598704073
21
7.83092879054387
31
0.000000000000000
  0
LINE
  5
F10340
330
F10341
100
AcDbEntity
8
Geo
100
AcDbLine
10
-70.0337598704073
20
7.83092879054387
30
0.000000000000000
11
-69.9337598704073
21
7.69900765417439
31
0.000000000000000
  0
LINE
  5
F10342
330
F10343
100
AcDbEntity
8
Geo
100
AcDbLine
10
-69.9337598704073
20
7.69900765417439
30
0.000000000000000
11
-69.8337598704073
21
7.57086142979043
31
0.000000000000000
  0
LINE
  5
F10344
330
F10345
100
AcDbEntity
8
Geo
100
AcDbLine
10
-69.8337598704073
20
7.57086142979043
30
0.000000000000000
11
-69.7337598704073
21
7.44670737837320
31
0.000000000000000
  0
LINE
  5
F10346
330
F10347
100
AcDbEntity
8
Geo
100
AcDbLine
10
-69.7337598704073
20
7.44670737837320
30
0.000000000000000
11
-69.6337598704073
21
7.32674401913046
31
0.000000000000000
  0
LINE
  5
F10348
330
F10349
100
AcDbEntity
8
Geo
100
AcDbLine
10
-69.6337598704073
20
7.32674401913046
30
0.000000000000000
11
-69.5337598704073
21
7.21115221827546
31
0.000000000000000
  0
LINE
  5
F1034A
330
F1034B
100
AcDbEntity
8
Geo
100
AcDbLine
10
-69.5337598704073
20
7.21115221827546
30
0.000000000000000
11
-69.4337598704073
21
7.10009626801531
31
0.000000000000000
  0
LINE
  5
F1034C
330
F1034D
100
AcDbEntity
8
Geo
100
AcDbLine
10
-69.4337598704073
20
7.10009626801531
30
0.000000000000000
11
-69.3337598704073
21
6.99372494935061
31
0.000000000000000
  0
LINE
  5
F1034E
330
F1034F
100
AcDbEntity
8
Geo
100
AcDbLine
10
-69.3337598704073
20
6.99372494935061
30
0.000000000000000
11
-69.2337598704073
21
6.89217257291444
31
0.000000000000000
  0
LINE
  5
F10350
330
F10351
100
AcDbEntity
8
Geo
100
AcDbLine
10
-69.2337598704073
20
6.89217257291444
30
0.000000000000000
11
-69.1337598704073
21
6.79555999266657
31
0.000000000000000
  0
LINE
  5
F10352
330
F10353
100
AcDbEntity
8
Geo
100
AcDbLine
10
-69.1337598704073
20
6.79555999266657
30
0.000000000000000
11
-69.0337598704073
21
6.70399558780845
31
0.000000000000000
  0
LINE
  5
F10354
330
F10355
100
AcDbEntity
8
Geo
100
AcDbLine
10
-69.0337598704073
20
6.70399558780845
30
0.000000000000000
11
-68.9337598704073
21
6.61757620879505
31
0.000000000000000
  0
LINE
  5
F10356
330
F10357
100
AcDbEntity
8
Geo
100
AcDbLine
10
-68.9337598704073
20
6.61757620879505
30
0.000000000000000
11
-68.8337598704073
21
6.53638808379195
31
0.000000000000000
  0
LINE
  5
F10358
330
F10359
100
AcDbEntity
8
Geo
100
AcDbLine
10
-68.8337598704073
20
6.53638808379195
30
0.000000000000000
11
-68.7337598704073
21
6.46050768236002
31
0.000000000000000
  0
LINE
  5
F1035A
330
F1035B
100
AcDbEntity
8
Geo
100
AcDbLine
10
-68.7337598704073
20
6.46050768236002
30
0.000000000000000
11
-68.6337598704073
21
6.39000253354802
31
0.000000000000000
  0
LINE
  5
F1035C
330
F1035D
100
AcDbEntity
8
Geo
100
AcDbLine
10
-68.6337598704073
20
6.39000253354802
30
0.000000000000000
11
-68.5337598704073
21
6.32493199593439
31
0.000000000000000
  0
LINE
  5
F1035E
330
F1035F
100
AcDbEntity
8
Geo
100
AcDbLine
10
-68.5337598704073
20
6.32493199593439
30
0.000000000000000
11
-68.4337598704073
21
6.26534797748762
31
0.000000000000000
  0
LINE
  5
F10360
330
F10361
100
AcDbEntity
8
Geo
100
AcDbLine
10
-68.4337598704073
20
6.26534797748762
30
0.000000000000000
11
-68.3337598704073
21
6.21129560340907
31
0.000000000000000
  0
LINE
  5
F10362
330
F10363
100
AcDbEntity
8
Geo
100
AcDbLine
10
-68.3337598704073
20
6.21129560340907
30
0.000000000000000
11
-68.2337598704073
21
6.16281383038662
31
0.000000000000000
  0
LINE
  5
F10364
330
F10365
100
AcDbEntity
8
Geo
100
AcDbLine
10
-68.2337598704073
20
6.16281383038662
30
0.000000000000000
11
-68.1337598704073
21
6.11993600592301
31
0.000000000000000
  0
LINE
  5
F10366
330
F10367
100
AcDbEntity
8
Geo
100
AcDbLine
10
-68.1337598704073
20
6.11993600592301
30
0.000000000000000
11
-68.0337598704073
21
6.08269037161194
31
0.000000000000000
  0
LINE
  5
F10368
330
F10369
100
AcDbEntity
8
Geo
100
AcDbLine
10
-68.0337598704073
20
6.08269037161194
30
0.000000000000000
11
-67.9337598704073
21
6.05110050941976
31
0.000000000000000
  0
LINE
  5
F1036A
330
F1036B
100
AcDbEntity
8
Geo
100
AcDbLine
10
-67.9337598704073
20
6.05110050941976
30
0.000000000000000
11
-67.8337598704073
21
6.02518573019346
31
0.000000000000000
  0
LINE
  5
F1036C
330
F1036D
100
AcDbEntity
8
Geo
100
AcDbLine
10
-67.8337598704073
20
6.02518573019346
30
0.000000000000000
11
-67.7337598704073
21
6.00496140375938
31
0.000000000000000
  0
LINE
  5
F1036E
330
F1036F
100
AcDbEntity
8
Geo
100
AcDbLine
10
-67.7337598704073
20
6.00496140375938
30
0.000000000000000
11
-67.6337598704073
21
5.99043923010326
31
0.000000000000000
  0
LINE
  5
F10370
330
F10371
100
AcDbEntity
8
Geo
100
AcDbLine
10
-76.5337598704073
20
11.4659527769688
30
0.000000000000000
11
-76.4337598704073
21
11.4672072131222
31
0.000000000000000
  0
LINE
  5
F10372
330
F10373
100
AcDbEntity
8
Geo
100
AcDbLine
10
-76.4337598704073
20
11.4672072131222
30
0.000000000000000
11
-76.3337598704073
21
11.4580936625605
31
0.000000000000000
  0
LINE
  5
F10374
330
F10375
100
AcDbEntity
8
Geo
100
AcDbLine
10
-76.3337598704073
20
11.4580936625605
30
0.000000000000000
11
-76.2337598704073
21
11.4386256251734
31
0.000000000000000
  0
LINE
  5
F10376
330
F10377
100
AcDbEntity
8
Geo
100
AcDbLine
10
-76.2337598704073
20
11.4386256251734
30
0.000000000000000
11
-76.1337598704073
21
11.4088319389372
31
0.000000000000000
  0
LINE
  5
F10378
330
F10379
100
AcDbEntity
8
Geo
100
AcDbLine
10
-76.1337598704073
20
11.4088319389372
30
0.000000000000000
11
-76.0337598704073
21
11.3687567371973
31
0.000000000000000
  0
LINE
  5
F1037A
330
F1037B
100
AcDbEntity
8
Geo
100
AcDbLine
10
-76.0337598704073
20
11.3687567371973
30
0.000000000000000
11
-75.9337598704073
21
11.3184593832937
31
0.000000000000000
  0
LINE
  5
F1037C
330
F1037D
100
AcDbEntity
8
Geo
100
AcDbLine
10
-75.9337598704073
20
11.3184593832937
30
0.000000000000000
11
-75.8337598704073
21
11.2580143826258
31
0.000000000000000
  0
LINE
  5
F1037E
330
F1037F
100
AcDbEntity
8
Geo
100
AcDbLine
10
-75.8337598704073
20
11.2580143826258
30
0.000000000000000
11
-75.7337598704073
21
11.1875112722880
31
0.000000000000000
  0
LINE
  5
F10380
330
F10381
100
AcDbEntity
8
Geo
100
AcDbLine
10
-75.7337598704073
20
11.1875112722880
30
0.000000000000000
11
-75.6337598704073
21
11.1070544884383
31
0.000000000000000
  0
LINE
  5
F10382
330
F10383
100
AcDbEntity
8
Geo
100
AcDbLine
10
-75.6337598704073
20
11.1070544884383
30
0.000000000000000
11
-75.5337598704073
21
11.0167632115974
31
0.000000000000000
  0
LINE
  5
F10384
330
F10385
100
AcDbEntity
8
Geo
100
AcDbLine
10
-75.5337598704073
20
11.0167632115974
30
0.000000000000000
11
-75.4337598704073
21
10.9167711901065
31
0.000000000000000
  0
LINE
  5
F10386
330
F10387
100
AcDbEntity
8
Geo
100
AcDbLine
10
-75.4337598704073
20
10.9167711901065
30
0.000000000000000
11
-75.3337598704073
21
10.8072265420061
31
0.000000000000000
  0
LINE
  5
F10388
330
F10389
100
AcDbEntity
8
Geo
100
AcDbLine
10
-75.3337598704073
20
10.8072265420061
30
0.000000000000000
11
-75.2337598704073
21
10.6882915356292
31
0.000000000000000
  0
LINE
  5
F1038A
330
F1038B
100
AcDbEntity
8
Geo
100
AcDbLine
10
-75.2337598704073
20
10.6882915356292
30
0.000000000000000
11
-75.1337598704073
21
10.5601423492332
31
0.000000000000000
  0
LINE
  5
F1038C
330
F1038D
100
AcDbEntity
8
Geo
100
AcDbLine
10
-75.1337598704073
20
10.5601423492332
30
0.000000000000000
11
-75.0337598704073
21
10.4229688100275
31
0.000000000000000
  0
LINE
  5
F1038E
330
F1038F
100
AcDbEntity
8
Geo
100
AcDbLine
10
-75.0337598704073
20
10.4229688100275
30
0.000000000000000
11
-74.9337598704073
21
10.2769741129825
31
0.000000000000000
  0
LINE
  5
F10390
330
F10391
100
AcDbEntity
8
Geo
100
AcDbLine
10
-74.9337598704073
20
10.2769741129825
30
0.000000000000000
11
-74.8337598704073
21
10.1223745198373
31
0.000000000000000
  0
LINE
  5
F10392
330
F10393
100
AcDbEntity
8
Geo
100
AcDbLine
10
-74.8337598704073
20
10.1223745198373
30
0.000000000000000
11
-74.7337598704073
21
9.95939903875143
31
0.000000000000000
  0
LINE
  5
F10394
330
F10395
100
AcDbEntity
8
Geo
100
AcDbLine
10
-74.7337598704073
20
9.95939903875143
30
0.000000000000000
11
-74.6337598704073
21
9.78828908507554
31
0.000000000000000
  0
LINE
  5
F10396
330
F10397
100
AcDbEntity
8
Geo
100
AcDbLine
10
-74.6337598704073
20
9.78828908507554
30
0.000000000000000
11
-74.5337598704073
21
9.60929812374298
31
0.000000000000000
  0
LINE
  5
F10398
330
F10399
100
AcDbEntity
8
Geo
100
AcDbLine
10
-74.5337598704073
20
9.60929812374298
30
0.000000000000000
11
-74.4337598704073
21
9.42269129381271
31
0.000000000000000
  0
LINE
  5
F1039A
330
F1039B
100
AcDbEntity
8
Geo
100
AcDbLine
10
-74.4337598704073
20
9.42269129381271
30
0.000000000000000
11
-74.3337598704073
21
9.22874501571906
31
0.000000000000000
  0
LINE
  5
F1039C
330
F1039D
100
AcDbEntity
8
Geo
100
AcDbLine
10
-74.3337598704073
20
9.22874501571906
30
0.000000000000000
11
-74.2337598704073
21
9.02774658181061
31
0.000000000000000
  0
LINE
  5
F1039E
330
F1039F
100
AcDbEntity
8
Geo
100
AcDbLine
10
-74.2337598704073
20
9.02774658181061
30
0.000000000000000
11
-74.1337598704073
21
8.81999373078442
31
0.000000000000000
  0
LINE
  5
F103A0
330
F103A1
100
AcDbEntity
8
Geo
100
AcDbLine
10
-74.1337598704073
20
8.81999373078442
30
0.000000000000000
11
-74.0337598704073
21
8.60579420664611
31
0.000000000000000
  0
LINE
  5
F103A2
330
F103A3
100
AcDbEntity
8
Geo
100
AcDbLine
10
-74.0337598704073
20
8.60579420664611
30
0.000000000000000
11
-73.9337598704073
21
8.38546530284909
31
0.000000000000000
  0
LINE
  5
F103A4
330
F103A5
100
AcDbEntity
8
Geo
100
AcDbLine
10
-73.9337598704073
20
8.38546530284909
30
0.000000000000000
11
-73.8337598704073
21
8.15933339228824
31
0.000000000000000
  0
LINE
  5
F103A6
330
F103A7
100
AcDbEntity
8
Geo
100
AcDbLine
10
-73.8337598704073
20
8.15933339228824
30
0.000000000000000
11
-73.7337598704073
21
7.92773344384420
31
0.000000000000000
  0
LINE
  5
F103A8
330
F103A9
100
AcDbEntity
8
Geo
100
AcDbLine
10
-73.7337598704073
20
7.92773344384420
30
0.000000000000000
11
-73.6337598704073
21
7.69100852619438
31
0.000000000000000
  0
LINE
  5
F103AA
330
F103AB
100
AcDbEntity
8
Geo
100
AcDbLine
10
-73.6337598704073
20
7.69100852619438
30
0.000000000000000
11
-73.5337598704073
21
7.44950929962589
31
0.000000000000000
  0
LINE
  5
F103AC
330
F103AD
100
AcDbEntity
8
Geo
100
AcDbLine
10
-73.5337598704073
20
7.44950929962589
30
0.000000000000000
11
-73.4337598704073
21
7.20359349660293
31
0.000000000000000
  0
LINE
  5
F103AE
330
F103AF
100
AcDbEntity
8
Geo
100
AcDbLine
10
-73.4337598704073
20
7.20359349660293
30
0.000000000000000
11
-73.3337598704073
21
6.95362539185813
31
0.000000000000000
  0
LINE
  5
F103B0
330
F103B1
100
AcDbEntity
8
Geo
100
AcDbLine
10
-73.3337598704073
20
6.95362539185813
30
0.000000000000000
11
-73.2337598704073
21
6.69997526279300
31
0.000000000000000
  0
LINE
  5
F103B2
330
F103B3
100
AcDbEntity
8
Geo
100
AcDbLine
10
-73.2337598704073
20
6.69997526279300
30
0.000000000000000
11
-73.1337598704073
21
6.44301884098648
31
0.000000000000000
  0
LINE
  5
F103B4
330
F103B5
100
AcDbEntity
8
Geo
100
AcDbLine
10
-73.1337598704073
20
6.44301884098648
30
0.000000000000000
11
-73.0337598704073
21
6.18313675562428
31
0.000000000000000
  0
LINE
  5
F103B6
330
F103B7
100
AcDbEntity
8
Geo
100
AcDbLine
10
-73.0337598704073
20
6.18313675562428
30
0.000000000000000
11
-72.9337598704073
21
5.92071396967342
31
0.000000000000000
  0
LINE
  5
F103B8
330
F103B9
100
AcDbEntity
8
Geo
100
AcDbLine
10
-72.9337598704073
20
5.92071396967342
30
0.000000000000000
11
-72.8337598704073
21
5.65613920963713
31
0.000000000000000
  0
LINE
  5
F103BA
330
F103BB
100
AcDbEntity
8
Geo
100
AcDbLine
10
-72.8337598704073
20
5.65613920963713
30
0.000000000000000
11
-72.7337598704073
21
5.38980438973480
31
0.000000000000000
  0
LINE
  5
F103BC
330
F103BD
100
AcDbEntity
8
Geo
100
AcDbLine
10
-72.7337598704073
20
5.38980438973480
30
0.000000000000000
11
-72.6337598704073
21
5.12210403135998
31
0.000000000000000
  0
LINE
  5
F103BE
330
F103BF
100
AcDbEntity
8
Geo
100
AcDbLine
10
-72.6337598704073
20
5.12210403135998
30
0.000000000000000
11
-72.5337598704073
21
5.15548195389042
31
0.000000000000000
  0
LINE
  5
F103C0
330
F103C1
100
AcDbEntity
8
Geo
100
AcDbLine
10
-72.5337598704073
20
5.15548195389042
30
0.000000000000000
11
-72.4337598704073
21
5.18819696885486
31
0.000000000000000
  0
LINE
  5
F103C2
330
F103C3
100
AcDbEntity
8
Geo
100
AcDbLine
10
-72.4337598704073
20
5.18819696885486
30
0.000000000000000
11
-72.3337598704073
21
5.22024927586307
31
0.000000000000000
  0
LINE
  5
F103C4
330
F103C5
100
AcDbEntity
8
Geo
100
AcDbLine
10
-72.3337598704073
20
5.22024927586307
30
0.000000000000000
11
-72.2337598704073
21
5.25163914020057
31
0.000000000000000
  0
LINE
  5
F103C6
330
F103C7
100
AcDbEntity
8
Geo
100
AcDbLine
10
-72.2337598704073
20
5.25163914020057
30
0.000000000000000
11
-72.1337598704073
21
5.28236688862329
31
0.000000000000000
  0
LINE
  5
F103C8
330
F103C9
100
AcDbEntity
8
Geo
100
AcDbLine
10
-72.1337598704073
20
5.28236688862329
30
0.000000000000000
11
-72.0337598704073
21
5.31243290523785
31
0.000000000000000
  0
LINE
  5
F103CA
330
F103CB
100
AcDbEntity
8
Geo
100
AcDbLine
10
-72.0337598704073
20
5.31243290523785
30
0.000000000000000
11
-71.9337598704073
21
5.34183762746788
31
0.000000000000000
  0
LINE
  5
F103CC
330
F103CD
100
AcDbEntity
8
Geo
100
AcDbLine
10
-71.9337598704073
20
5.34183762746788
30
0.000000000000000
11
-71.8337598704073
21
5.37058154210652
31
0.000000000000000
  0
LINE
  5
F103CE
330
F103CF
100
AcDbEntity
8
Geo
100
AcDbLine
10
-71.8337598704073
20
5.37058154210652
30
0.000000000000000
11
-71.7337598704073
21
5.39866518145535
31
0.000000000000000
  0
LINE
  5
F103D0
330
F103D1
100
AcDbEntity
8
Geo
100
AcDbLine
10
-71.7337598704073
20
5.39866518145535
30
0.000000000000000
11
-71.6337598704073
21
5.42608911954995
31
0.000000000000000
  0
LINE
  5
F103D2
330
F103D3
100
AcDbEntity
8
Geo
100
AcDbLine
10
-71.6337598704073
20
5.42608911954995
30
0.000000000000000
11
-71.5337598704073
21
5.45285396847214
31
0.000000000000000
  0
LINE
  5
F103D4
330
F103D5
100
AcDbEntity
8
Geo
100
AcDbLine
10
-71.5337598704073
20
5.45285396847214
30
0.000000000000000
11
-71.4337598704073
21
5.47896037474916
31
0.000000000000000
  0
LINE
  5
F103D6
330
F103D7
100
AcDbEntity
8
Geo
100
AcDbLine
10
-71.4337598704073
20
5.47896037474916
30
0.000000000000000
11
-71.3337598704073
21
5.50440901583973
31
0.000000000000000
  0
LINE
  5
F103D8
330
F103D9
100
AcDbEntity
8
Geo
100
AcDbLine
10
-71.3337598704073
20
5.50440901583973
30
0.000000000000000
11
-71.2337598704073
21
5.52920059670701
31
0.000000000000000
  0
LINE
  5
F103DA
330
F103DB
100
AcDbEntity
8
Geo
100
AcDbLine
10
-71.2337598704073
20
5.52920059670701
30
0.000000000000000
11
-71.1337598704073
21
5.55333584647873
31
0.000000000000000
  0
LINE
  5
F103DC
330
F103DD
100
AcDbEntity
8
Geo
100
AcDbLine
10
-71.1337598704073
20
5.55333584647873
30
0.000000000000000
11
-71.0337598704073
21
5.57681551519411
31
0.000000000000000
  0
LINE
  5
F103DE
330
F103DF
100
AcDbEntity
8
Geo
100
AcDbLine
10
-71.0337598704073
20
5.57681551519411
30
0.000000000000000
11
-70.9337598704073
21
5.59964037063793
31
0.000000000000000
  0
LINE
  5
F103E0
330
F103E1
100
AcDbEntity
8
Geo
100
AcDbLine
10
-70.9337598704073
20
5.59964037063793
30
0.000000000000000
11
-70.8337598704073
21
5.62181119526134
31
0.000000000000000
  0
LINE
  5
F103E2
330
F103E3
100
AcDbEntity
8
Geo
100
AcDbLine
10
-70.8337598704073
20
5.62181119526134
30
0.000000000000000
11
-70.7337598704073
21
5.64332878318968
31
0.000000000000000
  0
LINE
  5
F103E4
330
F103E5
100
AcDbEntity
8
Geo
100
AcDbLine
10
-70.7337598704073
20
5.64332878318968
30
0.000000000000000
11
-70.6337598704073
21
5.66419393731696
31
0.000000000000000
  0
LINE
  5
F103E6
330
F103E7
100
AcDbEntity
8
Geo
100
AcDbLine
10
-70.6337598704073
20
5.66419393731696
30
0.000000000000000
11
-70.5337598704073
21
5.68440746648704
31
0.000000000000000
  0
LINE
  5
F103E8
330
F103E9
100
AcDbEntity
8
Geo
100
AcDbLine
10
-70.5337598704073
20
5.68440746648704
30
0.000000000000000
11
-70.4337598704073
21
5.70397018276136
31
0.000000000000000
  0
LINE
  5
F103EA
330
F103EB
100
AcDbEntity
8
Geo
100
AcDbLine
10
-70.4337598704073
20
5.70397018276136
30
0.000000000000000
11
-70.3337598704073
21
5.72288289877307
31
0.000000000000000
  0
LINE
  5
F103EC
330
F103ED
100
AcDbEntity
8
Geo
100
AcDbLine
10
-70.3337598704073
20
5.72288289877307
30
0.000000000000000
11
-70.2337598704073
21
5.74114642516750
31
0.000000000000000
  0
LINE
  5
F103EE
330
F103EF
100
AcDbEntity
8
Geo
100
AcDbLine
10
-70.2337598704073
20
5.74114642516750
30
0.000000000000000
11
-70.1337598704073
21
5.75876156812865
31
0.000000000000000
  0
LINE
  5
F103F0
330
F103F1
100
AcDbEntity
8
Geo
100
AcDbLine
10
-70.1337598704073
20
5.75876156812865
30
0.000000000000000
11
-70.0337598704073
21
5.77572912699181
31
0.000000000000000
  0
LINE
  5
F103F2
330
F103F3
100
AcDbEntity
8
Geo
100
AcDbLine
10
-70.0337598704073
20
5.77572912699181
30
0.000000000000000
11
-69.9337598704073
21
5.79204989194180
31
0.000000000000000
  0
LINE
  5
F103F4
330
F103F5
100
AcDbEntity
8
Geo
100
AcDbLine
10
-69.9337598704073
20
5.79204989194180
30
0.000000000000000
11
-69.8337598704073
21
5.80772464179703
31
0.000000000000000
  0
LINE
  5
F103F6
330
F103F7
100
AcDbEntity
8
Geo
100
AcDbLine
10
-69.8337598704073
20
5.80772464179703
30
0.000000000000000
11
-69.7337598704073
21
5.82275414187889
31
0.000000000000000
  0
LINE
  5
F103F8
330
F103F9
100
AcDbEntity
8
Geo
100
AcDbLine
10
-69.7337598704073
20
5.82275414187889
30
0.000000000000000
11
-69.6337598704073
21
5.83713914196648
31
0.000000000000000
  0
LINE
  5
F103FA
330
F103FB
100
AcDbEntity
8
Geo
100
AcDbLine
10
-69.6337598704073
20
5.83713914196648
30
0.000000000000000
11
-69.5337598704073
21
5.85088037433643
31
0.000000000000000
  0
LINE
  5
F103FC
330
F103FD
100
AcDbEntity
8
Geo
100
AcDbLine
10
-69.5337598704073
20
5.85088037433643
30
0.000000000000000
11
-69.4337598704073
21
5.86397855188762
31
0.000000000000000
  0
LINE
  5
F103FE
330
F103FF
100
AcDbEntity
8
Geo
100
AcDbLine
10
-69.4337598704073
20
5.86397855188762
30
0.000000000000000
11
-69.3337598704073
21
5.87643436635064
31
0.000000000000000
  0
LINE
  5
F10400
330
F10401
100
AcDbEntity
8
Geo
100
AcDbLine
10
-69.3337598704073
20
5.87643436635064
30
0.000000000000000
11
-69.2337598704073
21
5.88824848658186
31
0.000000000000000
  0
LINE
  5
F10402
330
F10403
100
AcDbEntity
8
Geo
100
AcDbLine
10
-69.2337598704073
20
5.88824848658186
30
0.000000000000000
11
-69.1337598704073
21
5.89942155694173
31
0.000000000000000
  0
LINE
  5
F10404
330
F10405
100
AcDbEntity
8
Geo
100
AcDbLine
10
-69.1337598704073
20
5.89942155694173
30
0.000000000000000
11
-69.0337598704073
21
5.90995419575747
31
0.000000000000000
  0
LINE
  5
F10406
330
F10407
100
AcDbEntity
8
Geo
100
AcDbLine
10
-69.0337598704073
20
5.90995419575747
30
0.000000000000000
11
-68.9337598704073
21
5.91984699386957
31
0.000000000000000
  0
LINE
  5
F10408
330
F10409
100
AcDbEntity
8
Geo
100
AcDbLine
10
-68.9337598704073
20
5.91984699386957
30
0.000000000000000
11
-68.8337598704073
21
5.92910051326232
31
0.000000000000000
  0
LINE
  5
F1040A
330
F1040B
100
AcDbEntity
8
Geo
100
AcDbLine
10
-68.8337598704073
20
5.92910051326232
30
0.000000000000000
11
-68.7337598704073
21
5.93771528577795
31
0.000000000000000
  0
LINE
  5
F1040C
330
F1040D
100
AcDbEntity
8
Geo
100
AcDbLine
10
-68.7337598704073
20
5.93771528577795
30
0.000000000000000
11
-68.6337598704073
21
5.94569181191427
31
0.000000000000000
  0
LINE
  5
F1040E
330
F1040F
100
AcDbEntity
8
Geo
100
AcDbLine
10
-68.6337598704073
20
5.94569181191427
30
0.000000000000000
11
-68.5337598704073
21
5.95303055970576
31
0.000000000000000
  0
LINE
  5
F10410
330
F10411
100
AcDbEntity
8
Geo
100
AcDbLine
10
-68.5337598704073
20
5.95303055970576
30
0.000000000000000
11
-68.4337598704073
21
5.95973196368786
31
0.000000000000000
  0
LINE
  5
F10412
330
F10413
100
AcDbEntity
8
Geo
100
AcDbLine
10
-68.4337598704073
20
5.95973196368786
30
0.000000000000000
11
-68.3337598704073
21
5.96579642394438
31
0.000000000000000
  0
LINE
  5
F10414
330
F10415
100
AcDbEntity
8
Geo
100
AcDbLine
10
-68.3337598704073
20
5.96579642394438
30
0.000000000000000
11
-68.2337598704073
21
5.97122430523787
31
0.000000000000000
  0
LINE
  5
F10416
330
F10417
100
AcDbEntity
8
Geo
100
AcDbLine
10
-68.2337598704073
20
5.97122430523787
30
0.000000000000000
11
-68.1337598704073
21
5.97601593622287
31
0.000000000000000
  0
LINE
  5
F10418
330
F10419
100
AcDbEntity
8
Geo
100
AcDbLine
10
-68.1337598704073
20
5.97601593622287
30
0.000000000000000
11
-68.0337598704073
21
5.98017160874189
31
0.000000000000000
  0
LINE
  5
F1041A
330
F1041B
100
AcDbEntity
8
Geo
100
AcDbLine
10
-68.0337598704073
20
5.98017160874189
30
0.000000000000000
11
-67.9337598704073
21
5.98369157720406
31
0.000000000000000
  0
LINE
  5
F1041C
330
F1041D
100
AcDbEntity
8
Geo
100
AcDbLine
10
-67.9337598704073
20
5.98369157720406
30
0.000000000000000
11
-67.8337598704073
21
5.98657605804637
31
0.000000000000000
  0
LINE
  5
F1041E
330
F1041F
100
AcDbEntity
8
Geo
100
AcDbLine
10
-67.8337598704073
20
5.98657605804637
30
0.000000000000000
11
-67.7337598704073
21
5.98882522927736
31
0.000000000000000
  0
LINE
  5
F10420
330
F10421
100
AcDbEntity
8
Geo
100
AcDbLine
10
-67.7337598704073
20
5.98882522927736
30
0.000000000000000
11
-67.6337598704073
21
5.99043923010326
31
0.000000000000000
  0
LINE
  5
F10422
330
F10423
100
AcDbEntity
8
Geo
100
AcDbLine
10
-77.3337598704073
20
11.4668603244089
30
0.000000000000000
11
-77.2337598704073
21
11.4664338616692
31
0.000000000000000
  0
LINE
  5
F10424
330
F10425
100
AcDbEntity
8
Geo
100
AcDbLine
10
-77.2337598704073
20
11.4664338616692
30
0.000000000000000
11
-77.1337598704073
21
11.4556405577787
31
0.000000000000000
  0
LINE
  5
F10426
330
F10427
100
AcDbEntity
8
Geo
100
AcDbLine
10
-77.1337598704073
20
11.4556405577787
30
0.000000000000000
11
-77.0337598704073
21
11.4344964008435
31
0.000000000000000
  0
LINE
  5
F10428
330
F10429
100
AcDbEntity
8
Geo
100
AcDbLine
10
-77.0337598704073
20
11.4344964008435
30
0.000000000000000
11
-76.9337598704073
21
11.4030327116734
31
0.000000000000000
  0
LINE
  5
F1042A
330
F1042B
100
AcDbEntity
8
Geo
100
AcDbLine
10
-76.9337598704073
20
11.4030327116734
30
0.000000000000000
11
-76.8337598704073
21
11.3612960973868
31
0.000000000000000
  0
LINE
  5
F1042C
330
F1042D
100
AcDbEntity
8
Geo
100
AcDbLine
10
-76.8337598704073
20
11.3612960973868
30
0.000000000000000
11
-76.7337598704073
21
11.3093483823716
31
0.000000000000000
  0
LINE
  5
F1042E
330
F1042F
100
AcDbEntity
8
Geo
100
AcDbLine
10
-76.7337598704073
20
11.3093483823716
30
0.000000000000000
11
-76.6337598704073
21
11.2472665167051
31
0.000000000000000
  0
LINE
  5
F10430
330
F10431
100
AcDbEntity
8
Geo
100
AcDbLine
10
-76.6337598704073
20
11.2472665167051
30
0.000000000000000
11
-76.5337598704073
21
11.1751424621673
31
0.000000000000000
  0
LINE
  5
F10432
330
F10433
100
AcDbEntity
8
Geo
100
AcDbLine
10
-76.5337598704073
20
11.1751424621673
30
0.000000000000000
11
-76.4337598704073
21
11.0930830560186
31
0.000000000000000
  0
LINE
  5
F10434
330
F10435
100
AcDbEntity
8
Geo
100
AcDbLine
10
-76.4337598704073
20
11.0930830560186
30
0.000000000000000
11
-76.3337598704073
21
11.0012098527419
31
0.000000000000000
  0
LINE
  5
F10436
330
F10437
100
AcDbEntity
8
Geo
100
AcDbLine
10
-76.3337598704073
20
11.0012098527419
30
0.000000000000000
11
-76.2337598704073
21
10.8996589439837
31
0.000000000000000
  0
LINE
  5
F10438
330
F10439
100
AcDbEntity
8
Geo
100
AcDbLine
10
-76.2337598704073
20
10.8996589439837
30
0.000000000000000
11
-76.1337598704073
21
10.7885807569621
31
0.000000000000000
  0
LINE
  5
F1043A
330
F1043B
100
AcDbEntity
8
Geo
100
AcDbLine
10
-76.1337598704073
20
10.7885807569621
30
0.000000000000000
11
-76.0337598704073
21
10.6681398316391
31
0.000000000000000
  0
LINE
  5
F1043C
330
F1043D
100
AcDbEntity
8
Geo
100
AcDbLine
10
-76.0337598704073
20
10.6681398316391
30
0.000000000000000
11
-75.9337598704073
21
10.5385145769879
31
0.000000000000000
  0
LINE
  5
F1043E
330
F1043F
100
AcDbEntity
8
Geo
100
AcDbLine
10
-75.9337598704073
20
10.5385145769879
30
0.000000000000000
11
-75.8337598704073
21
10.3998970067154
31
0.000000000000000
  0
LINE
  5
F10440
330
F10441
100
AcDbEntity
8
Geo
100
AcDbLine
10
-75.8337598704073
20
10.3998970067154
30
0.000000000000000
11
-75.7337598704073
21
10.2524924548334
31
0.000000000000000
  0
LINE
  5
F10442
330
F10443
100
AcDbEntity
8
Geo
100
AcDbLine
10
-75.7337598704073
20
10.2524924548334
30
0.000000000000000
11
-75.6337598704073
21
10.0965192714969
31
0.000000000000000
  0
LINE
  5
F10444
330
F10445
100
AcDbEntity
8
Geo
100
AcDbLine
10
-75.6337598704073
20
10.0965192714969
30
0.000000000000000
11
-75.5337598704073
21
9.93220849956269
31
0.000000000000000
  0
LINE
  5
F10446
330
F10447
100
AcDbEntity
8
Geo
100
AcDbLine
10
-75.5337598704073
20
9.93220849956269
30
0.000000000000000
11
-75.4337598704073
21
9.75980353234588
31
0.000000000000000
  0
LINE
  5
F10448
330
F10449
100
AcDbEntity
8
Geo
100
AcDbLine
10
-75.4337598704073
20
9.75980353234588
30
0.000000000000000
11
-75.3337598704073
21
9.57955975308156
31
0.000000000000000
  0
LINE
  5
F1044A
330
F1044B
100
AcDbEntity
8
Geo
100
AcDbLine
10
-75.3337598704073
20
9.57955975308156
30
0.000000000000000
11
-75.2337598704073
21
9.39174415662608
31
0.000000000000000
  0
LINE
  5
F1044C
330
F1044D
100
AcDbEntity
8
Geo
100
AcDbLine
10
-75.2337598704073
20
9.39174415662608
30
0.000000000000000
11
-75.1337598704073
21
9.19663495395795
31
0.000000000000000
  0
LINE
  5
F1044E
330
F1044F
100
AcDbEntity
8
Geo
100
AcDbLine
10
-75.1337598704073
20
9.19663495395795
30
0.000000000000000
11
-75.0337598704073
21
8.99452116006429
31
0.000000000000000
  0
LINE
  5
F10450
330
F10451
100
AcDbEntity
8
Geo
100
AcDbLine
10
-75.0337598704073
20
8.99452116006429
30
0.000000000000000
11
-74.9337598704073
21
8.78570216582333
31
0.000000000000000
  0
LINE
  5
F10452
330
F10453
100
AcDbEntity
8
Geo
100
AcDbLine
10
-74.9337598704073
20
8.78570216582333
30
0.000000000000000
11
-74.8337598704073
21
8.57048729451712
31
0.000000000000000
  0
LINE
  5
F10454
330
F10455
100
AcDbEntity
8
Geo
100
AcDbLine
10
-74.8337598704073
20
8.57048729451712
30
0.000000000000000
11
-74.7337598704073
21
8.34919534363141
31
0.000000000000000
  0
LINE
  5
F10456
330
F10457
100
AcDbEntity
8
Geo
100
AcDbLine
10
-74.7337598704073
20
8.34919534363141
30
0.000000000000000
11
-74.6337598704073
21
8.12215411262139
31
0.000000000000000
  0
LINE
  5
F10458
330
F10459
100
AcDbEntity
8
Geo
100
AcDbLine
10
-74.6337598704073
20
8.12215411262139
30
0.000000000000000
11
-74.5337598704073
21
7.88969991734276
31
0.000000000000000
  0
LINE
  5
F1045A
330
F1045B
100
AcDbEntity
8
Geo
100
AcDbLine
10
-74.5337598704073
20
7.88969991734276
30
0.000000000000000
11
-74.4337598704073
21
7.65217709186761
31
0.000000000000000
  0
LINE
  5
F1045C
330
F1045D
100
AcDbEntity
8
Geo
100
AcDbLine
10
-74.4337598704073
20
7.65217709186761
30
0.000000000000000
11
-74.3337598704073
21
7.40993747842277
31
0.000000000000000
  0
LINE
  5
F1045E
330
F1045F
100
AcDbEntity
8
Geo
100
AcDbLine
10
-74.3337598704073
20
7.40993747842277
30
0.000000000000000
11
-74.2337598704073
21
7.16333990620645
31
0.000000000000000
  0
LINE
  5
F10460
330
F10461
100
AcDbEntity
8
Geo
100
AcDbLine
10
-74.2337598704073
20
7.16333990620645
30
0.000000000000000
11
-74.1337598704073
21
6.91274965985507
31
0.000000000000000
  0
LINE
  5
F10462
330
F10463
100
AcDbEntity
8
Geo
100
AcDbLine
10
-74.1337598704073
20
6.91274965985507
30
0.000000000000000
11
-74.0337598704073
21
6.65853793834761
31
0.000000000000000
  0
LINE
  5
F10464
330
F10465
100
AcDbEntity
8
Geo
100
AcDbLine
10
-74.0337598704073
20
6.65853793834761
30
0.000000000000000
11
-73.9337598704073
21
6.40108130514909
31
0.000000000000000
  0
LINE
  5
F10466
330
F10467
100
AcDbEntity
8
Geo
100
AcDbLine
10
-73.9337598704073
20
6.40108130514909
30
0.000000000000000
11
-73.8337598704073
21
6.14076113040765
31
0.000000000000000
  0
LINE
  5
F10468
330
F10469
100
AcDbEntity
8
Geo
100
AcDbLine
10
-73.8337598704073
20
6.14076113040765
30
0.000000000000000
11
-73.7337598704073
21
5.87796302603151
31
0.000000000000000
  0
LINE
  5
F1046A
330
F1046B
100
AcDbEntity
8
Geo
100
AcDbLine
10
-73.7337598704073
20
5.87796302603151
30
0.000000000000000
11
-73.6337598704073
21
5.61307627448254
31
0.000000000000000
  0
LINE
  5
F1046C
330
F1046D
100
AcDbEntity
8
Geo
100
AcDbLine
10
-73.6337598704073
20
5.61307627448254
30
0.000000000000000
11
-73.5337598704073
21
5.34649325213273
31
0.000000000000000
  0
LINE
  5
F1046E
330
F1046F
100
AcDbEntity
8
Geo
100
AcDbLine
10
-73.5337598704073
20
5.34649325213273
30
0.000000000000000
11
-73.4337598704073
21
5.07860884803763
31
0.000000000000000
  0
LINE
  5
F10470
330
F10471
100
AcDbEntity
8
Geo
100
AcDbLine
10
-73.4337598704073
20
5.07860884803763
30
0.000000000000000
11
-73.3337598704073
21
4.80981987898771
31
0.000000000000000
  0
LINE
  5
F10472
330
F10473
100
AcDbEntity
8
Geo
100
AcDbLine
10
-73.3337598704073
20
4.80981987898771
30
0.000000000000000
11
-73.2337598704073
21
4.54052450170427
31
0.000000000000000
  0
LINE
  5
F10474
330
F10475
100
AcDbEntity
8
Geo
100
AcDbLine
10
-73.2337598704073
20
4.54052450170427
30
0.000000000000000
11
-73.1337598704073
21
4.27112162305039
31
0.000000000000000
  0
LINE
  5
F10476
330
F10477
100
AcDbEntity
8
Geo
100
AcDbLine
10
-73.1337598704073
20
4.27112162305039
30
0.000000000000000
11
-73.0337598704073
21
4.00201030913078
31
0.000000000000000
  0
LINE
  5
F10478
330
F10479
100
AcDbEntity
8
Geo
100
AcDbLine
10
-73.0337598704073
20
4.00201030913078
30
0.000000000000000
11
-72.9337598704073
21
3.73358919415573
31
0.000000000000000
  0
LINE
  5
F1047A
330
F1047B
100
AcDbEntity
8
Geo
100
AcDbLine
10
-72.9337598704073
20
3.73358919415573
30
0.000000000000000
11
-72.8337598704073
21
3.46625588994479
31
0.000000000000000
  0
LINE
  5
F1047C
330
F1047D
100
AcDbEntity
8
Geo
100
AcDbLine
10
-72.8337598704073
20
3.46625588994479
30
0.000000000000000
11
-72.7337598704073
21
3.20040639694498
31
0.000000000000000
  0
LINE
  5
F1047E
330
F1047F
100
AcDbEntity
8
Geo
100
AcDbLine
10
-72.7337598704073
20
3.20040639694498
30
0.000000000000000
11
-72.6337598704073
21
2.93643451763577
31
0.000000000000000
  0
LINE
  5
F10480
330
F10481
100
AcDbEntity
8
Geo
100
AcDbLine
10
-72.6337598704073
20
2.93643451763577
30
0.000000000000000
11
-72.5337598704073
21
2.64346987148642
31
0.000000000000000
  0
LINE
  5
F10482
330
F10483
100
AcDbEntity
8
Geo
100
AcDbLine
10
-72.5337598704073
20
2.64346987148642
30
0.000000000000000
11
-72.4337598704073
21
2.35947852333354
31
0.000000000000000
  0
LINE
  5
F10484
330
F10485
100
AcDbEntity
8
Geo
100
AcDbLine
10
-72.4337598704073
20
2.35947852333354
30
0.000000000000000
11
-72.3337598704073
21
2.08475974528415
31
0.000000000000000
  0
LINE
  5
F10486
330
F10487
100
AcDbEntity
8
Geo
100
AcDbLine
10
-72.3337598704073
20
2.08475974528415
30
0.000000000000000
11
-72.2337598704073
21
1.81955208210142
31
0.000000000000000
  0
LINE
  5
F10488
330
F10489
100
AcDbEntity
8
Geo
100
AcDbLine
10
-72.2337598704073
20
1.81955208210142
30
0.000000000000000
11
-72.1337598704073
21
1.56403675517123
31
0.000000000000000
  0
LINE
  5
F1048A
330
F1048B
100
AcDbEntity
8
Geo
100
AcDbLine
10
-72.1337598704073
20
1.56403675517123
30
0.000000000000000
11
-72.0337598704073
21
1.31834112833694
31
0.000000000000000
  0
LINE
  5
F1048C
330
F1048D
100
AcDbEntity
8
Geo
100
AcDbLine
10
-72.0337598704073
20
1.31834112833694
30
0.000000000000000
11
-71.9337598704073
21
1.08254220605623
31
0.000000000000000
  0
LINE
  5
F1048E
330
F1048F
100
AcDbEntity
8
Geo
100
AcDbLine
10
-71.9337598704073
20
1.08254220605623
30
0.000000000000000
11
-71.8337598704073
21
0.856670137119643
31
0.000000000000000
  0
LINE
  5
F10490
330
F10491
100
AcDbEntity
8
Geo
100
AcDbLine
10
-71.8337598704073
20
0.856670137119643
30
0.000000000000000
11
-71.7337598704073
21
0.640711699892011
31
0.000000000000000
  0
LINE
  5
F10492
330
F10493
100
AcDbEntity
8
Geo
100
AcDbLine
10
-71.7337598704073
20
0.640711699892011
30
0.000000000000000
11
-71.6337598704073
21
0.434613747674913
31
0.000000000000000
  0
LINE
  5
F10494
330
F10495
100
AcDbEntity
8
Geo
100
AcDbLine
10
-71.6337598704073
20
0.434613747674913
30
0.000000000000000
11
-71.5337598704073
21
0.238286595325969
31
0.000000000000000
  0
LINE
  5
F10496
330
F10497
100
AcDbEntity
8
Geo
100
AcDbLine
10
-71.5337598704073
20
0.238286595325969
30
0.000000000000000
11
-71.4337598704073
21
0.0516073306963891
31
0.000000000000000
  0
LINE
  5
F10498
330
F10499
100
AcDbEntity
8
Geo
100
AcDbLine
10
-71.4337598704073
20
0.0516073306963891
30
0.000000000000000
11
-71.3337598704073
21
-0.125576963248608
31
0.000000000000000
  0
LINE
  5
F1049A
330
F1049B
100
AcDbEntity
8
Geo
100
AcDbLine
10
-71.3337598704073
20
-0.125576963248608
30
0.000000000000000
11
-71.2337598704073
21
-0.293446087588228
31
0.000000000000000
  0
LINE
  5
F1049C
330
F1049D
100
AcDbEntity
8
Geo
100
AcDbLine
10
-71.2337598704073
20
-0.293446087588228
30
0.000000000000000
11
-71.1337598704073
21
-0.452203717806603
31
0.000000000000000
  0
LINE
  5
F1049E
330
F1049F
100
AcDbEntity
8
Geo
100
AcDbLine
10
-71.1337598704073
20
-0.452203717806603
30
0.000000000000000
11
-71.0337598704073
21
-0.602074513378432
31
0.000000000000000
  0
LINE
  5
F104A0
330
F104A1
100
AcDbEntity
8
Geo
100
AcDbLine
10
-71.0337598704073
20
-0.602074513378432
30
0.000000000000000
11
-70.9337598704073
21
-0.743301352842495
31
0.000000000000000
  0
LINE
  5
F104A2
330
F104A3
100
AcDbEntity
8
Geo
100
AcDbLine
10
-70.9337598704073
20
-0.743301352842495
30
0.000000000000000
11
-70.8337598704073
21
-0.876142699005499
31
0.000000000000000
  0
LINE
  5
F104A4
330
F104A5
100
AcDbEntity
8
Geo
100
AcDbLine
10
-70.8337598704073
20
-0.876142699005499
30
0.000000000000000
11
-70.7337598704073
21
-1.00087009743679
31
0.000000000000000
  0
LINE
  5
F104A6
330
F104A7
100
AcDbEntity
8
Geo
100
AcDbLine
10
-70.7337598704073
20
-1.00087009743679
30
0.000000000000000
11
-70.6337598704073
21
-1.11776581006853
31
0.000000000000000
  0
LINE
  5
F104A8
330
F104A9
100
AcDbEntity
8
Geo
100
AcDbLine
10
-70.6337598704073
20
-1.11776581006853
30
0.000000000000000
11
-70.5337598704073
21
-1.22712058450250
31
0.000000000000000
  0
LINE
  5
F104AA
330
F104AB
100
AcDbEntity
8
Geo
100
AcDbLine
10
-70.5337598704073
20
-1.22712058450250
30
0.000000000000000
11
-70.4337598704073
21
-1.32923155853892
31
0.000000000000000
  0
LINE
  5
F104AC
330
F104AD
100
AcDbEntity
8
Geo
100
AcDbLine
10
-70.4337598704073
20
-1.32923155853892
30
0.000000000000000
11
-70.3337598704073
21
-1.42440029848036
31
0.000000000000000
  0
LINE
  5
F104AE
330
F104AF
100
AcDbEntity
8
Geo
100
AcDbLine
10
-70.3337598704073
20
-1.42440029848036
30
0.000000000000000
11
-70.2337598704073
21
-1.51293096891840
31
0.000000000000000
  0
LINE
  5
F104B0
330
F104B1
100
AcDbEntity
8
Geo
100
AcDbLine
10
-70.2337598704073
20
-1.51293096891840
30
0.000000000000000
11
-70.1337598704073
21
-1.59512863097691
31
0.000000000000000
  0
LINE
  5
F104B2
330
F104B3
100
AcDbEntity
8
Geo
100
AcDbLine
10
-70.1337598704073
20
-1.59512863097691
30
0.000000000000000
11
-70.0337598704073
21
-1.67129766535702
31
0.000000000000000
  0
LINE
  5
F104B4
330
F104B5
100
AcDbEntity
8
Geo
100
AcDbLine
10
-70.0337598704073
20
-1.67129766535702
30
0.000000000000000
11
-69.9337598704073
21
-1.74174031599899
31
0.000000000000000
  0
LINE
  5
F104B6
330
F104B7
100
AcDbEntity
8
Geo
100
AcDbLine
10
-69.9337598704073
20
-1.74174031599899
30
0.000000000000000
11
-69.8337598704073
21
-1.80675534973802
31
0.000000000000000
  0
LINE
  5
F104B8
330
F104B9
100
AcDbEntity
8
Geo
100
AcDbLine
10
-69.8337598704073
20
-1.80675534973802
30
0.000000000000000
11
-69.7337598704073
21
-1.86663682697893
31
0.000000000000000
  0
LINE
  5
F104BA
330
F104BB
100
AcDbEntity
8
Geo
100
AcDbLine
10
-69.7337598704073
20
-1.86663682697893
30
0.000000000000000
11
-69.6337598704073
21
-1.92167297814142
31
0.000000000000000
  0
LINE
  5
F104BC
330
F104BD
100
AcDbEntity
8
Geo
100
AcDbLine
10
-69.6337598704073
20
-1.92167297814142
30
0.000000000000000
11
-69.5337598704073
21
-1.97214518042717
31
0.000000000000000
  0
LINE
  5
F104BE
330
F104BF
100
AcDbEntity
8
Geo
100
AcDbLine
10
-69.5337598704073
20
-1.97214518042717
30
0.000000000000000
11
-69.4337598704073
21
-2.01832702932656
31
0.000000000000000
  0
LINE
  5
F104C0
330
F104C1
100
AcDbEntity
8
Geo
100
AcDbLine
10
-69.4337598704073
20
-2.01832702932656
30
0.000000000000000
11
-69.3337598704073
21
-2.06048349920948
31
0.000000000000000
  0
LINE
  5
F104C2
330
F104C3
100
AcDbEntity
8
Geo
100
AcDbLine
10
-69.3337598704073
20
-2.06048349920948
30
0.000000000000000
11
-69.2337598704073
21
-2.09887018732697
31
0.000000000000000
  0
LINE
  5
F104C4
330
F104C5
100
AcDbEntity
8
Geo
100
AcDbLine
10
-69.2337598704073
20
-2.09887018732697
30
0.000000000000000
11
-69.1337598704073
21
-2.13373263558185
31
0.000000000000000
  0
LINE
  5
F104C6
330
F104C7
100
AcDbEntity
8
Geo
100
AcDbLine
10
-69.1337598704073
20
-2.13373263558185
30
0.000000000000000
11
-69.0337598704073
21
-2.16530572450272
31
0.000000000000000
  0
LINE
  5
F104C8
330
F104C9
100
AcDbEntity
8
Geo
100
AcDbLine
10
-69.0337598704073
20
-2.16530572450272
30
0.000000000000000
11
-68.9337598704073
21
-2.19381313397149
31
0.000000000000000
  0
LINE
  5
F104CA
330
F104CB
100
AcDbEntity
8
Geo
100
AcDbLine
10
-68.9337598704073
20
-2.19381313397149
30
0.000000000000000
11
-68.8337598704073
21
-2.21946686540583
31
0.000000000000000
  0
LINE
  5
F104CC
330
F104CD
100
AcDbEntity
8
Geo
100
AcDbLine
10
-68.8337598704073
20
-2.21946686540583
30
0.000000000000000
11
-68.7337598704073
21
-2.24246682027995
31
0.000000000000000
  0
LINE
  5
F104CE
330
F104CF
100
AcDbEntity
8
Geo
100
AcDbLine
10
-68.7337598704073
20
-2.24246682027995
30
0.000000000000000
11
-68.6337598704073
21
-2.26300043007688
31
0.000000000000000
  0
LINE
  5
F104D0
330
F104D1
100
AcDbEntity
8
Geo
100
AcDbLine
10
-68.6337598704073
20
-2.26300043007688
30
0.000000000000000
11
-68.5337598704073
21
-2.28124233299884
31
0.000000000000000
  0
LINE
  5
F104D2
330
F104D3
100
AcDbEntity
8
Geo
100
AcDbLine
10
-68.5337598704073
20
-2.28124233299884
30
0.000000000000000
11
-68.4337598704073
21
-2.29735409301605
31
0.000000000000000
  0
LINE
  5
F104D4
330
F104D5
100
AcDbEntity
8
Geo
100
AcDbLine
10
-68.4337598704073
20
-2.29735409301605
30
0.000000000000000
11
-68.3337598704073
21
-2.31148395710678
31
0.000000000000000
  0
LINE
  5
F104D6
330
F104D7
100
AcDbEntity
8
Geo
100
AcDbLine
10
-68.3337598704073
20
-2.31148395710678
30
0.000000000000000
11
-68.2337598704073
21
-2.32376664682813
31
0.000000000000000
  0
LINE
  5
F104D8
330
F104D9
100
AcDbEntity
8
Geo
100
AcDbLine
10
-68.2337598704073
20
-2.32376664682813
30
0.000000000000000
11
-68.1337598704073
21
-2.33432318065736
31
0.000000000000000
  0
LINE
  5
F104DA
330
F104DB
100
AcDbEntity
8
Geo
100
AcDbLine
10
-68.1337598704073
20
-2.33432318065736
30
0.000000000000000
11
-68.0337598704073
21
-2.34326072385464
31
0.000000000000000
  0
LINE
  5
F104DC
330
F104DD
100
AcDbEntity
8
Geo
100
AcDbLine
10
-68.0337598704073
20
-2.34326072385464
30
0.000000000000000
11
-67.9337598704073
21
-2.35067246291833
31
0.000000000000000
  0
LINE
  5
F104DE
330
F104DF
100
AcDbEntity
8
Geo
100
AcDbLine
10
-67.9337598704073
20
-2.35067246291833
30
0.000000000000000
11
-67.8337598704073
21
-2.35663750203157
31
0.000000000000000
  0
LINE
  5
F104E0
330
F104E1
100
AcDbEntity
8
Geo
100
AcDbLine
10
-67.8337598704073
20
-2.35663750203157
30
0.000000000000000
11
-67.7337598704073
21
-2.36122077923284
31
0.000000000000000
  0
LINE
  5
F104E2
330
F104E3
100
AcDbEntity
8
Geo
100
AcDbLine
10
-67.7337598704073
20
-2.36122077923284
30
0.000000000000000
11
-67.6337598704073
21
-2.36447300038263
31
0.000000000000000
  0
LINE
  5
F104E4
330
F104E5
100
AcDbEntity
8
Geo
100
AcDbLine
10
-80.6337598704073
20
11.4645463126967
30
0.000000000000000
11
-80.5337598704073
21
11.4677658889625
31
0.000000000000000
  0
LINE
  5
F104E6
330
F104E7
100
AcDbEntity
8
Geo
100
AcDbLine
10
-80.5337598704073
20
11.4677658889625
30
0.000000000000000
11
-80.4337598704073
21
11.4606166509475
31
0.000000000000000
  0
LINE
  5
F104E8
330
F104E9
100
AcDbEntity
8
Geo
100
AcDbLine
10
-80.4337598704073
20
11.4606166509475
30
0.000000000000000
11
-80.3337598704073
21
11.4431091888079
31
0.000000000000000
  0
LINE
  5
F104EA
330
F104EB
100
AcDbEntity
8
Geo
100
AcDbLine
10
-80.3337598704073
20
11.4431091888079
30
0.000000000000000
11
-80.2337598704073
21
11.4152694363227
31
0.000000000000000
  0
LINE
  5
F104EC
330
F104ED
100
AcDbEntity
8
Geo
100
AcDbLine
10
-80.2337598704073
20
11.4152694363227
30
0.000000000000000
11
-80.1337598704073
21
11.3771386324780
31
0.000000000000000
  0
LINE
  5
F104EE
330
F104EF
100
AcDbEntity
8
Geo
100
AcDbLine
10
-80.1337598704073
20
11.3771386324780
30
0.000000000000000
11
-80.0337598704073
21
11.3287732603799
31
0.000000000000000
  0
LINE
  5
F104F0
330
F104F1
100
AcDbEntity
8
Geo
100
AcDbLine
10
-80.0337598704073
20
11.3287732603799
30
0.000000000000000
11
-79.9337598704073
21
11.2702449635860
31
0.000000000000000
  0
LINE
  5
F104F2
330
F104F3
100
AcDbEntity
8
Geo
100
AcDbLine
10
-79.9337598704073
20
11.2702449635860
30
0.000000000000000
11
-79.8337598704073
21
11.2016404399797
31
0.000000000000000
  0
LINE
  5
F104F4
330
F104F5
100
AcDbEntity
8
Geo
100
AcDbLine
10
-79.8337598704073
20
11.2016404399797
30
0.000000000000000
11
-79.7337598704073
21
11.1230613133455
31
0.000000000000000
  0
LINE
  5
F104F6
330
F104F7
100
AcDbEntity
8
Geo
100
AcDbLine
10
-79.7337598704073
20
11.1230613133455
30
0.000000000000000
11
-79.6337598704073
21
11.0346239828328
31
0.000000000000000
  0
LINE
  5
F104F8
330
F104F9
100
AcDbEntity
8
Geo
100
AcDbLine
10
-79.6337598704073
20
11.0346239828328
30
0.000000000000000
11
-79.5337598704073
21
10.9364594505347
31
0.000000000000000
  0
LINE
  5
F104FA
330
F104FB
100
AcDbEntity
8
Geo
100
AcDbLine
10
-79.5337598704073
20
10.9364594505347
30
0.000000000000000
11
-79.4337598704073
21
10.8287131274348
31
0.000000000000000
  0
LINE
  5
F104FC
330
F104FD
100
AcDbEntity
8
Geo
100
AcDbLine
10
-79.4337598704073
20
10.8287131274348
30
0.000000000000000
11
-79.3337598704073
21
10.7115446180097
31
0.000000000000000
  0
LINE
  5
F104FE
330
F104FF
100
AcDbEntity
8
Geo
100
AcDbLine
10
-79.3337598704073
20
10.7115446180097
30
0.000000000000000
11
-79.2337598704073
21
10.5851274838073
31
0.000000000000000
  0
LINE
  5
F10500
330
F10501
100
AcDbEntity
8
Geo
100
AcDbLine
10
-79.2337598704073
20
10.5851274838073
30
0.000000000000000
11
-79.1337598704073
21
10.4496489863505
31
0.000000000000000
  0
LINE
  5
F10502
330
F10503
100
AcDbEntity
8
Geo
100
AcDbLine
10
-79.1337598704073
20
10.4496489863505
30
0.000000000000000
11
-79.0337598704073
21
10.3053098097467
31
0.000000000000000
  0
LINE
  5
F10504
330
F10505
100
AcDbEntity
8
Geo
100
AcDbLine
10
-79.0337598704073
20
10.3053098097467
30
0.000000000000000
11
-78.9337598704073
21
10.1523237634151
31
0.000000000000000
  0
LINE
  5
F10506
330
F10507
100
AcDbEntity
8
Geo
100
AcDbLine
10
-78.9337598704073
20
10.1523237634151
30
0.000000000000000
11
-78.8337598704073
21
9.99091746537051
31
0.000000000000000
  0
LINE
  5
F10508
330
F10509
100
AcDbEntity
8
Geo
100
AcDbLine
10
-78.8337598704073
20
9.99091746537051
30
0.000000000000000
11
-78.7337598704073
21
9.82133000653491
31
0.000000000000000
  0
LINE
  5
F1050A
330
F1050B
100
AcDbEntity
8
Geo
100
AcDbLine
10
-78.7337598704073
20
9.82133000653491
30
0.000000000000000
11
-78.6337598704073
21
9.64381259657224
31
0.000000000000000
  0
LINE
  5
F1050C
330
F1050D
100
AcDbEntity
8
Geo
100
AcDbLine
10
-78.6337598704073
20
9.64381259657224
30
0.000000000000000
11
-78.5337598704073
21
9.45862819177185
31
0.000000000000000
  0
LINE
  5
F1050E
330
F1050F
100
AcDbEntity
8
Geo
100
AcDbLine
10
-78.5337598704073
20
9.45862819177185
30
0.000000000000000
11
-78.4337598704073
21
9.26605110553175
31
0.000000000000000
  0
LINE
  5
F10510
330
F10511
100
AcDbEntity
8
Geo
100
AcDbLine
10
-78.4337598704073
20
9.26605110553175
30
0.000000000000000
11
-78.3337598704073
21
9.06636660201857
31
0.000000000000000
  0
LINE
  5
F10512
330
F10513
100
AcDbEntity
8
Geo
100
AcDbLine
10
-78.3337598704073
20
9.06636660201857
30
0.000000000000000
11
-78.2337598704073
21
8.85987047360609
31
0.000000000000000
  0
LINE
  5
F10514
330
F10515
100
AcDbEntity
8
Geo
100
AcDbLine
10
-78.2337598704073
20
8.85987047360609
30
0.000000000000000
11
-78.1337598704073
21
8.64686860271852
31
0.000000000000000
  0
LINE
  5
F10516
330
F10517
100
AcDbEntity
8
Geo
100
AcDbLine
10
-78.1337598704073
20
8.64686860271852
30
0.000000000000000
11
-78.0337598704073
21
8.42767650872720
31
0.000000000000000
  0
LINE
  5
F10518
330
F10519
100
AcDbEntity
8
Geo
100
AcDbLine
10
-78.0337598704073
20
8.42767650872720
30
0.000000000000000
11
-77.9337598704073
21
8.20261888057223
31
0.000000000000000
  0
LINE
  5
F1051A
330
F1051B
100
AcDbEntity
8
Geo
100
AcDbLine
10
-77.9337598704073
20
8.20261888057223
30
0.000000000000000
11
-77.8337598704073
21
7.97202909580122
31
0.000000000000000
  0
LINE
  5
F1051C
330
F1051D
100
AcDbEntity
8
Geo
100
AcDbLine
10
-77.8337598704073
20
7.97202909580122
30
0.000000000000000
11
-77.7337598704073
21
7.73624872673759
31
0.000000000000000
  0
LINE
  5
F1051E
330
F1051F
100
AcDbEntity
8
Geo
100
AcDbLine
10
-77.7337598704073
20
7.73624872673759
30
0.000000000000000
11
-77.6337598704073
21
7.49562703450995
31
0.000000000000000
  0
LINE
  5
F10520
330
F10521
100
AcDbEntity
8
Geo
100
AcDbLine
10
-77.6337598704073
20
7.49562703450995
30
0.000000000000000
11
-77.5337598704073
21
7.25052045169209
31
0.000000000000000
  0
LINE
  5
F10522
330
F10523
100
AcDbEntity
8
Geo
100
AcDbLine
10
-77.5337598704073
20
7.25052045169209
30
0.000000000000000
11
-77.4337598704073
21
7.00129205431993
31
0.000000000000000
  0
LINE
  5
F10524
330
F10525
100
AcDbEntity
8
Geo
100
AcDbLine
10
-77.4337598704073
20
7.00129205431993
30
0.000000000000000
11
-77.3337598704073
21
6.74831102406747
31
0.000000000000000
  0
LINE
  5
F10526
330
F10527
100
AcDbEntity
8
Geo
100
AcDbLine
10
-77.3337598704073
20
6.74831102406747
30
0.000000000000000
11
-77.2337598704073
21
6.49195210137851
31
0.000000000000000
  0
LINE
  5
F10528
330
F10529
100
AcDbEntity
8
Geo
100
AcDbLine
10
-77.2337598704073
20
6.49195210137851
30
0.000000000000000
11
-77.1337598704073
21
6.23259503036418
31
0.000000000000000
  0
LINE
  5
F1052A
330
F1052B
100
AcDbEntity
8
Geo
100
AcDbLine
10
-77.1337598704073
20
6.23259503036418
30
0.000000000000000
11
-77.0337598704073
21
5.97062399628847
31
0.000000000000000
  0
LINE
  5
F1052C
330
F1052D
100
AcDbEntity
8
Geo
100
AcDbLine
10
-77.0337598704073
20
5.97062399628847
30
0.000000000000000
11
-76.9337598704073
21
5.70642705647519
31
0.000000000000000
  0
LINE
  5
F1052E
330
F1052F
100
AcDbEntity
8
Geo
100
AcDbLine
10
-76.9337598704073
20
5.70642705647519
30
0.000000000000000
11
-76.8337598704073
21
5.44039556547919
31
0.000000000000000
  0
LINE
  5
F10530
330
F10531
100
AcDbEntity
8
Geo
100
AcDbLine
10
-76.8337598704073
20
5.44039556547919
30
0.000000000000000
11
-76.7337598704073
21
5.17292359537339
31
0.000000000000000
  0
LINE
  5
F10532
330
F10533
100
AcDbEntity
8
Geo
100
AcDbLine
10
-76.7337598704073
20
5.17292359537339
30
0.000000000000000
11
-76.6337598704073
21
4.90440735201039
31
0.000000000000000
  0
LINE
  5
F10534
330
F10535
100
AcDbEntity
8
Geo
100
AcDbLine
10
-76.6337598704073
20
4.90440735201039
30
0.000000000000000
11
-76.5337598704073
21
4.63524458812329
31
0.000000000000000
  0
LINE
  5
F10536
330
F10537
100
AcDbEntity
8
Geo
100
AcDbLine
10
-76.5337598704073
20
4.63524458812329
30
0.000000000000000
11
-76.4337598704073
21
4.36583401413515
31
0.000000000000000
  0
LINE
  5
F10538
330
F10539
100
AcDbEntity
8
Geo
100
AcDbLine
10
-76.4337598704073
20
4.36583401413515
30
0.000000000000000
11
-76.3337598704073
21
4.09657470754976
31
0.000000000000000
  0
LINE
  5
F1053A
330
F1053B
100
AcDbEntity
8
Geo
100
AcDbLine
10
-76.3337598704073
20
4.09657470754976
30
0.000000000000000
11
-76.2337598704073
21
3.82786552179874
31
0.000000000000000
  0
LINE
  5
F1053C
330
F1053D
100
AcDbEntity
8
Geo
100
AcDbLine
10
-76.2337598704073
20
3.82786552179874
30
0.000000000000000
11
-76.1337598704073
21
3.56010449542048
31
0.000000000000000
  0
LINE
  5
F1053E
330
F1053F
100
AcDbEntity
8
Geo
100
AcDbLine
10
-76.1337598704073
20
3.56010449542048
30
0.000000000000000
11
-76.0337598704073
21
3.29368826244623
31
0.000000000000000
  0
LINE
  5
F10540
330
F10541
100
AcDbEntity
8
Geo
100
AcDbLine
10
-76.0337598704073
20
3.29368826244623
30
0.000000000000000
11
-75.9337598704073
21
3.02901146486666
31
0.000000000000000
  0
LINE
  5
F10542
330
F10543
100
AcDbEntity
8
Geo
100
AcDbLine
10
-75.9337598704073
20
3.02901146486666
30
0.000000000000000
11
-75.8337598704073
21
2.76646616804926
31
0.000000000000000
  0
LINE
  5
F10544
330
F10545
100
AcDbEntity
8
Geo
100
AcDbLine
10
-75.8337598704073
20
2.76646616804926
30
0.000000000000000
11
-75.7337598704073
21
2.50644127997241
31
0.000000000000000
  0
LINE
  5
F10546
330
F10547
100
AcDbEntity
8
Geo
100
AcDbLine
10
-75.7337598704073
20
2.50644127997241
30
0.000000000000000
11
-75.6337598704073
21
2.24932197513659
31
0.000000000000000
  0
LINE
  5
F10548
330
F10549
100
AcDbEntity
8
Geo
100
AcDbLine
10
-75.6337598704073
20
2.24932197513659
30
0.000000000000000
11
-75.5337598704073
21
1.99548912400593
31
0.000000000000000
  0
LINE
  5
F1054A
330
F1054B
100
AcDbEntity
8
Geo
100
AcDbLine
10
-75.5337598704073
20
1.99548912400593
30
0.000000000000000
11
-75.4337598704073
21
1.74531872882530
31
0.000000000000000
  0
LINE
  5
F1054C
330
F1054D
100
AcDbEntity
8
Geo
100
AcDbLine
10
-75.4337598704073
20
1.74531872882530
30
0.000000000000000
11
-75.3337598704073
21
1.49918136664872
31
0.000000000000000
  0
LINE
  5
F1054E
330
F1054F
100
AcDbEntity
8
Geo
100
AcDbLine
10
-75.3337598704073
20
1.49918136664872
30
0.000000000000000
11
-75.2337598704073
21
1.25744164040413
31
0.000000000000000
  0
LINE
  5
F10550
330
F10551
100
AcDbEntity
8
Geo
100
AcDbLine
10
-75.2337598704073
20
1.25744164040413
30
0.000000000000000
11
-75.1337598704073
21
1.02045763880753
31
0.000000000000000
  0
LINE
  5
F10552
330
F10553
100
AcDbEntity
8
Geo
100
AcDbLine
10
-75.1337598704073
20
1.02045763880753
30
0.000000000000000
11
-75.0337598704073
21
0.788580405926714
31
0.000000000000000
  0
LINE
  5
F10554
330
F10555
100
AcDbEntity
8
Geo
100
AcDbLine
10
-75.0337598704073
20
0.788580405926714
30
0.000000000000000
11
-74.9337598704073
21
0.562153421180152
31
0.000000000000000
  0
LINE
  5
F10556
330
F10557
100
AcDbEntity
8
Geo
100
AcDbLine
10
-74.9337598704073
20
0.562153421180152
30
0.000000000000000
11
-74.8337598704073
21
0.341512090541464
31
0.000000000000000
  0
LINE
  5
F10558
330
F10559
100
AcDbEntity
8
Geo
100
AcDbLine
10
-74.8337598704073
20
0.341512090541464
30
0.000000000000000
11
-74.7337598704073
21
0.126983249702954
31
0.000000000000000
  0
LINE
  5
F1055A
330
F1055B
100
AcDbEntity
8
Geo
100
AcDbLine
10
-74.7337598704073
20
0.126983249702954
30
0.000000000000000
11
-74.6337598704073
21
-0.0811153200655941
31
0.000000000000000
  0
LINE
  5
F1055C
330
F1055D
100
AcDbEntity
8
Geo
100
AcDbLine
10
-74.6337598704073
20
-0.0811153200655941
30
0.000000000000000
11
-74.5337598704073
21
-0.282475362645875
31
0.000000000000000
  0
LINE
  5
F1055E
330
F1055F
100
AcDbEntity
8
Geo
100
AcDbLine
10
-74.5337598704073
20
-0.282475362645875
30
0.000000000000000
11
-74.4337598704073
21
-0.476798603690415
31
0.000000000000000
  0
LINE
  5
F10560
330
F10561
100
AcDbEntity
8
Geo
100
AcDbLine
10
-74.4337598704073
20
-0.476798603690415
30
0.000000000000000
11
-74.3337598704073
21
-0.663797192455951
31
0.000000000000000
  0
LINE
  5
F10562
330
F10563
100
AcDbEntity
8
Geo
100
AcDbLine
10
-74.3337598704073
20
-0.663797192455951
30
0.000000000000000
11
-74.2337598704073
21
-0.843194128196316
31
0.000000000000000
  0
LINE
  5
F10564
330
F10565
100
AcDbEntity
8
Geo
100
AcDbLine
10
-74.2337598704073
20
-0.843194128196316
30
0.000000000000000
11
-74.1337598704073
21
-1.01472367048327
31
0.000000000000000
  0
LINE
  5
F10566
330
F10567
100
AcDbEntity
8
Geo
100
AcDbLine
10
-74.1337598704073
20
-1.01472367048327
30
0.000000000000000
11
-74.0337598704073
21
-1.17813173284741
31
0.000000000000000
  0
LINE
  5
F10568
330
F10569
100
AcDbEntity
8
Geo
100
AcDbLine
10
-74.0337598704073
20
-1.17813173284741
30
0.000000000000000
11
-73.9337598704073
21
-1.33317625915610
31
0.000000000000000
  0
LINE
  5
F1056A
330
F1056B
100
AcDbEntity
8
Geo
100
AcDbLine
10
-73.9337598704073
20
-1.33317625915610
30
0.000000000000000
11
-73.8337598704073
21
-1.47962758217090
31
0.000000000000000
  0
LINE
  5
F1056C
330
F1056D
100
AcDbEntity
8
Geo
100
AcDbLine
10
-73.8337598704073
20
-1.47962758217090
30
0.000000000000000
11
-73.7337598704073
21
-1.61726876375329
31
0.000000000000000
  0
LINE
  5
F1056E
330
F1056F
100
AcDbEntity
8
Geo
100
AcDbLine
10
-73.7337598704073
20
-1.61726876375329
30
0.000000000000000
11
-73.6337598704073
21
-1.74589591621485
31
0.000000000000000
  0
LINE
  5
F10570
330
F10571
100
AcDbEntity
8
Geo
100
AcDbLine
10
-73.6337598704073
20
-1.74589591621485
30
0.000000000000000
11
-73.5337598704073
21
-1.86531850433580
31
0.000000000000000
  0
LINE
  5
F10572
330
F10573
100
AcDbEntity
8
Geo
100
AcDbLine
10
-73.5337598704073
20
-1.86531850433580
30
0.000000000000000
11
-73.4337598704073
21
-1.97535962760456
31
0.000000000000000
  0
LINE
  5
F10574
330
F10575
100
AcDbEntity
8
Geo
100
AcDbLine
10
-73.4337598704073
20
-1.97535962760456
30
0.000000000000000
11
-73.3337598704073
21
-2.07585628226021
31
0.000000000000000
  0
LINE
  5
F10576
330
F10577
100
AcDbEntity
8
Geo
100
AcDbLine
10
-73.3337598704073
20
-2.07585628226021
30
0.000000000000000
11
-73.2337598704073
21
-2.16665960274976
31
0.000000000000000
  0
LINE
  5
F10578
330
F10579
100
AcDbEntity
8
Geo
100
AcDbLine
10
-73.2337598704073
20
-2.16665960274976
30
0.000000000000000
11
-73.1337598704073
21
-2.24763508224246
31
0.000000000000000
  0
LINE
  5
F1057A
330
F1057B
100
AcDbEntity
8
Geo
100
AcDbLine
10
-73.1337598704073
20
-2.24763508224246
30
0.000000000000000
11
-73.0337598704073
21
-2.31866277187457
31
0.000000000000000
  0
LINE
  5
F1057C
330
F1057D
100
AcDbEntity
8
Geo
100
AcDbLine
10
-73.0337598704073
20
-2.31866277187457
30
0.000000000000000
11
-72.9337598704073
21
-2.37963745842950
31
0.000000000000000
  0
LINE
  5
F1057E
330
F1057F
100
AcDbEntity
8
Geo
100
AcDbLine
10
-72.9337598704073
20
-2.37963745842950
30
0.000000000000000
11
-72.8337598704073
21
-2.43046882018992
31
0.000000000000000
  0
LINE
  5
F10580
330
F10581
100
AcDbEntity
8
Geo
100
AcDbLine
10
-72.8337598704073
20
-2.43046882018992
30
0.000000000000000
11
-72.7337598704073
21
-2.47108156073125
31
0.000000000000000
  0
LINE
  5
F10582
330
F10583
100
AcDbEntity
8
Geo
100
AcDbLine
10
-72.7337598704073
20
-2.47108156073125
30
0.000000000000000
11
-72.6337598704073
21
-2.50141552045814
31
0.000000000000000
  0
LINE
  5
F10584
330
F10585
100
AcDbEntity
8
Geo
100
AcDbLine
10
-72.6337598704073
20
-2.50141552045814
30
0.000000000000000
11
-72.5337598704073
21
-2.49820196660560
31
0.000000000000000
  0
LINE
  5
F10586
330
F10587
100
AcDbEntity
8
Geo
100
AcDbLine
10
-72.5337598704073
20
-2.49820196660560
30
0.000000000000000
11
-72.4337598704073
21
-2.49489552937038
31
0.000000000000000
  0
LINE
  5
F10588
330
F10589
100
AcDbEntity
8
Geo
100
AcDbLine
10
-72.4337598704073
20
-2.49489552937038
30
0.000000000000000
11
-72.3337598704073
21
-2.49150540338146
31
0.000000000000000
  0
LINE
  5
F1058A
330
F1058B
100
AcDbEntity
8
Geo
100
AcDbLine
10
-72.3337598704073
20
-2.49150540338146
30
0.000000000000000
11
-72.2337598704073
21
-2.48804059741055
31
0.000000000000000
  0
LINE
  5
F1058C
330
F1058D
100
AcDbEntity
8
Geo
100
AcDbLine
10
-72.2337598704073
20
-2.48804059741055
30
0.000000000000000
11
-72.1337598704073
21
-2.48450993417761
31
0.000000000000000
  0
LINE
  5
F1058E
330
F1058F
100
AcDbEntity
8
Geo
100
AcDbLine
10
-72.1337598704073
20
-2.48450993417761
30
0.000000000000000
11
-72.0337598704073
21
-2.48092205020413
31
0.000000000000000
  0
LINE
  5
F10590
330
F10591
100
AcDbEntity
8
Geo
100
AcDbLine
10
-72.0337598704073
20
-2.48092205020413
30
0.000000000000000
11
-71.9337598704073
21
-2.47728539571114
31
0.000000000000000
  0
LINE
  5
F10592
330
F10593
100
AcDbEntity
8
Geo
100
AcDbLine
10
-71.9337598704073
20
-2.47728539571114
30
0.000000000000000
11
-71.8337598704073
21
-2.47360823455951
31
0.000000000000000
  0
LINE
  5
F10594
330
F10595
100
AcDbEntity
8
Geo
100
AcDbLine
10
-71.8337598704073
20
-2.47360823455951
30
0.000000000000000
11
-71.7337598704073
21
-2.46989864422987
31
0.000000000000000
  0
LINE
  5
F10596
330
F10597
100
AcDbEntity
8
Geo
100
AcDbLine
10
-71.7337598704073
20
-2.46989864422987
30
0.000000000000000
11
-71.6337598704073
21
-2.46616451583972
31
0.000000000000000
  0
LINE
  5
F10598
330
F10599
100
AcDbEntity
8
Geo
100
AcDbLine
10
-71.6337598704073
20
-2.46616451583972
30
0.000000000000000
11
-71.5337598704073
21
-2.46241355419513
31
0.000000000000000
  0
LINE
  5
F1059A
330
F1059B
100
AcDbEntity
8
Geo
100
AcDbLine
10
-71.5337598704073
20
-2.46241355419513
30
0.000000000000000
11
-71.4337598704073
21
-2.45865327787480
31
0.000000000000000
  0
LINE
  5
F1059C
330
F1059D
100
AcDbEntity
8
Geo
100
AcDbLine
10
-71.4337598704073
20
-2.45865327787480
30
0.000000000000000
11
-71.3337598704073
21
-2.45489101934399
31
0.000000000000000
  0
LINE
  5
F1059E
330
F1059F
100
AcDbEntity
8
Geo
100
AcDbLine
10
-71.3337598704073
20
-2.45489101934399
30
0.000000000000000
11
-71.2337598704073
21
-2.45113392509604
31
0.000000000000000
  0
LINE
  5
F105A0
330
F105A1
100
AcDbEntity
8
Geo
100
AcDbLine
10
-71.2337598704073
20
-2.45113392509604
30
0.000000000000000
11
-71.1337598704073
21
-2.44738895581933
31
0.000000000000000
  0
LINE
  5
F105A2
330
F105A3
100
AcDbEntity
8
Geo
100
AcDbLine
10
-71.1337598704073
20
-2.44738895581933
30
0.000000000000000
11
-71.0337598704073
21
-2.44366288658738
31
0.000000000000000
  0
LINE
  5
F105A4
330
F105A5
100
AcDbEntity
8
Geo
100
AcDbLine
10
-71.0337598704073
20
-2.44366288658738
30
0.000000000000000
11
-70.9337598704073
21
-2.43996230707010
31
0.000000000000000
  0
LINE
  5
F105A6
330
F105A7
100
AcDbEntity
8
Geo
100
AcDbLine
10
-70.9337598704073
20
-2.43996230707010
30
0.000000000000000
11
-70.8337598704073
21
-2.43629362176393
31
0.000000000000000
  0
LINE
  5
F105A8
330
F105A9
100
AcDbEntity
8
Geo
100
AcDbLine
10
-70.8337598704073
20
-2.43629362176393
30
0.000000000000000
11
-70.7337598704073
21
-2.43266305023909
31
0.000000000000000
  0
LINE
  5
F105AA
330
F105AB
100
AcDbEntity
8
Geo
100
AcDbLine
10
-70.7337598704073
20
-2.43266305023909
30
0.000000000000000
11
-70.6337598704073
21
-2.42907662740181
31
0.000000000000000
  0
LINE
  5
F105AC
330
F105AD
100
AcDbEntity
8
Geo
100
AcDbLine
10
-70.6337598704073
20
-2.42907662740181
30
0.000000000000000
11
-70.5337598704073
21
-2.42554020376967
31
0.000000000000000
  0
LINE
  5
F105AE
330
F105AF
100
AcDbEntity
8
Geo
100
AcDbLine
10
-70.5337598704073
20
-2.42554020376967
30
0.000000000000000
11
-70.4337598704073
21
-2.42205944575827
31
0.000000000000000
  0
LINE
  5
F105B0
330
F105B1
100
AcDbEntity
8
Geo
100
AcDbLine
10
-70.4337598704073
20
-2.42205944575827
30
0.000000000000000
11
-70.3337598704073
21
-2.41863983597746
31
0.000000000000000
  0
LINE
  5
F105B2
330
F105B3
100
AcDbEntity
8
Geo
100
AcDbLine
10
-70.3337598704073
20
-2.41863983597746
30
0.000000000000000
11
-70.2337598704073
21
-2.41528667353524
31
0.000000000000000
  0
LINE
  5
F105B4
330
F105B5
100
AcDbEntity
8
Geo
100
AcDbLine
10
-70.2337598704073
20
-2.41528667353524
30
0.000000000000000
11
-70.1337598704073
21
-2.41200507434784
31
0.000000000000000
  0
LINE
  5
F105B6
330
F105B7
100
AcDbEntity
8
Geo
100
AcDbLine
10
-70.1337598704073
20
-2.41200507434784
30
0.000000000000000
11
-70.0337598704073
21
-2.40879997145432
31
0.000000000000000
  0
LINE
  5
F105B8
330
F105B9
100
AcDbEntity
8
Geo
100
AcDbLine
10
-70.0337598704073
20
-2.40879997145432
30
0.000000000000000
11
-69.9337598704073
21
-2.40567611533402
31
0.000000000000000
  0
LINE
  5
F105BA
330
F105BB
100
AcDbEntity
8
Geo
100
AcDbLine
10
-69.9337598704073
20
-2.40567611533402
30
0.000000000000000
11
-69.8337598704073
21
-2.40263807422553
31
0.000000000000000
  0
LINE
  5
F105BC
330
F105BD
100
AcDbEntity
8
Geo
100
AcDbLine
10
-69.8337598704073
20
-2.40263807422553
30
0.000000000000000
11
-69.7337598704073
21
-2.39969023444560
31
0.000000000000000
  0
LINE
  5
F105BE
330
F105BF
100
AcDbEntity
8
Geo
100
AcDbLine
10
-69.7337598704073
20
-2.39969023444560
30
0.000000000000000
11
-69.6337598704073
21
-2.39683680070660
31
0.000000000000000
  0
LINE
  5
F105C0
330
F105C1
100
AcDbEntity
8
Geo
100
AcDbLine
10
-69.6337598704073
20
-2.39683680070660
30
0.000000000000000
11
-69.5337598704073
21
-2.39408179643138
31
0.000000000000000
  0
LINE
  5
F105C2
330
F105C3
100
AcDbEntity
8
Geo
100
AcDbLine
10
-69.5337598704073
20
-2.39408179643138
30
0.000000000000000
11
-69.4337598704073
21
-2.39142906406394
31
0.000000000000000
  0
LINE
  5
F105C4
330
F105C5
100
AcDbEntity
8
Geo
100
AcDbLine
10
-69.4337598704073
20
-2.39142906406394
30
0.000000000000000
11
-69.3337598704073
21
-2.38888226537498
31
0.000000000000000
  0
LINE
  5
F105C6
330
F105C7
100
AcDbEntity
8
Geo
100
AcDbLine
10
-69.3337598704073
20
-2.38888226537498
30
0.000000000000000
11
-69.2337598704073
21
-2.38644488176099
31
0.000000000000000
  0
LINE
  5
F105C8
330
F105C9
100
AcDbEntity
8
Geo
100
AcDbLine
10
-69.2337598704073
20
-2.38644488176099
30
0.000000000000000
11
-69.1337598704073
21
-2.38412021453582
31
0.000000000000000
  0
LINE
  5
F105CA
330
F105CB
100
AcDbEntity
8
Geo
100
AcDbLine
10
-69.1337598704073
20
-2.38412021453582
30
0.000000000000000
11
-69.0337598704073
21
-2.38191138521366
31
0.000000000000000
  0
LINE
  5
F105CC
330
F105CD
100
AcDbEntity
8
Geo
100
AcDbLine
10
-69.0337598704073
20
-2.38191138521366
30
0.000000000000000
11
-68.9337598704073
21
-2.37982133578249
31
0.000000000000000
  0
LINE
  5
F105CE
330
F105CF
100
AcDbEntity
8
Geo
100
AcDbLine
10
-68.9337598704073
20
-2.37982133578249
30
0.000000000000000
11
-68.8337598704073
21
-2.37785282896691
31
0.000000000000000
  0
LINE
  5
F105D0
330
F105D1
100
AcDbEntity
8
Geo
100
AcDbLine
10
-68.8337598704073
20
-2.37785282896691
30
0.000000000000000
11
-68.7337598704073
21
-2.37600844847963
31
0.000000000000000
  0
LINE
  5
F105D2
330
F105D3
100
AcDbEntity
8
Geo
100
AcDbLine
10
-68.7337598704073
20
-2.37600844847963
30
0.000000000000000
11
-68.6337598704073
21
-2.37429059926063
31
0.000000000000000
  0
LINE
  5
F105D4
330
F105D5
100
AcDbEntity
8
Geo
100
AcDbLine
10
-68.6337598704073
20
-2.37429059926063
30
0.000000000000000
11
-68.5337598704073
21
-2.37270150770337
31
0.000000000000000
  0
LINE
  5
F105D6
330
F105D7
100
AcDbEntity
8
Geo
100
AcDbLine
10
-68.5337598704073
20
-2.37270150770337
30
0.000000000000000
11
-68.4337598704073
21
-2.37124322186711
31
0.000000000000000
  0
LINE
  5
F105D8
330
F105D9
100
AcDbEntity
8
Geo
100
AcDbLine
10
-68.4337598704073
20
-2.37124322186711
30
0.000000000000000
11
-68.3337598704073
21
-2.36991761167486
31
0.000000000000000
  0
LINE
  5
F105DA
330
F105DB
100
AcDbEntity
8
Geo
100
AcDbLine
10
-68.3337598704073
20
-2.36991761167486
30
0.000000000000000
11
-68.2337598704073
21
-2.36872636909626
31
0.000000000000000
  0
LINE
  5
F105DC
330
F105DD
100
AcDbEntity
8
Geo
100
AcDbLine
10
-68.2337598704073
20
-2.36872636909626
30
0.000000000000000
11
-68.1337598704073
21
-2.36767100831478
31
0.000000000000000
  0
LINE
  5
F105DE
330
F105DF
100
AcDbEntity
8
Geo
100
AcDbLine
10
-68.1337598704073
20
-2.36767100831478
30
0.000000000000000
11
-68.0337598704073
21
-2.36675286587883
31
0.000000000000000
  0
LINE
  5
F105E0
330
F105E1
100
AcDbEntity
8
Geo
100
AcDbLine
10
-68.0337598704073
20
-2.36675286587883
30
0.000000000000000
11
-67.9337598704073
21
-2.36597310083622
31
0.000000000000000
  0
LINE
  5
F105E2
330
F105E3
100
AcDbEntity
8
Geo
100
AcDbLine
10
-67.9337598704073
20
-2.36597310083622
30
0.000000000000000
11
-67.8337598704073
21
-2.36533269485163
31
0.000000000000000
  0
LINE
  5
F105E4
330
F105E5
100
AcDbEntity
8
Geo
100
AcDbLine
10
-67.8337598704073
20
-2.36533269485163
30
0.000000000000000
11
-67.7337598704073
21
-2.36483245230673
31
0.000000000000000
  0
LINE
  5
F105E6
330
F105E7
100
AcDbEntity
8
Geo
100
AcDbLine
10
-67.7337598704073
20
-2.36483245230673
30
0.000000000000000
11
-67.6337598704073
21
-2.36447300038263
31
0.000000000000000
  0
LINE
  5
F105E8
330
F105E9
100
AcDbEntity
8
Geo
100
AcDbLine
10
-84.6337598704073
20
10.4592697086622
30
0.000000000000000
11
-84.5337598704073
21
10.8885045008456
31
0.000000000000000
  0
LINE
  5
F105EA
330
F105EB
100
AcDbEntity
8
Geo
100
AcDbLine
10
-84.6337598704073
20
4.41871172989493
30
0.000000000000000
11
-84.5337598704073
21
4.17142594607468
31
0.000000000000000
  0
LINE
  5
F105EC
330
F105ED
100
AcDbEntity
8
Geo
100
AcDbLine
10
-84.5337598704073
20
10.8885045008456
30
0.000000000000000
11
-84.4337598704073
21
11.0359627370306
31
0.000000000000000
  0
LINE
  5
F105EE
330
F105EF
100
AcDbEntity
8
Geo
100
AcDbLine
10
-84.5337598704073
20
4.17142594607468
30
0.000000000000000
11
-84.4337598704073
21
3.91195867777169
31
0.000000000000000
  0
LINE
  5
F105F0
330
F105F1
100
AcDbEntity
8
Geo
100
AcDbLine
10
-84.4337598704073
20
11.0359627370306
30
0.000000000000000
11
-84.3337598704073
21
11.1230859664192
31
0.000000000000000
  0
LINE
  5
F105F2
330
F105F3
100
AcDbEntity
8
Geo
100
AcDbLine
10
-84.4337598704073
20
3.91195867777169
30
0.000000000000000
11
-84.3337598704073
21
3.64647923247805
31
0.000000000000000
  0
LINE
  5
F105F4
330
F105F5
100
AcDbEntity
8
Geo
100
AcDbLine
10
-84.3337598704073
20
11.1230859664192
30
0.000000000000000
11
-84.2337598704073
21
11.1713877458515
31
0.000000000000000
  0
LINE
  5
F105F6
330
F105F7
100
AcDbEntity
8
Geo
100
AcDbLine
10
-84.3337598704073
20
3.64647923247805
30
0.000000000000000
11
-84.2337598704073
21
3.37782826387329
31
0.000000000000000
  0
LINE
  5
F105F8
330
F105F9
100
AcDbEntity
8
Geo
100
AcDbLine
10
-84.2337598704073
20
11.1713877458515
30
0.000000000000000
11
-84.1337598704073
21
11.1892808039431
31
0.000000000000000
  0
LINE
  5
F105FA
330
F105FB
100
AcDbEntity
8
Geo
100
AcDbLine
10
-84.2337598704073
20
3.37782826387329
30
0.000000000000000
11
-84.1337598704073
21
3.10805570424616
31
0.000000000000000
  0
LINE
  5
F105FC
330
F105FD
100
AcDbEntity
8
Geo
100
AcDbLine
10
-84.1337598704073
20
11.1892808039431
30
0.000000000000000
11
-84.0337598704073
21
11.1811224579420
31
0.000000000000000
  0
LINE
  5
F105FE
330
F105FF
100
AcDbEntity
8
Geo
100
AcDbLine
10
-84.1337598704073
20
3.10805570424616
30
0.000000000000000
11
-84.0337598704073
21
2.83886598607601
31
0.000000000000000
  0
LINE
  5
F10600
330
F10601
100
AcDbEntity
8
Geo
100
AcDbLine
10
-84.0337598704073
20
11.1811224579420
30
0.000000000000000
11
-83.9337598704073
21
11.1495361847513
31
0.000000000000000
  0
LINE
  5
F10602
330
F10603
100
AcDbEntity
8
Geo
100
AcDbLine
10
-84.0337598704073
20
2.83886598607601
30
0.000000000000000
11
-83.9337598704073
21
2.57178469801953
31
0.000000000000000
  0
LINE
  5
F10604
330
F10605
100
AcDbEntity
8
Geo
100
AcDbLine
10
-83.9337598704073
20
11.1495361847513
30
0.000000000000000
11
-83.8337598704073
21
11.0962625270533
31
0.000000000000000
  0
LINE
  5
F10606
330
F10607
100
AcDbEntity
8
Geo
100
AcDbLine
10
-83.9337598704073
20
2.57178469801953
30
0.000000000000000
11
-83.8337598704073
21
2.30824172104143
31
0.000000000000000
  0
LINE
  5
F10608
330
F10609
100
AcDbEntity
8
Geo
100
AcDbLine
10
-83.8337598704073
20
11.0962625270533
30
0.000000000000000
11
-83.7337598704073
21
11.0225356315697
31
0.000000000000000
  0
LINE
  5
F1060A
330
F1060B
100
AcDbEntity
8
Geo
100
AcDbLine
10
-83.8337598704073
20
2.30824172104143
30
0.000000000000000
11
-83.7337598704073
21
2.04962262782832
31
0.000000000000000
  0
LINE
  5
F1060C
330
F1060D
100
AcDbEntity
8
Geo
100
AcDbLine
10
-83.7337598704073
20
11.0225356315697
30
0.000000000000000
11
-83.6337598704073
21
10.9292682431664
31
0.000000000000000
  0
LINE
  5
F1060E
330
F1060F
100
AcDbEntity
8
Geo
100
AcDbLine
10
-83.7337598704073
20
2.04962262782832
30
0.000000000000000
11
-83.6337598704073
21
1.79730796295929
31
0.000000000000000
  0
LINE
  5
F10610
330
F10611
100
AcDbEntity
8
Geo
100
AcDbLine
10
-83.6337598704073
20
10.9292682431664
30
0.000000000000000
11
-83.5337598704073
21
10.8217149116333
31
0.000000000000000
  0
LINE
  5
F10612
330
F10613
100
AcDbEntity
8
Geo
100
AcDbLine
10
-83.6337598704073
20
1.79730796295929
30
0.000000000000000
11
-83.5337598704073
21
1.55065120195607
31
0.000000000000000
  0
LINE
  5
F10614
330
F10615
100
AcDbEntity
8
Geo
100
AcDbLine
10
-83.5337598704073
20
10.8217149116333
30
0.000000000000000
11
-83.4337598704073
21
10.7047497602223
31
0.000000000000000
  0
LINE
  5
F10616
330
F10617
100
AcDbEntity
8
Geo
100
AcDbLine
10
-83.5337598704073
20
1.55065120195607
30
0.000000000000000
11
-83.4337598704073
21
1.30831583469028
31
0.000000000000000
  0
LINE
  5
F10618
330
F10619
100
AcDbEntity
8
Geo
100
AcDbLine
10
-83.4337598704073
20
10.7047497602223
30
0.000000000000000
11
-83.3337598704073
21
10.5785460492472
31
0.000000000000000
  0
LINE
  5
F1061A
330
F1061B
100
AcDbEntity
8
Geo
100
AcDbLine
10
-83.4337598704073
20
1.30831583469028
30
0.000000000000000
11
-83.3337598704073
21
1.07066083220013
31
0.000000000000000
  0
LINE
  5
F1061C
330
F1061D
100
AcDbEntity
8
Geo
100
AcDbLine
10
-83.3337598704073
20
10.5785460492472
30
0.000000000000000
11
-83.2337598704073
21
10.4432907240875
31
0.000000000000000
  0
LINE
  5
F1061E
330
F1061F
100
AcDbEntity
8
Geo
100
AcDbLine
10
-83.3337598704073
20
1.07066083220013
30
0.000000000000000
11
-83.2337598704073
21
0.838038232506114
31
0.000000000000000
  0
LINE
  5
F10620
330
F10621
100
AcDbEntity
8
Geo
100
AcDbLine
10
-83.2337598704073
20
10.4432907240875
30
0.000000000000000
11
-83.1337598704073
21
10.2991841382659
31
0.000000000000000
  0
LINE
  5
F10622
330
F10623
100
AcDbEntity
8
Geo
100
AcDbLine
10
-83.2337598704073
20
0.838038232506114
30
0.000000000000000
11
-83.1337598704073
21
0.610792619137502
31
0.000000000000000
  0
LINE
  5
F10624
330
F10625
100
AcDbEntity
8
Geo
100
AcDbLine
10
-83.1337598704073
20
10.2991841382659
30
0.000000000000000
11
-83.0337598704073
21
10.1464397566648
31
0.000000000000000
  0
LINE
  5
F10626
330
F10627
100
AcDbEntity
8
Geo
100
AcDbLine
10
-83.1337598704073
20
0.610792619137502
30
0.000000000000000
11
-83.0337598704073
21
0.389260610701325
31
0.000000000000000
  0
LINE
  5
F10628
330
F10629
100
AcDbEntity
8
Geo
100
AcDbLine
10
-83.0337598704073
20
10.1464397566648
30
0.000000000000000
11
-82.9337598704073
21
9.98528383932169
31
0.000000000000000
  0
LINE
  5
F1062A
330
F1062B
100
AcDbEntity
8
Geo
100
AcDbLine
10
-83.0337598704073
20
0.389260610701325
30
0.000000000000000
11
-82.9337598704073
21
0.173770362249662
31
0.000000000000000
  0
LINE
  5
F1062C
330
F1062D
100
AcDbEntity
8
Geo
100
AcDbLine
10
-82.9337598704073
20
9.98528383932169
30
0.000000000000000
11
-82.8337598704073
21
9.81595510626991
31
0.000000000000000
  0
LINE
  5
F1062E
330
F1062F
100
AcDbEntity
8
Geo
100
AcDbLine
10
-82.9337598704073
20
0.173770362249662
30
0.000000000000000
11
-82.8337598704073
21
-0.0353589208159564
31
0.000000000000000
  0
LINE
  5
F10630
330
F10631
100
AcDbEntity
8
Geo
100
AcDbLine
10
-82.8337598704073
20
9.81595510626991
30
0.000000000000000
11
-82.7337598704073
21
9.63870438392326
31
0.000000000000000
  0
LINE
  5
F10632
330
F10633
100
AcDbEntity
8
Geo
100
AcDbLine
10
-82.8337598704073
20
-0.0353589208159564
30
0.000000000000000
11
-82.7337598704073
21
-0.237817455583068
31
0.000000000000000
  0
LINE
  5
F10634
330
F10635
100
AcDbEntity
8
Geo
100
AcDbLine
10
-82.7337598704073
20
9.63870438392326
30
0.000000000000000
11
-82.6337598704073
21
9.45379423352709
31
0.000000000000000
  0
LINE
  5
F10636
330
F10637
100
AcDbEntity
8
Geo
100
AcDbLine
10
-82.7337598704073
20
-0.237817455583068
30
0.000000000000000
11
-82.6337598704073
21
-0.433305340509278
31
0.000000000000000
  0
LINE
  5
F10638
330
F10639
100
AcDbEntity
8
Geo
100
AcDbLine
10
-82.6337598704073
20
9.45379423352709
30
0.000000000000000
11
-82.5337598704073
21
9.26149856222675
31
0.000000000000000
  0
LINE
  5
F1063A
330
F1063B
100
AcDbEntity
8
Geo
100
AcDbLine
10
-82.6337598704073
20
-0.433305340509278
30
0.000000000000000
11
-82.5337598704073
21
-0.621532999665973
31
0.000000000000000
  0
LINE
  5
F1063C
330
F1063D
100
AcDbEntity
8
Geo
100
AcDbLine
10
-82.5337598704073
20
9.26149856222675
30
0.000000000000000
11
-82.4337598704073
21
9.06210221732930
31
0.000000000000000
  0
LINE
  5
F1063E
330
F1063F
100
AcDbEntity
8
Geo
100
AcDbLine
10
-82.5337598704073
20
-0.621532999665973
30
0.000000000000000
11
-82.4337598704073
21
-0.802221611686753
31
0.000000000000000
  0
LINE
  5
F10640
330
F10641
100
AcDbEntity
8
Geo
100
AcDbLine
10
-82.4337598704073
20
9.06210221732930
30
0.000000000000000
11
-82.3337598704073
21
8.85590056435960
31
0.000000000000000
  0
LINE
  5
F10642
330
F10643
100
AcDbEntity
8
Geo
100
AcDbLine
10
-82.4337598704073
20
-0.802221611686753
30
0.000000000000000
11
-82.3337598704073
21
-0.975103522785117
31
0.000000000000000
  0
LINE
  5
F10644
330
F10645
100
AcDbEntity
8
Geo
100
AcDbLine
10
-82.3337598704073
20
8.85590056435960
30
0.000000000000000
11
-82.2337598704073
21
8.64319904953578
31
0.000000000000000
  0
LINE
  5
F10646
330
F10647
100
AcDbEntity
8
Geo
100
AcDbLine
10
-82.3337598704073
20
-0.975103522785117
30
0.000000000000000
11
-82.2337598704073
21
-1.13992264322965
31
0.000000000000000
  0
LINE
  5
F10648
330
F10649
100
AcDbEntity
8
Geo
100
AcDbLine
10
-82.2337598704073
20
8.64319904953578
30
0.000000000000000
11
-82.1337598704073
21
8.42431274731217
31
0.000000000000000
  0
LINE
  5
F1064A
330
F1064B
100
AcDbEntity
8
Geo
100
AcDbLine
10
-82.2337598704073
20
-1.13992264322965
30
0.000000000000000
11
-82.1337598704073
21
-1.29643482668938
31
0.000000000000000
  0
LINE
  5
F1064C
330
F1064D
100
AcDbEntity
8
Geo
100
AcDbLine
10
-82.1337598704073
20
8.42431274731217
30
0.000000000000000
11
-82.0337598704073
21
8.19956589365996
31
0.000000000000000
  0
LINE
  5
F1064E
330
F1064F
100
AcDbEntity
8
Geo
100
AcDbLine
10
-82.1337598704073
20
-1.29643482668938
30
0.000000000000000
11
-82.0337598704073
21
-1.44440823188737
31
0.000000000000000
  0
LINE
  5
F10650
330
F10651
100
AcDbEntity
8
Geo
100
AcDbLine
10
-82.0337598704073
20
8.19956589365996
30
0.000000000000000
11
-81.9337598704073
21
7.96929140577692
31
0.000000000000000
  0
LINE
  5
F10652
330
F10653
100
AcDbEntity
8
Geo
100
AcDbLine
10
-82.0337598704073
20
-1.44440823188737
30
0.000000000000000
11
-81.9337598704073
21
-1.58362366602692
31
0.000000000000000
  0
LINE
  5
F10654
330
F10655
100
AcDbEntity
8
Geo
100
AcDbLine
10
-81.9337598704073
20
7.96929140577692
30
0.000000000000000
11
-81.8337598704073
21
7.73383038893764
31
0.000000000000000
  0
LINE
  5
F10656
330
F10657
100
AcDbEntity
8
Geo
100
AcDbLine
10
-81.9337598704073
20
-1.58362366602692
30
0.000000000000000
11
-81.8337598704073
21
-1.71387490948152
31
0.000000000000000
  0
LINE
  5
F10658
330
F10659
100
AcDbEntity
8
Geo
100
AcDbLine
10
-81.8337598704073
20
7.73383038893764
30
0.000000000000000
11
-81.7337598704073
21
7.49353163121472
31
0.000000000000000
  0
LINE
  5
F1065A
330
F1065B
100
AcDbEntity
8
Geo
100
AcDbLine
10
-81.8337598704073
20
-1.71387490948152
30
0.000000000000000
11
-81.7337598704073
21
-1.83496902126769
31
0.000000000000000
  0
LINE
  5
F1065C
330
F1065D
100
AcDbEntity
8
Geo
100
AcDbLine
10
-81.7337598704073
20
7.49353163121472
30
0.000000000000000
11
-81.6337598704073
21
7.24875108681954
31
0.000000000000000
  0
LINE
  5
F1065E
330
F1065F
100
AcDbEntity
8
Geo
100
AcDbLine
10
-81.7337598704073
20
-1.83496902126769
30
0.000000000000000
11
-81.6337598704073
21
-1.94672662484819
31
0.000000000000000
  0
LINE
  5
F10660
330
F10661
100
AcDbEntity
8
Geo
100
AcDbLine
10
-81.6337598704073
20
7.24875108681954
30
0.000000000000000
11
-81.5337598704073
21
6.99985134882775
31
0.000000000000000
  0
LINE
  5
F10662
330
F10663
100
AcDbEntity
8
Geo
100
AcDbLine
10
-81.6337598704073
20
-1.94672662484819
30
0.000000000000000
11
-81.5337598704073
21
-2.04898217384223
31
0.000000000000000
  0
LINE
  5
F10664
330
F10665
100
AcDbEntity
8
Geo
100
AcDbLine
10
-81.5337598704073
20
6.99985134882775
30
0.000000000000000
11
-81.4337598704073
21
6.74720111207067
31
0.000000000000000
  0
LINE
  5
F10666
330
F10667
100
AcDbEntity
8
Geo
100
AcDbLine
10
-81.5337598704073
20
-2.04898217384223
30
0.000000000000000
11
-81.4337598704073
21
-2.14158419724913
31
0.000000000000000
  0
LINE
  5
F10668
330
F10669
100
AcDbEntity
8
Geo
100
AcDbLine
10
-81.4337598704073
20
6.74720111207067
30
0.000000000000000
11
-81.3337598704073
21
6.49117462698818
31
0.000000000000000
  0
LINE
  5
F1066A
330
F1066B
100
AcDbEntity
8
Geo
100
AcDbLine
10
-81.4337598704073
20
-2.14158419724913
30
0.000000000000000
11
-81.3337598704073
21
-2.22439552382202
31
0.000000000000000
  0
LINE
  5
F1066C
330
F1066D
100
AcDbEntity
8
Geo
100
AcDbLine
10
-81.3337598704073
20
6.49117462698818
30
0.000000000000000
11
-81.2337598704073
21
6.23215114525203
31
0.000000000000000
  0
LINE
  5
F1066E
330
F1066F
100
AcDbEntity
8
Geo
100
AcDbLine
10
-81.3337598704073
20
-2.22439552382202
30
0.000000000000000
11
-81.2337598704073
21
-2.29729348525949
31
0.000000000000000
  0
LINE
  5
F10670
330
F10671
100
AcDbEntity
8
Geo
100
AcDbLine
10
-81.2337598704073
20
6.23215114525203
30
0.000000000000000
11
-81.1337598704073
21
5.97051435798089
31
0.000000000000000
  0
LINE
  5
F10672
330
F10673
100
AcDbEntity
8
Geo
100
AcDbLine
10
-81.2337598704073
20
-2.29729348525949
30
0.000000000000000
11
-81.1337598704073
21
-2.36017009791393
31
0.000000000000000
  0
LINE
  5
F10674
330
F10675
100
AcDbEntity
8
Geo
100
AcDbLine
10
-81.1337598704073
20
5.97051435798089
30
0.000000000000000
11
-81.0337598704073
21
5.70665182737926
31
0.000000000000000
  0
LINE
  5
F10676
330
F10677
100
AcDbEntity
8
Geo
100
AcDbLine
10
-81.1337598704073
20
-2.36017009791393
30
0.000000000000000
11
-81.0337598704073
21
-2.41293222274758
31
0.000000000000000
  0
LINE
  5
F10678
330
F10679
100
AcDbEntity
8
Geo
100
AcDbLine
10
-81.0337598704073
20
5.70665182737926
30
0.000000000000000
11
-80.9337598704073
21
5.44095441264208
31
0.000000000000000
  0
LINE
  5
F1067A
330
F1067B
100
AcDbEntity
8
Geo
100
AcDbLine
10
-81.0337598704073
20
-2.41293222274758
30
0.000000000000000
11
-80.9337598704073
21
-2.45550170329923
31
0.000000000000000
  0
LINE
  5
F1067C
330
F1067D
100
AcDbEntity
8
Geo
100
AcDbLine
10
-80.9337598704073
20
5.44095441264208
30
0.000000000000000
11
-80.8337598704073
21
5.17381569097559
31
0.000000000000000
  0
LINE
  5
F1067E
330
F1067F
100
AcDbEntity
8
Geo
100
AcDbLine
10
-80.9337598704073
20
-2.45550170329923
30
0.000000000000000
11
-80.8337598704073
21
-2.48781548145730
31
0.000000000000000
  0
LINE
  5
F10680
330
F10681
100
AcDbEntity
8
Geo
100
AcDbLine
10
-80.8337598704073
20
5.17381569097559
30
0.000000000000000
11
-80.7337598704073
21
4.90563137459193
31
0.000000000000000
  0
LINE
  5
F10682
330
F10683
100
AcDbEntity
8
Geo
100
AcDbLine
10
-80.8337598704073
20
-2.48781548145730
30
0.000000000000000
11
-80.7337598704073
21
-2.50982569086772
31
0.000000000000000
  0
LINE
  5
F10684
330
F10685
100
AcDbEntity
8
Geo
100
AcDbLine
10
-80.7337598704073
20
4.90563137459193
30
0.000000000000000
11
-80.6337598704073
21
4.63679872454126
31
0.000000000000000
  0
LINE
  5
F10686
330
F10687
100
AcDbEntity
8
Geo
100
AcDbLine
10
-80.7337598704073
20
-2.50982569086772
30
0.000000000000000
11
-80.6337598704073
21
-2.52149972783828
31
0.000000000000000
  0
LINE
  5
F10688
330
F10689
100
AcDbEntity
8
Geo
100
AcDbLine
10
-80.6337598704073
20
4.63679872454126
30
0.000000000000000
11
-80.5337598704073
21
4.36771596224946
31
0.000000000000000
  0
LINE
  5
F1068A
330
F1068B
100
AcDbEntity
8
Geo
100
AcDbLine
10
-80.5337598704073
20
4.36771596224946
30
0.000000000000000
11
-80.4337598704073
21
4.09878167963331
31
0.000000000000000
  0
LINE
  5
F1068C
330
F1068D
100
AcDbEntity
8
Geo
100
AcDbLine
10
-80.5337598704073
20
11.4587245347255
30
0.000000000000000
11
-80.4337598704073
21
11.4496896851862
31
0.000000000000000
  0
LINE
  5
F1068E
330
F1068F
100
AcDbEntity
8
Geo
100
AcDbLine
10
-80.4337598704073
20
4.09878167963331
30
0.000000000000000
11
-80.3337598704073
21
3.83039424866690
31
0.000000000000000
  0
LINE
  5
F10690
330
F10691
100
AcDbEntity
8
Geo
100
AcDbLine
10
-80.4337598704073
20
11.4496896851862
30
0.000000000000000
11
-80.3337598704073
21
11.4303127976212
31
0.000000000000000
  0
LINE
  5
F10692
330
F10693
100
AcDbEntity
8
Geo
100
AcDbLine
10
-80.3337598704073
20
3.83039424866690
30
0.000000000000000
11
-80.2337598704073
21
3.56295123127369
31
0.000000000000000
  0
LINE
  5
F10694
330
F10695
100
AcDbEntity
8
Geo
100
AcDbLine
10
-80.3337598704073
20
11.4303127976212
30
0.000000000000000
11
-80.2337598704073
21
11.4006225749869
31
0.000000000000000
  0
LINE
  5
F10696
330
F10697
100
AcDbEntity
8
Geo
100
AcDbLine
10
-80.2337598704073
20
3.56295123127369
30
0.000000000000000
11
-80.1337598704073
21
3.29684879041869
31
0.000000000000000
  0
LINE
  5
F10698
330
F10699
100
AcDbEntity
8
Geo
100
AcDbLine
10
-80.2337598704073
20
11.4006225749869
30
0.000000000000000
11
-80.1337598704073
21
11.3606629973682
31
0.000000000000000
  0
LINE
  5
F1069A
330
F1069B
100
AcDbEntity
8
Geo
100
AcDbLine
10
-80.1337598704073
20
3.29684879041869
30
0.000000000000000
11
-80.0337598704073
21
3.03248110327274
31
0.000000000000000
  0
LINE
  5
F1069C
330
F1069D
100
AcDbEntity
8
Geo
100
AcDbLine
10
-80.1337598704073
20
11.3606629973682
30
0.000000000000000
11
-80.0337598704073
21
11.3104932568311
31
0.000000000000000
  0
LINE
  5
F1069E
330
F1069F
100
AcDbEntity
8
Geo
100
AcDbLine
10
-80.0337598704073
20
3.03248110327274
30
0.000000000000000
11
-79.9337598704073
21
2.77023977731846
31
0.000000000000000
  0
LINE
  5
F106A0
330
F106A1
100
AcDbEntity
8
Geo
100
AcDbLine
10
-80.0337598704073
20
11.3104932568311
30
0.000000000000000
11
-79.9337598704073
21
11.2501876697417
31
0.000000000000000
  0
LINE
  5
F106A2
330
F106A3
100
AcDbEntity
8
Geo
100
AcDbLine
10
-79.9337598704073
20
2.77023977731846
30
0.000000000000000
11
-79.8337598704073
21
2.51051327026264
31
0.000000000000000
  0
LINE
  5
F106A4
330
F106A5
100
AcDbEntity
8
Geo
100
AcDbLine
10
-79.9337598704073
20
11.2501876697417
30
0.000000000000000
11
-79.8337598704073
21
11.1798355666812
31
0.000000000000000
  0
LINE
  5
F106A6
330
F106A7
100
AcDbEntity
8
Geo
100
AcDbLine
10
-79.8337598704073
20
2.51051327026264
30
0.000000000000000
11
-79.7337598704073
21
2.25368631461437
31
0.000000000000000
  0
LINE
  5
F106A8
330
F106A9
100
AcDbEntity
8
Geo
100
AcDbLine
10
-79.8337598704073
20
11.1798355666812
30
0.000000000000000
11
-79.7337598704073
21
11.0995411601207
31
0.000000000000000
  0
LINE
  5
F106AA
330
F106AB
100
AcDbEntity
8
Geo
100
AcDbLine
10
-79.7337598704073
20
2.25368631461437
30
0.000000000000000
11
-79.6337598704073
21
2.00013934778134
31
0.000000000000000
  0
LINE
  5
F106AC
330
F106AD
100
AcDbEntity
8
Geo
100
AcDbLine
10
-79.7337598704073
20
11.0995411601207
30
0.000000000000000
11
-79.6337598704073
21
11.0094233900516
31
0.000000000000000
  0
LINE
  5
F106AE
330
F106AF
100
AcDbEntity
8
Geo
100
AcDbLine
10
-79.6337598704073
20
2.00013934778134
30
0.000000000000000
11
-79.5337598704073
21
1.75024794852841
31
0.000000000000000
  0
LINE
  5
F106B0
330
F106B1
100
AcDbEntity
8
Geo
100
AcDbLine
10
-79.6337598704073
20
11.0094233900516
30
0.000000000000000
11
-79.5337598704073
21
10.9096157477998
31
0.000000000000000
  0
LINE
  5
F106B2
330
F106B3
100
AcDbEntity
8
Geo
100
AcDbLine
10
-79.5337598704073
20
1.75024794852841
30
0.000000000000000
11
-79.4337598704073
21
1.50438228063333
31
0.000000000000000
  0
LINE
  5
F106B4
330
F106B5
100
AcDbEntity
8
Geo
100
AcDbLine
10
-79.5337598704073
20
10.9096157477998
30
0.000000000000000
11
-79.4337598704073
21
10.8002660782851
31
0.000000000000000
  0
LINE
  5
F106B6
330
F106B7
100
AcDbEntity
8
Geo
100
AcDbLine
10
-79.4337598704073
20
1.50438228063333
30
0.000000000000000
11
-79.3337598704073
21
1.26290654456367
31
0.000000000000000
  0
LINE
  5
F106B8
330
F106B9
100
AcDbEntity
8
Geo
100
AcDbLine
10
-79.4337598704073
20
10.8002660782851
30
0.000000000000000
11
-79.3337598704073
21
10.6815363610191
31
0.000000000000000
  0
LINE
  5
F106BA
330
F106BB
100
AcDbEntity
8
Geo
100
AcDbLine
10
-79.3337598704073
20
1.26290654456367
30
0.000000000000000
11
-79.2337598704073
21
1.02617843798717
31
0.000000000000000
  0
LINE
  5
F106BC
330
F106BD
100
AcDbEntity
8
Geo
100
AcDbLine
10
-79.3337598704073
20
10.6815363610191
30
0.000000000000000
11
-79.2337598704073
21
10.5536024701646
31
0.000000000000000
  0
LINE
  5
F106BE
330
F106BF
100
AcDbEntity
8
Geo
100
AcDbLine
10
-79.2337598704073
20
1.02617843798717
30
0.000000000000000
11
-79.1337598704073
21
0.794548625914692
31
0.000000000000000
  0
LINE
  5
F106C0
330
F106C1
100
AcDbEntity
8
Geo
100
AcDbLine
10
-79.2337598704073
20
10.5536024701646
30
0.000000000000000
11
-79.1337598704073
21
10.4166539140140
31
0.000000000000000
  0
LINE
  5
F106C2
330
F106C3
100
AcDbEntity
8
Geo
100
AcDbLine
10
-79.1337598704073
20
0.794548625914692
30
0.000000000000000
11
-79.0337598704073
21
0.568360221260613
31
0.000000000000000
  0
LINE
  5
F106C4
330
F106C5
100
AcDbEntity
8
Geo
100
AcDbLine
10
-79.1337598704073
20
10.4166539140140
30
0.000000000000000
11
-79.0337598704073
21
10.2708935542707
31
0.000000000000000
  0
LINE
  5
F106C6
330
F106C7
100
AcDbEntity
8
Geo
100
AcDbLine
10
-79.0337598704073
20
0.568360221260613
30
0.000000000000000
11
-78.9337598704073
21
0.347948276590176
31
0.000000000000000
  0
LINE
  5
F106C8
330
F106C9
100
AcDbEntity
8
Geo
100
AcDbLine
10
-79.0337598704073
20
10.2708935542707
30
0.000000000000000
11
-78.9337598704073
21
10.1165373055502
31
0.000000000000000
  0
LINE
  5
F106CA
330
F106CB
100
AcDbEntity
8
Geo
100
AcDbLine
10
-78.9337598704073
20
0.347948276590176
30
0.000000000000000
11
-78.8337598704073
21
0.133639287806592
31
0.000000000000000
  0
LINE
  5
F106CC
330
F106CD
100
AcDbEntity
8
Geo
100
AcDbLine
10
-78.9337598704073
20
10.1165373055502
30
0.000000000000000
11
-78.8337598704073
21
9.95381381554646
31
0.000000000000000
  0
LINE
  5
F106CE
330
F106CF
100
AcDbEntity
8
Geo
100
AcDbLine
10
-78.8337598704073
20
0.133639287806592
30
0.000000000000000
11
-78.7337598704073
21
-0.0742492894868985
31
0.000000000000000
  0
LINE
  5
F106D0
330
F106D1
100
AcDbEntity
8
Geo
100
AcDbLine
10
-78.8337598704073
20
9.95381381554646
30
0.000000000000000
11
-78.7337598704073
21
9.78296412633589
31
0.000000000000000
  0
LINE
  5
F106D2
330
F106D3
100
AcDbEntity
8
Geo
100
AcDbLine
10
-78.7337598704073
20
-0.0742492894868985
30
0.000000000000000
11
-78.6337598704073
21
-0.275409510233547
31
0.000000000000000
  0
LINE
  5
F106D4
330
F106D5
100
AcDbEntity
8
Geo
100
AcDbLine
10
-78.7337598704073
20
9.78296412633589
30
0.000000000000000
11
-78.6337598704073
21
9.60424131732256
31
0.000000000000000
  0
LINE
  5
F106D6
330
F106D7
100
AcDbEntity
8
Geo
100
AcDbLine
10
-78.6337598704073
20
-0.275409510233547
30
0.000000000000000
11
-78.5337598704073
21
-0.469543396081685
31
0.000000000000000
  0
LINE
  5
F106D8
330
F106D9
100
AcDbEntity
8
Geo
100
AcDbLine
10
-78.6337598704073
20
9.60424131732256
30
0.000000000000000
11
-78.5337598704073
21
9.41791013035173
31
0.000000000000000
  0
LINE
  5
F106DA
330
F106DB
100
AcDbEntity
8
Geo
100
AcDbLine
10
-78.5337598704073
20
-0.469543396081685
30
0.000000000000000
11
-78.4337598704073
21
-0.656363376779629
31
0.000000000000000
  0
LINE
  5
F106DC
330
F106DD
100
AcDbEntity
8
Geo
100
AcDbLine
10
-78.5337598704073
20
9.41791013035173
30
0.000000000000000
11
-78.4337598704073
21
9.22424657754822
31
0.000000000000000
  0
LINE
  5
F106DE
330
F106DF
100
AcDbEntity
8
Geo
100
AcDbLine
10
-78.4337598704073
20
-0.656363376779629
30
0.000000000000000
11
-78.3337598704073
21
-0.835592716153093
31
0.000000000000000
  0
LINE
  5
F106E0
330
F106E1
100
AcDbEntity
8
Geo
100
AcDbLine
10
-78.4337598704073
20
9.22424657754822
30
0.000000000000000
11
-78.3337598704073
21
9.02353753246004
31
0.000000000000000
  0
LINE
  5
F106E2
330
F106E3
100
AcDbEntity
8
Geo
100
AcDbLine
10
-78.3337598704073
20
-0.835592716153093
30
0.000000000000000
11
-78.2337598704073
21
-1.00696592203410
31
0.000000000000000
  0
LINE
  5
F106E4
330
F106E5
100
AcDbEntity
8
Geo
100
AcDbLine
10
-78.3337598704073
20
9.02353753246004
30
0.000000000000000
11
-78.2337598704073
21
8.81608030511299
31
0.000000000000000
  0
LINE
  5
F106E6
330
F106E7
100
AcDbEntity
8
Geo
100
AcDbLine
10
-78.2337598704073
20
-1.00696592203410
30
0.000000000000000
11
-78.1337598704073
21
-1.17022913953414
31
0.000000000000000
  0
LINE
  5
F106E8
330
F106E9
100
AcDbEntity
8
Geo
100
AcDbLine
10
-78.2337598704073
20
8.81608030511299
30
0.000000000000000
11
-78.1337598704073
21
8.60218220160576
31
0.000000000000000
  0
LINE
  5
F106EA
330
F106EB
100
AcDbEntity
8
Geo
100
AcDbLine
10
-78.1337598704073
20
-1.17022913953414
30
0.000000000000000
11
-78.0337598704073
21
-1.32514052707908
31
0.000000000000000
  0
LINE
  5
F106EC
330
F106ED
100
AcDbEntity
8
Geo
100
AcDbLine
10
-78.1337598704073
20
8.60218220160576
30
0.000000000000000
11
-78.0337598704073
21
8.38216006889780
31
0.000000000000000
  0
LINE
  5
F106EE
330
F106EF
100
AcDbEntity
8
Geo
100
AcDbLine
10
-78.0337598704073
20
-1.32514052707908
30
0.000000000000000
11
-77.9337598704073
21
-1.47147061464874
31
0.000000000000000
  0
LINE
  5
F106F0
330
F106F1
100
AcDbEntity
8
Geo
100
AcDbLine
10
-78.0337598704073
20
8.38216006889780
30
0.000000000000000
11
-77.9337598704073
21
8.15633982546441
31
0.000000000000000
  0
LINE
  5
F106F2
330
F106F3
100
AcDbEntity
8
Geo
100
AcDbLine
10
-77.9337598704073
20
-1.47147061464874
30
0.000000000000000
11
-77.8337598704073
21
-1.60900264369048
31
0.000000000000000
  0
LINE
  5
F106F4
330
F106F5
100
AcDbEntity
8
Geo
100
AcDbLine
10
-77.9337598704073
20
8.15633982546441
30
0.000000000000000
11
-77.8337598704073
21
7.92505597851414
31
0.000000000000000
  0
LINE
  5
F106F6
330
F106F7
100
AcDbEntity
8
Geo
100
AcDbLine
10
-77.8337598704073
20
-1.60900264369048
30
0.000000000000000
11
-77.7337598704073
21
-1.73753288820341
31
0.000000000000000
  0
LINE
  5
F106F8
330
F106F9
100
AcDbEntity
8
Geo
100
AcDbLine
10
-77.8337598704073
20
7.92505597851414
30
0.000000000000000
11
-77.7337598704073
21
7.68865112848372
31
0.000000000000000
  0
LINE
  5
F106FA
330
F106FB
100
AcDbEntity
8
Geo
100
AcDbLine
10
-77.7337598704073
20
-1.73753288820341
30
0.000000000000000
11
-77.6337598704073
21
-1.85687095651734
31
0.000000000000000
  0
LINE
  5
F106FC
330
F106FD
100
AcDbEntity
8
Geo
100
AcDbLine
10
-77.7337598704073
20
7.68865112848372
30
0.000000000000000
11
-77.6337598704073
21
7.44747546154454
31
0.000000000000000
  0
LINE
  5
F106FE
330
F106FF
100
AcDbEntity
8
Geo
100
AcDbLine
10
-77.6337598704073
20
-1.85687095651734
30
0.000000000000000
11
-77.5337598704073
21
-1.96684007331976
31
0.000000000000000
  0
LINE
  5
F10700
330
F10701
100
AcDbEntity
8
Geo
100
AcDbLine
10
-77.6337598704073
20
7.44747546154454
30
0.000000000000000
11
-77.5337598704073
21
7.20188623087237
31
0.000000000000000
  0
LINE
  5
F10702
330
F10703
100
AcDbEntity
8
Geo
100
AcDbLine
10
-77.5337598704073
20
-1.96684007331976
30
0.000000000000000
11
-77.4337598704073
21
-2.06727734151284
31
0.000000000000000
  0
LINE
  5
F10704
330
F10705
100
AcDbEntity
8
Geo
100
AcDbLine
10
-77.5337598704073
20
7.20188623087237
30
0.000000000000000
11
-77.4337598704073
21
6.95224722744869
31
0.000000000000000
  0
LINE
  5
F10706
330
F10707
100
AcDbEntity
8
Geo
100
AcDbLine
10
-77.4337598704073
20
-2.06727734151284
30
0.000000000000000
11
-77.3337598704073
21
-2.15803398351267
31
0.000000000000000
  0
LINE
  5
F10708
330
F10709
100
AcDbEntity
8
Geo
100
AcDbLine
10
-77.4337598704073
20
6.95224722744869
30
0.000000000000000
11
-77.3337598704073
21
6.69892824117768
31
0.000000000000000
  0
LINE
  5
F1070A
330
F1070B
100
AcDbEntity
8
Geo
100
AcDbLine
10
-77.3337598704073
20
-2.15803398351267
30
0.000000000000000
11
-77.2337598704073
21
-2.23897556163326
31
0.000000000000000
  0
LINE
  5
F1070C
330
F1070D
100
AcDbEntity
8
Geo
100
AcDbLine
10
-77.3337598704073
20
6.69892824117768
30
0.000000000000000
11
-77.2337598704073
21
6.44230451311691
31
0.000000000000000
  0
LINE
  5
F1070E
330
F1070F
100
AcDbEntity
8
Geo
100
AcDbLine
10
-77.2337598704073
20
-2.23897556163326
30
0.000000000000000
11
-77.1337598704073
21
-2.30998217722897
31
0.000000000000000
  0
LINE
  5
F10710
330
F10711
100
AcDbEntity
8
Geo
100
AcDbLine
10
-77.2337598704073
20
6.44230451311691
30
0.000000000000000
11
-77.1337598704073
21
6.18275617963334
31
0.000000000000000
  0
LINE
  5
F10712
330
F10713
100
AcDbEntity
8
Geo
100
AcDbLine
10
-77.1337598704073
20
-2.30998217722897
30
0.000000000000000
11
-77.0337598704073
21
-2.37094864830010
31
0.000000000000000
  0
LINE
  5
F10714
330
F10715
100
AcDbEntity
8
Geo
100
AcDbLine
10
-77.1337598704073
20
6.18275617963334
30
0.000000000000000
11
-77.0337598704073
21
5.92066770930778
31
0.000000000000000
  0
LINE
  5
F10716
330
F10717
100
AcDbEntity
8
Geo
100
AcDbLine
10
-77.0337598704073
20
-2.37094864830010
30
0.000000000000000
11
-76.9337598704073
21
-2.42178466529893
31
0.000000000000000
  0
LINE
  5
F10718
330
F10719
100
AcDbEntity
8
Geo
100
AcDbLine
10
-77.0337598704073
20
5.92066770930778
30
0.000000000000000
11
-76.9337598704073
21
5.65642733342220
31
0.000000000000000
  0
LINE
  5
F1071A
330
F1071B
100
AcDbEntity
8
Geo
100
AcDbLine
10
-76.9337598704073
20
-2.42178466529893
30
0.000000000000000
11
-76.8337598704073
21
-2.46241492490509
31
0.000000000000000
  0
LINE
  5
F1071C
330
F1071D
100
AcDbEntity
8
Geo
100
AcDbLine
10
-76.9337598704073
20
5.65642733342220
30
0.000000000000000
11
-76.8337598704073
21
5.39042647087323
31
0.000000000000000
  0
LINE
  5
F1071E
330
F1071F
100
AcDbEntity
8
Geo
100
AcDbLine
10
-76.8337598704073
20
-2.46241492490509
30
0.000000000000000
11
-76.7337598704073
21
-2.49277924157223
31
0.000000000000000
  0
LINE
  5
F10720
330
F10721
100
AcDbEntity
8
Geo
100
AcDbLine
10
-76.8337598704073
20
5.39042647087323
30
0.000000000000000
11
-76.7337598704073
21
5.12305914836393
31
0.000000000000000
  0
LINE
  5
F10722
330
F10723
100
AcDbEntity
8
Geo
100
AcDbLine
10
-76.7337598704073
20
-2.49277924157223
30
0.000000000000000
11
-76.6337598704073
21
-2.51283263668085
31
0.000000000000000
  0
LINE
  5
F10724
330
F10725
100
AcDbEntity
8
Geo
100
AcDbLine
10
-76.7337598704073
20
5.12305914836393
30
0.000000000000000
11
-76.6337598704073
21
4.85472141673255
31
0.000000000000000
  0
LINE
  5
F10726
330
F10727
100
AcDbEntity
8
Geo
100
AcDbLine
10
-76.6337598704073
20
-2.51283263668085
30
0.000000000000000
11
-76.5337598704073
21
-2.52254540516502
31
0.000000000000000
  0
LINE
  5
F10728
330
F10729
100
AcDbEntity
8
Geo
100
AcDbLine
10
-76.6337598704073
20
4.85472141673255
30
0.000000000000000
11
-76.5337598704073
21
4.58581076428302
31
0.000000000000000
  0
LINE
  5
F1072A
330
F1072B
100
AcDbEntity
8
Geo
100
AcDbLine
10
-76.5337598704073
20
4.58581076428302
30
0.000000000000000
11
-76.4337598704073
21
4.31672552798607
31
0.000000000000000
  0
LINE
  5
F1072C
330
F1072D
100
AcDbEntity
8
Geo
100
AcDbLine
10
-76.4337598704073
20
11.4578073946055
30
0.000000000000000
11
-76.3337598704073
21
11.4468110861778
31
0.000000000000000
  0
LINE
  5
F1072E
330
F1072F
100
AcDbEntity
8
Geo
100
AcDbLine
10
-76.4337598704073
20
4.31672552798607
30
0.000000000000000
11
-76.3337598704073
21
4.04786430342325
31
0.000000000000000
  0
LINE
  5
F10730
330
F10731
100
AcDbEntity
8
Geo
100
AcDbLine
10
-76.3337598704073
20
11.4468110861778
30
0.000000000000000
11
-76.2337598704073
21
11.4254770037891
31
0.000000000000000
  0
LINE
  5
F10732
330
F10733
100
AcDbEntity
8
Geo
100
AcDbLine
10
-76.3337598704073
20
4.04786430342325
30
0.000000000000000
11
-76.2337598704073
21
3.77962535434783
31
0.000000000000000
  0
LINE
  5
F10734
330
F10735
100
AcDbEntity
8
Geo
100
AcDbLine
10
-76.2337598704073
20
11.4254770037891
30
0.000000000000000
11
-76.1337598704073
21
11.3938367495857
31
0.000000000000000
  0
LINE
  5
F10736
330
F10737
100
AcDbEntity
8
Geo
100
AcDbLine
10
-76.2337598704073
20
3.77962535434783
30
0.000000000000000
11
-76.1337598704073
21
3.51240602273726
31
0.000000000000000
  0
LINE
  5
F10738
330
F10739
100
AcDbEntity
8
Geo
100
AcDbLine
10
-76.1337598704073
20
11.3938367495857
30
0.000000000000000
11
-76.0337598704073
21
11.3519371922314
31
0.000000000000000
  0
LINE
  5
F1073A
330
F1073B
100
AcDbEntity
8
Geo
100
AcDbLine
10
-76.1337598704073
20
3.51240602273726
30
0.000000000000000
11
-76.0337598704073
21
3.24660214021111
31
0.000000000000000
  0
LINE
  5
F1073C
330
F1073D
100
AcDbEntity
8
Geo
100
AcDbLine
10
-76.0337598704073
20
11.3519371922314
30
0.000000000000000
11
-75.9337598704073
21
11.2998403974817
31
0.000000000000000
  0
LINE
  5
F1073E
330
F1073F
100
AcDbEntity
8
Geo
100
AcDbLine
10
-76.0337598704073
20
3.24660214021111
30
0.000000000000000
11
-75.9337598704073
21
2.98260744168619
31
0.000000000000000
  0
LINE
  5
F10740
330
F10741
100
AcDbEntity
8
Geo
100
AcDbLine
10
-75.9337598704073
20
11.2998403974817
30
0.000000000000000
11
-75.8337598704073
21
11.2376235362452
31
0.000000000000000
  0
LINE
  5
F10742
330
F10743
100
AcDbEntity
8
Geo
100
AcDbLine
10
-75.9337598704073
20
2.98260744168619
30
0.000000000000000
11
-75.8337598704073
21
2.72081298213761
31
0.000000000000000
  0
LINE
  5
F10744
330
F10745
100
AcDbEntity
8
Geo
100
AcDbLine
10
-75.8337598704073
20
11.2376235362452
30
0.000000000000000
11
-75.7337598704073
21
11.1653787702708
31
0.000000000000000
  0
LINE
  5
F10746
330
F10747
100
AcDbEntity
8
Geo
100
AcDbLine
10
-75.8337598704073
20
2.72081298213761
30
0.000000000000000
11
-75.7337598704073
21
2.46160655732958
31
0.000000000000000
  0
LINE
  5
F10748
330
F10749
100
AcDbEntity
8
Geo
100
AcDbLine
10
-75.7337598704073
20
11.1653787702708
30
0.000000000000000
11
-75.6337598704073
21
11.0832131156286
31
0.000000000000000
  0
LINE
  5
F1074A
330
F1074B
100
AcDbEntity
8
Geo
100
AcDbLine
10
-75.7337598704073
20
2.46160655732958
30
0.000000000000000
11
-75.6337598704073
21
2.20537212937409
31
0.000000000000000
  0
LINE
  5
F1074C
330
F1074D
100
AcDbEntity
8
Geo
100
AcDbLine
10
-75.6337598704073
20
11.0832131156286
30
0.000000000000000
11
-75.5337598704073
21
10.9912482841872
31
0.000000000000000
  0
LINE
  5
F1074E
330
F1074F
100
AcDbEntity
8
Geo
100
AcDbLine
10
-75.6337598704073
20
2.20537212937409
30
0.000000000000000
11
-75.5337598704073
21
1.95248925796838
31
0.000000000000000
  0
LINE
  5
F10750
330
F10751
100
AcDbEntity
8
Geo
100
AcDbLine
10
-75.5337598704073
20
10.9912482841872
30
0.000000000000000
11
-75.4337598704073
21
10.8896205033217
31
0.000000000000000
  0
LINE
  5
F10752
330
F10753
100
AcDbEntity
8
Geo
100
AcDbLine
10
-75.5337598704073
20
1.95248925796838
30
0.000000000000000
11
-75.4337598704073
21
1.70333253815369
31
0.000000000000000
  0
LINE
  5
F10754
330
F10755
100
AcDbEntity
8
Geo
100
AcDbLine
10
-75.4337598704073
20
10.8896205033217
30
0.000000000000000
11
-75.3337598704073
21
10.7784803141208
31
0.000000000000000
  0
LINE
  5
F10756
330
F10757
100
AcDbEntity
8
Geo
100
AcDbLine
10
-75.4337598704073
20
1.70333253815369
30
0.000000000000000
11
-75.3337598704073
21
1.45827104542817
31
0.000000000000000
  0
LINE
  5
F10758
330
F10759
100
AcDbEntity
8
Geo
100
AcDbLine
10
-75.3337598704073
20
10.7784803141208
30
0.000000000000000
11
-75.2337598704073
21
10.6579923483904
31
0.000000000000000
  0
LINE
  5
F1075A
330
F1075B
100
AcDbEntity
8
Geo
100
AcDbLine
10
-75.3337598704073
20
1.45827104542817
30
0.000000000000000
11
-75.2337598704073
21
1.21766778903584
31
0.000000000000000
  0
LINE
  5
F1075C
330
F1075D
100
AcDbEntity
8
Geo
100
AcDbLine
10
-75.2337598704073
20
10.6579923483904
30
0.000000000000000
11
-75.1337598704073
21
10.5283350847842
31
0.000000000000000
  0
LINE
  5
F1075E
330
F1075F
100
AcDbEntity
8
Geo
100
AcDbLine
10
-75.2337598704073
20
1.21766778903584
30
0.000000000000000
11
-75.1337598704073
21
0.981879174241517
31
0.000000000000000
  0
LINE
  5
F10760
330
F10761
100
AcDbEntity
8
Geo
100
AcDbLine
10
-75.1337598704073
20
10.5283350847842
30
0.000000000000000
11
-75.0337598704073
21
10.3897005844244
31
0.000000000000000
  0
LINE
  5
F10762
330
F10763
100
AcDbEntity
8
Geo
100
AcDbLine
10
-75.1337598704073
20
0.981879174241517
30
0.000000000000000
11
-75.0337598704073
21
0.751254474388201
31
0.000000000000000
  0
LINE
  5
F10764
330
F10765
100
AcDbEntity
8
Geo
100
AcDbLine
10
-75.0337598704073
20
10.3897005844244
30
0.000000000000000
11
-74.9337598704073
21
10.2422942064009
31
0.000000000000000
  0
LINE
  5
F10766
330
F10767
100
AcDbEntity
8
Geo
100
AcDbLine
10
-75.0337598704073
20
0.751254474388201
30
0.000000000000000
11
-74.9337598704073
21
0.526135313518957
31
0.000000000000000
  0
LINE
  5
F10768
330
F10769
100
AcDbEntity
8
Geo
100
AcDbLine
10
-74.9337598704073
20
10.2422942064009
30
0.000000000000000
11
-74.8337598704073
21
10.0863343035741
31
0.000000000000000
  0
LINE
  5
F1076A
330
F1076B
100
AcDbEntity
8
Geo
100
AcDbLine
10
-74.9337598704073
20
0.526135313518957
30
0.000000000000000
11
-74.8337598704073
21
0.306855160329737
31
0.000000000000000
  0
LINE
  5
F1076C
330
F1076D
100
AcDbEntity
8
Geo
100
AcDbLine
10
-74.8337598704073
20
10.0863343035741
30
0.000000000000000
11
-74.7337598704073
21
9.92205189912816
31
0.000000000000000
  0
LINE
  5
F1076E
330
F1076F
100
AcDbEntity
8
Geo
100
AcDbLine
10
-74.8337598704073
20
0.306855160329737
30
0.000000000000000
11
-74.7337598704073
21
0.0937388342026031
31
0.000000000000000
  0
LINE
  5
F10770
330
F10771
100
AcDbEntity
8
Geo
100
AcDbLine
10
-74.7337598704073
20
9.92205189912816
30
0.000000000000000
11
-74.6337598704073
21
9.74969034435753
31
0.000000000000000
  0
LINE
  5
F10772
330
F10773
100
AcDbEntity
8
Geo
100
AcDbLine
10
-74.7337598704073
20
0.0937388342026031
30
0.000000000000000
11
-74.6337598704073
21
-0.112897975948706
31
0.000000000000000
  0
LINE
  5
F10774
330
F10775
100
AcDbEntity
8
Geo
100
AcDbLine
10
-74.6337598704073
20
9.74969034435753
30
0.000000000000000
11
-74.5337598704073
21
9.56950495819051
31
0.000000000000000
  0
LINE
  5
F10776
330
F10777
100
AcDbEntity
8
Geo
100
AcDbLine
10
-74.6337598704073
20
-0.112897975948706
30
0.000000000000000
11
-74.5337598704073
21
-0.312749179308358
31
0.000000000000000
  0
LINE
  5
F10778
330
F10779
100
AcDbEntity
8
Geo
100
AcDbLine
10
-74.5337598704073
20
9.56950495819051
30
0.000000000000000
11
-74.4337598704073
21
9.38176264898586
31
0.000000000000000
  0
LINE
  5
F1077A
330
F1077B
100
AcDbEntity
8
Geo
100
AcDbLine
10
-74.5337598704073
20
-0.312749179308358
30
0.000000000000000
11
-74.4337598704073
21
-0.505518736570282
31
0.000000000000000
  0
LINE
  5
F1077C
330
F1077D
100
AcDbEntity
8
Geo
100
AcDbLine
10
-74.4337598704073
20
9.38176264898586
30
0.000000000000000
11
-74.3337598704073
21
9.18674151916176
31
0.000000000000000
  0
LINE
  5
F1077E
330
F1077F
100
AcDbEntity
8
Geo
100
AcDbLine
10
-74.4337598704073
20
-0.505518736570282
30
0.000000000000000
11
-74.3337598704073
21
-0.690921098460820
31
0.000000000000000
  0
LINE
  5
F10780
330
F10781
100
AcDbEntity
8
Geo
100
AcDbLine
10
-74.3337598704073
20
9.18674151916176
30
0.000000000000000
11
-74.2337598704073
21
8.98473045324315
31
0.000000000000000
  0
LINE
  5
F10782
330
F10783
100
AcDbEntity
8
Geo
100
AcDbLine
10
-74.3337598704073
20
-0.690921098460820
30
0.000000000000000
11
-74.2337598704073
21
-0.868681628722423
31
0.000000000000000
  0
LINE
  5
F10784
330
F10785
100
AcDbEntity
8
Geo
100
AcDbLine
10
-74.2337598704073
20
8.98473045324315
30
0.000000000000000
11
-74.1337598704073
21
8.77602868993747
31
0.000000000000000
  0
LINE
  5
F10786
330
F10787
100
AcDbEntity
8
Geo
100
AcDbLine
10
-74.2337598704073
20
-0.868681628722423
30
0.000000000000000
11
-74.1337598704073
21
-1.03853701093198
31
0.000000000000000
  0
LINE
  5
F10788
330
F10789
100
AcDbEntity
8
Geo
100
AcDbLine
10
-74.1337598704073
20
8.77602868993747
30
0.000000000000000
11
-74.0337598704073
21
8.56094537887275
31
0.000000000000000
  0
LINE
  5
F1078A
330
F1078B
100
AcDbEntity
8
Geo
100
AcDbLine
10
-74.1337598704073
20
-1.03853701093198
30
0.000000000000000
11
-74.0337598704073
21
-1.20023563855106
31
0.000000000000000
  0
LINE
  5
F1078C
330
F1078D
100
AcDbEntity
8
Geo
100
AcDbLine
10
-74.0337598704073
20
8.56094537887275
30
0.000000000000000
11
-73.9337598704073
21
8.33979912265474
31
0.000000000000000
  0
LINE
  5
F1078E
330
F1078F
100
AcDbEntity
8
Geo
100
AcDbLine
10
-74.0337598704073
20
-1.20023563855106
30
0.000000000000000
11
-73.9337598704073
21
-1.35353798763030
31
0.000000000000000
  0
LINE
  5
F10790
330
F10791
100
AcDbEntity
8
Geo
100
AcDbLine
10
-73.9337598704073
20
8.33979912265474
30
0.000000000000000
11
-73.8337598704073
21
8.11291750492130
31
0.000000000000000
  0
LINE
  5
F10792
330
F10793
100
AcDbEntity
8
Geo
100
AcDbLine
10
-73.9337598704073
20
-1.35353798763030
30
0.000000000000000
11
-73.8337598704073
21
-1.49821697161594
31
0.000000000000000
  0
LINE
  5
F10794
330
F10795
100
AcDbEntity
8
Geo
100
AcDbLine
10
-73.8337598704073
20
8.11291750492130
30
0.000000000000000
11
-73.7337598704073
21
7.88063660509325
31
0.000000000000000
  0
LINE
  5
F10796
330
F10797
100
AcDbEntity
8
Geo
100
AcDbLine
10
-73.8337598704073
20
-1.49821697161594
30
0.000000000000000
11
-73.7337598704073
21
-1.63405827773277
31
0.000000000000000
  0
LINE
  5
F10798
330
F10799
100
AcDbEntity
8
Geo
100
AcDbLine
10
-73.7337598704073
20
7.88063660509325
30
0.000000000000000
11
-73.6337598704073
21
7.64330050054033
31
0.000000000000000
  0
LINE
  5
F1079A
330
F1079B
100
AcDbEntity
8
Geo
100
AcDbLine
10
-73.7337598704073
20
-1.63405827773277
30
0.000000000000000
11
-73.6337598704073
21
-1.76086068444535
31
0.000000000000000
  0
LINE
  5
F1079C
330
F1079D
100
AcDbEntity
8
Geo
100
AcDbLine
10
-73.6337598704073
20
7.64330050054033
30
0.000000000000000
11
-73.5337598704073
21
7.40126075689996
31
0.000000000000000
  0
LINE
  5
F1079E
330
F1079F
100
AcDbEntity
8
Geo
100
AcDbLine
10
-73.6337598704073
20
-1.76086068444535
30
0.000000000000000
11
-73.5337598704073
21
-1.87843635952723
31
0.000000000000000
  0
LINE
  5
F107A0
330
F107A1
100
AcDbEntity
8
Geo
100
AcDbLine
10
-73.5337598704073
20
7.40126075689996
30
0.000000000000000
11
-73.4337598704073
21
7.15487590730348
31
0.000000000000000
  0
LINE
  5
F107A2
330
F107A3
100
AcDbEntity
8
Geo
100
AcDbLine
10
-73.5337598704073
20
-1.87843635952723
30
0.000000000000000
11
-73.4337598704073
21
-1.98661113829649
31
0.000000000000000
  0
LINE
  5
F107A4
330
F107A5
100
AcDbEntity
8
Geo
100
AcDbLine
10
-73.4337598704073
20
7.15487590730348
30
0.000000000000000
11
-73.3337598704073
21
6.90451092128160
31
0.000000000000000
  0
LINE
  5
F107A6
330
F107A7
100
AcDbEntity
8
Geo
100
AcDbLine
10
-73.4337598704073
20
-1.98661113829649
30
0.000000000000000
11
-73.3337598704073
21
-2.08522478160571
31
0.000000000000000
  0
LINE
  5
F107A8
330
F107A9
100
AcDbEntity
8
Geo
100
AcDbLine
10
-73.3337598704073
20
6.90451092128160
30
0.000000000000000
11
-73.2337598704073
21
6.65053666413546
31
0.000000000000000
  0
LINE
  5
F107AA
330
F107AB
100
AcDbEntity
8
Geo
100
AcDbLine
10
-73.3337598704073
20
-2.08522478160571
30
0.000000000000000
11
-73.2337598704073
21
-2.17413121320394
31
0.000000000000000
  0
LINE
  5
F107AC
330
F107AD
100
AcDbEntity
8
Geo
100
AcDbLine
10
-73.2337598704073
20
6.65053666413546
30
0.000000000000000
11
-73.1337598704073
21
6.39332934757450
31
0.000000000000000
  0
LINE
  5
F107AE
330
F107AF
100
AcDbEntity
8
Geo
100
AcDbLine
10
-73.2337598704073
20
-2.17413121320394
30
0.000000000000000
11
-73.1337598704073
21
-2.25319873611927
31
0.000000000000000
  0
LINE
  5
F107B0
330
F107B1
100
AcDbEntity
8
Geo
100
AcDbLine
10
-73.1337598704073
20
6.39332934757450
30
0.000000000000000
11
-73.0337598704073
21
6.13326997243446
31
0.000000000000000
  0
LINE
  5
F107B2
330
F107B3
100
AcDbEntity
8
Geo
100
AcDbLine
10
-73.1337598704073
20
-2.25319873611927
30
0.000000000000000
11
-73.0337598704073
21
-2.32231022774138
31
0.000000000000000
  0
LINE
  5
F107B4
330
F107B5
100
AcDbEntity
8
Geo
100
AcDbLine
10
-73.0337598704073
20
6.13326997243446
30
0.000000000000000
11
-72.9337598704073
21
5.87074376430148
31
0.000000000000000
  0
LINE
  5
F107B6
330
F107B7
100
AcDbEntity
8
Geo
100
AcDbLine
10
-73.0337598704073
20
-2.32231022774138
30
0.000000000000000
11
-72.9337598704073
21
-2.38136331331505
31
0.000000000000000
  0
LINE
  5
F107B8
330
F107B9
100
AcDbEntity
8
Geo
100
AcDbLine
10
-72.9337598704073
20
5.87074376430148
30
0.000000000000000
11
-72.8337598704073
21
5.60613960287789
31
0.000000000000000
  0
LINE
  5
F107BA
330
F107BB
100
AcDbEntity
8
Geo
100
AcDbLine
10
-72.9337598704073
20
-2.38136331331505
30
0.000000000000000
11
-72.8337598704073
21
-2.43027051758781
31
0.000000000000000
  0
LINE
  5
F107BC
330
F107BD
100
AcDbEntity
8
Geo
100
AcDbLine
10
-72.8337598704073
20
5.60613960287789
30
0.000000000000000
11
-72.7337598704073
21
5.33984944593534
31
0.000000000000000
  0
LINE
  5
F107BE
330
F107BF
100
AcDbEntity
8
Geo
100
AcDbLine
10
-72.8337598704073
20
-2.43027051758781
30
0.000000000000000
11
-72.7337598704073
21
-2.46895939438684
31
0.000000000000000
  0
LINE
  5
F107C0
330
F107C1
100
AcDbEntity
8
Geo
100
AcDbLine
10
-72.7337598704073
20
5.33984944593534
30
0.000000000000000
11
-72.6337598704073
21
5.07226774870826
31
0.000000000000000
  0
LINE
  5
F107C2
330
F107C3
100
AcDbEntity
8
Geo
100
AcDbLine
10
-72.7337598704073
20
-2.46895939438684
30
0.000000000000000
11
-72.6337598704073
21
-2.49737263393343
31
0.000000000000000
  0
LINE
  5
F107C4
330
F107C5
100
AcDbEntity
8
Geo
100
AcDbLine
10
-84.6337598704073
20
4.46795211754554
30
0.000000000000000
11
-84.6337598704073
21
4.46795211754554
31
0.000000000000000
  0
LINE
  5
F107C6
330
F107C7
100
AcDbEntity
8
Geo
100
AcDbLine
10
-84.6337598704073
20
4.46795211754554
30
0.000000000000000
11
-84.6337598704073
21
4.46795211754554
31
0.000000000000000
  0
LINE
  5
F107C8
330
F107C9
100
AcDbEntity
8
Geo
100
AcDbLine
10
-85.6337598704073
20
4.46795211754554
30
0.000000000000000
11
-85.3337598704073
21
4.46795211754554
31
0.000000000000000
  0
LINE
  5
F107CA
330
F107CB
100
AcDbEntity
8
Geo
100
AcDbLine
10
-85.2062598704073
20
4.46795211754554
30
0.000000000000000
11
-85.1212598704073
21
4.46795211754554
31
0.000000000000000
  0
LINE
  5
F107CC
330
F107CD
100
AcDbEntity
8
Geo
100
AcDbLine
10
-84.9087598704073
20
4.46795211754554
30
0.000000000000000
11
-84.4837598704073
21
4.46795211754554
31
0.000000000000000
  0
LINE
  5
F107CE
330
F107CF
100
AcDbEntity
8
Geo
100
AcDbLine
10
-84.3562598704073
20
4.46795211754554
30
0.000000000000000
11
-84.2712598704073
21
4.46795211754554
31
0.000000000000000
  0
LINE
  5
F107D0
330
F107D1
100
AcDbEntity
8
Geo
100
AcDbLine
10
-84.0587598704073
20
4.46795211754554
30
0.000000000000000
11
-83.6337598704073
21
4.46795211754554
31
0.000000000000000
  0
LINE
  5
F107D2
330
F107D3
100
AcDbEntity
8
Geo
100
AcDbLine
10
4.36624012959271
20
10.9679521175455
30
0.000000000000000
11
4.36624012959271
21
4.46795211754554
31
0.000000000000000
  0
LINE
  5
F107D4
330
F107D5
100
AcDbEntity
8
Geo
100
AcDbLine
10
-84.4248447977556
20
4.46795211754554
30
0.000000000000000
11
-84.6331506974264
21
-1.49714838575196
31
0.000000000000000
  0
ARC
  5
F107D6
330
F107D7
100
AcDbEntity
8
Geo
100
AcDbCircle
10
-83.6337598704073
20
-1.53204788245446
30
0.000000000000000
 40
1.00000000000000
100
AcDbArc
 50
178.000000000000
 51
270.000000000000
  0
LINE
  5
F107D8
330
F107D9
100
AcDbEntity
8
Geo
100
AcDbLine
10
-83.6337598704073
20
-2.53204788245446
30
0.000000000000000
11
-67.6337598704073
21
-2.53204788245446
31
0.000000000000000
  0
LINE
  5
F107DA
330
F107DB
100
AcDbEntity
8
Geo
100
AcDbLine
10
-67.6337598704073
20
-2.53204788245446
30
0.000000000000000
11
-67.6337598704073
21
-2.23204788245446
31
0.000000000000000
  0
LINE
  5
F107DC
330
F107DD
100
AcDbEntity
8
Geo
100
AcDbLine
10
-67.6337598704073
20
-2.23204788245446
30
0.000000000000000
11
-54.6337598704073
21
-2.23204788245446
31
0.000000000000000
  0
LINE
  5
F107DE
330
F107DF
100
AcDbEntity
8
Geo
100
AcDbLine
10
-54.6337598704073
20
-2.23204788245446
30
0.000000000000000
11
-54.6337598704073
21
-2.53204788245446
31
0.000000000000000
  0
LINE
  5
F107E0
330
F107E1
100
AcDbEntity
8
Geo
100
AcDbLine
10
-54.6337598704073
20
-2.53204788245446
30
0.000000000000000
11
3.86624012959271
21
-2.53204788245446
31
0.000000000000000
  0
LINE
  5
F107E2
330
F107E3
100
AcDbEntity
8
Geo
100
AcDbLine
10
3.86624012959271
20
-2.53204788245446
30
0.000000000000000
11
4.36624012959271
21
-2.03204788245446
31
0.000000000000000
  0
LINE
  5
F107E4
330
F107E5
100
AcDbEntity
8
Geo
100
AcDbLine
10
-83.6337598704073
20
11.4679521175455
30
0.000000000000000
11
-83.6337598704073
21
-2.53204788245446
31
0.000000000000000
  0
LINE
  5
F107E6
330
F107E7
100
AcDbEntity
8
Geo
100
AcDbLine
10
-83.6337598704073
20
11.4679521175455
30
0.000000000000000
11
-83.6337598704073
21
-2.53204788245446
31
0.000000000000000
  0
LINE
  5
F107E8
330
F107E9
100
AcDbEntity
8
Geo
100
AcDbLine
10
-67.6337598704073
20
11.4679521175455
30
0.000000000000000
11
-67.6337598704073
21
-2.53204788245446
31
0.000000000000000
  0
LINE
  5
F107EA
330
F107EB
100
AcDbEntity
8
Geo
100
AcDbLine
10
-67.6337598704073
20
11.1679521175455
30
0.000000000000000
11
-67.6337598704073
21
-2.23204788245446
31
0.000000000000000
  0
LINE
  5
F107EC
330
F107ED
100
AcDbEntity
8
Geo
100
AcDbLine
10
-54.6337598704073
20
11.1679521175455
30
0.000000000000000
11
-54.6337598704073
21
-2.23204788245446
31
0.000000000000000
  0
LINE
  5
F107EE
330
F107EF
100
AcDbEntity
8
Geo
100
AcDbLine
10
-54.6337598704073
20
11.1679521175455
30
0.000000000000000
11
-54.6337598704073
21
-2.23204788245446
31
0.000000000000000
  0
LINE
  5
F107F0
330
F107F1
100
AcDbEntity
8
Geo
100
AcDbLine
10
3.86624012959271
20
11.4679521175455
30
0.000000000000000
11
3.86624012959271
21
-2.53204788245446
31
0.000000000000000
  0
LINE
  5
F107F2
330
F107F3
100
AcDbEntity
8
Geo
100
AcDbLine
10
4.36624012959271
20
10.9679521175455
30
0.000000000000000
11
4.36624012959271
21
-2.03204788245446
31
0.000000000000000
  0
LWPOLYLINE
  5
F107F4
330
F107F5
100
AcDbEntity
8
Rahmen
100
AcDbPolyline
90
   4
70
   1
43
   0.0
 10
-125.456642716452
 20
102.921180836626
 10
134.442813608845
 20
102.921180836626
 10
134.442813608845
 20
-102.948428255041
 10
-125.456642716452
 20
-102.948428255041
  0
TEXT
  5
F107F6
330
F107F7
 100
AcDbEntity
8
Text
100
AcDbText
10
-124.423719166397
20
-102.448428255041
30
0.000000000000000
40
1.00000000000000
1
ISBESketcher
100
AcDbText
  0
LWPOLYLINE
  5
F107F8
330
F107F9
100
AcDbEntity
8
Rahmen
100
AcDbPolyline
90
   4
70
   1
43
   0.0
 10
94.4766177874986
 20
-99.9291132625739
 10
134.442813608845
 20
-99.9291132625739
 10
134.442813608845
 20
-102.948428255041
 10
94.4766177874986
 20
-102.948428255041
  0
TEXT
  5
F107FA
330
F107FB
 100
AcDbEntity
8
Text
100
AcDbText
10
95.5000000000000
20
-102.004828748117
30
0.000000000000000
40
0.750000000000000
1
Created by:
100
AcDbText
  0
TEXT
  5
F107FC
330
F107FD
 100
AcDbEntity
8
Text
100
AcDbText
10
120.394425071042
20
-102.004828748117
30
0.000000000000000
40
0.750000000000000
1
nsarkol
100
AcDbText
  0
LWPOLYLINE
  5
F107FE
330
F107FF
100
AcDbEntity
8
Rahmen
100
AcDbPolyline
90
   4
70
   1
43
   0.0
 10
54.4309663084556
 20
-99.9291132625739
 10
94.4766177874986
 20
-99.9291132625739
 10
94.4766177874986
 20
-102.948428255041
 10
54.4309663084556
 20
-102.948428255041
  0
TEXT
  5
F10800
330
F10801
 100
AcDbEntity
8
Text
100
AcDbText
10
55.5000000000000
20
-102.004828748117
30
0.000000000000000
40
0.750000000000000
1
Created for:
100
AcDbText
  0
TEXT
  5
F10802
330
F10803
 100
AcDbEntity
8
Text
100
AcDbText
10
0.000000000000000
20
0.250000000000000
30
0.000000000000000
40
0.750000000000000
1

100
AcDbText
  0
LWPOLYLINE
  5
F10804
330
F10805
100
AcDbEntity
8
Rahmen
100
AcDbPolyline
90
   4
70
   1
43
   0.0
 10
121.094263115831
 20
-96.9892539278028
 10
134.442813608845
 20
-96.9892539278028
 10
134.442813608845
 20
-99.9291132625739
 10
121.094263115831
 20
-99.9291132625739
  0
TEXT
  5
F10806
330
F10807
 100
AcDbEntity
8
Text
100
AcDbText
10
122.166666666667
20
-99.0048287481169
30
0.000000000000000
40
0.750000000000000
1
Pages
100
AcDbText
  0
TEXT
  5
F10808
330
F10809
 100
AcDbEntity
8
Text
100
AcDbText
10
0.000000000000000
20
0.250000000000000
30
0.000000000000000
40
0.750000000000000
1

100
AcDbText
  0
LWPOLYLINE
  5
F1080A
330
F1080B
100
AcDbEntity
8
Rahmen
100
AcDbPolyline
90
   4
70
   1
43
   0.0
 10
121.094263115831
 20
-93.9699389353353
 10
134.442813608845
 20
-93.9699389353353
 10
134.442813608845
 20
-96.9892539278028
 10
121.094263115831
 20
-96.9892539278028
  0
TEXT
  5
F1080C
330
F1080D
 100
AcDbEntity
8
Text
100
AcDbText
10
122.166666666667
20
-96.0048287481169
30
0.000000000000000
40
0.750000000000000
1
Page
100
AcDbText
  0
TEXT
  5
F1080E
330
F1080F
 100
AcDbEntity
8
Text
100
AcDbText
10
0.000000000000000
20
0.250000000000000
30
0.000000000000000
40
0.750000000000000
1

100
AcDbText
  0
LWPOLYLINE
  5
F10810
330
F10811
100
AcDbEntity
8
Rahmen
100
AcDbPolyline
90
   4
70
   1
43
   0.0
 10
54.4309663084556
 20
-93.9699389353353
 10
121.094263115831
 20
-93.9699389353353
 10
121.094263115831
 20
-99.9291132625739
 10
54.4309663084556
 20
-99.9291132625739
  0
TEXT
  5
F10812
330
F10813
 100
AcDbEntity
8
Text
100
AcDbText
10
55.5000000000000
20
-96.0048287481169
30
0.000000000000000
40
0.750000000000000
1
Date:
100
AcDbText
  0
TEXT
  5
F10814
330
F10815
 100
AcDbEntity
8
Text
100
AcDbText
10
84.5359235389280
20
-99.0048287481169
30
0.000000000000000
40
0.750000000000000
1
05.07.2016
100
AcDbText
  0
LWPOLYLINE
  5
F10816
330
F10817
100
AcDbEntity
8
Rahmen
100
AcDbPolyline
90
   4
70
   1
43
   0.0
 10
54.4309663084556
 20
-87.9313089504003
 10
134.442813608845
 20
-87.9313089504003
 10
134.442813608845
 20
-93.9699389353353
 10
54.4309663084556
 20
-93.9699389353353
  0
TEXT
  5
F10818
330
F10819
 100
AcDbEntity
8
Text
100
AcDbText
10
0.000000000000000
20
0.500000000000000
30
0.000000000000000
40
1.50000000000000
1

100
AcDbText
  0
TEXT
  5
F1081A
330
F1081B
 100
AcDbEntity
8
Text
100
AcDbText
10
65.4589571119242
20
-92.6695198841069
30
0.000000000000000
40
2.50000000000000
1
VHRS 4 140 089 14 03 100 S
100
AcDbText
  0
LWPOLYLINE
  5
F1081C
330
F1081D
100
AcDbEntity
8
Rahmen
100
AcDbPolyline
90
   4
70
   1
43
   0.0
 10
94.4766177874986
 20
-81.9721346231617
 10
134.442813608845
 20
-81.9721346231617
 10
134.442813608845
 20
-87.9313089504003
 10
94.4766177874986
 20
-87.9313089504003
  0
TEXT
  5
F1081E
330
F1081F
 100
AcDbEntity
8
Text
100
AcDbText
10
95.5000000000000
20
-84.0048287481169
30
0.000000000000000
40
0.750000000000000
1
Work piece material:
100
AcDbText
  0
TEXT
  5
F10820
330
F10821
 100
AcDbEntity
8
Text
100
AcDbText
10
0.000000000000000
20
0.250000000000000
30
0.000000000000000
40
0.750000000000000
1

100
AcDbText
  0
LWPOLYLINE
  5
F10822
330
F10823
100
AcDbEntity
8
Rahmen
100
AcDbPolyline
90
   4
70
   1
43
   0.0
 10
54.4309663084556
 20
-81.9721346231617
 10
94.4766177874986
 20
-81.9721346231617
 10
94.4766177874986
 20
-87.9313089504003
 10
54.4309663084556
 20
-87.9313089504003
  0
TEXT
  5
F10824
330
F10825
 100
AcDbEntity
8
Text
100
AcDbText
10
55.5000000000000
20
-84.0048287481169
30
0.000000000000000
40
0.750000000000000
1
Tool material:
100
AcDbText
  0
TEXT
  5
F10826
330
F10827
 100
AcDbEntity
8
Text
100
AcDbText
10
0.000000000000000
20
0.250000000000000
30
0.000000000000000
40
0.750000000000000
1

100
AcDbText
  0
LWPOLYLINE
  5
F10828
330
F10829
100
AcDbEntity
8
Rahmen
100
AcDbPolyline
90
   4
70
   1
43
   0.0
 10
94.4766177874986
 20
-78.9528196306942
 10
134.442813608845
 20
-78.9528196306942
 10
134.442813608845
 20
-81.9721346231617
 10
94.4766177874986
 20
-81.9721346231617
  0
TEXT
  5
F1082A
330
F1082B
 100
AcDbEntity
8
Text
100
AcDbText
10
0.000000000000000
20
0.500000000000000
30
0.000000000000000
40
1.50000000000000
1

100
AcDbText
  0
TEXT
  5
F1082C
330
F1082D
 100
AcDbEntity
8
Text
100
AcDbText
10
0.000000000000000
20
0.250000000000000
30
0.000000000000000
40
0.750000000000000
1

100
AcDbText
  0
LWPOLYLINE
  5
F1082E
330
F1082F
100
AcDbEntity
8
Rahmen
100
AcDbPolyline
90
   4
70
   1
43
   0.0
 10
54.4309663084556
 20
-78.9528196306942
 10
94.4766177874986
 20
-78.9528196306942
 10
94.4766177874986
 20
-81.9721346231617
 10
54.4309663084556
 20
-81.9721346231617
  0
TEXT
  5
F10830
330
F10831
 100
AcDbEntity
8
Text
100
AcDbText
10
55.5000000000000
20
-81.0048287481169
30
0.000000000000000
40
0.750000000000000
1
Scale:
100
AcDbText
  0
TEXT
  5
F10832
330
F10833
 100
AcDbEntity
8
Text
100
AcDbText
10
81.1492538191593
20
-81.0048287481169
30
0.000000000000000
40
0.750000000000000
1
2 : 1
100
AcDbText
0
VIEWPORT
5
294
102
{ACAD_XDICTIONARY
360
58A
102
}
330
25D
100
AcDbEntity
67
1
8
0
60
1
100
AcDbViewport
10
0.0
20
0.0
30
0.0
40
10.0
41
10.0
68
-1
69
1
12
0.0
22
0.0
13
0.0
23
0.0
14
1.0
24
1.0
15
0.0
25
0.0
16
0.0
26
0.0
36
1.0
17
0.0
27
0.0
37
0.0
42
0.0
43
0.0
44
0.0
45
10.0
50
0.0
51
0.0000000000007958
72
100
90
32800
1

281
0
71
0
74
0
110
0.0
120
0.0
130
0.0
111
1.0
121
0.0
131
0.0
112
0.0
122
1.0
132
0.0
79
0
146
0.0
1001
VD_INVISIBLE_NOT_FOR_READ
1000
VD_INVISIBLE_NOT_FOR_READ
0
VIEWPORT
5
295
102
{ACAD_XDICTIONARY
360
58C
102
}
330
25D
100
AcDbEntity
67
1
8
0
60
1
100
AcDbViewport
10
0.0
20
0.0
30
0.0
40
10.0
41
10.0
68
0
69
2
12
0.0
22
0.0
13
0.0
23
0.0
14
1.0
24
1.0
15
0.0
25
0.0
16
0.0
26
0.0
36
1.0
17
0.0
27
0.0
37
0.0
42
0.0
43
0.0
44
0.0
45
10.0
50
0.0
51
0.0000000000007958
72
100
90
163872
1

281
0
71
0
74
0
110
0.0
120
0.0
130
0.0
111
1.0
121
0.0
131
0.0
112
0.0
122
1.0
132
0.0
79
0
146
0.0
1001
VD_INVISIBLE_NOT_FOR_READ
1000
VD_INVISIBLE_NOT_FOR_READ
0
ENDSEC
0
SECTION
2
OBJECTS
0
DICTIONARY
5
13
330
0
100
AcDbDictionary
281
1
3
ACAD_COLOR
350
FA7
3
ACAD_GROUP
350
14
3
ACAD_LAYOUT
350
FCF
3
ACAD_MATERIAL
350
F7A
3
ACAD_MLEADERSTYLE
350
FCD
3
ACAD_MLINESTYLE
350
16
3
ACAD_PLOTSETTINGS
350
17
3
ACAD_PLOTSTYLENAME
350
18
3
ACAD_SCALELIST
350
FAB
3
ACAD_TABLESTYLE
350
FA8
3
ACAD_VISUALSTYLE
350
F93
3
ACDB_RECOMPOSE_DATA
350
107E
3
AcDbVariableDictionary
350
FF0
3
DWGPROPS
350
107F
0
DICTIONARY
5
F10019
330
F10018
100
AcDbDictionary
280
1
281
1
3
ACAD_MTEXT_2008_RT
360
F1001A
0
DICTIONARY
5
F1001E
330
F1001D
100
AcDbDictionary
280
1
281
1
3
ACAD_MTEXT_2008_RT
360
F1001F
0
DICTIONARY
5
F10028
330
F10027
100
AcDbDictionary
280
1
281
1
3
ACAD_MTEXT_2008_RT
360
F10029
0
DICTIONARY
5
F1002D
330
F1002C
100
AcDbDictionary
280
1
281
1
3
ACAD_MTEXT_2008_RT
360
F1002E
0
DICTIONARY
5
F10005
330
F10004
100
AcDbDictionary
280
1
281
1
3
ACAD_MTEXT_2008_RT
360
F10006
0
DICTIONARY
5
F1000F
330
F1000E
100
AcDbDictionary
280
1
281
1
3
ACAD_MTEXT_2008_RT
360
F10010
0
DICTIONARY
5
F1000A
330
F10009
100
AcDbDictionary
280
1
281
1
3
ACAD_MTEXT_2008_RT
360
F1000B
0
DICTIONARY
5
F10014
330
F10013
100
AcDbDictionary
280
1
281
1
3
ACAD_MTEXT_2008_RT
360
F10015
0
DICTIONARY
5
F10023
330
F10022
100
AcDbDictionary
280
1
281
1
3
ACAD_MTEXT_2008_RT
360
F10024
0
DICTIONARY
5
FA7
102
{ACAD_REACTORS
330
13
102
}
330
13
100
AcDbDictionary
281
1
0
DICTIONARY
5
14
330
13
100
AcDbDictionary
281
1
0
DICTIONARY
5
FCF
102
{ACAD_REACTORS
330
13
102
}
330
13
100
AcDbDictionary
281
1
3
Layout1
350
FD1
3
Model
350
FD0
0
DICTIONARY
5
F7A
102
{ACAD_REACTORS
330
13
102
}
330
13
100
AcDbDictionary
281
1
3
ByBlock
350
F83
3
ByLayer
350
F7B
3
Global
350
F8B
0
DICTIONARY
5
FCD
102
{ACAD_REACTORS
330
13
102
}
330
13
100
AcDbDictionary
281
1
3
Standard
350
FCE
0
DICTIONARY
5
16
330
13
100
AcDbDictionary
281
1
3
Standard
350
FAA
0
DICTIONARY
5
17
102
{ACAD_REACTORS
330
13
102
}
330
13
100
AcDbDictionary
281
1
0
ACDBDICTIONARYWDFLT
5
18
102
{ACAD_REACTORS
330
13
102
}
330
13
100
AcDbDictionary
281
1
3
Normal
350
19
100
AcDbDictionaryWithDefault
340
19
0
DICTIONARY
5
FAB
102
{ACAD_REACTORS
330
13
102
}
330
13
100
AcDbDictionary
281
1
3
A0
350
FAC
3
A1
350
FAD
3
A2
350
FAE
3
A3
350
FAF
3
A4
350
FB0
3
A5
350
FB1
3
A6
350
FB2
3
A7
350
FB3
3
A8
350
FB4
3
A9
350
FB5
3
B0
350
FB6
3
B1
350
FB7
3
B2
350
FB8
3
B3
350
FB9
3
B4
350
FBA
3
B5
350
FBB
3
B6
350
FBC
3
B7
350
FBD
3
B8
350
FBE
3
B9
350
FBF
3
C0
350
FC0
3
C1
350
FC1
3
C2
350
FC2
3
C3
350
FC3
3
C4
350
FC4
3
C5
350
FC5
3
C6
350
FC6
3
C7
350
FC7
3
C8
350
FC8
3
C9
350
FC9
3
D0
350
FCA
3
D1
350
FCB
3
D2
350
FCC
0
DICTIONARY
5
FA8
102
{ACAD_REACTORS
330
13
102
}
330
13
100
AcDbDictionary
281
1
3
Standard
350
FA9
0
DICTIONARY
5
F93
102
{ACAD_REACTORS
330
13
102
}
330
13
100
AcDbDictionary
281
1
3
2dWireframe
350
F99
3
3D Hidden
350
F9B
3
3dWireframe
350
F9A
3
Basic
350
F98
3
Brighten
350
F9F
3
ColorChange
350
FA3
3
Conceptual
350
F9C
3
Dim
350
F9E
3
EdgeColorOff
350
FA6
3
Facepattern
350
FA2
3
Flat
350
F94
3
FlatWithEdges
350
F95
3
Gouraud
350
F96
3
GouraudWithEdges
350
F97
3
JitterOff
350
FA4
3
Linepattern
350
FA1
3
OverhangOff
350
FA5
3
Realistic
350
F9D
3
Thicken
350
FA0
0
XRECORD
5
107E
102
{ACAD_REACTORS
330
13
102
}
330
13
100
AcDbXrecord
280
1
90
1
330
FA9
330
F10018
330
F1001D
330
F10027
330
F1002C
330
F10004
330
F1000E
330
F10009
330
F10013
330
F10022
0
XRECORD
5
F1001A
102
{ACAD_REACTORS
330
F10019
102
}
330
F10019
100
AcDbXrecord
280
1
40
48458.0
1
30
0
XRECORD
5
F1001F
102
{ACAD_REACTORS
330
F1001E
102
}
330
F1001E
100
AcDbXrecord
280
1
40
48458.0
1
59
0
XRECORD
5
F10029
102
{ACAD_REACTORS
330
F10028
102
}
330
F10028
100
AcDbXrecord
280
1
40
48458.0
1
17
0
XRECORD
5
F1002E
102
{ACAD_REACTORS
330
F1002D
102
}
330
F1002D
100
AcDbXrecord
280
1
40
48458.0
1
89
0
XRECORD
5
F10006
102
{ACAD_REACTORS
330
F10005
102
}
330
F10005
100
AcDbXrecord
280
1
40
48458.0
1
2°
0
XRECORD
5
F10010
102
{ACAD_REACTORS
330
F1000F
102
}
330
F1000F
100
AcDbXrecord
280
1
40
48458.0
1
R1
0
XRECORD
5
F1000B
102
{ACAD_REACTORS
330
F1000A
102
}
330
F1000A
100
AcDbXrecord
280
1
40
48458.0
1
14
0
XRECORD
5
F10015
102
{ACAD_REACTORS
330
F10014
102
}
330
F10014
100
AcDbXrecord
280
1
40
48458.0
1
13.4
0
LAYOUT
5
FD1
102
{ACAD_XDICTIONARY
360
10A9
102
}
102
{ACAD_REACTORS
330
FCF
102
}
330
FCF
100
AcDbPlotSettings
1

2
Microsoft XPS Document Writer
4

6

40
0.0
41
0.0
42
0.0
43
0.0
44
0.0
45
0.0
46
0.0
47
0.0
48
0.0
49
0.0
140
0.0
141
0.0
142
1.0
143
1.0
70
688
72
0
73
0
74
5
7

75
16
147
1.0
148
0.0
149
0.0
100
AcDbLayout
1
Layout1
70
1
71
1
10
0.0
20
0.0
11
12.0
21
9.0
12
0.0
22
0.0
32
0.0
14
1.000000000000000E+20
24
1.000000000000000E+20
34
1.000000000000000E+20
15
-1.000000000000000E+20
25
-1.000000000000000E+20
35
-1.000000000000000E+20
146
0.0
13
0.0
23
0.0
33
0.0
16
1.0
26
0.0
36
0.0
17
0.0
27
1.0
37
0.0
76
0
330
25D
0
LAYOUT
5
FD0
102
{ACAD_XDICTIONARY
360
10A7
102
}
102
{ACAD_REACTORS
330
FCF
102
}
330
FCF
100
AcDbPlotSettings
1

2
Microsoft XPS Document Writer
4

6

40
0.0
41
0.0
42
0.0
43
0.0
44
0.0
45
0.0
46
0.0
47
0.0
48
0.0
49
0.0
140
0.0
141
0.0
142
1.0
143
1.0
70
1712
72
0
73
0
74
0
7

75
0
147
1.0
148
0.0
149
0.0
100
AcDbLayout
1
Model
70
1
71
0
10
0.0
20
0.0
11
12.0
21
9.0
12
0.0
22
0.0
32
0.0
14
0.0
24
0.0
34
0.0
15
0.0
25
0.0
35
0.0
146
0.0
13
0.0
23
0.0
33
0.0
16
1.0
26
0.0
36
0.0
17
0.0
27
1.0
37
0.0
76
0
330
261
331
26B
0
MATERIAL
5
F83
102
{ACAD_XDICTIONARY
360
F84
102
}
102
{ACAD_REACTORS
330
F7A
102
}
330
F7A
100
AcDbMaterial
1
ByBlock
72
0
43
0.0208333333333333
43
0.0
43
0.0
43
0.0
43
0.0
43
0.0208333333333333
43
0.0
43
0.0
43
0.0
43
0.0
43
1.0
43
0.0
43
0.0
43
0.0
43
0.0
43
1.0
77
0
47
0.0208333333333333
47
0.0
47
0.0
47
0.0
47
0.0
47
0.0208333333333333
47
0.0
47
0.0
47
0.0
47
0.0
47
1.0
47
0.0
47
0.0
47
0.0
47
0.0
47
1.0
171
0
49
0.0208333333333333
49
0.0
49
0.0
49
0.0
49
0.0
49
0.0208333333333333
49
0.0
49
0.0
49
0.0
49
0.0
49
1.0
49
0.0
49
0.0
49
0.0
49
0.0
49
1.0
175
0
142
0.0208333333333333
142
0.0
142
0.0
142
0.0
142
0.0
142
0.0208333333333333
142
0.0
142
0.0
142
0.0
142
0.0
142
1.0
142
0.0
142
0.0
142
0.0
142
0.0
142
1.0
179
0
144
0.0208333333333333
144
0.0
144
0.0
144
0.0
144
0.0
144
0.0208333333333333
144
0.0
144
0.0
144
0.0
144
0.0
144
1.0
144
0.0
144
0.0
144
0.0
144
0.0
144
1.0
147
0.0208333333333333
147
0.0
147
0.0
147
0.0
147
0.0
147
0.0208333333333333
147
0.0
147
0.0
147
0.0
147
0.0
147
1.0
147
0.0
147
0.0
147
0.0
147
0.0
147
1.0
0
MATERIAL
5
F7B
102
{ACAD_XDICTIONARY
360
F7C
102
}
102
{ACAD_REACTORS
330
F7A
102
}
330
F7A
100
AcDbMaterial
1
ByLayer
72
0
43
0.0208333333333333
43
0.0
43
0.0
43
0.0
43
0.0
43
0.0208333333333333
43
0.0
43
0.0
43
0.0
43
0.0
43
1.0
43
0.0
43
0.0
43
0.0
43
0.0
43
1.0
77
0
47
0.0208333333333333
47
0.0
47
0.0
47
0.0
47
0.0
47
0.0208333333333333
47
0.0
47
0.0
47
0.0
47
0.0
47
1.0
47
0.0
47
0.0
47
0.0
47
0.0
47
1.0
171
0
49
0.0208333333333333
49
0.0
49
0.0
49
0.0
49
0.0
49
0.0208333333333333
49
0.0
49
0.0
49
0.0
49
0.0
49
1.0
49
0.0
49
0.0
49
0.0
49
0.0
49
1.0
175
0
142
0.0208333333333333
142
0.0
142
0.0
142
0.0
142
0.0
142
0.0208333333333333
142
0.0
142
0.0
142
0.0
142
0.0
142
1.0
142
0.0
142
0.0
142
0.0
142
0.0
142
1.0
179
0
144
0.0208333333333333
144
0.0
144
0.0
144
0.0
144
0.0
144
0.0208333333333333
144
0.0
144
0.0
144
0.0
144
0.0
144
1.0
144
0.0
144
0.0
144
0.0
144
0.0
144
1.0
147
0.0208333333333333
147
0.0
147
0.0
147
0.0
147
0.0
147
0.0208333333333333
147
0.0
147
0.0
147
0.0
147
0.0
147
1.0
147
0.0
147
0.0
147
0.0
147
0.0
147
1.0
0
MATERIAL
5
F8B
102
{ACAD_XDICTIONARY
360
F8C
102
}
102
{ACAD_REACTORS
330
F7A
102
}
330
F7A
100
AcDbMaterial
1
Global
72
0
43
0.0208333333333333
43
0.0
43
0.0
43
0.0
43
0.0
43
0.0208333333333333
43
0.0
43
0.0
43
0.0
43
0.0
43
1.0
43
0.0
43
0.0
43
0.0
43
0.0
43
1.0
77
0
47
0.0208333333333333
47
0.0
47
0.0
47
0.0
47
0.0
47
0.0208333333333333
47
0.0
47
0.0
47
0.0
47
0.0
47
1.0
47
0.0
47
0.0
47
0.0
47
0.0
47
1.0
171
0
49
0.0208333333333333
49
0.0
49
0.0
49
0.0
49
0.0
49
0.0208333333333333
49
0.0
49
0.0
49
0.0
49
0.0
49
1.0
49
0.0
49
0.0
49
0.0
49
0.0
49
1.0
175
0
142
0.0208333333333333
142
0.0
142
0.0
142
0.0
142
0.0
142
0.0208333333333333
142
0.0
142
0.0
142
0.0
142
0.0
142
1.0
142
0.0
142
0.0
142
0.0
142
0.0
142
1.0
179
0
144
0.0208333333333333
144
0.0
144
0.0
144
0.0
144
0.0
144
0.0208333333333333
144
0.0
144
0.0
144
0.0
144
0.0
144
1.0
144
0.0
144
0.0
144
0.0
144
0.0
144
1.0
147
0.0208333333333333
147
0.0
147
0.0
147
0.0
147
0.0
147
0.0208333333333333
147
0.0
147
0.0
147
0.0
147
0.0
147
1.0
147
0.0
147
0.0
147
0.0
147
0.0
147
1.0
0
MLEADERSTYLE
5
FCE
102
{ACAD_REACTORS
330
FCD
102
}
330
FCD
100
AcDbMLeaderStyle
170
2
171
1
172
0
90
2
40
0.0
41
0.0
173
1
91
-1056964608
340
256
92
-2
290
1
42
0.09
291
1
43
0.36
3
Standard
44
0.18
300

342
253
174
1
178
6
175
1
176
0
93
-1056964608
45
0.18
292
0
297
0
46
0.18
94
-1056964608
47
1.0
49
1.0
140
1.0
293
1
141
0.0
294
1
177
0
142
1.0
295
0
296
0
143
0.125
1001
ACAD_MLEADERVER
1070
2
0
MLINESTYLE
5
FAA
102
{ACAD_REACTORS
330
16
102
}
330
16
100
AcDbMlineStyle
2
STANDARD
70
0
3

62
256
51
90.0
52
90.0
71
2
49
0.5
62
256
6
BYLAYER
49
-0.5
62
256
6
BYLAYER
0
ACDBPLACEHOLDER
5
19
102
{ACAD_REACTORS
330
18
102
}
330
18
0
SCALE
5
FAC
102
{ACAD_REACTORS
330
FAB
102
}
330
FAB
100
AcDbScale
70
0
300
1:1
140
1.0
141
1.0
290
1
0
SCALE
5
FAD
102
{ACAD_REACTORS
330
FAB
102
}
330
FAB
100
AcDbScale
70
0
300
1:2
140
1.0
141
2.0
290
0
0
SCALE
5
FAE
102
{ACAD_REACTORS
330
FAB
102
}
330
FAB
100
AcDbScale
70
0
300
1:4
140
1.0
141
4.0
290
0
0
SCALE
5
FAF
102
{ACAD_REACTORS
330
FAB
102
}
330
FAB
100
AcDbScale
70
0
300
1:5
140
1.0
141
5.0
290
0
0
SCALE
5
FB0
102
{ACAD_REACTORS
330
FAB
102
}
330
FAB
100
AcDbScale
70
0
300
1:8
140
1.0
141
8.0
290
0
0
SCALE
5
FB1
102
{ACAD_REACTORS
330
FAB
102
}
330
FAB
100
AcDbScale
70
0
300
1:10
140
1.0
141
10.0
290
0
0
SCALE
5
FB2
102
{ACAD_REACTORS
330
FAB
102
}
330
FAB
100
AcDbScale
70
0
300
1:16
140
1.0
141
16.0
290
0
0
SCALE
5
FB3
102
{ACAD_REACTORS
330
FAB
102
}
330
FAB
100
AcDbScale
70
0
300
1:20
140
1.0
141
20.0
290
0
0
SCALE
5
FB4
102
{ACAD_REACTORS
330
FAB
102
}
330
FAB
100
AcDbScale
70
0
300
1:30
140
1.0
141
30.0
290
0
0
SCALE
5
FB5
102
{ACAD_REACTORS
330
FAB
102
}
330
FAB
100
AcDbScale
70
0
300
1:40
140
1.0
141
40.0
290
0
0
SCALE
5
FB6
102
{ACAD_REACTORS
330
FAB
102
}
330
FAB
100
AcDbScale
70
0
300
1:50
140
1.0
141
50.0
290
0
0
SCALE
5
FB7
102
{ACAD_REACTORS
330
FAB
102
}
330
FAB
100
AcDbScale
70
0
300
1:100
140
1.0
141
100.0
290
0
0
SCALE
5
FB8
102
{ACAD_REACTORS
330
FAB
102
}
330
FAB
100
AcDbScale
70
0
300
2:1
140
2.0
141
1.0
290
0
0
SCALE
5
FB9
102
{ACAD_REACTORS
330
FAB
102
}
330
FAB
100
AcDbScale
70
0
300
4:1
140
4.0
141
1.0
290
0
0
SCALE
5
FBA
102
{ACAD_REACTORS
330
FAB
102
}
330
FAB
100
AcDbScale
70
0
300
8:1
140
8.0
141
1.0
290
0
0
SCALE
5
FBB
102
{ACAD_REACTORS
330
FAB
102
}
330
FAB
100
AcDbScale
70
0
300
10:1
140
10.0
141
1.0
290
0
0
SCALE
5
FBC
102
{ACAD_REACTORS
330
FAB
102
}
330
FAB
100
AcDbScale
70
0
300
100:1
140
100.0
141
1.0
290
0
0
SCALE
5
FBD
102
{ACAD_REACTORS
330
FAB
102
}
330
FAB
100
AcDbScale
70
0
300
1/128" = 1'-0"
140
0.0078125
141
12.0
290
0
0
SCALE
5
FBE
102
{ACAD_REACTORS
330
FAB
102
}
330
FAB
100
AcDbScale
70
0
300
1/64" = 1'-0"
140
0.015625
141
12.0
290
0
0
SCALE
5
FBF
102
{ACAD_REACTORS
330
FAB
102
}
330
FAB
100
AcDbScale
70
0
300
1/32" = 1'-0"
140
0.03125
141
12.0
290
0
0
SCALE
5
FC0
102
{ACAD_REACTORS
330
FAB
102
}
330
FAB
100
AcDbScale
70
0
300
1/16" = 1'-0"
140
0.0625
141
12.0
290
0
0
SCALE
5
FC1
102
{ACAD_REACTORS
330
FAB
102
}
330
FAB
100
AcDbScale
70
0
300
3/32" = 1'-0"
140
0.09375
141
12.0
290
0
0
SCALE
5
FC2
102
{ACAD_REACTORS
330
FAB
102
}
330
FAB
100
AcDbScale
70
0
300
1/8" = 1'-0"
140
0.125
141
12.0
290
0
0
SCALE
5
FC3
102
{ACAD_REACTORS
330
FAB
102
}
330
FAB
100
AcDbScale
70
0
300
3/16" = 1'-0"
140
0.1875
141
12.0
290
0
0
SCALE
5
FC4
102
{ACAD_REACTORS
330
FAB
102
}
330
FAB
100
AcDbScale
70
0
300
1/4" = 1'-0"
140
0.25
141
12.0
290
0
0
SCALE
5
FC5
102
{ACAD_REACTORS
330
FAB
102
}
330
FAB
100
AcDbScale
70
0
300
3/8" = 1'-0"
140
0.375
141
12.0
290
0
0
SCALE
5
FC6
102
{ACAD_REACTORS
330
FAB
102
}
330
FAB
100
AcDbScale
70
0
300
1/2" = 1'-0"
140
0.5
141
12.0
290
0
0
SCALE
5
FC7
102
{ACAD_REACTORS
330
FAB
102
}
330
FAB
100
AcDbScale
70
0
300
3/4" = 1'-0"
140
0.75
141
12.0
290
0
0
SCALE
5
FC8
102
{ACAD_REACTORS
330
FAB
102
}
330
FAB
100
AcDbScale
70
0
300
1" = 1'-0"
140
1.0
141
12.0
290
0
0
SCALE
5
FC9
102
{ACAD_REACTORS
330
FAB
102
}
330
FAB
100
AcDbScale
70
0
300
1-1/2" = 1'-0"
140
1.5
141
12.0
290
0
0
SCALE
5
FCA
102
{ACAD_REACTORS
330
FAB
102
}
330
FAB
100
AcDbScale
70
0
300
3" = 1'-0"
140
3.0
141
12.0
290
0
0
SCALE
5
FCB
102
{ACAD_REACTORS
330
FAB
102
}
330
FAB
100
AcDbScale
70
0
300
6" = 1'-0"
140
6.0
141
12.0
290
0
0
SCALE
5
FCC
102
{ACAD_REACTORS
330
FAB
102
}
330
FAB
100
AcDbScale
70
0
300
1'-0" = 1'-0"
140
12.0
141
12.0
290
0
0
TABLESTYLE
5
FA9
102
{ACAD_XDICTIONARY
360
FF8
102
}
102
{ACAD_REACTORS
330
FA8
102
}
330
FA8
100
AcDbTableStyle
3
Standard
70
0
71
0
40
0.06
41
0.06
280
0
281
0
7
Standard
140
0.18
170
2
62
0
63
7
283
0
274
-2
284
1
64
0
275
-2
285
1
65
0
276
-2
286
1
66
0
277
-2
287
1
67
0
278
-2
288
1
68
0
279
-2
289
1
69
0
7
Standard
140
0.25
170
5
62
0
63
7
283
0
274
-2
284
1
64
0
275
-2
285
1
65
0
276
-2
286
1
66
0
277
-2
287
1
67
0
278
-2
288
1
68
0
279
-2
289
1
69
0
7
Standard
140
0.18
170
5
62
0
63
7
283
0
274
-2
284
1
64
0
275
-2
285
1
65
0
276
-2
286
1
66
0
277
-2
287
1
67
0
278
-2
288
1
68
0
279
-2
289
1
69
0
0
VISUALSTYLE
5
F99
102
{ACAD_XDICTIONARY
360
108A
102
}
102
{ACAD_REACTORS
330
F93
102
}
330
F93
100
AcDbVisualStyle
2

70
4
71
0
72
2
73
0
90
0
40
-0.6
41
-30.0
62
5
63
7
74
1
91
4
64
7
65
257
75
1
175
1
42
1.0
92
0
66
257
43
1.0
76
1
77
6
78
2
67
7
79
5
170
0
171
0
290
0
174
0
93
1
44
0.0
173
0
291
0
45
0.0
1001
ACAD
1000
AcDbSavedByObjectVersion
1070
0
0
VISUALSTYLE
5
F9B
102
{ACAD_XDICTIONARY
360
108E
102
}
102
{ACAD_REACTORS
330
F93
102
}
330
F93
100
AcDbVisualStyle
2

70
6
71
1
72
2
73
2
90
0
40
-0.6
41
-30.0
62
5
63
7
74
2
91
2
64
7
65
257
75
2
175
1
42
179.0
92
0
66
257
43
1.0
76
1
77
6
78
2
67
7
79
3
170
0
171
0
290
0
174
0
93
1
44
0.0
173
0
291
0
45
0.0
1001
ACAD
1000
AcDbSavedByObjectVersion
1070
0
0
VISUALSTYLE
5
F9A
102
{ACAD_XDICTIONARY
360
108C
102
}
102
{ACAD_REACTORS
330
F93
102
}
330
F93
100
AcDbVisualStyle
2

70
5
71
0
72
2
73
0
90
0
40
-0.6
41
-30.0
62
5
63
7
74
1
91
4
64
7
65
257
75
1
175
1
42
1.0
92
0
66
257
43
1.0
76
1
77
6
78
2
67
7
79
5
170
0
171
0
290
0
174
0
93
1
44
0.0
173
0
291
0
45
0.0
1001
ACAD
1000
AcDbSavedByObjectVersion
1070
0
0
VISUALSTYLE
5
F98
102
{ACAD_XDICTIONARY
360
1088
102
}
102
{ACAD_REACTORS
330
F93
102
}
330
F93
100
AcDbVisualStyle
2

70
7
71
1
72
0
73
1
90
0
40
-0.6
41
-30.0
62
5
63
7
74
0
91
4
64
7
65
257
75
1
175
1
42
1.0
92
8
66
7
43
1.0
76
1
77
6
78
2
67
7
79
5
170
0
171
0
290
0
174
0
93
1
44
0.0
173
0
291
1
45
0.0
1001
ACAD
1000
AcDbSavedByObjectVersion
1070
0
0
VISUALSTYLE
5
F9F
102
{ACAD_XDICTIONARY
360
1096
102
}
102
{ACAD_REACTORS
330
F93
102
}
330
F93
100
AcDbVisualStyle
2

70
12
71
2
72
2
73
0
90
0
40
-0.6
41
-30.0
62
5
63
7
74
1
91
4
64
7
65
257
75
1
175
1
42
1.0
92
8
66
7
43
1.0
76
1
77
6
78
2
67
7
79
5
170
0
171
0
290
0
174
0
93
1
44
50.0
173
0
291
1
45
0.0
1001
ACAD
1000
AcDbSavedByObjectVersion
1070
0
0
VISUALSTYLE
5
FA3
102
{ACAD_XDICTIONARY
360
109E
102
}
102
{ACAD_REACTORS
330
F93
102
}
330
F93
100
AcDbVisualStyle
2

70
16
71
2
72
2
73
3
90
0
40
-0.6
41
-30.0
62
5
63
8
74
1
91
4
64
7
65
257
75
1
175
1
42
1.0
92
8
66
8
43
1.0
76
1
77
6
78
2
67
7
79
5
170
0
171
0
290
0
174
0
93
1
44
0.0
173
0
291
1
45
0.0
1001
ACAD
1000
AcDbSavedByObjectVersion
1070
0
0
VISUALSTYLE
5
F9C
102
{ACAD_XDICTIONARY
360
1090
102
}
102
{ACAD_REACTORS
330
F93
102
}
330
F93
100
AcDbVisualStyle
2

70
9
71
3
72
2
73
0
90
0
40
-0.6
41
-30.0
62
5
63
7
74
2
91
2
64
7
65
257
75
1
175
1
42
179.0
92
8
66
7
43
1.0
76
1
77
6
78
2
67
7
79
3
170
0
171
0
290
0
174
0
93
1
44
0.0
173
0
291
0
45
0.0
1001
ACAD
1000
AcDbSavedByObjectVersion
1070
0
0
VISUALSTYLE
5
F9E
102
{ACAD_XDICTIONARY
360
1094
102
}
102
{ACAD_REACTORS
330
F93
102
}
330
F93
100
AcDbVisualStyle
2

70
11
71
2
72
2
73
0
90
0
40
-0.6
41
-30.0
62
5
63
7
74
1
91
4
64
7
65
257
75
1
175
1
42
1.0
92
8
66
7
43
1.0
76
1
77
6
78
2
67
7
79
5
170
0
171
0
290
0
174
0
93
1
44
-50.0
173
0
291
1
45
0.0
1001
ACAD
1000
AcDbSavedByObjectVersion
1070
0
0
VISUALSTYLE
5
FA6
102
{ACAD_XDICTIONARY
360
10A4
102
}
102
{ACAD_REACTORS
330
F93
102
}
330
F93
100
AcDbVisualStyle
2

70
22
71
2
72
2
73
0
90
0
40
-0.6
41
-30.0
62
5
63
7
74
1
91
4
64
7
65
257
75
1
175
1
42
1.0
92
8
66
7
43
1.0
76
1
77
6
78
2
67
7
79
5
170
0
171
0
290
0
174
0
93
1
44
0.0
173
0
291
1
45
0.0
1001
ACAD
1000
AcDbSavedByObjectVersion
1070
0
0
VISUALSTYLE
5
FA2
102
{ACAD_XDICTIONARY
360
109C
102
}
102
{ACAD_REACTORS
330
F93
102
}
330
F93
100
AcDbVisualStyle
2

70
15
71
2
72
2
73
0
90
0
40
-0.6
41
-30.0
62
5
63
7
74
1
91
4
64
7
65
257
75
1
175
1
42
1.0
92
8
66
7
43
1.0
76
1
77
6
78
2
67
7
79
5
170
0
171
0
290
0
174
0
93
1
44
0.0
173
0
291
1
45
0.0
1001
ACAD
1000
AcDbSavedByObjectVersion
1070
0
0
VISUALSTYLE
5
F94
102
{ACAD_XDICTIONARY
360
1080
102
}
102
{ACAD_REACTORS
330
F93
102
}
330
F93
100
AcDbVisualStyle
2

70
0
71
2
72
1
73
1
90
2
40
-0.6
41
30.0
62
5
63
7
74
0
91
4
64
7
65
257
75
1
175
1
42
1.0
92
8
66
7
43
1.0
76
1
77
6
78
2
67
7
79
5
170
0
171
0
290
0
174
0
93
13
44
0.0
173
0
291
1
45
0.0
1001
ACAD
1000
AcDbSavedByObjectVersion
1070
0
0
VISUALSTYLE
5
F95
102
{ACAD_XDICTIONARY
360
1082
102
}
102
{ACAD_REACTORS
330
F93
102
}
330
F93
100
AcDbVisualStyle
2

70
1
71
2
72
1
73
1
90
2
40
-0.6
41
30.0
62
5
63
7
74
1
91
4
64
7
65
257
75
1
175
1
42
1.0
92
0
66
257
43
1.0
76
1
77
6
78
2
67
7
79
5
170
0
171
0
290
0
174
0
93
13
44
0.0
173
0
291
1
45
0.0
1001
ACAD
1000
AcDbSavedByObjectVersion
1070
0
0
VISUALSTYLE
5
F96
102
{ACAD_XDICTIONARY
360
1084
102
}
102
{ACAD_REACTORS
330
F93
102
}
330
F93
100
AcDbVisualStyle
2

70
2
71
2
72
2
73
1
90
2
40
-0.6
41
30.0
62
5
63
7
74
0
91
4
64
7
65
257
75
1
175
1
42
1.0
92
0
66
7
43
1.0
76
1
77
6
78
2
67
7
79
5
170
0
171
0
290
0
174
0
93
13
44
0.0
173
0
291
1
45
0.0
1001
ACAD
1000
AcDbSavedByObjectVersion
1070
0
0
VISUALSTYLE
5
F97
102
{ACAD_XDICTIONARY
360
1086
102
}
102
{ACAD_REACTORS
330
F93
102
}
330
F93
100
AcDbVisualStyle
2

70
3
71
2
72
2
73
1
90
2
40
-0.6
41
30.0
62
5
63
7
74
1
91
4
64
7
65
257
75
1
175
1
42
1.0
92
0
66
257
43
1.0
76
1
77
6
78
2
67
7
79
5
170
0
171
0
290
0
174
0
93
13
44
0.0
173
0
291
1
45
0.0
1001
ACAD
1000
AcDbSavedByObjectVersion
1070
0
0
VISUALSTYLE
5
FA4
102
{ACAD_XDICTIONARY
360
10A0
102
}
102
{ACAD_REACTORS
330
F93
102
}
330
F93
100
AcDbVisualStyle
2

70
20
71
2
72
2
73
0
90
0
40
-0.6
41
-30.0
62
5
63
7
74
1
91
4
64
7
65
257
75
1
175
1
42
1.0
92
10
66
7
43
1.0
76
1
77
6
78
2
67
7
79
5
170
0
171
0
290
0
174
0
93
1
44
0.0
173
0
291
1
45
0.0
1001
ACAD
1000
AcDbSavedByObjectVersion
1070
0
0
VISUALSTYLE
5
FA1
102
{ACAD_XDICTIONARY
360
109A
102
}
102
{ACAD_REACTORS
330
F93
102
}
330
F93
100
AcDbVisualStyle
2

70
14
71
2
72
2
73
0
90
0
40
-0.6
41
-30.0
62
5
63
7
74
1
91
4
64
7
65
257
75
7
175
7
42
1.0
92
8
66
7
43
1.0
76
1
77
6
78
2
67
7
79
5
170
0
171
0
290
0
174
0
93
1
44
0.0
173
0
291
1
45
0.0
1001
ACAD
1000
AcDbSavedByObjectVersion
1070
0
0
VISUALSTYLE
5
FA5
102
{ACAD_XDICTIONARY
360
10A2
102
}
102
{ACAD_REACTORS
330
F93
102
}
330
F93
100
AcDbVisualStyle
2

70
21
71
2
72
2
73
0
90
0
40
-0.6
41
-30.0
62
5
63
7
74
1
91
4
64
7
65
257
75
1
175
1
42
1.0
92
9
66
7
43
1.0
76
1
77
6
78
2
67
7
79
5
170
0
171
0
290
0
174
0
93
1
44
0.0
173
0
291
1
45
0.0
1001
ACAD
1000
AcDbSavedByObjectVersion
1070
0
0
VISUALSTYLE
5
F9D
102
{ACAD_XDICTIONARY
360
1092
102
}
102
{ACAD_REACTORS
330
F93
102
}
330
F93
100
AcDbVisualStyle
2

70
8
71
2
72
2
73
0
90
0
40
-0.6
41
-30.0
62
5
63
7
74
1
91
0
64
7
65
257
75
1
175
1
42
1.0
92
8
66
8
43
1.0
76
1
77
6
78
2
67
7
79
5
170
0
171
0
290
0
174
0
93
13
44
0.0
173
0
291
0
45
0.0
1001
ACAD
1000
AcDbSavedByObjectVersion
1070
0
0
VISUALSTYLE
5
FA0
102
{ACAD_XDICTIONARY
360
1098
102
}
102
{ACAD_REACTORS
330
F93
102
}
330
F93
100
AcDbVisualStyle
2

70
13
71
2
72
2
73
0
90
0
40
-0.6
41
-30.0
62
5
63
7
74
1
91
4
64
7
65
257
75
1
175
1
42
1.0
92
12
66
7
43
1.0
76
1
77
6
78
2
67
7
79
5
170
0
171
0
290
0
174
0
93
1
44
0.0
173
0
291
1
45
0.0
1001
ACAD
1000
AcDbSavedByObjectVersion
1070
0
0
DICTIONARYVAR
5
FF3
102
{ACAD_REACTORS
330
FF0
102
}
330
FF0
100
DictionaryVariables
280
0
1
1:1
0
DICTIONARYVAR
5
FF2
102
{ACAD_REACTORS
330
FF0
102
}
330
FF0
100
DictionaryVariables
280
0
1
STANDARD
0
DICTIONARYVAR
5
FF1
102
{ACAD_REACTORS
330
FF0
102
}
330
FF0
100
DictionaryVariables
280
0
1
STANDARD
0
DICTIONARYVAR
5
FF6
102
{ACAD_REACTORS
330
FF0
102
}
330
FF0
100
DictionaryVariables
280
0
1
1
0
DICTIONARYVAR
5
FF5
102
{ACAD_REACTORS
330
FF0
102
}
330
FF0
100
DictionaryVariables
280
0
1
0
0
DICTIONARYVAR
5
FF4
102
{ACAD_REACTORS
330
FF0
102
}
330
FF0
100
DictionaryVariables
280
0
1
127
0
DICTIONARYVAR
5
1078
102
{ACAD_REACTORS
330
FF0
102
}
330
FF0
100
DictionaryVariables
280
0
1
2
0
DICTIONARY
5
10A9
330
FD1
100
AcDbDictionary
280
1
281
1
3
ACAD_XREC_ROUNDTRIP
360
10AA
0
DICTIONARY
5
10A7
330
FD0
100
AcDbDictionary
280
1
281
1
3
ACAD_XREC_ROUNDTRIP
360
10A8
0
DICTIONARY
5
F84
330
F83
100
AcDbDictionary
280
1
281
1
3
ACAD_XREC_ROUNDTRIP
360
FFF
3
BUMPTILE
360
F86
3
DIFFUSETILE
360
F85
3
OPACITYTILE
360
F89
3
REFLECTIONTILE
360
F88
3
REFRACTIONTILE
360
F8A
3
SPECULARTILE
360
F87
0
DICTIONARY
5
F7C
330
F7B
100
AcDbDictionary
280
1
281
1
3
ACAD_XREC_ROUNDTRIP
360
FFE
3
BUMPTILE
360
F7E
3
DIFFUSETILE
360
F7D
3
OPACITYTILE
360
F81
3
REFLECTIONTILE
360
F80
3
REFRACTIONTILE
360
F82
3
SPECULARTILE
360
F7F
0
DICTIONARY
5
F8C
330
F8B
100
AcDbDictionary
280
1
281
1
3
ACAD_XREC_ROUNDTRIP
360
1000
3
BUMPTILE
360
F8E
3
DIFFUSETILE
360
F8D
3
OPACITYTILE
360
F91
3
REFLECTIONTILE
360
F90
3
REFRACTIONTILE
360
F92
3
SPECULARTILE
360
F8F
0
DICTIONARY
5
FF8
330
FA9
100
AcDbDictionary
280
1
281
1
3
ACAD_ROUNDTRIP_2008_TABLESTYLE_CELLSTYLEMAP
360
1079
3
ACAD_XREC_ROUNDTRIP
360
10A6
0
DICTIONARY
5
108A
330
F99
100
AcDbDictionary
280
1
281
1
3
ACAD_XREC_ROUNDTRIP
360
108B
0
DICTIONARY
5
108E
330
F9B
100
AcDbDictionary
280
1
281
1
3
ACAD_XREC_ROUNDTRIP
360
108F
0
DICTIONARY
5
108C
330
F9A
100
AcDbDictionary
280
1
281
1
3
ACAD_XREC_ROUNDTRIP
360
108D
0
DICTIONARY
5
1088
330
F98
100
AcDbDictionary
280
1
281
1
3
ACAD_XREC_ROUNDTRIP
360
1089
0
DICTIONARY
5
1096
330
F9F
100
AcDbDictionary
280
1
281
1
3
ACAD_XREC_ROUNDTRIP
360
1097
0
DICTIONARY
5
109E
330
FA3
100
AcDbDictionary
280
1
281
1
3
ACAD_XREC_ROUNDTRIP
360
109F
0
DICTIONARY
5
1090
330
F9C
100
AcDbDictionary
280
1
281
1
3
ACAD_XREC_ROUNDTRIP
360
1091
0
DICTIONARY
5
1094
330
F9E
100
AcDbDictionary
280
1
281
1
3
ACAD_XREC_ROUNDTRIP
360
1095
0
DICTIONARY
5
10A4
330
FA6
100
AcDbDictionary
280
1
281
1
3
ACAD_XREC_ROUNDTRIP
360
10A5
0
DICTIONARY
5
109C
330
FA2
100
AcDbDictionary
280
1
281
1
3
ACAD_XREC_ROUNDTRIP
360
109D
0
DICTIONARY
5
1080
330
F94
100
AcDbDictionary
280
1
281
1
3
ACAD_XREC_ROUNDTRIP
360
1081
0
DICTIONARY
5
1082
330
F95
100
AcDbDictionary
280
1
281
1
3
ACAD_XREC_ROUNDTRIP
360
1083
0
DICTIONARY
5
1084
330
F96
100
AcDbDictionary
280
1
281
1
3
ACAD_XREC_ROUNDTRIP
360
1085
0
DICTIONARY
5
1086
330
F97
100
AcDbDictionary
280
1
281
1
3
ACAD_XREC_ROUNDTRIP
360
1087
0
DICTIONARY
5
10A0
330
FA4
100
AcDbDictionary
280
1
281
1
3
ACAD_XREC_ROUNDTRIP
360
10A1
0
DICTIONARY
5
109A
330
FA1
100
AcDbDictionary
280
1
281
1
3
ACAD_XREC_ROUNDTRIP
360
109B
0
DICTIONARY
5
10A2
330
FA5
100
AcDbDictionary
280
1
281
1
3
ACAD_XREC_ROUNDTRIP
360
10A3
0
DICTIONARY
5
1092
330
F9D
100
AcDbDictionary
280
1
281
1
3
ACAD_XREC_ROUNDTRIP
360
1093
0
DICTIONARY
5
1098
330
FA0
100
AcDbDictionary
280
1
281
1
3
ACAD_XREC_ROUNDTRIP
360
1099
0
XRECORD
5
10AA
102
{ACAD_REACTORS
330
10A9
102
}
330
10A9
100
AcDbXrecord
280
1
102
SHADEPLOT
70
0
102
SHADEPLOTRESLEVEL
70
2
102
SHADEPLOTCUSTOMDPI
70
300
0
XRECORD
5
10A8
102
{ACAD_REACTORS
330
10A7
102
}
330
10A7
100
AcDbXrecord
280
1
102
SHADEPLOT
70
0
102
SHADEPLOTRESLEVEL
70
2
102
SHADEPLOTCUSTOMDPI
70
300
0
XRECORD
5
FFF
102
{ACAD_REACTORS
330
F84
102
}
330
F84
100
AcDbXrecord
280
1
102
MATERIAL
148
0.0
149
0.0
149
0.0
93
0
94
127
282
0
72
0
77
0
171
0
175
0
179
0
273
0
0
XRECORD
5
F86
102
{ACAD_REACTORS
330
F84
102
}
330
F84
100
AcDbXrecord
280
1
270
1
271
1
0
XRECORD
5
F85
102
{ACAD_REACTORS
330
F84
102
}
330
F84
100
AcDbXrecord
280
1
270
1
271
1
0
XRECORD
5
F89
102
{ACAD_REACTORS
330
F84
102
}
330
F84
100
AcDbXrecord
280
1
270
1
271
1
0
XRECORD
5
F88
102
{ACAD_REACTORS
330
F84
102
}
330
F84
100
AcDbXrecord
280
1
270
1
271
1
0
XRECORD
5
F8A
102
{ACAD_REACTORS
330
F84
102
}
330
F84
100
AcDbXrecord
280
1
270
1
271
1
0
XRECORD
5
F87
102
{ACAD_REACTORS
330
F84
102
}
330
F84
100
AcDbXrecord
280
1
270
1
271
1
0
XRECORD
5
FFE
102
{ACAD_REACTORS
330
F7C
102
}
330
F7C
100
AcDbXrecord
280
1
102
MATERIAL
148
0.0
149
0.0
149
0.0
93
0
94
127
282
0
72
0
77
0
171
0
175
0
179
0
273
0
0
XRECORD
5
F7E
102
{ACAD_REACTORS
330
F7C
102
}
330
F7C
100
AcDbXrecord
280
1
270
1
271
1
0
XRECORD
5
F7D
102
{ACAD_REACTORS
330
F7C
102
}
330
F7C
100
AcDbXrecord
280
1
270
1
271
1
0
XRECORD
5
F81
102
{ACAD_REACTORS
330
F7C
102
}
330
F7C
100
AcDbXrecord
280
1
270
1
271
1
0
XRECORD
5
F80
102
{ACAD_REACTORS
330
F7C
102
}
330
F7C
100
AcDbXrecord
280
1
270
1
271
1
0
XRECORD
5
F82
102
{ACAD_REACTORS
330
F7C
102
}
330
F7C
100
AcDbXrecord
280
1
270
1
271
1
0
XRECORD
5
F7F
102
{ACAD_REACTORS
330
F7C
102
}
330
F7C
100
AcDbXrecord
280
1
270
1
271
1
0
XRECORD
5
1000
102
{ACAD_REACTORS
330
F8C
102
}
330
F8C
100
AcDbXrecord
280
1
102
MATERIAL
148
0.0
149
0.0
149
0.0
93
0
94
127
282
0
72
0
77
0
171
0
175
0
179
0
273
0
0
XRECORD
5
F8E
102
{ACAD_REACTORS
330
F8C
102
}
330
F8C
100
AcDbXrecord
280
1
270
1
271
1
0
XRECORD
5
F8D
102
{ACAD_REACTORS
330
F8C
102
}
330
F8C
100
AcDbXrecord
280
1
270
1
271
1
0
XRECORD
5
F91
102
{ACAD_REACTORS
330
F8C
102
}
330
F8C
100
AcDbXrecord
280
1
270
1
271
1
0
XRECORD
5
F90
102
{ACAD_REACTORS
330
F8C
102
}
330
F8C
100
AcDbXrecord
280
1
270
1
271
1
0
XRECORD
5
F92
102
{ACAD_REACTORS
330
F8C
102
}
330
F8C
100
AcDbXrecord
280
1
270
1
271
1
0
XRECORD
5
F8F
102
{ACAD_REACTORS
330
F8C
102
}
330
F8C
100
AcDbXrecord
280
1
270
1
271
1
0
CELLSTYLEMAP
5
1079
102
{ACAD_REACTORS
330
FF8
102
}
330
FF8
100
AcDbCellStyleMap
90
3
300
CELLSTYLE
1
TABLEFORMAT_BEGIN
90
5
170
1
91
0
92
32768
62
257
93
1
300
CONTENTFORMAT
1
CONTENTFORMAT_BEGIN
90
0
91
0
92
512
93
0
300

40
0.0
140
1.0
94
5
62
0
340
253
144
0.25
309
CONTENTFORMAT_END
171
1
301
MARGIN
1
CELLMARGIN_BEGIN
40
0.06
40
0.06
40
0.06
40
0.06
40
0.18
40
0.18
309
CELLMARGIN_END
94
6
95
1
302
GRIDFORMAT
1
GRIDFORMAT_BEGIN
90
0
91
1
62
0
92
-2
340
0
93
0
40
0.045
309
GRIDFORMAT_END
95
2
302
GRIDFORMAT
1
GRIDFORMAT_BEGIN
90
0
91
1
62
0
92
-2
340
0
93
0
40
0.045
309
GRIDFORMAT_END
95
4
302
GRIDFORMAT
1
GRIDFORMAT_BEGIN
90
0
91
1
62
0
92
-2
340
0
93
0
40
0.045
309
GRIDFORMAT_END
95
8
302
GRIDFORMAT
1
GRIDFORMAT_BEGIN
90
0
91
1
62
0
92
-2
340
0
93
0
40
0.045
309
GRIDFORMAT_END
95
16
302
GRIDFORMAT
1
GRIDFORMAT_BEGIN
90
0
91
1
62
0
92
-2
340
0
93
0
40
0.045
309
GRIDFORMAT_END
95
32
302
GRIDFORMAT
1
GRIDFORMAT_BEGIN
90
0
91
1
62
0
92
-2
340
0
93
0
40
0.045
309
GRIDFORMAT_END
309
TABLEFORMAT_END
1
CELLSTYLE_BEGIN
90
1
91
1
300
_TITLE
309
CELLSTYLE_END
300
CELLSTYLE
1
TABLEFORMAT_BEGIN
90
5
170
1
91
0
92
0
62
257
93
1
300
CONTENTFORMAT
1
CONTENTFORMAT_BEGIN
90
0
91
0
92
512
93
0
300

40
0.0
140
1.0
94
5
62
0
340
253
144
0.18
309
CONTENTFORMAT_END
171
1
301
MARGIN
1
CELLMARGIN_BEGIN
40
0.06
40
0.06
40
0.06
40
0.06
40
0.18
40
0.18
309
CELLMARGIN_END
94
6
95
1
302
GRIDFORMAT
1
GRIDFORMAT_BEGIN
90
0
91
1
62
0
92
-2
340
0
93
0
40
0.045
309
GRIDFORMAT_END
95
2
302
GRIDFORMAT
1
GRIDFORMAT_BEGIN
90
0
91
1
62
0
92
-2
340
0
93
0
40
0.045
309
GRIDFORMAT_END
95
4
302
GRIDFORMAT
1
GRIDFORMAT_BEGIN
90
0
91
1
62
0
92
-2
340
0
93
0
40
0.045
309
GRIDFORMAT_END
95
8
302
GRIDFORMAT
1
GRIDFORMAT_BEGIN
90
0
91
1
62
0
92
-2
340
0
93
0
40
0.045
309
GRIDFORMAT_END
95
16
302
GRIDFORMAT
1
GRIDFORMAT_BEGIN
90
0
91
1
62
0
92
-2
340
0
93
0
40
0.045
309
GRIDFORMAT_END
95
32
302
GRIDFORMAT
1
GRIDFORMAT_BEGIN
90
0
91
1
62
0
92
-2
340
0
93
0
40
0.045
309
GRIDFORMAT_END
309
TABLEFORMAT_END
1
CELLSTYLE_BEGIN
90
2
91
1
300
_HEADER
309
CELLSTYLE_END
300
CELLSTYLE
1
TABLEFORMAT_BEGIN
90
5
170
1
91
0
92
0
62
257
93
1
300
CONTENTFORMAT
1
CONTENTFORMAT_BEGIN
90
0
91
0
92
512
93
0
300

40
0.0
140
1.0
94
2
62
0
340
253
144
0.18
309
CONTENTFORMAT_END
171
1
301
MARGIN
1
CELLMARGIN_BEGIN
40
0.06
40
0.06
40
0.06
40
0.06
40
0.18
40
0.18
309
CELLMARGIN_END
94
6
95
1
302
GRIDFORMAT
1
GRIDFORMAT_BEGIN
90
0
91
1
62
0
92
-2
340
0
93
0
40
0.045
309
GRIDFORMAT_END
95
2
302
GRIDFORMAT
1
GRIDFORMAT_BEGIN
90
0
91
1
62
0
92
-2
340
0
93
0
40
0.045
309
GRIDFORMAT_END
95
4
302
GRIDFORMAT
1
GRIDFORMAT_BEGIN
90
0
91
1
62
0
92
-2
340
0
93
0
40
0.045
309
GRIDFORMAT_END
95
8
302
GRIDFORMAT
1
GRIDFORMAT_BEGIN
90
0
91
1
62
0
92
-2
340
0
93
0
40
0.045
309
GRIDFORMAT_END
95
16
302
GRIDFORMAT
1
GRIDFORMAT_BEGIN
90
0
91
1
62
0
92
-2
340
0
93
0
40
0.045
309
GRIDFORMAT_END
95
32
302
GRIDFORMAT
1
GRIDFORMAT_BEGIN
90
0
91
1
62
0
92
-2
340
0
93
0
40
0.045
309
GRIDFORMAT_END
309
TABLEFORMAT_END
1
CELLSTYLE_BEGIN
90
3
91
2
300
_DATA
309
CELLSTYLE_END
0
XRECORD
5
10A6
102
{ACAD_REACTORS
330
FF8
102
}
330
FF8
100
AcDbXrecord
280
1
102
ACAD_ROUNDTRIP_PRE2007_TABLESTYLE
90
512
91
0
1

92
512
93
0
2

94
512
95
0
3

0
XRECORD
5
108B
102
{ACAD_REACTORS
330
108A
102
}
330
108A
100
AcDbXrecord
280
1
102
RTVSPropertyOp0
70
1
102
RTVSPropertyOp1
70
1
102
RTVSPropertyOp2
70
1
102
RTVSPropertyOp3
70
1
102
RTVSPropertyOp4
70
1
102
RTVSPropertyOp5
70
1
102
RTVSPropertyOp6
70
1
102
RTVSPropertyOp7
70
1
102
RTVSPropertyOp8
70
1
102
RTVSPropertyOp9
70
1
102
RTVSPropertyOp10
70
1
102
RTVSPropertyOp11
70
1
102
RTVSPropertyOp12
70
1
102
RTVSPropertyOp13
70
1
102
RTVSPropertyOp14
70
1
102
RTVSPropertyOp15
70
1
102
RTVSPropertyOp16
70
1
102
RTVSPropertyOp17
70
1
102
RTVSPropertyOp18
70
1
102
RTVSPropertyOp19
70
1
102
RTVSPropertyOp20
70
1
102
RTVSPropertyOp21
70
1
102
RTVSPropertyOp22
70
1
102
RTVSPropertyOp23
70
1
102
RTVSPropertyOp24
70
1
102
RTVSPropertyOp25
70
1
102
RTVSPropertyOp26
70
1
102
RTVSPropertyOp27
70
1
0
XRECORD
5
108F
102
{ACAD_REACTORS
330
108E
102
}
330
108E
100
AcDbXrecord
280
1
102
RTVSPropertyOp0
70
1
102
RTVSPropertyOp1
70
1
102
RTVSPropertyOp2
70
1
102
RTVSPropertyOp3
70
1
102
RTVSPropertyOp4
70
1
102
RTVSPropertyOp5
70
1
102
RTVSPropertyOp6
70
1
102
RTVSPropertyOp7
70
1
102
RTVSPropertyOp8
70
1
102
RTVSPropertyOp9
70
1
102
RTVSPropertyOp10
70
1
102
RTVSPropertyOp11
70
1
102
RTVSPropertyOp12
70
1
102
RTVSPropertyOp13
70
1
102
RTVSPropertyOp14
70
1
102
RTVSPropertyOp15
70
1
102
RTVSPropertyOp16
70
1
102
RTVSPropertyOp17
70
1
102
RTVSPropertyOp18
70
1
102
RTVSPropertyOp19
70
1
102
RTVSPropertyOp20
70
1
102
RTVSPropertyOp21
70
1
102
RTVSPropertyOp22
70
1
102
RTVSPropertyOp23
70
1
102
RTVSPropertyOp24
70
1
102
RTVSPropertyOp25
70
1
102
RTVSPropertyOp26
70
1
102
RTVSPropertyOp27
70
1
0
XRECORD
5
108D
102
{ACAD_REACTORS
330
108C
102
}
330
108C
100
AcDbXrecord
280
1
102
RTVSPropertyOp0
70
1
102
RTVSPropertyOp1
70
1
102
RTVSPropertyOp2
70
1
102
RTVSPropertyOp3
70
1
102
RTVSPropertyOp4
70
1
102
RTVSPropertyOp5
70
1
102
RTVSPropertyOp6
70
1
102
RTVSPropertyOp7
70
1
102
RTVSPropertyOp8
70
1
102
RTVSPropertyOp9
70
1
102
RTVSPropertyOp10
70
1
102
RTVSPropertyOp11
70
1
102
RTVSPropertyOp12
70
1
102
RTVSPropertyOp13
70
1
102
RTVSPropertyOp14
70
1
102
RTVSPropertyOp15
70
1
102
RTVSPropertyOp16
70
1
102
RTVSPropertyOp17
70
1
102
RTVSPropertyOp18
70
1
102
RTVSPropertyOp19
70
1
102
RTVSPropertyOp20
70
1
102
RTVSPropertyOp21
70
1
102
RTVSPropertyOp22
70
1
102
RTVSPropertyOp23
70
1
102
RTVSPropertyOp24
70
1
102
RTVSPropertyOp25
70
1
102
RTVSPropertyOp26
70
1
102
RTVSPropertyOp27
70
1
0
XRECORD
5
1089
102
{ACAD_REACTORS
330
1088
102
}
330
1088
100
AcDbXrecord
280
1
102
RTVSPropertyOp0
70
1
102
RTVSPropertyOp1
70
1
102
RTVSPropertyOp2
70
1
102
RTVSPropertyOp3
70
1
102
RTVSPropertyOp4
70
1
102
RTVSPropertyOp5
70
1
102
RTVSPropertyOp6
70
1
102
RTVSPropertyOp7
70
1
102
RTVSPropertyOp8
70
1
102
RTVSPropertyOp9
70
1
102
RTVSPropertyOp10
70
1
102
RTVSPropertyOp11
70
1
102
RTVSPropertyOp12
70
1
102
RTVSPropertyOp13
70
1
102
RTVSPropertyOp14
70
1
102
RTVSPropertyOp15
70
1
102
RTVSPropertyOp16
70
1
102
RTVSPropertyOp17
70
1
102
RTVSPropertyOp18
70
1
102
RTVSPropertyOp19
70
1
102
RTVSPropertyOp20
70
1
102
RTVSPropertyOp21
70
1
102
RTVSPropertyOp22
70
1
102
RTVSPropertyOp23
70
1
102
RTVSPropertyOp24
70
1
102
RTVSPropertyOp25
70
1
102
RTVSPropertyOp26
70
1
102
RTVSPropertyOp27
70
1
0
XRECORD
5
1097
102
{ACAD_REACTORS
330
1096
102
}
330
1096
100
AcDbXrecord
280
1
102
RTVSPropertyOp0
70
1
102
RTVSPropertyOp1
70
1
102
RTVSPropertyOp2
70
1
102
RTVSPropertyOp3
70
1
102
RTVSPropertyOp4
70
1
102
RTVSPropertyOp5
70
1
102
RTVSPropertyOp6
70
1
102
RTVSPropertyOp7
70
1
102
RTVSPropertyOp8
70
1
102
RTVSPropertyOp9
70
1
102
RTVSPropertyOp10
70
1
102
RTVSPropertyOp11
70
1
102
RTVSPropertyOp12
70
1
102
RTVSPropertyOp13
70
1
102
RTVSPropertyOp14
70
1
102
RTVSPropertyOp15
70
1
102
RTVSPropertyOp16
70
1
102
RTVSPropertyOp17
70
1
102
RTVSPropertyOp18
70
1
102
RTVSPropertyOp19
70
1
102
RTVSPropertyOp20
70
1
102
RTVSPropertyOp21
70
1
102
RTVSPropertyOp22
70
1
102
RTVSPropertyOp23
70
1
102
RTVSPropertyOp24
70
1
102
RTVSPropertyOp25
70
1
102
RTVSPropertyOp26
70
1
102
RTVSPropertyOp27
70
1
0
XRECORD
5
109F
102
{ACAD_REACTORS
330
109E
102
}
330
109E
100
AcDbXrecord
280
1
102
RTVSPropertyOp0
70
1
102
RTVSPropertyOp1
70
1
102
RTVSPropertyOp2
70
1
102
RTVSPropertyOp3
70
1
102
RTVSPropertyOp4
70
1
102
RTVSPropertyOp5
70
1
102
RTVSPropertyOp6
70
1
102
RTVSPropertyOp7
70
1
102
RTVSPropertyOp8
70
1
102
RTVSPropertyOp9
70
1
102
RTVSPropertyOp10
70
1
102
RTVSPropertyOp11
70
1
102
RTVSPropertyOp12
70
1
102
RTVSPropertyOp13
70
1
102
RTVSPropertyOp14
70
1
102
RTVSPropertyOp15
70
1
102
RTVSPropertyOp16
70
1
102
RTVSPropertyOp17
70
1
102
RTVSPropertyOp18
70
1
102
RTVSPropertyOp19
70
1
102
RTVSPropertyOp20
70
1
102
RTVSPropertyOp21
70
1
102
RTVSPropertyOp22
70
1
102
RTVSPropertyOp23
70
1
102
RTVSPropertyOp24
70
1
102
RTVSPropertyOp25
70
1
102
RTVSPropertyOp26
70
1
102
RTVSPropertyOp27
70
1
0
XRECORD
5
1091
102
{ACAD_REACTORS
330
1090
102
}
330
1090
100
AcDbXrecord
280
1
102
RTVSPropertyOp0
70
1
102
RTVSPropertyOp1
70
1
102
RTVSPropertyOp2
70
1
102
RTVSPropertyOp3
70
1
102
RTVSPropertyOp4
70
1
102
RTVSPropertyOp5
70
1
102
RTVSPropertyOp6
70
1
102
RTVSPropertyOp7
70
1
102
RTVSPropertyOp8
70
1
102
RTVSPropertyOp9
70
1
102
RTVSPropertyOp10
70
1
102
RTVSPropertyOp11
70
1
102
RTVSPropertyOp12
70
1
102
RTVSPropertyOp13
70
1
102
RTVSPropertyOp14
70
1
102
RTVSPropertyOp15
70
1
102
RTVSPropertyOp16
70
1
102
RTVSPropertyOp17
70
1
102
RTVSPropertyOp18
70
1
102
RTVSPropertyOp19
70
1
102
RTVSPropertyOp20
70
1
102
RTVSPropertyOp21
70
1
102
RTVSPropertyOp22
70
1
102
RTVSPropertyOp23
70
1
102
RTVSPropertyOp24
70
1
102
RTVSPropertyOp25
70
1
102
RTVSPropertyOp26
70
1
102
RTVSPropertyOp27
70
1
0
XRECORD
5
1095
102
{ACAD_REACTORS
330
1094
102
}
330
1094
100
AcDbXrecord
280
1
102
RTVSPropertyOp0
70
1
102
RTVSPropertyOp1
70
1
102
RTVSPropertyOp2
70
1
102
RTVSPropertyOp3
70
1
102
RTVSPropertyOp4
70
1
102
RTVSPropertyOp5
70
1
102
RTVSPropertyOp6
70
1
102
RTVSPropertyOp7
70
1
102
RTVSPropertyOp8
70
1
102
RTVSPropertyOp9
70
1
102
RTVSPropertyOp10
70
1
102
RTVSPropertyOp11
70
1
102
RTVSPropertyOp12
70
1
102
RTVSPropertyOp13
70
1
102
RTVSPropertyOp14
70
1
102
RTVSPropertyOp15
70
1
102
RTVSPropertyOp16
70
1
102
RTVSPropertyOp17
70
1
102
RTVSPropertyOp18
70
1
102
RTVSPropertyOp19
70
1
102
RTVSPropertyOp20
70
1
102
RTVSPropertyOp21
70
1
102
RTVSPropertyOp22
70
1
102
RTVSPropertyOp23
70
1
102
RTVSPropertyOp24
70
1
102
RTVSPropertyOp25
70
1
102
RTVSPropertyOp26
70
1
102
RTVSPropertyOp27
70
1
0
XRECORD
5
10A5
102
{ACAD_REACTORS
330
10A4
102
}
330
10A4
100
AcDbXrecord
280
1
102
RTVSPropertyOp0
70
0
102
RTVSPropertyOp1
70
0
102
RTVSPropertyOp2
70
0
102
RTVSPropertyOp3
70
0
102
RTVSPropertyOp4
70
0
102
RTVSPropertyOp5
70
0
102
RTVSPropertyOp6
70
0
102
RTVSPropertyOp7
70
0
102
RTVSPropertyOp8
70
0
102
RTVSPropertyOp9
70
0
102
RTVSPropertyOp10
70
0
102
RTVSPropertyOp11
70
0
102
RTVSPropertyOp12
70
0
102
RTVSPropertyOp13
70
0
102
RTVSPropertyOp14
70
2
102
RTVSPropertyOp15
70
0
102
RTVSPropertyOp16
70
0
102
RTVSPropertyOp17
70
0
102
RTVSPropertyOp18
70
0
102
RTVSPropertyOp19
70
0
102
RTVSPropertyOp20
70
0
102
RTVSPropertyOp21
70
0
102
RTVSPropertyOp22
70
0
102
RTVSPropertyOp23
70
0
102
RTVSPropertyOp24
70
0
102
RTVSPropertyOp25
70
0
102
RTVSPropertyOp26
70
0
102
RTVSPropertyOp27
70
0
0
XRECORD
5
109D
102
{ACAD_REACTORS
330
109C
102
}
330
109C
100
AcDbXrecord
280
1
102
RTVSPropertyOp0
70
1
102
RTVSPropertyOp1
70
1
102
RTVSPropertyOp2
70
1
102
RTVSPropertyOp3
70
1
102
RTVSPropertyOp4
70
1
102
RTVSPropertyOp5
70
1
102
RTVSPropertyOp6
70
1
102
RTVSPropertyOp7
70
1
102
RTVSPropertyOp8
70
1
102
RTVSPropertyOp9
70
1
102
RTVSPropertyOp10
70
1
102
RTVSPropertyOp11
70
1
102
RTVSPropertyOp12
70
1
102
RTVSPropertyOp13
70
1
102
RTVSPropertyOp14
70
1
102
RTVSPropertyOp15
70
1
102
RTVSPropertyOp16
70
1
102
RTVSPropertyOp17
70
1
102
RTVSPropertyOp18
70
1
102
RTVSPropertyOp19
70
1
102
RTVSPropertyOp20
70
1
102
RTVSPropertyOp21
70
1
102
RTVSPropertyOp22
70
1
102
RTVSPropertyOp23
70
1
102
RTVSPropertyOp24
70
1
102
RTVSPropertyOp25
70
1
102
RTVSPropertyOp26
70
1
102
RTVSPropertyOp27
70
1
0
XRECORD
5
1081
102
{ACAD_REACTORS
330
1080
102
}
330
1080
100
AcDbXrecord
280
1
102
RTVSPropertyOp0
70
1
102
RTVSPropertyOp1
70
1
102
RTVSPropertyOp2
70
1
102
RTVSPropertyOp3
70
1
102
RTVSPropertyOp4
70
1
102
RTVSPropertyOp5
70
1
102
RTVSPropertyOp6
70
1
102
RTVSPropertyOp7
70
1
102
RTVSPropertyOp8
70
1
102
RTVSPropertyOp9
70
1
102
RTVSPropertyOp10
70
1
102
RTVSPropertyOp11
70
1
102
RTVSPropertyOp12
70
1
102
RTVSPropertyOp13
70
1
102
RTVSPropertyOp14
70
1
102
RTVSPropertyOp15
70
1
102
RTVSPropertyOp16
70
1
102
RTVSPropertyOp17
70
1
102
RTVSPropertyOp18
70
1
102
RTVSPropertyOp19
70
1
102
RTVSPropertyOp20
70
1
102
RTVSPropertyOp21
70
1
102
RTVSPropertyOp22
70
1
102
RTVSPropertyOp23
70
1
102
RTVSPropertyOp24
70
1
102
RTVSPropertyOp25
70
1
102
RTVSPropertyOp26
70
1
102
RTVSPropertyOp27
70
1
0
XRECORD
5
1083
102
{ACAD_REACTORS
330
1082
102
}
330
1082
100
AcDbXrecord
280
1
102
RTVSPropertyOp0
70
1
102
RTVSPropertyOp1
70
1
102
RTVSPropertyOp2
70
1
102
RTVSPropertyOp3
70
1
102
RTVSPropertyOp4
70
1
102
RTVSPropertyOp5
70
1
102
RTVSPropertyOp6
70
1
102
RTVSPropertyOp7
70
1
102
RTVSPropertyOp8
70
1
102
RTVSPropertyOp9
70
1
102
RTVSPropertyOp10
70
1
102
RTVSPropertyOp11
70
1
102
RTVSPropertyOp12
70
1
102
RTVSPropertyOp13
70
1
102
RTVSPropertyOp14
70
1
102
RTVSPropertyOp15
70
1
102
RTVSPropertyOp16
70
1
102
RTVSPropertyOp17
70
1
102
RTVSPropertyOp18
70
1
102
RTVSPropertyOp19
70
1
102
RTVSPropertyOp20
70
1
102
RTVSPropertyOp21
70
1
102
RTVSPropertyOp22
70
1
102
RTVSPropertyOp23
70
1
102
RTVSPropertyOp24
70
1
102
RTVSPropertyOp25
70
1
102
RTVSPropertyOp26
70
1
102
RTVSPropertyOp27
70
1
0
XRECORD
5
1085
102
{ACAD_REACTORS
330
1084
102
}
330
1084
100
AcDbXrecord
280
1
102
RTVSPropertyOp0
70
1
102
RTVSPropertyOp1
70
1
102
RTVSPropertyOp2
70
1
102
RTVSPropertyOp3
70
1
102
RTVSPropertyOp4
70
1
102
RTVSPropertyOp5
70
1
102
RTVSPropertyOp6
70
1
102
RTVSPropertyOp7
70
1
102
RTVSPropertyOp8
70
1
102
RTVSPropertyOp9
70
1
102
RTVSPropertyOp10
70
1
102
RTVSPropertyOp11
70
1
102
RTVSPropertyOp12
70
1
102
RTVSPropertyOp13
70
1
102
RTVSPropertyOp14
70
1
102
RTVSPropertyOp15
70
1
102
RTVSPropertyOp16
70
1
102
RTVSPropertyOp17
70
1
102
RTVSPropertyOp18
70
1
102
RTVSPropertyOp19
70
1
102
RTVSPropertyOp20
70
1
102
RTVSPropertyOp21
70
1
102
RTVSPropertyOp22
70
1
102
RTVSPropertyOp23
70
1
102
RTVSPropertyOp24
70
1
102
RTVSPropertyOp25
70
1
102
RTVSPropertyOp26
70
1
102
RTVSPropertyOp27
70
1
0
XRECORD
5
1087
102
{ACAD_REACTORS
330
1086
102
}
330
1086
100
AcDbXrecord
280
1
102
RTVSPropertyOp0
70
1
102
RTVSPropertyOp1
70
1
102
RTVSPropertyOp2
70
1
102
RTVSPropertyOp3
70
1
102
RTVSPropertyOp4
70
1
102
RTVSPropertyOp5
70
1
102
RTVSPropertyOp6
70
1
102
RTVSPropertyOp7
70
1
102
RTVSPropertyOp8
70
1
102
RTVSPropertyOp9
70
1
102
RTVSPropertyOp10
70
1
102
RTVSPropertyOp11
70
1
102
RTVSPropertyOp12
70
1
102
RTVSPropertyOp13
70
1
102
RTVSPropertyOp14
70
1
102
RTVSPropertyOp15
70
1
102
RTVSPropertyOp16
70
1
102
RTVSPropertyOp17
70
1
102
RTVSPropertyOp18
70
1
102
RTVSPropertyOp19
70
1
102
RTVSPropertyOp20
70
1
102
RTVSPropertyOp21
70
1
102
RTVSPropertyOp22
70
1
102
RTVSPropertyOp23
70
1
102
RTVSPropertyOp24
70
1
102
RTVSPropertyOp25
70
1
102
RTVSPropertyOp26
70
1
102
RTVSPropertyOp27
70
1
0
XRECORD
5
10A1
102
{ACAD_REACTORS
330
10A0
102
}
330
10A0
100
AcDbXrecord
280
1
102
RTVSPropertyOp0
70
0
102
RTVSPropertyOp1
70
0
102
RTVSPropertyOp2
70
0
102
RTVSPropertyOp3
70
0
102
RTVSPropertyOp4
70
0
102
RTVSPropertyOp5
70
0
102
RTVSPropertyOp6
70
0
102
RTVSPropertyOp7
70
0
102
RTVSPropertyOp8
70
0
102
RTVSPropertyOp9
70
0
102
RTVSPropertyOp10
70
0
102
RTVSPropertyOp11
70
0
102
RTVSPropertyOp12
70
0
102
RTVSPropertyOp13
70
0
102
RTVSPropertyOp14
70
2
102
RTVSPropertyOp15
70
0
102
RTVSPropertyOp16
70
0
102
RTVSPropertyOp17
70
0
102
RTVSPropertyOp18
70
0
102
RTVSPropertyOp19
70
0
102
RTVSPropertyOp20
70
0
102
RTVSPropertyOp21
70
0
102
RTVSPropertyOp22
70
0
102
RTVSPropertyOp23
70
0
102
RTVSPropertyOp24
70
0
102
RTVSPropertyOp25
70
0
102
RTVSPropertyOp26
70
0
102
RTVSPropertyOp27
70
0
0
XRECORD
5
109B
102
{ACAD_REACTORS
330
109A
102
}
330
109A
100
AcDbXrecord
280
1
102
RTVSPropertyOp0
70
1
102
RTVSPropertyOp1
70
1
102
RTVSPropertyOp2
70
1
102
RTVSPropertyOp3
70
1
102
RTVSPropertyOp4
70
1
102
RTVSPropertyOp5
70
1
102
RTVSPropertyOp6
70
1
102
RTVSPropertyOp7
70
1
102
RTVSPropertyOp8
70
1
102
RTVSPropertyOp9
70
1
102
RTVSPropertyOp10
70
1
102
RTVSPropertyOp11
70
1
102
RTVSPropertyOp12
70
1
102
RTVSPropertyOp13
70
1
102
RTVSPropertyOp14
70
1
102
RTVSPropertyOp15
70
1
102
RTVSPropertyOp16
70
1
102
RTVSPropertyOp17
70
1
102
RTVSPropertyOp18
70
1
102
RTVSPropertyOp19
70
1
102
RTVSPropertyOp20
70
1
102
RTVSPropertyOp21
70
1
102
RTVSPropertyOp22
70
1
102
RTVSPropertyOp23
70
1
102
RTVSPropertyOp24
70
1
102
RTVSPropertyOp25
70
1
102
RTVSPropertyOp26
70
1
102
RTVSPropertyOp27
70
1
0
XRECORD
5
10A3
102
{ACAD_REACTORS
330
10A2
102
}
330
10A2
100
AcDbXrecord
280
1
102
RTVSPropertyOp0
70
0
102
RTVSPropertyOp1
70
0
102
RTVSPropertyOp2
70
0
102
RTVSPropertyOp3
70
0
102
RTVSPropertyOp4
70
0
102
RTVSPropertyOp5
70
0
102
RTVSPropertyOp6
70
0
102
RTVSPropertyOp7
70
0
102
RTVSPropertyOp8
70
0
102
RTVSPropertyOp9
70
0
102
RTVSPropertyOp10
70
0
102
RTVSPropertyOp11
70
0
102
RTVSPropertyOp12
70
0
102
RTVSPropertyOp13
70
0
102
RTVSPropertyOp14
70
2
102
RTVSPropertyOp15
70
0
102
RTVSPropertyOp16
70
0
102
RTVSPropertyOp17
70
0
102
RTVSPropertyOp18
70
0
102
RTVSPropertyOp19
70
0
102
RTVSPropertyOp20
70
0
102
RTVSPropertyOp21
70
0
102
RTVSPropertyOp22
70
0
102
RTVSPropertyOp23
70
0
102
RTVSPropertyOp24
70
0
102
RTVSPropertyOp25
70
0
102
RTVSPropertyOp26
70
0
102
RTVSPropertyOp27
70
0
0
XRECORD
5
1093
102
{ACAD_REACTORS
330
1092
102
}
330
1092
100
AcDbXrecord
280
1
102
RTVSPropertyOp0
70
1
102
RTVSPropertyOp1
70
1
102
RTVSPropertyOp2
70
1
102
RTVSPropertyOp3
70
1
102
RTVSPropertyOp4
70
1
102
RTVSPropertyOp5
70
1
102
RTVSPropertyOp6
70
1
102
RTVSPropertyOp7
70
1
102
RTVSPropertyOp8
70
1
102
RTVSPropertyOp9
70
1
102
RTVSPropertyOp10
70
1
102
RTVSPropertyOp11
70
1
102
RTVSPropertyOp12
70
1
102
RTVSPropertyOp13
70
1
102
RTVSPropertyOp14
70
1
102
RTVSPropertyOp15
70
1
102
RTVSPropertyOp16
70
1
102
RTVSPropertyOp17
70
1
102
RTVSPropertyOp18
70
1
102
RTVSPropertyOp19
70
1
102
RTVSPropertyOp20
70
1
102
RTVSPropertyOp21
70
1
102
RTVSPropertyOp22
70
1
102
RTVSPropertyOp23
70
1
102
RTVSPropertyOp24
70
1
102
RTVSPropertyOp25
70
1
102
RTVSPropertyOp26
70
1
102
RTVSPropertyOp27
70
1
0
XRECORD
5
1099
102
{ACAD_REACTORS
330
1098
102
}
330
1098
100
AcDbXrecord
280
1
102
RTVSPropertyOp0
70
1
102
RTVSPropertyOp1
70
1
102
RTVSPropertyOp2
70
1
102
RTVSPropertyOp3
70
1
102
RTVSPropertyOp4
70
1
102
RTVSPropertyOp5
70
1
102
RTVSPropertyOp6
70
1
102
RTVSPropertyOp7
70
1
102
RTVSPropertyOp8
70
1
102
RTVSPropertyOp9
70
1
102
RTVSPropertyOp10
70
1
102
RTVSPropertyOp11
70
1
102
RTVSPropertyOp12
70
1
102
RTVSPropertyOp13
70
1
102
RTVSPropertyOp14
70
1
102
RTVSPropertyOp15
70
1
102
RTVSPropertyOp16
70
1
102
RTVSPropertyOp17
70
1
102
RTVSPropertyOp18
70
1
102
RTVSPropertyOp19
70
1
102
RTVSPropertyOp20
70
1
102
RTVSPropertyOp21
70
1
102
RTVSPropertyOp22
70
1
102
RTVSPropertyOp23
70
1
102
RTVSPropertyOp24
70
1
102
RTVSPropertyOp25
70
1
102
RTVSPropertyOp26
70
1
102
RTVSPropertyOp27
70
1
0
ENDSEC
0
EOF
