0
SECTION
2
HEADER
9
$ACADVER
1
AC1015
9
$ACADMAINTVER
70
20
9
$DWGCODEPAGE
3
ANSI_1252
9
$INSBASE
10
0.0
20
0.0
30
0.0
9
$EXTMIN
10
-150.000000000000
20
-105.000000000000
30
0.0
9
$EXTMAX
10
150.000000000000
20
105.000000000000
30
0.0
9
$LIMMIN
10
0.0
20
0.0
9
$LIMMAX
10
12.0
20
9.0
9
$ORTHOMODE
70
0
9
$REGENMODE
70
1
9
$FILLMODE
70
1
9
$QTEXTMODE
70
0
9
$MIRRTEXT
70
1
9
$LTSCALE
40
1.0
9
$ATTMODE
70
1
9
$TEXTSIZE
40
0.2
9
$TRACEWID
40
0.05
9
$TEXTSTYLE
7
Standard
9
$CLAYER
8
0
9
$CELTYPE
6
ByLayer
9
$CECOLOR
62
256
9
$CELTSCALE
40
1.0
9
$DISPSILH
70
0
9
$DIMSCALE
40
1.0
9
$DIMASZ
40
2.5
9
$DIMEXO
40
0.625
9
$DIMDLI
40
0.38
9
$DIMRND
40
0.0
9
$DIMDLE
40
0.0
9
$DIMEXE
40
1.25
9
$DIMTP
40
0.0
9
$DIMTM
40
0.000000001
9
$DIMTXT
40
2.5
9
$DIMCEN
40
0.09
9
$DIMTSZ
40
0.0
9
$DIMTOL
70
1
9
$DIMLIM
70
0
9
$DIMTIH
70
0
9
$DIMTOH
70
0
9
$DIMSE1
70
0
9
$DIMSE2
70
0
9
$DIMTAD
70
1
9
$DIMZIN
70
0
9
$DIMBLK
1
VDDIM_DEFAULT
9
$DIMASO
70
1
9
$DIMSHO
70
1
9
$DIMPOST
1

9
$DIMAPOST
1

9
$DIMALT
70
0
9
$DIMALTD
70
2
9
$DIMALTF
40
25.4
9
$DIMLFAC
40
1.00000000000000
9
$DIMTOFL
70
0
9
$DIMTVP
40
0.0
9
$DIMTIX
70
0
9
$DIMSOXD
70
0
9
$DIMSAH
70
0
9
$DIMBLK1
1

9
$DIMBLK2
1

9
$DIMSTYLE
2
BEM-ISBE
9
$DIMCLRD
70
0
9
$DIMCLRE
70
0
9
$DIMCLRT
70
0
9
$DIMTFAC
40
0.5
9
$DIMGAP
40
0.625
9
$DIMJUST
70
0
9
$DIMSD1
70
0
9
$DIMSD2
70
0
9
$DIMTOLJ
70
1
9
$DIMTZIN
70
0
9
$DIMALTZ
70
0
9
$DIMALTTZ
70
0
9
$DIMUPT
70
0
9
$DIMDEC
70
3
9
$DIMTDEC
70
3
9
$DIMALTU
70
2
9
$DIMALTTD
70
2
9
$DIMTXSTY
7
Standard
9
$DIMAUNIT
70
0
9
$DIMADEC
70
3
9
$DIMALTRND
40
0.0
9
$DIMAZIN
70
0
9
$DIMDSEP
70
46
9
$DIMATFIT
70
3
9
$DIMFRAC
70
0
9
$DIMLDRBLK
1

9
$DIMLUNIT
70
2
9
$DIMLWD
70
-2
9
$DIMLWE
70
-2
9
$DIMTMOVE
70
0
9
$LUNITS
70
2
9
$LUPREC
70
4
9
$SKETCHINC
40
0.1
9
$FILLETRAD
40
0.5
9
$AUNITS
70
0
9
$AUPREC
70
0
9
$MENU
1
.
9
$ELEVATION
40
0.0
9
$PELEVATION
40
0.0
9
$THICKNESS
40
0.0
9
$LIMCHECK
70
0
9
$CHAMFERA
40
0.5
9
$CHAMFERB
40
0.5
9
$CHAMFERC
40
1.0
9
$CHAMFERD
40
0.0
9
$SKPOLY
70
0
9
$TDCREATE
40
0.0
9
$TDUCREATE
40
0.0
9
$TDUPDATE
40
0.0
9
$TDUUPDATE
40
0.0
9
$TDINDWG
40
0.0
9
$TDUSRTIMER
40
0.0
9
$USRTIMER
70
1
9
$ANGBASE
50
0.0
9
$ANGDIR
70
0
9
$PDMODE
70
0
9
$PDSIZE
40
0.0
9
$PLINEWID
40
0.0
9
$SPLFRAME
70
0
9
$SPLINETYPE
70
6
9
$SPLINESEGS
70
8
9
$HANDSEED
5
10AB
9
$SURFTAB1
70
6
9
$SURFTAB2
70
6
9
$SURFTYPE
70
6
9
$SURFU
70
6
9
$SURFV
70
6
9
$UCSBASE
2

9
$UCSNAME
2

9
$UCSORG
10
0.0
20
0.0
30
0.0
9
$UCSXDIR
10
1.0
20
0.0
30
0.0
9
$UCSYDIR
10
0.0
20
1.0
30
0.0
9
$UCSORTHOREF
2

9
$UCSORTHOVIEW
70
0
9
$UCSORGTOP
10
0.0
20
0.0
30
0.0
9
$UCSORGBOTTOM
10
0.0
20
0.0
30
0.0
9
$UCSORGLEFT
10
0.0
20
0.0
30
0.0
9
$UCSORGRIGHT
10
0.0
20
0.0
30
0.0
9
$UCSORGFRONT
10
0.0
20
0.0
30
0.0
9
$UCSORGBACK
10
0.0
20
0.0
30
0.0
9
$PUCSBASE
2

9
$PUCSNAME
2

9
$PUCSORG
10
0.0
20
0.0
30
0.0
9
$PUCSXDIR
10
1.0
20
0.0
30
0.0
9
$PUCSYDIR
10
0.0
20
1.0
30
0.0
9
$PUCSORTHOREF
2

9
$PUCSORTHOVIEW
70
0
9
$PUCSORGTOP
10
0.0
20
0.0
30
0.0
9
$PUCSORGBOTTOM
10
0.0
20
0.0
30
0.0
9
$PUCSORGLEFT
10
0.0
20
0.0
30
0.0
9
$PUCSORGRIGHT
10
0.0
20
0.0
30
0.0
9
$PUCSORGFRONT
10
0.0
20
0.0
30
0.0
9
$PUCSORGBACK
10
0.0
20
0.0
30
0.0
9
$USERI1
70
0
9
$USERI2
70
0
9
$USERI3
70
0
9
$USERI4
70
0
9
$USERI5
70
0
9
$USERR1
40
0.0
9
$USERR2
40
0.0
9
$USERR3
40
0.0
9
$USERR4
40
0.0
9
$USERR5
40
0.0
9
$WORLDVIEW
70
1
9
$SHADEDGE
70
3
9
$SHADEDIF
70
70
9
$TILEMODE
70
1
9
$MAXACTVP
70
64
9
$PINSBASE
10
0.0
20
0.0
30
0.0
9
$PLIMCHECK
70
0
9
$PEXTMIN
10
1.000000000000000E+20
20
1.000000000000000E+20
30
1.000000000000000E+20
9
$PEXTMAX
10
-1.000000000000000E+20
20
-1.000000000000000E+20
30
-1.000000000000000E+20
9
$PLIMMIN
10
0.0
20
0.0
9
$PLIMMAX
10
12.0
20
9.0
9
$UNITMODE
70
0
9
$VISRETAIN
70
1
9
$PLINEGEN
70
0
9
$PSLTSCALE
70
1
9
$TREEDEPTH
70
3020
9
$CMLSTYLE
2
Standard
9
$CMLJUST
70
0
9
$CMLSCALE
40
1.0
9
$PROXYGRAPHICS
70
1
9
$MEASUREMENT
70
0
9
$CELWEIGHT
370
-1
9
$ENDCAPS
280
0
9
$JOINSTYLE
280
0
9
$LWDISPLAY
290
0
9
$INSUNITS
70
4
9
$HYPERLINKBASE
1

9
$STYLESHEET
1

9
$XEDIT
290
1
9
$CEPSNTYPE
380
0
9
$PSTYLEMODE
290
0
9
$FINGERPRINTGUID
2
{FAEB1C30-E019-11D5-929B-00C0DF256EC4}
9
$VERSIONGUID
2
{04C5C4E4-4947-4D90-8812-D401569E61F7}
9
$EXTNAMES
290
1
9
$PSVPSCALE
40
0.0
9
$OLESTARTUP
290
0
0
ENDSEC
0
SECTION
2
TABLES
0
TABLE
2
VPORT
5
24A
330
0
100
AcDbSymbolTable
70
1
0
VPORT
5
26B
330
24A
100
AcDbSymbolTableRecord
100
AcDbViewportTableRecord
2
*Active
70
0
10
0.0
20
0.0
11
1.0
21
1.0
12
0.000000000000000
22
0.000000000000000
13
0.0
23
0.0
14
10.0
24
10.0
15
10.0
25
10.0
16
0.0
26
0.0
36
1.0
17
0.0
27
0.0
37
0.0
40
210.000000000000
41
1.42857142857143
42
1.0
43
0.0
44
0.0
50
0.0
51
0.0000000000007958
71
0
72
100
73
1
74
3
75
0
76
0
77
0
78
1
281
0
65
1
110
0.0
120
0.0
130
0.0
111
1.0
121
0.0
131
0.0
112
0.0
122
1.0
132
0.0
79
0
146
0.0
0
ENDTAB
0
TABLE
2
LTYPE
5
247
330
0
100
AcDbSymbolTable
70
25
0
LTYPE
5
256
330
247
100
AcDbSymbolTableRecord
100
AcDbLinetypeTableRecord
2
ByBlock
70
0
3

72
65
73
0
40
0.0
0
LTYPE
5
257
330
247
100
AcDbSymbolTableRecord
100
AcDbLinetypeTableRecord
2
ByLayer
70
0
3

72
65
73
0
40
0.0
0
LTYPE
5
258
330
247
100
AcDbSymbolTableRecord
100
AcDbLinetypeTableRecord
2
Continuous
70
0
3
Solid line
72
65
73
0
40
0.0
0
LTYPE
5
273
330
247
100
AcDbSymbolTableRecord
100
AcDbLinetypeTableRecord
2
CENTER
70
0
3
Center ____ _ ____ _ ____ _ ____ _ ____ _ ____
72
65
73
4
40
2.0
49
1.25
74
0
49
-0.25
74
0
49
0.25
74
0
49
-0.25
74
0
0
LTYPE
5
274
330
247
100
AcDbSymbolTableRecord
100
AcDbLinetypeTableRecord
2
DASHDOT
70
0
3
Dashdot __ . __ . __ . __ . __ . __ . __ . __
72
65
73
4
40
1.0
49
0.5
74
0
49
-0.25
74
0
49
0.0
74
0
49
-0.25
74
0
0
LTYPE
5
275
330
247
100
AcDbSymbolTableRecord
100
AcDbLinetypeTableRecord
2
DASHED
70
0
3
Dashed __ __ __ __ __ __ __ __ __ __ __ __ __ _
72
65
73
2
40
0.75
49
0.5
74
0
49
-0.25
74
0
0
LTYPE
5
276
330
247
100
AcDbSymbolTableRecord
100
AcDbLinetypeTableRecord
2
HIDDEN
70
0
3
Hidden __ __ __ __ __ __ __ __ __ __ __ __ __ __
72
65
73
2
40
0.375
49
0.25
74
0
49
-0.125
74
0
0
LTYPE
5
277
330
247
100
AcDbSymbolTableRecord
100
AcDbLinetypeTableRecord
2
HIDDEN2
70
0
3
Hidden2 _ _ _ _ _ _ _ _ _ _ _ _ _ _ _ _ _
72
65
73
2
40
0.1875
49
0.125
74
0
49
-0.0625
74
0
0
LTYPE
5
278
330
247
100
AcDbSymbolTableRecord
100
AcDbLinetypeTableRecord
2
BORDER
70
0
3
Border __ __ . __ __ . __ __ . __ __ . __ __ .
72
65
73
6
40
1.75
49
0.5
74
0
49
-0.25
74
0
49
0.5
74
0
49
-0.25
74
0
49
0.0
74
0
49
-0.25
74
0
0
LTYPE
5
279
330
247
100
AcDbSymbolTableRecord
100
AcDbLinetypeTableRecord
2
BORDER2
70
0
3
Border2 __.__.__.__.__.__.__.__.__.__.__.
72
65
73
6
40
0.875
49
0.25
74
0
49
-0.125
74
0
49
0.25
74
0
49
-0.125
74
0
49
0.0
74
0
49
-0.125
74
0
0
LTYPE
5
27A
330
247
100
AcDbSymbolTableRecord
100
AcDbLinetypeTableRecord
2
BORDERX2
70
0
3
Borderx2  ____  ____  .  ____  ____  .  ___
72
65
73
6
40
3.5
49
1.0
74
0
49
-0.5
74
0
49
1.0
74
0
49
-0.5
74
0
49
0.0
74
0
49
-0.5
74
0
0
LTYPE
5
27B
330
247
100
AcDbSymbolTableRecord
100
AcDbLinetypeTableRecord
2
CENTER2
70
0
3
Center2  ___ _ ___ _ ___ _ ___ _ ___ _ ___
72
65
73
4
40
1.125
49
0.75
74
0
49
-0.125
74
0
49
0.125
74
0
49
-0.125
74
0
0
LTYPE
5
27C
330
247
100
AcDbSymbolTableRecord
100
AcDbLinetypeTableRecord
2
CENTERX2
70
0
3
Centerx2  ________  __  ________  __  _____
72
65
73
4
40
4.0
49
2.5
74
0
49
-0.5
74
0
49
0.5
74
0
49
-0.5
74
0
0
LTYPE
5
27D
330
247
100
AcDbSymbolTableRecord
100
AcDbLinetypeTableRecord
2
DASHDOT2
70
0
3
Dashdot2  _._._._._._._._._._._._._._._.
72
65
73
4
40
0.5
49
0.25
74
0
49
-0.125
74
0
49
0.0
74
0
49
-0.125
74
0
0
LTYPE
5
27E
330
247
100
AcDbSymbolTableRecord
100
AcDbLinetypeTableRecord
2
DASHDOTX2
70
0
3
Dashdotx2 ____  .  ____  .  ____  .  ___
72
65
73
4
40
2.0
49
1.0
74
0
49
-0.5
74
0
49
0.0
74
0
49
-0.5
74
0
0
LTYPE
5
27F
330
247
100
AcDbSymbolTableRecord
100
AcDbLinetypeTableRecord
2
DASHED2
70
0
3
Dashed2 _ _ _ _ _ _ _ _ _ _ _ _ _ _ _ _ _
72
65
73
2
40
0.375
49
0.25
74
0
49
-0.125
74
0
0
LTYPE
5
280
330
247
100
AcDbSymbolTableRecord
100
AcDbLinetypeTableRecord
2
DASHEDX2
70
0
3
Dashedx2 ____  ____  ____  ____  ____  ___
72
65
73
2
40
1.5
49
1.0
74
0
49
-0.5
74
0
0
LTYPE
5
281
330
247
100
AcDbSymbolTableRecord
100
AcDbLinetypeTableRecord
2
DIVIDE
70
0
3
Divide ____ . . ____ . . ____ . . ____ . . ____
72
65
73
6
40
1.25
49
0.5
74
0
49
-0.25
74
0
49
0.0
74
0
49
-0.25
74
0
49
0.0
74
0
49
-0.25
74
0
0
LTYPE
5
282
330
247
100
AcDbSymbolTableRecord
100
AcDbLinetypeTableRecord
2
DIVIDE2
70
0
3
Divide2 __..__..__..__..__..__..__..__.._
72
65
73
6
40
0.625
49
0.25
74
0
49
-0.125
74
0
49
0.0
74
0
49
-0.125
74
0
49
0.0
74
0
49
-0.125
74
0
0
LTYPE
5
283
330
247
100
AcDbSymbolTableRecord
100
AcDbLinetypeTableRecord
2
DIVIDEX2
70
0
3
Dividex2 ________  .  .  ________  .  .  _
72
65
73
6
40
2.5
49
1.0
74
0
49
-0.5
74
0
49
0.0
74
0
49
-0.5
74
0
49
0.0
74
0
49
-0.5
74
0
0
LTYPE
5
284
330
247
100
AcDbSymbolTableRecord
100
AcDbLinetypeTableRecord
2
DOT
70
0
3
Dot . . . . . . . . . . . . . . . . . . . . . . . .
72
65
73
2
40
0.25
49
0.0
74
0
49
-0.25
74
0
0
LTYPE
5
285
330
247
100
AcDbSymbolTableRecord
100
AcDbLinetypeTableRecord
2
DOT2
70
0
3
Dot2 ........................................
72
65
73
2
40
0.125
49
0.0
74
0
49
-0.125
74
0
0
LTYPE
5
286
330
247
100
AcDbSymbolTableRecord
100
AcDbLinetypeTableRecord
2
DOTX2
70
0
3
Dotx2 .  .  .  .  .  .  .  .  .  .  .  .  .  .
72
65
73
2
40
0.5
49
0.0
74
0
49
-0.5
74
0
0
LTYPE
5
287
330
247
100
AcDbSymbolTableRecord
100
AcDbLinetypeTableRecord
2
HIDDENX2
70
0
3
Hiddenx2 ____ ____ ____ ____ ____ ____ ____
72
65
73
2
40
0.75
49
0.5
74
0
49
-0.25
74
0
0
LTYPE
5
288
330
247
100
AcDbSymbolTableRecord
100
AcDbLinetypeTableRecord
2
PHANTOM
70
0
3
Phantom ______  __  __  ______  __  __  ______
72
65
73
6
40
2.5
49
1.25
74
0
49
-0.25
74
0
49
0.25
74
0
49
-0.25
74
0
49
0.25
74
0
49
-0.25
74
0
0
LTYPE
5
289
330
247
100
AcDbSymbolTableRecord
100
AcDbLinetypeTableRecord
2
PHANTOM2
70
0
3
Phantom2 ___ _ _ ___ _ _ ___ _ _ ___ _ _
72
65
73
6
40
1.25
49
0.625
74
0
49
-0.125
74
0
49
0.125
74
0
49
-0.125
74
0
49
0.125
74
0
49
-0.125
74
0
0
LTYPE
5
28A
330
247
100
AcDbSymbolTableRecord
100
AcDbLinetypeTableRecord
2
PHANTOMX2
70
0
3
Phantomx2 ____________    ____    ____   _
72
65
73
6
40
5.0
49
2.5
74
0
49
-0.5
74
0
49
0.5
74
0
49
-0.5
74
0
49
0.5
74
0
49
-0.5
74
0
0
ENDTAB
0
TABLE
2
LAYER
5
244
330
0
100
AcDbSymbolTable
70
6
0
LAYER
5
252
330
244
100
AcDbSymbolTableRecord
100
AcDbLayerTableRecord
2
0
70
0
62
7
6
Continuous
370
0
390
251
0
LAYER
5
23F
330
244
100
AcDbSymbolTableRecord
100
AcDbLayerTableRecord
2
Bemassung
70
0
 62
   7
6
Continuous
370
0
390
251
0
LAYER
5
240
330
244
100
AcDbSymbolTableRecord
100
AcDbLayerTableRecord
2
Rahmen
70
0
 62
   7
6
Continuous
370
0
390
251
0
LAYER
5
241
330
244
100
AcDbSymbolTableRecord
100
AcDbLayerTableRecord
2
Geo
70
0
 62
   7
6
Continuous
370
0
390
251
0
LAYER
5
33A
330
244
100
AcDbSymbolTableRecord
100
AcDbLayerTableRecord
2
Defpoints
70
0
62
7
6
Continuous
290
0
370
-3
390
251
0
LAYER
5
57E
330
244
100
AcDbSymbolTableRecord
100
AcDbLayerTableRecord
2
Text
70
0
 62
   7
6
Continuous
370
0
390
251
1001
AcAecLayerStandard
1000

1000

0
ENDTAB
0
TABLE
2
STYLE
5
245
330
0
100
AcDbSymbolTable
70
2
0
STYLE
5
253
330
245
100
AcDbSymbolTableRecord
100
AcDbTextStyleTableRecord
2
Standard
70
0
40
0.0
41
1.0
50
0.0
71
0
42
0.2
3
Arial
4

1001
ACAD
1000
Arial
1071
0
0
STYLE
5
132
330
245
100
AcDbSymbolTableRecord
100
AcDbTextStyleTableRecord
2
Beschriftung
70
0
40
0.0
41
1.0
50
0.0
71
0
42
0.2
3
Arial
4

1001
ACAD
1000
Arial
1071
0
1001
AcadAnnotative
1000
AnnotativeData
1070
1
1070
1
0
ENDTAB
0
TABLE
2
VIEW
5
248
330
0
100
AcDbSymbolTable
70
0
0
ENDTAB
0
TABLE
2
UCS
5
249
330
0
100
AcDbSymbolTable
70
0
0
ENDTAB
0
TABLE
2
APPID
5
24B
330
0
100
AcDbSymbolTable
70
13
0
APPID
5
254
330
24B
100
AcDbSymbolTableRecord
100
AcDbRegAppTableRecord
2
ACAD
70
0
0
APPID
5
26C
330
24B
100
AcDbSymbolTableRecord
100
AcDbRegAppTableRecord
2
VD_INVISIBLE_NOT_FOR_READ
70
0
0
APPID
5
26D
330
24B
100
AcDbSymbolTableRecord
100
AcDbRegAppTableRecord
2
VD_TEMPHATCH
70
0
0
APPID
5
26E
330
24B
100
AcDbSymbolTableRecord
100
AcDbRegAppTableRecord
2
VDEXTRAPARAM
70
0
0
APPID
5
26F
330
24B
100
AcDbSymbolTableRecord
100
AcDbRegAppTableRecord
2
PE_URL
70
0
0
APPID
5
270
330
24B
100
AcDbSymbolTableRecord
100
AcDbRegAppTableRecord
2
VD_UNKNOWN
70
0
0
APPID
5
28F
330
24B
100
AcDbSymbolTableRecord
100
AcDbRegAppTableRecord
2
AcadAnnotative
70
0
0
APPID
5
290
330
24B
100
AcDbSymbolTableRecord
100
AcDbRegAppTableRecord
2
ACAD_DSTYLE_DIMJAG
70
0
0
APPID
5
291
330
24B
100
AcDbSymbolTableRecord
100
AcDbRegAppTableRecord
2
ACAD_DSTYLE_DIMTALN
70
0
0
APPID
5
293
330
24B
100
AcDbSymbolTableRecord
100
AcDbRegAppTableRecord
2
ACAD_PSEXT
70
0
0
APPID
5
42A
330
24B
100
AcDbSymbolTableRecord
100
AcDbRegAppTableRecord
2
ACAD_MLEADERVER
70
0
0
APPID
5
532
330
24B
100
AcDbSymbolTableRecord
100
AcDbRegAppTableRecord
2
ACAD_EXEMPT_FROM_CAD_STANDARDS
70
0
0
APPID
5
57F
330
24B
100
AcDbSymbolTableRecord
100
AcDbRegAppTableRecord
2
AcAecLayerStandard
70
0
0
ENDTAB
0
TABLE
2
DIMSTYLE
5
24C
330
0
100
AcDbSymbolTable
70
3
100
AcDbDimStyleTable
71
2
340
27
340
269
0
DIMSTYLE
105
269
330
24C
100
AcDbSymbolTableRecord
100
AcDbDimStyleTableRecord
2
Standard
70
0
172
1
174
1
288
1
340
253
342
23C
0
DIMSTYLE
105
137
330
24C
100
AcDbSymbolTableRecord
100
AcDbDimStyleTableRecord
2
Beschriftung
70
0
41
2.5
42
0.625
44
1.25
73
0
74
0
77
1
140
2.5
147
0.625
172
1
174
1
271
2
288
1
340
253
342
23C
1001
AcadAnnotative
1000
AnnotativeData
1070
1
1070
1
1001
ACAD_DSTYLE_DIMJAG
1070
388
1040
1.5
1001
ACAD_DSTYLE_DIMTALN
1070
392
1070
0
0
DIMSTYLE
105
27
102
{ACAD_REACTORS
330
F10012
330
F1001C
330
F10021
330
F10003
330
F1000D
330
F10008
330
F10017
102
}
330
24C
100
AcDbSymbolTableRecord
100
AcDbDimStyleTableRecord
2
BEM-ISBE
70
0
41
2.5
42
0.625
44
1.25
48
0.000000001
71
1
73
0
74
0
77
1
140
2.5
144
1.00000000000000
146
0.5
147
0.625
171
 3
172
 1
179
 3
271
 3
272
 3
274
 3
340
253
342
23C
1001
ACAD_DSTYLE_DIMJAG
1070
388
1040
1.5
1001
ACAD_DSTYLE_DIMTALN
1070
392
1070
1
0
ENDTAB
0
TABLE
2
BLOCK_RECORD
5
243
330
0
100
AcDbSymbolTable
70
5
0
BLOCK_RECORD
5
261
330
243
100
AcDbSymbolTableRecord
100
AcDbBlockTableRecord
2
*Model_Space
340
FD0
0
BLOCK_RECORD
5
25D
330
243
100
AcDbSymbolTableRecord
100
AcDbBlockTableRecord
2
*Paper_Space
340
FD1
0
BLOCK_RECORD
5
265
330
243
100
AcDbSymbolTableRecord
100
AcDbBlockTableRecord
2
*Paper_Space0
340
0
0
BLOCK_RECORD
5
23C
330
243
100
AcDbSymbolTableRecord
100
AcDbBlockTableRecord
2
VDDIM_DEFAULT
340
0
102
{BLKREFS
102
}
0
BLOCK_RECORD
5
23E
330
243
100
AcDbSymbolTableRecord
100
AcDbBlockTableRecord
2
VDDIM_NONE
340
0
0
BLOCK_RECORD
5
F10011
330
243
100
AcDbSymbolTableRecord
100
AcDbBlockTableRecord
2
*D6
340
0
0
BLOCK_RECORD
5
F1001B
330
243
100
AcDbSymbolTableRecord
100
AcDbBlockTableRecord
2
*D8
340
0
0
BLOCK_RECORD
5
F10020
330
243
100
AcDbSymbolTableRecord
100
AcDbBlockTableRecord
2
*D9
340
0
0
BLOCK_RECORD
5
F10002
330
243
100
AcDbSymbolTableRecord
100
AcDbBlockTableRecord
2
*D3
340
0
0
BLOCK_RECORD
5
F1000C
330
243
100
AcDbSymbolTableRecord
100
AcDbBlockTableRecord
2
*D5
340
0
0
BLOCK_RECORD
5
F10007
330
243
100
AcDbSymbolTableRecord
100
AcDbBlockTableRecord
2
*D4
340
0
0
BLOCK_RECORD
5
F10016
330
243
100
AcDbSymbolTableRecord
100
AcDbBlockTableRecord
2
*D7
340
0
0
ENDTAB
0
ENDSEC
0
SECTION
2
BLOCKS
0
BLOCK
5
262
330
261
100
AcDbEntity
8
0
100
AcDbBlockBegin
2
*Model_Space
70
0
10
0.0
20
0.0
30
0.0
3
*Model_Space
1

0
ENDBLK
5
263
330
261
100
AcDbEntity
8
0
100
AcDbBlockEnd
0
BLOCK
5
25E
330
25D
100
AcDbEntity
67
1
8
0
100
AcDbBlockBegin
2
*Paper_Space
70
0
10
0.0
20
0.0
30
0.0
3
*Paper_Space
1

0
ENDBLK
5
25F
330
25D
100
AcDbEntity
67
1
8
0
100
AcDbBlockEnd
0
BLOCK
5
266
330
265
100
AcDbEntity
8
0
100
AcDbBlockBegin
2
*Paper_Space0
70
0
10
0.0
20
0.0
30
0.0
3
*Paper_Space0
1

0
VIEWPORT
5
296
102
{ACAD_XDICTIONARY
360
58E
102
}
330
265
100
AcDbEntity
8
0
60
1
100
AcDbViewport
10
0.0
20
0.0
30
0.0
40
10.0
41
10.0
69
0
12
0.0
22
0.0
13
0.0
23
0.0
14
1.0
24
1.0
15
0.0
25
0.0
16
0.0
26
0.0
36
1.0
17
0.0
27
0.0
37
0.0
42
0.0
43
0.0
44
0.0
45
10.0
50
0.0
51
0.0000000000007958
72
100
90
163872
1

281
0
71
0
74
0
110
0.0
120
0.0
130
0.0
111
1.0
121
0.0
131
0.0
112
0.0
122
1.0
132
0.0
79
0
146
0.0
1001
VD_INVISIBLE_NOT_FOR_READ
1000
VD_INVISIBLE_NOT_FOR_READ
0
VIEWPORT
5
297
102
{ACAD_XDICTIONARY
360
590
102
}
330
265
100
AcDbEntity
8
0
60
1
100
AcDbViewport
10
0.0
20
0.0
30
0.0
40
10.0
41
10.0
69
0
12
0.0
22
0.0
13
0.0
23
0.0
14
1.0
24
1.0
15
0.0
25
0.0
16
0.0
26
0.0
36
1.0
17
0.0
27
0.0
37
0.0
42
0.0
43
0.0
44
0.0
45
10.0
50
0.0
51
0.0000000000007958
72
100
90
163872
1

281
0
71
0
74
0
110
0.0
120
0.0
130
0.0
111
1.0
121
0.0
131
0.0
112
0.0
122
1.0
132
0.0
79
0
146
0.0
1001
VD_INVISIBLE_NOT_FOR_READ
1000
VD_INVISIBLE_NOT_FOR_READ
0
ENDBLK
5
267
330
265
100
AcDbEntity
8
0
100
AcDbBlockEnd
0
BLOCK
5
28B
330
23C
100
AcDbEntity
8
0
100
AcDbBlockBegin
2
VDDIM_DEFAULT
70
0
10
0.0
20
0.0
30
0.0
3
VDDIM_DEFAULT
1

0
LWPOLYLINE
5
23D
330
23C
100
AcDbEntity
8
0
6
Continuous
62
0
100
AcDbPolyline
90
4
70
0
43
0.0
10
0.0
20
0.0
10
-1.0
20
-0.1665
10
-1.0
20
0.1665
10
0.0
20
0.0
1001
VDEXTRAPARAM
1071
1
1071
0
1071
0
1040
1.0
1000

1000

1040
0.0
1040
0.0
0
HATCH
5
292
330
23C
100
AcDbEntity
8
0
6
Continuous
62
0
100
AcDbHatch
10
0.0
20
0.0
30
0.0
210
0.0
220
0.0
230
1.0
2
SOLID
70
1
71
0
91
1
92
2
72
0
73
1
93
3
10
0.0
20
0.0
10
-1.0
20
-0.1665
10
-1.0
20
0.1665
97
0
75
0
76
1
98
1
10
0.0
20
0.0
1001
VDEXTRAPARAM
1071
1
1071
0
1071
0
1040
1.0
1000

1000

1040
0.0
1040
0.0
1001
VD_TEMPHATCH
1000
VD_TEMPHATCH
0
ENDBLK
5
28C
330
23C
100
AcDbEntity
8
0
100
AcDbBlockEnd
0
BLOCK
5
28D
330
23E
100
AcDbEntity
8
0
100
AcDbBlockBegin
2
VDDIM_NONE
70
0
10
0.0
20
0.0
30
0.0
3
VDDIM_NONE
1

0
ENDBLK
5
28E
330
23E
100
AcDbEntity
8
0
100
AcDbBlockEnd
  0
BLOCK
  5
F10025
330
F10011
100
AcDbEntity
  8
0
100
AcDbBlockBegin
  2
*D6
 70
     1
 10
0.0
 20
0.0
 30
0.0
  3
*D6
  1

  0
LINE
  5
F10026
330
F10011
100
AcDbEntity
  8
Bemassung
 62
     0
370
    -2
100
AcDbLine
10
-78.0974477958237
20
4.37587006960557
30
0.000000000000000
11
-78.0974477958237
21
16.3758700696056
31
0.000000000000000
  0
LINE
  5
F10027
330
F10011
100
AcDbEntity
  8
Bemassung
 62
     0
370
    -2
100
AcDbLine
10
-32.0974477958237
20
3.87587006960557
30
0.000000000000000
11
-32.0974477958237
21
21.3758700696056
31
0.000000000000000
  0
LINE
  5
F10028
330
F10011
100
AcDbEntity
  8
Bemassung
 62
     0
370
    -2
100
AcDbLine
10
-78.0974477958237
20
14.3758700696056
30
0.000000000000000
11
27.6423173173575
21
14.3758700696056
31
0.000000000000000
  0
INSERT
  5
F10029
330
F10011
100
AcDbEntity
  8
Bemassung
 62
     0
370
    -2
100
AcDbBlockReference
  2
VDDIM_DEFAULT
10
-78.0974477958237
20
14.3758700696056
30
0.000000000000000
 41
2.50000000000000
 42
2.50000000000000
 43
2.50000000000000
 50
180.000000000000
  0
INSERT
  5
F1002A
330
F10011
100
AcDbEntity
  8
Bemassung
 62
     0
370
    -2
100
AcDbBlockReference
  2
VDDIM_DEFAULT
10
-32.0974477958237
20
14.3758700696056
30
0.000000000000000
 41
2.50000000000000
 42
2.50000000000000
 43
2.50000000000000
  0
MTEXT
  5
F1002B
330
F10011
100
AcDbEntity
  8
Bemassung
 62
     0
100
AcDbMText
10
-55.0974477958237
20
15.0425367362722
30
0.000000000000000
 40
2.50000000000000
 41
0.0
 71
     8
 72
     1
  1
46
 11
1.00000000000000
 21
0.000000000000000
 31
0.0
 73
     1
 44
1.0
1001
ACAD
1000
MTEXTBEGIN
1070
73
1070
1
1070
44
1040
1.0
1070
74
1070
0
1000
MTEXTEND
  0
POINT
  5
F1002C
330
F10011
100
AcDbEntity
  8
Bemassung
 62
     0
100
AcDbPoint
10
-78.0974477958237
20
4.37587006960557
30
0.000000000000000
  0
POINT
  5
F1002D
330
F10011
100
AcDbEntity
  8
Bemassung
 62
     0
100
AcDbPoint
10
-32.0974477958237
20
3.87587006960557
30
0.000000000000000
  0
ENDBLK
  5
F1002E
330
F10011
100
AcDbEntity
  8
0
100
AcDbBlockEnd
  0
BLOCK
  5
F1002F
330
F1001B
100
AcDbEntity
  8
0
100
AcDbBlockBegin
  2
*D8
 70
     1
 10
0.0
 20
0.0
 30
0.0
  3
*D8
  1

  0
LINE
  5
F10030
330
F1001B
100
AcDbEntity
  8
Bemassung
 62
     0
370
    -2
100
AcDbLine
10
-78.0974477958237
20
-3.62412993039443
30
0.000000000000000
11
-78.0974477958237
21
-10.6241299303944
31
0.000000000000000
  0
LINE
  5
F10031
330
F1001B
100
AcDbEntity
  8
Bemassung
 62
     0
370
    -2
100
AcDbLine
10
-96.0974477958237
20
-10.6241299303944
30
0.000000000000000
11
-96.0974477958237
21
21.3758700696056
31
0.000000000000000
  0
LINE
  5
F10032
330
F1001B
100
AcDbEntity
  8
Bemassung
 62
     0
370
    -2
100
AcDbLine
10
-68.3913981049244
20
-8.62412993039443
30
0.000000000000000
11
-96.0974477958237
21
-8.62412993039443
31
0.000000000000000
  0
INSERT
  5
F10033
330
F1001B
100
AcDbEntity
  8
Bemassung
 62
     0
370
    -2
100
AcDbBlockReference
  2
VDDIM_DEFAULT
10
-78.0974477958237
20
-8.62412993039443
30
0.000000000000000
 41
2.50000000000000
 42
2.50000000000000
 43
2.50000000000000
  0
INSERT
  5
F10034
330
F1001B
100
AcDbEntity
  8
Bemassung
 62
     0
370
    -2
100
AcDbBlockReference
  2
VDDIM_DEFAULT
10
-96.0974477958237
20
-8.62412993039443
30
0.000000000000000
 41
2.50000000000000
 42
2.50000000000000
 43
2.50000000000000
 50
180.000000000000
  0
MTEXT
  5
F10035
330
F1001B
100
AcDbEntity
  8
Bemassung
 62
     0
100
AcDbMText
10
-87.0974477958237
20
-7.95746326372776
30
0.000000000000000
 40
2.50000000000000
 41
0.0
 71
     8
 72
     1
  1
18
 11
1.00000000000000
 21
0.000000000000000
 31
0.0
 73
     1
 44
1.0
1001
ACAD
1000
MTEXTBEGIN
1070
73
1070
1
1070
44
1040
1.0
1070
74
1070
0
1000
MTEXTEND
  0
POINT
  5
F10036
330
F1001B
100
AcDbEntity
  8
Bemassung
 62
     0
100
AcDbPoint
10
-78.0974477958237
20
-3.62412993039443
30
0.000000000000000
  0
POINT
  5
F10037
330
F1001B
100
AcDbEntity
  8
Bemassung
 62
     0
100
AcDbPoint
10
-96.0974477958237
20
-10.6241299303944
30
0.000000000000000
  0
ENDBLK
  5
F10038
330
F1001B
100
AcDbEntity
  8
0
100
AcDbBlockEnd
  0
BLOCK
  5
F10039
330
F10020
100
AcDbEntity
  8
0
100
AcDbBlockBegin
  2
*D9
 70
     1
 10
0.0
 20
0.0
 30
0.0
  3
*D9
  1

  0
LINE
  5
F1003A
330
F10020
100
AcDbEntity
  8
Bemassung
 62
     0
370
    -2
100
AcDbLine
10
-32.0974477958237
20
3.87587006960557
30
0.000000000000000
11
-32.0974477958237
21
21.3758700696056
31
0.000000000000000
  0
LINE
  5
F1003B
330
F10020
100
AcDbEntity
  8
Bemassung
 62
     0
370
    -2
100
AcDbLine
10
-96.0974477958237
20
-10.6241299303944
30
0.000000000000000
11
-96.0974477958237
21
21.3758700696056
31
0.000000000000000
  0
LINE
  5
F1003C
330
F10020
100
AcDbEntity
  8
Bemassung
 62
     0
370
    -2
100
AcDbLine
10
0.596087259653615
20
19.3758700696056
30
0.000000000000000
11
-96.0974477958237
21
19.3758700696056
31
0.000000000000000
  0
INSERT
  5
F1003D
330
F10020
100
AcDbEntity
  8
Bemassung
 62
     0
370
    -2
100
AcDbBlockReference
  2
VDDIM_DEFAULT
10
-32.0974477958237
20
19.3758700696056
30
0.000000000000000
 41
2.50000000000000
 42
2.50000000000000
 43
2.50000000000000
  0
INSERT
  5
F1003E
330
F10020
100
AcDbEntity
  8
Bemassung
 62
     0
370
    -2
100
AcDbBlockReference
  2
VDDIM_DEFAULT
10
-96.0974477958237
20
19.3758700696056
30
0.000000000000000
 41
2.50000000000000
 42
2.50000000000000
 43
2.50000000000000
 50
180.000000000000
  0
MTEXT
  5
F1003F
330
F10020
100
AcDbEntity
  8
Bemassung
 62
     0
100
AcDbMText
10
-64.0974477958237
20
20.0425367362722
30
0.000000000000000
 40
2.50000000000000
 41
0.0
 71
     8
 72
     1
  1
64
 11
1.00000000000000
 21
0.000000000000000
 31
0.0
 73
     1
 44
1.0
1001
ACAD
1000
MTEXTBEGIN
1070
73
1070
1
1070
44
1040
1.0
1070
74
1070
0
1000
MTEXTEND
  0
POINT
  5
F10040
330
F10020
100
AcDbEntity
  8
Bemassung
 62
     0
100
AcDbPoint
10
-32.0974477958237
20
3.87587006960557
30
0.000000000000000
  0
POINT
  5
F10041
330
F10020
100
AcDbEntity
  8
Bemassung
 62
     0
100
AcDbPoint
10
-96.0974477958237
20
-10.6241299303944
30
0.000000000000000
  0
ENDBLK
  5
F10042
330
F10020
100
AcDbEntity
  8
0
100
AcDbBlockEnd
  0
BLOCK
  5
F10043
330
F10002
100
AcDbEntity
  8
0
100
AcDbBlockBegin
  2
*D3
 70
     1
 10
0.0
 20
0.0
 30
0.0
  3
*D3
  1

 0
ARC
  5
F10044
330
F10002
100
AcDbEntity
  8
Bemassung
 62
     0
370
   -2
100
AcDbCircle
10
-96.0968386228428
20
3.34097057290307
30
0.000000000000000
 40
11.8186194918846
100
AcDbArc
 50
90.0000000000000
 51
105.908507363161
  0
LINE
  5
F10045
330
F10002
100
AcDbEntity
  8
Bemassung
 62
     0
370
    -2
100
AcDbLine
10
-96.0968386228428
20
3.34097057290307
30
0.000000000000000
11
-96.0968386228428
21
17.1595900647876
31
0.000000000000000
  0
LINE
  5
F10046
330
F10002
100
AcDbEntity
  8
Bemassung
 62
     0
370
    -2
100
AcDbLine
10
-96.0968386228428
20
3.34097057290307
30
0.000000000000000
11
-96.5791014882329
21
17.1511721351598
31
0.000000000000000
  0
INSERT
  5
F10047
330
F10002
100
AcDbEntity
  8
Bemassung
 62
     0
370
    -2
100
AcDbBlockReference
  2
VDDIM_DEFAULT
10
-96.0968386228428
20
15.1595900647876
30
0.000000000000000
 41
2.50000000000000
 42
2.50000000000000
 43
2.50000000000000
 50
179.757603032790
  0
INSERT
  5
F10048
330
F10002
100
AcDbEntity
  8
Bemassung
 62
     0
370
    -2
100
AcDbBlockReference
  2
VDDIM_DEFAULT
10
-96.5093024948279
20
15.1523904811216
30
0.000000000000000
 41
2.50000000000000
 42
2.50000000000000
 43
2.50000000000000
 50
2.24239696721101
  0
MTEXT
  5
F10049
330
F10002
100
AcDbEntity
  8
Bemassung
 62
     0
100
AcDbMText
10
-100.116584644030
20
14.4549891359207
30
0.000000000000000
 40
2.50000000000000
 41
0.0
 71
     8
 72
     1
  1
2°
 11
0.941741911594837
 21
0.336336396998156
 31
0.0
 73
     1
 44
1.0
1001
ACAD
1000
MTEXTBEGIN
1070
73
1070
1
1070
44
1040
1.0
1070
74
1070
0
1000
MTEXTEND
  0
POINT
  5
F1004A
330
F10002
100
AcDbEntity
  8
Bemassung
 62
     0
100
AcDbPoint
10
-96.0968386228428
20
3.34097057290307
30
0.000000000000000
  0
POINT
  5
F1004B
330
F10002
100
AcDbEntity
  8
Bemassung
 62
     0
100
AcDbPoint
10
-96.0968386228428
20
15.1595900647876
30
0.000000000000000
  0
POINT
  5
F1004C
330
F10002
100
AcDbEntity
  8
Bemassung
 62
     0
100
AcDbPoint
10
-96.5093024948279
20
15.1523904811216
30
0.000000000000000
  0
POINT
  5
F1004D
330
F10002
100
AcDbEntity
  8
Bemassung
 62
     0
100
AcDbPoint
10
-96.3031019737427
20
15.1577900317943
30
0.000000000000000
  0
ENDBLK
  5
F1004E
330
F10002
100
AcDbEntity
  8
0
100
AcDbBlockEnd
  0
BLOCK
  5
F1004F
330
F1000C
100
AcDbEntity
  8
0
100
AcDbBlockBegin
  2
*D5
 70
     1
 10
0.0
 20
0.0
 30
0.0
  3
*D5
  1

  0
LINE
  5
F10050
330
F1000C
100
AcDbEntity
  8
Bemassung
 62
     0
370
    -2
100
AcDbLine
10
-95.8167875961623
20
4.07052844006457
30
0.000000000000000
11
-107.140272322246
21
15.0054905317430
31
0.000000000000000
  0
INSERT
  5
F10051
330
F1000C
100
AcDbEntity
  8
Bemassung
 62
     0
370
    -2
100
AcDbBlockReference
  2
VDDIM_DEFAULT
10
-95.8167875961623
20
4.07052844006457
30
0.000000000000000
 41
2.50000000000000
 42
2.50000000000000
 43
2.50000000000000
 50
316.000000000000
  0
MTEXT
  5
F10052
330
F1000C
100
AcDbEntity
  8
Bemassung
 62
     0
100
AcDbMText
10
-103.010185599549
20
11.0171121446545
30
0.000000000000000
 40
2.50000000000000
 41
0.0
 71
     8
 72
     1
  1
R1
 11
0.719339800338652
 21
-0.694658370458996
 31
0.0
 73
     1
 44
1.0
1001
ACAD
1000
MTEXTBEGIN
1070
73
1070
1
1070
44
1040
1.0
1070
74
1070
0
1000
MTEXTEND
  0
POINT
  5
F10053
330
F1000C
100
AcDbEntity
  8
Bemassung
 62
     0
100
AcDbPoint
10
-95.8167875961623
20
4.07052844006457
30
0.000000000000000
  0
POINT
  5
F10054
330
F1000C
100
AcDbEntity
  8
Bemassung
 62
     0
100
AcDbPoint
10
-95.0974477958237
20
3.37587006960557
30
0.000000000000000
  0
ENDBLK
  5
F10055
330
F1000C
100
AcDbEntity
  8
0
100
AcDbBlockEnd
  0
BLOCK
  5
F10056
330
F10007
100
AcDbEntity
  8
0
100
AcDbBlockBegin
  2
*D4
 70
     1
 10
0.0
 20
0.0
 30
0.0
  3
*D4
  1

  0
LINE
  5
F10057
330
F10007
100
AcDbEntity
  8
Bemassung
 62
     0
370
    -2
100
AcDbLine
10
-95.0974477958237
20
-3.62412993039443
30
0.000000000000000
11
-108.097447795824
21
-3.62412993039443
31
0.000000000000000
  0
LINE
  5
F10058
330
F10007
100
AcDbEntity
  8
Bemassung
 62
     0
370
    -2
100
AcDbLine
10
-95.0974477958237
20
4.37587006960557
30
0.000000000000000
11
-108.097447795824
21
4.37587006960557
31
0.000000000000000
  0
LINE
  5
F10059
330
F10007
100
AcDbEntity
  8
Bemassung
 62
     0
370
    -2
100
AcDbLine
10
-106.097447795824
20
-3.62412993039443
30
0.000000000000000
11
-106.097447795824
21
4.37587006960557
31
0.000000000000000
  0
INSERT
  5
F1005A
330
F10007
100
AcDbEntity
  8
Bemassung
 62
     0
370
    -2
100
AcDbBlockReference
  2
VDDIM_DEFAULT
10
-106.097447795824
20
-3.62412993039443
30
0.000000000000000
 41
2.50000000000000
 42
2.50000000000000
 43
2.50000000000000
 50
270.000000000000
  0
INSERT
  5
F1005B
330
F10007
100
AcDbEntity
  8
Bemassung
 62
     0
370
    -2
100
AcDbBlockReference
  2
VDDIM_DEFAULT
10
-106.097447795824
20
4.37587006960557
30
0.000000000000000
 41
2.50000000000000
 42
2.50000000000000
 43
2.50000000000000
 50
90.0000000000000
  0
MTEXT
  5
F1005C
330
F10007
100
AcDbEntity
  8
Bemassung
 62
     0
100
AcDbMText
10
-105.430781129157
20
0.375870069605568
30
0.000000000000000
 40
2.50000000000000
 41
0.0
 71
     8
 72
     1
  1
8
 11
6.12323399573677e-017
 21
1.00000000000000
 31
0.0
 73
     1
 44
1.0
1001
ACAD
1000
MTEXTBEGIN
1070
73
1070
1
1070
44
1040
1.0
1070
74
1070
0
1000
MTEXTEND
  0
POINT
  5
F1005D
330
F10007
100
AcDbEntity
  8
Bemassung
 62
     0
100
AcDbPoint
10
-95.0974477958237
20
-3.62412993039443
30
0.000000000000000
  0
POINT
  5
F1005E
330
F10007
100
AcDbEntity
  8
Bemassung
 62
     0
100
AcDbPoint
10
-95.0974477958237
20
4.37587006960557
30
0.000000000000000
  0
ENDBLK
  5
F1005F
330
F10007
100
AcDbEntity
  8
0
100
AcDbBlockEnd
  0
BLOCK
  5
F10060
330
F10016
100
AcDbEntity
  8
0
100
AcDbBlockBegin
  2
*D7
 70
     1
 10
0.0
 20
0.0
 30
0.0
  3
*D7
  1

  0
LINE
  5
F10061
330
F10016
100
AcDbEntity
  8
Bemassung
 62
     0
370
    -2
100
AcDbLine
10
-32.5974477958237
20
-3.62412993039443
30
0.000000000000000
11
-20.0974477958237
21
-3.62412993039443
31
0.000000000000000
  0
LINE
  5
F10062
330
F10016
100
AcDbEntity
  8
Bemassung
 62
     0
370
    -2
100
AcDbLine
10
-32.5974477958237
20
4.37587006960557
30
0.000000000000000
11
-20.0974477958237
21
4.37587006960557
31
0.000000000000000
  0
LINE
  5
F10063
330
F10016
100
AcDbEntity
  8
Bemassung
 62
     0
370
    -2
100
AcDbLine
10
-22.0974477958237
20
-3.62412993039443
30
0.000000000000000
11
-22.0974477958237
21
4.37587006960557
31
0.000000000000000
  0
INSERT
  5
F10064
330
F10016
100
AcDbEntity
  8
Bemassung
 62
     0
370
    -2
100
AcDbBlockReference
  2
VDDIM_DEFAULT
10
-22.0974477958237
20
-3.62412993039443
30
0.000000000000000
 41
2.50000000000000
 42
2.50000000000000
 43
2.50000000000000
 50
270.000000000000
  0
INSERT
  5
F10065
330
F10016
100
AcDbEntity
  8
Bemassung
 62
     0
370
    -2
100
AcDbBlockReference
  2
VDDIM_DEFAULT
10
-22.0974477958237
20
4.37587006960557
30
0.000000000000000
 41
2.50000000000000
 42
2.50000000000000
 43
2.50000000000000
 50
90.0000000000000
  0
MTEXT
  5
F10066
330
F10016
100
AcDbEntity
  8
Bemassung
 62
     0
100
AcDbMText
10
-21.4307811291570
20
0.375870069605568
30
0.000000000000000
 40
2.50000000000000
 41
0.0
 71
     8
 72
     1
  1
8h6
 11
6.12323399573677e-017
 21
1.00000000000000
 31
0.0
 73
     1
 44
1.0
  0
POINT
  5
F10067
330
F10016
100
AcDbEntity
  8
Bemassung
 62
     0
100
AcDbPoint
10
-32.5974477958237
20
-3.62412993039443
30
0.000000000000000
  0
POINT
  5
F10068
330
F10016
100
AcDbEntity
  8
Bemassung
 62
     0
100
AcDbPoint
10
-32.5974477958237
20
4.37587006960557
30
0.000000000000000
  0
ENDBLK
  5
F10069
330
F10016
100
AcDbEntity
  8
0
100
AcDbBlockEnd
0
ENDSEC
0
SECTION
2
ENTITIES
  0
DIMENSION
  5
F10012
330
261
100
AcDbEntity
  8
Bemassung
100
AcDbDimension
  2
*D6
10
-32.0974477958237
20
14.3758700696056
30
0.000000000000000
11
-55.0974477958237
21
15.0425367362722
31
0.000000000000000
 70
32
 1
46
 71
     8
  3
BEM-ISBE
100
AcDbAlignedDimension
13
-78.0974477958237
23
4.37587006960557
33
0.000000000000000
14
-32.0974477958237
24
3.87587006960557
34
0.000000000000000
100
AcDbRotatedDimension
1001
ACAD
1000
DSTYLE
1002
{
1070
284
1070
8
1070
78
1070
8
1070
144
1040
1.00000000000000
1070
147
1040
0.625
1070
 72
1070
 0
1070
 71
1070
 0
1002
}
  0
DIMENSION
  5
F1001C
330
261
100
AcDbEntity
  8
Bemassung
100
AcDbDimension
  2
*D8
10
-96.0974477958237
20
-8.62412993039443
30
0.000000000000000
11
-87.0974477958237
21
-7.95746326372776
31
0.000000000000000
 70
32
 1
18
 71
     8
  3
BEM-ISBE
100
AcDbAlignedDimension
13
-78.0974477958237
23
-3.62412993039443
33
0.000000000000000
14
-96.0974477958237
24
-10.6241299303944
34
0.000000000000000
100
AcDbRotatedDimension
1001
ACAD
1000
DSTYLE
1002
{
1070
284
1070
8
1070
78
1070
8
1070
144
1040
1.00000000000000
1070
147
1040
0.625
1070
 72
1070
 0
1070
 71
1070
 0
1002
}
  0
DIMENSION
  5
F10021
330
261
100
AcDbEntity
  8
Bemassung
100
AcDbDimension
  2
*D9
10
-96.0974477958237
20
19.3758700696056
30
0.000000000000000
11
-64.0974477958237
21
20.0425367362722
31
0.000000000000000
 70
32
 1
64
 71
     8
  3
BEM-ISBE
100
AcDbAlignedDimension
13
-32.0974477958237
23
3.87587006960557
33
0.000000000000000
14
-96.0974477958237
24
-10.6241299303944
34
0.000000000000000
100
AcDbRotatedDimension
1001
ACAD
1000
DSTYLE
1002
{
1070
284
1070
8
1070
78
1070
8
1070
144
1040
1.00000000000000
1070
147
1040
0.625
1070
 72
1070
 0
1070
 71
1070
 0
1002
}
  0
DIMENSION
  5
F10003
330
261
100
AcDbEntity
  8
Bemassung
100
AcDbDimension
  2
*D3
10
-96.0968386228428
20
3.34097057290307
30
0.000000000000000
11
-100.116584644030
21
14.4549891359207
31
0.000000000000000
 70
34
 1
2°
 71
     8
  3
BEM-ISBE
100
AcDb2LineAngularDimension
13
-96.0968386228428
23
3.34097057290307
33
0.000000000000000
14
-99.3363460573668
24
14.7069442784691
34
0.000000000000000
15
-96.0968386228428
25
15.1595900647876
35
0.000000000000000
16
-96.3031019737427
26
15.1577900317943
36
0.000000000000000
1001
ACAD
1000
DSTYLE
1002
{
1070
284
1070
8
1070
79
1070
2
1070
147
1040
0.625
1070
 72
1070
 0
1070
 71
1070
 0
1002
}
  0
DIMENSION
  5
F1000D
330
261
100
AcDbEntity
  8
Bemassung
100
AcDbDimension
  2
*D5
10
-95.0974477958237
20
3.37587006960557
30
0.000000000000000
11
-103.010185599549
21
11.0171121446545
31
0.000000000000000
 70
164
 1
R1
 71
     8
  3
BEM-ISBE
100
AcDbRadialDimension
15
-95.8167875961623
25
4.07052844006457
35
0.000000000000000
40
0.0
1001
ACAD
1000
DSTYLE
1002
{
1070
284
1070
8
1070
78
1070
8
1070
144
1040
1.00000000000000
1070
147
1040
0.625
1070
 72
1070
 0
1070
 71
1070
 0
1002
}
  0
DIMENSION
  5
F10008
330
261
100
AcDbEntity
  8
Bemassung
100
AcDbDimension
  2
*D4
10
-106.097447795824
20
4.37587006960557
30
0.000000000000000
11
-105.430781129157
21
0.375870069605568
31
0.000000000000000
 70
32
 1
8
 71
     8
  3
BEM-ISBE
100
AcDbAlignedDimension
13
-95.0974477958237
23
-3.62412993039443
33
0.000000000000000
14
-95.0974477958237
24
4.37587006960557
34
0.000000000000000
50
90.0000000000000
100
AcDbRotatedDimension
1001
ACAD
1000
DSTYLE
1002
{
1070
284
1070
8
1070
78
1070
8
1070
144
1040
1.00000000000000
1070
147
1040
0.625
1070
 72
1070
 0
1070
 71
1070
 0
1002
}
  0
DIMENSION
  5
F10017
330
261
100
AcDbEntity
  8
Bemassung
100
AcDbDimension
  2
*D7
10
-22.0974477958237
20
4.37587006960557
30
0.000000000000000
11
-21.4307811291570
21
0.375870069605568
31
0.000000000000000
 70
32
 1
8h6
 71
     8
  3
BEM-ISBE
100
AcDbAlignedDimension
13
-32.5974477958237
23
-3.62412993039443
33
0.000000000000000
14
-32.5974477958237
24
4.37587006960557
34
0.000000000000000
50
90.0000000000000
100
AcDbRotatedDimension
1001
ACAD
1000
DSTYLE
1002
{
1070
284
1070
8
1070
78
1070
8
1070
144
1040
1.00000000000000
1070
147
1040
0.625
1070
 72
1070
 0
1070
 71
1070
 0
1002
}
  0
LINE
  5
F1006A
330
F1006B
100
AcDbEntity
8
Geo
100
AcDbLine
10
-95.9932950316473
20
0.375870069605568
30
0.000000000000000
11
-96.0968386228428
21
3.34097057290307
31
0.000000000000000
  0
ARC
  5
F1006C
330
F1006D
100
AcDbEntity
8
Geo
100
AcDbCircle
10
-95.0974477958237
20
3.37587006960557
30
0.000000000000000
 40
1.00000000000000
100
AcDbArc
 50
90.0000000000000
 51
182.000000000000
  0
LINE
  5
F1006E
330
F1006F
100
AcDbEntity
8
Geo
100
AcDbLine
10
-95.0974477958237
20
4.37587006960557
30
0.000000000000000
11
-78.0974477958237
21
4.37587006960557
31
0.000000000000000
  0
LINE
  5
F10070
330
F10071
100
AcDbEntity
8
Geo
100
AcDbLine
10
-78.0974477958237
20
4.37587006960557
30
0.000000000000000
11
-32.5974477958237
21
4.37587006960557
31
0.000000000000000
  0
LINE
  5
F10072
330
F10073
100
AcDbEntity
8
Geo
100
AcDbLine
10
-32.5974477958237
20
4.37587006960557
30
0.000000000000000
11
-32.0974477958237
21
3.87587006960557
31
0.000000000000000
  0
LINE
  5
F10074
330
F10075
100
AcDbEntity
8
Geo
100
AcDbLine
10
-92.8974477958237
20
4.37462448175311
30
0.000000000000000
11
-92.7974477958237
21
4.37550376228577
31
0.000000000000000
  0
LINE
  5
F10076
330
F10077
100
AcDbEntity
8
Geo
100
AcDbLine
10
-92.7974477958237
20
4.37550376228577
30
0.000000000000000
11
-92.6974477958237
21
4.37045839106268
31
0.000000000000000
  0
LINE
  5
F10078
330
F10079
100
AcDbEntity
8
Geo
100
AcDbLine
10
-92.6974477958237
20
4.37045839106268
30
0.000000000000000
11
-92.5974477958237
21
4.35949584178514
31
0.000000000000000
  0
LINE
  5
F1007A
330
F1007B
100
AcDbEntity
8
Geo
100
AcDbLine
10
-92.5974477958237
20
4.35949584178514
30
0.000000000000000
11
-92.4974477958237
21
4.34263235326194
31
0.000000000000000
  0
LINE
  5
F1007C
330
F1007D
100
AcDbEntity
8
Geo
100
AcDbLine
10
-92.4974477958237
20
4.34263235326194
30
0.000000000000000
11
-92.3974477958237
21
4.31989290535490
31
0.000000000000000
  0
LINE
  5
F1007E
330
F1007F
100
AcDbEntity
8
Geo
100
AcDbLine
10
-92.3974477958237
20
4.31989290535490
30
0.000000000000000
11
-92.2974477958237
21
4.29131118197615
31
0.000000000000000
  0
LINE
  5
F10080
330
F10081
100
AcDbEntity
8
Geo
100
AcDbLine
10
-92.2974477958237
20
4.29131118197615
30
0.000000000000000
11
-92.1974477958237
21
4.25692952119230
31
0.000000000000000
  0
LINE
  5
F10082
330
F10083
100
AcDbEntity
8
Geo
100
AcDbLine
10
-92.1974477958237
20
4.25692952119230
30
0.000000000000000
11
-92.0974477958237
21
4.21679885250903
31
0.000000000000000
  0
LINE
  5
F10084
330
F10085
100
AcDbEntity
8
Geo
100
AcDbLine
10
-92.0974477958237
20
4.21679885250903
30
0.000000000000000
11
-91.9974477958237
21
4.17097862142935
31
0.000000000000000
  0
LINE
  5
F10086
330
F10087
100
AcDbEntity
8
Geo
100
AcDbLine
10
-91.9974477958237
20
4.17097862142935
30
0.000000000000000
11
-91.8974477958237
21
4.11953670139701
31
0.000000000000000
  0
LINE
  5
F10088
330
F10089
100
AcDbEntity
8
Geo
100
AcDbLine
10
-91.8974477958237
20
4.11953670139701
30
0.000000000000000
11
-91.7974477958237
21
4.06254929325571
31
0.000000000000000
  0
LINE
  5
F1008A
330
F1008B
100
AcDbEntity
8
Geo
100
AcDbLine
10
-91.7974477958237
20
4.06254929325571
30
0.000000000000000
11
-91.6974477958237
21
4.00010081237287
31
0.000000000000000
  0
LINE
  5
F1008C
330
F1008D
100
AcDbEntity
8
Geo
100
AcDbLine
10
-91.6974477958237
20
4.00010081237287
30
0.000000000000000
11
-91.5974477958237
21
3.93228376359526
31
0.000000000000000
  0
LINE
  5
F1008E
330
F1008F
100
AcDbEntity
8
Geo
100
AcDbLine
10
-91.5974477958237
20
3.93228376359526
30
0.000000000000000
11
-91.4974477958237
21
3.85919860422172
31
0.000000000000000
  0
LINE
  5
F10090
330
F10091
100
AcDbEntity
8
Geo
100
AcDbLine
10
-91.4974477958237
20
3.85919860422172
30
0.000000000000000
11
-91.3974477958237
21
3.78095359519589
31
0.000000000000000
  0
LINE
  5
F10092
330
F10093
100
AcDbEntity
8
Geo
100
AcDbLine
10
-91.3974477958237
20
3.78095359519589
30
0.000000000000000
11
-91.2974477958237
21
3.69766464073945
31
0.000000000000000
  0
LINE
  5
F10094
330
F10095
100
AcDbEntity
8
Geo
100
AcDbLine
10
-91.2974477958237
20
3.69766464073945
30
0.000000000000000
11
-91.1974477958237
21
3.60945511666332
31
0.000000000000000
  0
LINE
  5
F10096
330
F10097
100
AcDbEntity
8
Geo
100
AcDbLine
10
-91.1974477958237
20
3.60945511666332
30
0.000000000000000
11
-91.0974477958237
21
3.51645568761128
31
0.000000000000000
  0
LINE
  5
F10098
330
F10099
100
AcDbEntity
8
Geo
100
AcDbLine
10
-91.0974477958237
20
3.51645568761128
30
0.000000000000000
11
-90.9974477958237
21
3.41880411350659
31
0.000000000000000
  0
LINE
  5
F1009A
330
F1009B
100
AcDbEntity
8
Geo
100
AcDbLine
10
-90.9974477958237
20
3.41880411350659
30
0.000000000000000
11
-90.8974477958237
21
3.31664504548845
31
0.000000000000000
  0
LINE
  5
F1009C
330
F1009D
100
AcDbEntity
8
Geo
100
AcDbLine
10
-90.8974477958237
20
3.31664504548845
30
0.000000000000000
11
-90.7974477958237
21
3.21012981164043
31
0.000000000000000
  0
LINE
  5
F1009E
330
F1009F
100
AcDbEntity
8
Geo
100
AcDbLine
10
-90.7974477958237
20
3.21012981164043
30
0.000000000000000
11
-90.6974477958237
21
3.09941619282840
31
0.000000000000000
  0
LINE
  5
F100A0
330
F100A1
100
AcDbEntity
8
Geo
100
AcDbLine
10
-90.6974477958237
20
3.09941619282840
30
0.000000000000000
11
-90.5974477958237
21
2.98466818897997
31
0.000000000000000
  0
LINE
  5
F100A2
330
F100A3
100
AcDbEntity
8
Geo
100
AcDbLine
10
-90.5974477958237
20
2.98466818897997
30
0.000000000000000
11
-90.4974477958237
21
2.86605577615164
31
0.000000000000000
  0
LINE
  5
F100A4
330
F100A5
100
AcDbEntity
8
Geo
100
AcDbLine
10
-90.4974477958237
20
2.86605577615164
30
0.000000000000000
11
-90.3974477958237
21
2.74375465474347
31
0.000000000000000
  0
LINE
  5
F100A6
330
F100A7
100
AcDbEntity
8
Geo
100
AcDbLine
10
-90.3974477958237
20
2.74375465474347
30
0.000000000000000
11
-90.2974477958237
21
2.61794598923435
31
0.000000000000000
  0
LINE
  5
F100A8
330
F100A9
100
AcDbEntity
8
Geo
100
AcDbLine
10
-90.2974477958237
20
2.61794598923435
30
0.000000000000000
11
-90.1974477958237
21
2.48881613982330
31
0.000000000000000
  0
LINE
  5
F100AA
330
F100AB
100
AcDbEntity
8
Geo
100
AcDbLine
10
-90.1974477958237
20
2.48881613982330
30
0.000000000000000
11
-90.0974477958237
21
2.35655638637438
31
0.000000000000000
  0
LINE
  5
F100AC
330
F100AD
100
AcDbEntity
8
Geo
100
AcDbLine
10
-90.0974477958237
20
2.35655638637438
30
0.000000000000000
11
-89.9974477958237
21
2.22136264507410
31
0.000000000000000
  0
LINE
  5
F100AE
330
F100AF
100
AcDbEntity
8
Geo
100
AcDbLine
10
-89.9974477958237
20
2.22136264507410
30
0.000000000000000
11
-89.8974477958237
21
2.08343517822103
31
0.000000000000000
  0
LINE
  5
F100B0
330
F100B1
100
AcDbEntity
8
Geo
100
AcDbLine
10
-89.8974477958237
20
2.08343517822103
30
0.000000000000000
11
-89.7974477958237
21
1.94297829757757
31
0.000000000000000
  0
LINE
  5
F100B2
330
F100B3
100
AcDbEntity
8
Geo
100
AcDbLine
10
-89.7974477958237
20
1.94297829757757
30
0.000000000000000
11
-89.6974477958237
21
1.80020006172318
31
0.000000000000000
  0
LINE
  5
F100B4
330
F100B5
100
AcDbEntity
8
Geo
100
AcDbLine
10
-89.6974477958237
20
1.80020006172318
30
0.000000000000000
11
-89.5974477958237
21
1.65531196785755
31
0.000000000000000
  0
LINE
  5
F100B6
330
F100B7
100
AcDbEntity
8
Geo
100
AcDbLine
10
-89.5974477958237
20
1.65531196785755
30
0.000000000000000
11
-89.4974477958237
21
1.50852863851004
31
0.000000000000000
  0
LINE
  5
F100B8
330
F100B9
100
AcDbEntity
8
Geo
100
AcDbLine
10
-89.4974477958237
20
1.50852863851004
30
0.000000000000000
11
-89.3974477958237
21
1.36006750361970
31
0.000000000000000
  0
LINE
  5
F100BA
330
F100BB
100
AcDbEntity
8
Geo
100
AcDbLine
10
-89.3974477958237
20
1.36006750361970
30
0.000000000000000
11
-89.2974477958237
21
1.21014847845652
31
0.000000000000000
  0
LINE
  5
F100BC
330
F100BD
100
AcDbEntity
8
Geo
100
AcDbLine
10
-89.2974477958237
20
1.21014847845652
30
0.000000000000000
11
-89.1974477958237
21
1.05899363786135
31
0.000000000000000
  0
LINE
  5
F100BE
330
F100BF
100
AcDbEntity
8
Geo
100
AcDbLine
10
-89.1974477958237
20
1.05899363786135
30
0.000000000000000
11
-89.0974477958237
21
0.906826887286646
31
0.000000000000000
  0
LINE
  5
F100C0
330
F100C1
100
AcDbEntity
8
Geo
100
AcDbLine
10
-89.0974477958237
20
0.906826887286646
30
0.000000000000000
11
-88.9974477958237
21
0.753873631125734
31
0.000000000000000
  0
LINE
  5
F100C2
330
F100C3
100
AcDbEntity
8
Geo
100
AcDbLine
10
-88.9974477958237
20
0.753873631125734
30
0.000000000000000
11
-88.8974477958237
21
0.600360438821534
31
0.000000000000000
  0
LINE
  5
F100C4
330
F100C5
100
AcDbEntity
8
Geo
100
AcDbLine
10
-88.8974477958237
20
0.600360438821534
30
0.000000000000000
11
-88.7974477958237
21
0.446514709249596
31
0.000000000000000
  0
LINE
  5
F100C6
330
F100C7
100
AcDbEntity
8
Geo
100
AcDbLine
10
-88.7974477958237
20
0.446514709249596
30
0.000000000000000
11
-88.6974477958237
21
0.292564333872451
31
0.000000000000000
  0
LINE
  5
F100C8
330
F100C9
100
AcDbEntity
8
Geo
100
AcDbLine
10
-88.6974477958237
20
0.292564333872451
30
0.000000000000000
11
-88.5974477958237
21
0.138737359164317
31
0.000000000000000
  0
LINE
  5
F100CA
330
F100CB
100
AcDbEntity
8
Geo
100
AcDbLine
10
-88.5974477958237
20
0.138737359164317
30
0.000000000000000
11
-88.4974477958237
21
-0.0147383511938257
31
0.000000000000000
  0
LINE
  5
F100CC
330
F100CD
100
AcDbEntity
8
Geo
100
AcDbLine
10
-88.4974477958237
20
-0.0147383511938257
30
0.000000000000000
11
-88.3974477958237
21
-0.167635453848387
31
0.000000000000000
  0
LINE
  5
F100CE
330
F100CF
100
AcDbEntity
8
Geo
100
AcDbLine
10
-88.3974477958237
20
-0.167635453848387
30
0.000000000000000
11
-88.2974477958237
21
-0.319727462536546
31
0.000000000000000
  0
LINE
  5
F100D0
330
F100D1
100
AcDbEntity
8
Geo
100
AcDbLine
10
-88.2974477958237
20
-0.319727462536546
30
0.000000000000000
11
-88.1974477958237
21
-0.470789083580048
31
0.000000000000000
  0
LINE
  5
F100D2
330
F100D3
100
AcDbEntity
8
Geo
100
AcDbLine
10
-88.1974477958237
20
-0.470789083580048
30
0.000000000000000
11
-88.0974477958237
21
-0.620596549612400
31
0.000000000000000
  0
LINE
  5
F100D4
330
F100D5
100
AcDbEntity
8
Geo
100
AcDbLine
10
-88.0974477958237
20
-0.620596549612400
30
0.000000000000000
11
-87.9974477958237
21
-0.768927951045162
31
0.000000000000000
  0
LINE
  5
F100D6
330
F100D7
100
AcDbEntity
8
Geo
100
AcDbLine
10
-87.9974477958237
20
-0.768927951045162
30
0.000000000000000
11
-87.8974477958237
21
-0.915563564782311
31
0.000000000000000
  0
LINE
  5
F100D8
330
F100D9
100
AcDbEntity
8
Geo
100
AcDbLine
10
-87.8974477958237
20
-0.915563564782311
30
0.000000000000000
11
-87.7974477958237
21
-1.06028617969574
31
0.000000000000000
  0
LINE
  5
F100DA
330
F100DB
100
AcDbEntity
8
Geo
100
AcDbLine
10
-87.7974477958237
20
-1.06028617969574
30
0.000000000000000
11
-87.6974477958237
21
-1.20288141837981
31
0.000000000000000
  0
LINE
  5
F100DC
330
F100DD
100
AcDbEntity
8
Geo
100
AcDbLine
10
-87.6974477958237
20
-1.20288141837981
30
0.000000000000000
11
-87.5974477958237
21
-1.34313805470830
31
0.000000000000000
  0
LINE
  5
F100DE
330
F100DF
100
AcDbEntity
8
Geo
100
AcDbLine
10
-87.5974477958237
20
-1.34313805470830
30
0.000000000000000
11
-87.4974477958237
21
-1.48084832672335
31
0.000000000000000
  0
LINE
  5
F100E0
330
F100E1
100
AcDbEntity
8
Geo
100
AcDbLine
10
-87.4974477958237
20
-1.48084832672335
30
0.000000000000000
11
-87.3974477958237
21
-1.61580824439299
31
0.000000000000000
  0
LINE
  5
F100E2
330
F100E3
100
AcDbEntity
8
Geo
100
AcDbLine
10
-87.3974477958237
20
-1.61580824439299
30
0.000000000000000
11
-87.2974477958237
21
-1.74781789178125
31
0.000000000000000
  0
LINE
  5
F100E4
330
F100E5
100
AcDbEntity
8
Geo
100
AcDbLine
10
-87.2974477958237
20
-1.74781789178125
30
0.000000000000000
11
-87.1974477958237
21
-1.87668172318338
31
0.000000000000000
  0
LINE
  5
F100E6
330
F100E7
100
AcDbEntity
8
Geo
100
AcDbLine
10
-87.1974477958237
20
-1.87668172318338
30
0.000000000000000
11
-87.0974477958237
21
-2.00220885278743
31
0.000000000000000
  0
LINE
  5
F100E8
330
F100E9
100
AcDbEntity
8
Geo
100
AcDbLine
10
-87.0974477958237
20
-2.00220885278743
30
0.000000000000000
11
-86.9974477958237
21
-2.12421333743311
31
0.000000000000000
  0
LINE
  5
F100EA
330
F100EB
100
AcDbEntity
8
Geo
100
AcDbLine
10
-86.9974477958237
20
-2.12421333743311
30
0.000000000000000
11
-86.8974477958237
21
-2.24251445204915
31
0.000000000000000
  0
LINE
  5
F100EC
330
F100ED
100
AcDbEntity
8
Geo
100
AcDbLine
10
-86.8974477958237
20
-2.24251445204915
30
0.000000000000000
11
-86.7974477958237
21
-2.35693695736109
31
0.000000000000000
  0
LINE
  5
F100EE
330
F100EF
100
AcDbEntity
8
Geo
100
AcDbLine
10
-86.7974477958237
20
-2.35693695736109
30
0.000000000000000
11
-86.6974477958237
21
-2.46731135947296
31
0.000000000000000
  0
LINE
  5
F100F0
330
F100F1
100
AcDbEntity
8
Geo
100
AcDbLine
10
-86.6974477958237
20
-2.46731135947296
30
0.000000000000000
11
-86.5974477958237
21
-2.57347416093837
31
0.000000000000000
  0
LINE
  5
F100F2
330
F100F3
100
AcDbEntity
8
Geo
100
AcDbLine
10
-86.5974477958237
20
-2.57347416093837
30
0.000000000000000
11
-86.4974477958237
21
-2.67526810294904
31
0.000000000000000
  0
LINE
  5
F100F4
330
F100F5
100
AcDbEntity
8
Geo
100
AcDbLine
10
-86.4974477958237
20
-2.67526810294904
30
0.000000000000000
11
-86.3974477958237
21
-2.77254239828203
31
0.000000000000000
  0
LINE
  5
F100F6
330
F100F7
100
AcDbEntity
8
Geo
100
AcDbLine
10
-86.3974477958237
20
-2.77254239828203
30
0.000000000000000
11
-86.2974477958237
21
-2.86515295466068
31
0.000000000000000
  0
LINE
  5
F100F8
330
F100F9
100
AcDbEntity
8
Geo
100
AcDbLine
10
-86.2974477958237
20
-2.86515295466068
30
0.000000000000000
11
-86.1974477958237
21
-2.95296258819825
31
0.000000000000000
  0
LINE
  5
F100FA
330
F100FB
100
AcDbEntity
8
Geo
100
AcDbLine
10
-86.1974477958237
20
-2.95296258819825
30
0.000000000000000
11
-86.0974477958237
21
-3.03584122660826
31
0.000000000000000
  0
LINE
  5
F100FC
330
F100FD
100
AcDbEntity
8
Geo
100
AcDbLine
10
-86.0974477958237
20
-3.03584122660826
30
0.000000000000000
11
-85.9974477958237
21
-3.11366610188036
31
0.000000000000000
  0
LINE
  5
F100FE
330
F100FF
100
AcDbEntity
8
Geo
100
AcDbLine
10
-85.9974477958237
20
-3.11366610188036
30
0.000000000000000
11
-85.8974477958237
21
-3.18632193213643
31
0.000000000000000
  0
LINE
  5
F10100
330
F10101
100
AcDbEntity
8
Geo
100
AcDbLine
10
-85.8974477958237
20
-3.18632193213643
30
0.000000000000000
11
-85.7974477958237
21
-3.25370109239743
31
0.000000000000000
  0
LINE
  5
F10102
330
F10103
100
AcDbEntity
8
Geo
100
AcDbLine
10
-85.7974477958237
20
-3.25370109239743
30
0.000000000000000
11
-85.6974477958237
21
-3.31570377400817
31
0.000000000000000
  0
LINE
  5
F10104
330
F10105
100
AcDbEntity
8
Geo
100
AcDbLine
10
-85.6974477958237
20
-3.31570377400817
30
0.000000000000000
11
-85.5974477958237
21
-3.37223813248371
31
0.000000000000000
  0
LINE
  5
F10106
330
F10107
100
AcDbEntity
8
Geo
100
AcDbLine
10
-85.5974477958237
20
-3.37223813248371
30
0.000000000000000
11
-85.4974477958237
21
-3.42322042355846
31
0.000000000000000
  0
LINE
  5
F10108
330
F10109
100
AcDbEntity
8
Geo
100
AcDbLine
10
-85.4974477958237
20
-3.42322042355846
30
0.000000000000000
11
-85.3974477958237
21
-3.46857512723646
31
0.000000000000000
  0
LINE
  5
F1010A
330
F1010B
100
AcDbEntity
8
Geo
100
AcDbLine
10
-85.3974477958237
20
-3.46857512723646
30
0.000000000000000
11
-85.2974477958237
21
-3.50823505965902
31
0.000000000000000
  0
LINE
  5
F1010C
330
F1010D
100
AcDbEntity
8
Geo
100
AcDbLine
10
-85.2974477958237
20
-3.50823505965902
30
0.000000000000000
11
-85.1974477958237
21
-3.54214147262412
31
0.000000000000000
  0
LINE
  5
F1010E
330
F1010F
100
AcDbEntity
8
Geo
100
AcDbLine
10
-85.1974477958237
20
-3.54214147262412
30
0.000000000000000
11
-85.0974477958237
21
-3.57024414060998
31
0.000000000000000
  0
LINE
  5
F10110
330
F10111
100
AcDbEntity
8
Geo
100
AcDbLine
10
-85.0974477958237
20
-3.57024414060998
30
0.000000000000000
11
-84.9974477958237
21
-3.59250143517409
31
0.000000000000000
  0
LINE
  5
F10112
330
F10113
100
AcDbEntity
8
Geo
100
AcDbLine
10
-84.9974477958237
20
-3.59250143517409
30
0.000000000000000
11
-84.8974477958237
21
-3.60888038661737
31
0.000000000000000
  0
LINE
  5
F10114
330
F10115
100
AcDbEntity
8
Geo
100
AcDbLine
10
-84.8974477958237
20
-3.60888038661737
30
0.000000000000000
11
-84.7974477958237
21
-3.61935673282210
31
0.000000000000000
  0
LINE
  5
F10116
330
F10117
100
AcDbEntity
8
Geo
100
AcDbLine
10
-84.7974477958237
20
-3.61935673282210
30
0.000000000000000
11
-84.6974477958237
21
-3.62391495519142
31
0.000000000000000
  0
LINE
  5
F10118
330
F10119
100
AcDbEntity
8
Geo
100
AcDbLine
10
-96.0974477958237
20
3.37587006960557
30
0.000000000000000
11
-95.9974477958237
21
3.80921517452900
31
0.000000000000000
  0
LINE
  5
F1011A
330
F1011B
100
AcDbEntity
8
Geo
100
AcDbLine
10
-95.9974477958237
20
3.80921517452900
30
0.000000000000000
11
-95.8974477958237
21
3.96520866938823
31
0.000000000000000
  0
LINE
  5
F1011C
330
F1011D
100
AcDbEntity
8
Geo
100
AcDbLine
10
-95.8974477958237
20
3.96520866938823
30
0.000000000000000
11
-95.7974477958237
21
4.06527946011864
31
0.000000000000000
  0
LINE
  5
F1011E
330
F1011F
100
AcDbEntity
8
Geo
100
AcDbLine
10
-95.7974477958237
20
4.06527946011864
30
0.000000000000000
11
-95.6974477958237
21
4.13092192435574
31
0.000000000000000
  0
LINE
  5
F10120
330
F10121
100
AcDbEntity
8
Geo
100
AcDbLine
10
-95.6974477958237
20
4.13092192435574
30
0.000000000000000
11
-95.5974477958237
21
4.17052310398341
31
0.000000000000000
  0
LINE
  5
F10122
330
F10123
100
AcDbEntity
8
Geo
100
AcDbLine
10
-95.5974477958237
20
4.17052310398341
30
0.000000000000000
11
-95.4974477958237
21
4.18840816003965
31
0.000000000000000
  0
LINE
  5
F10124
330
F10125
100
AcDbEntity
8
Geo
100
AcDbLine
10
-95.4974477958237
20
4.18840816003965
30
0.000000000000000
11
-95.3974477958237
21
4.18716199137286
31
0.000000000000000
  0
LINE
  5
F10126
330
F10127
100
AcDbEntity
8
Geo
100
AcDbLine
10
-95.3974477958237
20
4.18716199137286
30
0.000000000000000
11
-95.2974477958237
21
4.16848019791114
31
0.000000000000000
  0
LINE
  5
F10128
330
F10129
100
AcDbEntity
8
Geo
100
AcDbLine
10
-95.2974477958237
20
4.16848019791114
30
0.000000000000000
11
-95.1974477958237
21
4.13354568549649
31
0.000000000000000
  0
LINE
  5
F1012A
330
F1012B
100
AcDbEntity
8
Geo
100
AcDbLine
10
-95.1974477958237
20
4.13354568549649
30
0.000000000000000
11
-95.0974477958237
21
4.08321373589226
31
0.000000000000000
  0
LINE
  5
F1012C
330
F1012D
100
AcDbEntity
8
Geo
100
AcDbLine
10
-95.0974477958237
20
4.08321373589226
30
0.000000000000000
11
-94.9974477958237
21
4.02267529868361
31
0.000000000000000
  0
LINE
  5
F1012E
330
F1012F
100
AcDbEntity
8
Geo
100
AcDbLine
10
-94.9974477958237
20
4.02267529868361
30
0.000000000000000
11
-94.8974477958237
21
3.95673485402542
31
0.000000000000000
  0
LINE
  5
F10130
330
F10131
100
AcDbEntity
8
Geo
100
AcDbLine
10
-94.8974477958237
20
3.95673485402542
30
0.000000000000000
11
-94.7974477958237
21
3.88549007940548
31
0.000000000000000
  0
LINE
  5
F10132
330
F10133
100
AcDbEntity
8
Geo
100
AcDbLine
10
-94.7974477958237
20
3.88549007940548
30
0.000000000000000
11
-94.6974477958237
21
3.80904650960809
31
0.000000000000000
  0
LINE
  5
F10134
330
F10135
100
AcDbEntity
8
Geo
100
AcDbLine
10
-94.6974477958237
20
3.80904650960809
30
0.000000000000000
11
-94.5974477958237
21
3.72751738038554
31
0.000000000000000
  0
LINE
  5
F10136
330
F10137
100
AcDbEntity
8
Geo
100
AcDbLine
10
-94.5974477958237
20
3.72751738038554
30
0.000000000000000
11
-94.4974477958237
21
3.64102346072211
31
0.000000000000000
  0
LINE
  5
F10138
330
F10139
100
AcDbEntity
8
Geo
100
AcDbLine
10
-94.4974477958237
20
3.64102346072211
30
0.000000000000000
11
-94.3974477958237
21
3.54969287393917
31
0.000000000000000
  0
LINE
  5
F1013A
330
F1013B
100
AcDbEntity
8
Geo
100
AcDbLine
10
-94.3974477958237
20
3.54969287393917
30
0.000000000000000
11
-94.2974477958237
21
3.45366090790629
31
0.000000000000000
  0
LINE
  5
F1013C
330
F1013D
100
AcDbEntity
8
Geo
100
AcDbLine
10
-94.2974477958237
20
3.45366090790629
30
0.000000000000000
11
-94.1974477958237
21
3.35306981463951
31
0.000000000000000
  0
LINE
  5
F1013E
330
F1013F
100
AcDbEntity
8
Geo
100
AcDbLine
10
-94.1974477958237
20
3.35306981463951
30
0.000000000000000
11
-94.0974477958237
21
3.24806859958360
31
0.000000000000000
  0
LINE
  5
F10140
330
F10141
100
AcDbEntity
8
Geo
100
AcDbLine
10
-94.0974477958237
20
3.24806859958360
30
0.000000000000000
11
-93.9974477958237
21
3.13881280089054
31
0.000000000000000
  0
LINE
  5
F10142
330
F10143
100
AcDbEntity
8
Geo
100
AcDbLine
10
-93.9974477958237
20
3.13881280089054
30
0.000000000000000
11
-93.8974477958237
21
3.02546425902105
31
0.000000000000000
  0
LINE
  5
F10144
330
F10145
100
AcDbEntity
8
Geo
100
AcDbLine
10
-93.8974477958237
20
3.02546425902105
30
0.000000000000000
11
-93.7974477958237
21
2.90819087701056
31
0.000000000000000
  0
LINE
  5
F10146
330
F10147
100
AcDbEntity
8
Geo
100
AcDbLine
10
-93.7974477958237
20
2.90819087701056
30
0.000000000000000
11
-93.6974477958237
21
2.78716637175468
31
0.000000000000000
  0
LINE
  5
F10148
330
F10149
100
AcDbEntity
8
Geo
100
AcDbLine
10
-93.6974477958237
20
2.78716637175468
30
0.000000000000000
11
-93.5974477958237
21
2.66257001668257
31
0.000000000000000
  0
LINE
  5
F1014A
330
F1014B
100
AcDbEntity
8
Geo
100
AcDbLine
10
-93.5974477958237
20
2.66257001668257
30
0.000000000000000
11
-93.4974477958237
21
2.53458637619953
31
0.000000000000000
  0
LINE
  5
F1014C
330
F1014D
100
AcDbEntity
8
Geo
100
AcDbLine
10
-93.4974477958237
20
2.53458637619953
30
0.000000000000000
11
-93.3974477958237
21
2.40340503229194
31
0.000000000000000
  0
LINE
  5
F1014E
330
F1014F
100
AcDbEntity
8
Geo
100
AcDbLine
10
-93.3974477958237
20
2.40340503229194
30
0.000000000000000
11
-93.2974477958237
21
2.26922030369978
31
0.000000000000000
  0
LINE
  5
F10150
330
F10151
100
AcDbEntity
8
Geo
100
AcDbLine
10
-93.2974477958237
20
2.26922030369978
30
0.000000000000000
11
-93.1974477958237
21
2.13223095807251
31
0.000000000000000
  0
LINE
  5
F10152
330
F10153
100
AcDbEntity
8
Geo
100
AcDbLine
10
-93.1974477958237
20
2.13223095807251
30
0.000000000000000
11
-93.0974477958237
21
1.99263991753488
31
0.000000000000000
  0
LINE
  5
F10154
330
F10155
100
AcDbEntity
8
Geo
100
AcDbLine
10
-93.0974477958237
20
1.99263991753488
30
0.000000000000000
11
-92.9974477958237
21
1.85065395809862
31
0.000000000000000
  0
LINE
  5
F10156
330
F10157
100
AcDbEntity
8
Geo
100
AcDbLine
10
-92.9974477958237
20
1.85065395809862
30
0.000000000000000
11
-92.8974477958237
21
1.70648340336548
31
0.000000000000000
  0
LINE
  5
F10158
330
F10159
100
AcDbEntity
8
Geo
100
AcDbLine
10
-92.8974477958237
20
1.70648340336548
30
0.000000000000000
11
-92.7974477958237
21
1.56034181297512
31
0.000000000000000
  0
LINE
  5
F1015A
330
F1015B
100
AcDbEntity
8
Geo
100
AcDbLine
10
-92.7974477958237
20
1.56034181297512
30
0.000000000000000
11
-92.6974477958237
21
1.41244566625956
31
0.000000000000000
  0
LINE
  5
F1015C
330
F1015D
100
AcDbEntity
8
Geo
100
AcDbLine
10
-92.6974477958237
20
1.41244566625956
30
0.000000000000000
11
-92.5974477958237
21
1.26301404157262
31
0.000000000000000
  0
LINE
  5
F1015E
330
F1015F
100
AcDbEntity
8
Geo
100
AcDbLine
10
-92.5974477958237
20
1.26301404157262
30
0.000000000000000
11
-92.4974477958237
21
1.11226829176949
31
0.000000000000000
  0
LINE
  5
F10160
330
F10161
100
AcDbEntity
8
Geo
100
AcDbLine
10
-92.4974477958237
20
1.11226829176949
30
0.000000000000000
11
-92.3974477958237
21
0.960431716317047
31
0.000000000000000
  0
LINE
  5
F10162
330
F10163
100
AcDbEntity
8
Geo
100
AcDbLine
10
-92.3974477958237
20
0.960431716317047
30
0.000000000000000
11
-92.2974477958237
21
0.807729230520642
31
0.000000000000000
  0
LINE
  5
F10164
330
F10165
100
AcDbEntity
8
Geo
100
AcDbLine
10
-92.2974477958237
20
0.807729230520642
30
0.000000000000000
11
-92.1974477958237
21
0.654387032357419
31
0.000000000000000
  0
LINE
  5
F10166
330
F10167
100
AcDbEntity
8
Geo
100
AcDbLine
10
-92.1974477958237
20
0.654387032357419
30
0.000000000000000
11
-92.0974477958237
21
0.500632267409547
31
0.000000000000000
  0
LINE
  5
F10168
330
F10169
100
AcDbEntity
8
Geo
100
AcDbLine
10
-92.0974477958237
20
0.500632267409547
30
0.000000000000000
11
-91.9974477958237
21
0.346692692393786
31
0.000000000000000
  0
LINE
  5
F1016A
330
F1016B
100
AcDbEntity
8
Geo
100
AcDbLine
10
-91.9974477958237
20
0.346692692393786
30
0.000000000000000
11
-91.8974477958237
21
0.192796337785795
31
0.000000000000000
  0
LINE
  5
F1016C
330
F1016D
100
AcDbEntity
8
Geo
100
AcDbLine
10
-91.8974477958237
20
0.192796337785795
30
0.000000000000000
11
-91.7974477958237
21
0.0391711700389010
31
0.000000000000000
  0
LINE
  5
F1016E
330
F1016F
100
AcDbEntity
8
Geo
100
AcDbLine
10
-91.7974477958237
20
0.0391711700389010
30
0.000000000000000
11
-91.6974477958237
21
-0.113955246102284
31
0.000000000000000
  0
LINE
  5
F10170
330
F10171
100
AcDbEntity
8
Geo
100
AcDbLine
10
-91.6974477958237
20
-0.113955246102284
30
0.000000000000000
11
-91.5974477958237
21
-0.266356084693197
31
0.000000000000000
  0
LINE
  5
F10172
330
F10173
100
AcDbEntity
8
Geo
100
AcDbLine
10
-91.5974477958237
20
-0.266356084693197
30
0.000000000000000
11
-91.4974477958237
21
-0.417805594586282
31
0.000000000000000
  0
LINE
  5
F10174
330
F10175
100
AcDbEntity
8
Geo
100
AcDbLine
10
-91.4974477958237
20
-0.417805594586282
30
0.000000000000000
11
-91.3974477958237
21
-0.568079433835840
31
0.000000000000000
  0
LINE
  5
F10176
330
F10177
100
AcDbEntity
8
Geo
100
AcDbLine
10
-91.3974477958237
20
-0.568079433835840
30
0.000000000000000
11
-91.2974477958237
21
-0.716955002015441
31
0.000000000000000
  0
LINE
  5
F10178
330
F10179
100
AcDbEntity
8
Geo
100
AcDbLine
10
-91.2974477958237
20
-0.716955002015441
30
0.000000000000000
11
-91.1974477958237
21
-0.864211769955624
31
0.000000000000000
  0
LINE
  5
F1017A
330
F1017B
100
AcDbEntity
8
Geo
100
AcDbLine
10
-91.1974477958237
20
-0.864211769955624
30
0.000000000000000
11
-91.0974477958237
21
-1.00963160641344
31
0.000000000000000
  0
LINE
  5
F1017C
330
F1017D
100
AcDbEntity
8
Geo
100
AcDbLine
10
-91.0974477958237
20
-1.00963160641344
30
0.000000000000000
11
-90.9974477958237
21
-1.15299910118996
31
0.000000000000000
  0
LINE
  5
F1017E
330
F1017F
100
AcDbEntity
8
Geo
100
AcDbLine
10
-90.9974477958237
20
-1.15299910118996
30
0.000000000000000
11
-90.8974477958237
21
-1.29410188421709
31
0.000000000000000
  0
LINE
  5
F10180
330
F10181
100
AcDbEntity
8
Geo
100
AcDbLine
10
-90.8974477958237
20
-1.29410188421709
30
0.000000000000000
11
-90.7974477958237
21
-1.43273094014107
31
0.000000000000000
  0
LINE
  5
F10182
330
F10183
100
AcDbEntity
8
Geo
100
AcDbLine
10
-90.7974477958237
20
-1.43273094014107
30
0.000000000000000
11
-90.6974477958237
21
-1.56868091793661
31
0.000000000000000
  0
LINE
  5
F10184
330
F10185
100
AcDbEntity
8
Geo
100
AcDbLine
10
-90.6974477958237
20
-1.56868091793661
30
0.000000000000000
11
-90.5974477958237
21
-1.70175043509308
31
0.000000000000000
  0
LINE
  5
F10186
330
F10187
100
AcDbEntity
8
Geo
100
AcDbLine
10
-90.5974477958237
20
-1.70175043509308
30
0.000000000000000
11
-90.4974477958237
21
-1.83174237592213
31
0.000000000000000
  0
LINE
  5
F10188
330
F10189
100
AcDbEntity
8
Geo
100
AcDbLine
10
-90.4974477958237
20
-1.83174237592213
30
0.000000000000000
11
-90.3974477958237
21
-1.95846418354490
31
0.000000000000000
  0
LINE
  5
F1018A
330
F1018B
100
AcDbEntity
8
Geo
100
AcDbLine
10
-90.3974477958237
20
-1.95846418354490
30
0.000000000000000
11
-90.2974477958237
21
-2.08172814512623
31
0.000000000000000
  0
LINE
  5
F1018C
330
F1018D
100
AcDbEntity
8
Geo
100
AcDbLine
10
-90.2974477958237
20
-2.08172814512623
30
0.000000000000000
11
-90.1974477958237
21
-2.20135166993345
31
0.000000000000000
  0
LINE
  5
F1018E
330
F1018F
100
AcDbEntity
8
Geo
100
AcDbLine
10
-90.1974477958237
20
-2.20135166993345
30
0.000000000000000
11
-90.0974477958237
21
-2.31715755980775
31
0.000000000000000
  0
LINE
  5
F10190
330
F10191
100
AcDbEntity
8
Geo
100
AcDbLine
10
-90.0974477958237
20
-2.31715755980775
30
0.000000000000000
11
-89.9974477958237
21
-2.42897427164754
31
0.000000000000000
  0
LINE
  5
F10192
330
F10193
100
AcDbEntity
8
Geo
100
AcDbLine
10
-89.9974477958237
20
-2.42897427164754
30
0.000000000000000
11
-89.8974477958237
21
-2.53663617151508
31
0.000000000000000
  0
LINE
  5
F10194
330
F10195
100
AcDbEntity
8
Geo
100
AcDbLine
10
-89.8974477958237
20
-2.53663617151508
30
0.000000000000000
11
-89.7974477958237
21
-2.63998377998972
31
0.000000000000000
  0
LINE
  5
F10196
330
F10197
100
AcDbEntity
8
Geo
100
AcDbLine
10
-89.7974477958237
20
-2.63998377998972
30
0.000000000000000
11
-89.6974477958237
21
-2.73886400840459
31
0.000000000000000
  0
LINE
  5
F10198
330
F10199
100
AcDbEntity
8
Geo
100
AcDbLine
10
-89.6974477958237
20
-2.73886400840459
30
0.000000000000000
11
-89.5974477958237
21
-2.83313038561661
31
0.000000000000000
  0
LINE
  5
F1019A
330
F1019B
100
AcDbEntity
8
Geo
100
AcDbLine
10
-89.5974477958237
20
-2.83313038561661
30
0.000000000000000
11
-89.4974477958237
21
-2.92264327497397
31
0.000000000000000
  0
LINE
  5
F1019C
330
F1019D
100
AcDbEntity
8
Geo
100
AcDbLine
10
-89.4974477958237
20
-2.92264327497397
30
0.000000000000000
11
-89.3974477958237
21
-3.00727008115975
31
0.000000000000000
  0
LINE
  5
F1019E
330
F1019F
100
AcDbEntity
8
Geo
100
AcDbLine
10
-89.3974477958237
20
-3.00727008115975
30
0.000000000000000
11
-89.2974477958237
21
-3.08688544660514
31
0.000000000000000
  0
LINE
  5
F101A0
330
F101A1
100
AcDbEntity
8
Geo
100
AcDbLine
10
-89.2974477958237
20
-3.08688544660514
30
0.000000000000000
11
-89.1974477958237
21
-3.16137143718143
31
0.000000000000000
  0
LINE
  5
F101A2
330
F101A3
100
AcDbEntity
8
Geo
100
AcDbLine
10
-89.1974477958237
20
-3.16137143718143
30
0.000000000000000
11
-89.0974477958237
21
-3.23061771689568
31
0.000000000000000
  0
LINE
  5
F101A4
330
F101A5
100
AcDbEntity
8
Geo
100
AcDbLine
10
-89.0974477958237
20
-3.23061771689568
30
0.000000000000000
11
-88.9974477958237
21
-3.29452171133130
31
0.000000000000000
  0
LINE
  5
F101A6
330
F101A7
100
AcDbEntity
8
Geo
100
AcDbLine
10
-88.9974477958237
20
-3.29452171133130
30
0.000000000000000
11
-88.8974477958237
21
-3.35298875959133
31
0.000000000000000
  0
LINE
  5
F101A8
330
F101A9
100
AcDbEntity
8
Geo
100
AcDbLine
10
-88.8974477958237
20
-3.35298875959133
30
0.000000000000000
11
-88.7974477958237
21
-3.40593225451952
31
0.000000000000000
  0
LINE
  5
F101AA
330
F101AB
100
AcDbEntity
8
Geo
100
AcDbLine
10
-88.7974477958237
20
-3.40593225451952
30
0.000000000000000
11
-88.6974477958237
21
-3.45327377099141
31
0.000000000000000
  0
LINE
  5
F101AC
330
F101AD
100
AcDbEntity
8
Geo
100
AcDbLine
10
-88.6974477958237
20
-3.45327377099141
30
0.000000000000000
11
-88.5974477958237
21
-3.49494318208532
31
0.000000000000000
  0
LINE
  5
F101AE
330
F101AF
100
AcDbEntity
8
Geo
100
AcDbLine
10
-88.5974477958237
20
-3.49494318208532
30
0.000000000000000
11
-88.4974477958237
21
-3.53087876296129
31
0.000000000000000
  0
LINE
  5
F101B0
330
F101B1
100
AcDbEntity
8
Geo
100
AcDbLine
10
-88.4974477958237
20
-3.53087876296129
30
0.000000000000000
11
-88.3974477958237
21
-3.56102728229398
31
0.000000000000000
  0
LINE
  5
F101B2
330
F101B3
100
AcDbEntity
8
Geo
100
AcDbLine
10
-88.3974477958237
20
-3.56102728229398
30
0.000000000000000
11
-88.2974477958237
21
-3.58534408112417
31
0.000000000000000
  0
LINE
  5
F101B4
330
F101B5
100
AcDbEntity
8
Geo
100
AcDbLine
10
-88.2974477958237
20
-3.58534408112417
30
0.000000000000000
11
-88.1974477958237
21
-3.60379313901199
31
0.000000000000000
  0
LINE
  5
F101B6
330
F101B7
100
AcDbEntity
8
Geo
100
AcDbLine
10
-88.1974477958237
20
-3.60379313901199
30
0.000000000000000
11
-88.0974477958237
21
-3.61634712739399
31
0.000000000000000
  0
LINE
  5
F101B8
330
F101B9
100
AcDbEntity
8
Geo
100
AcDbLine
10
-88.0974477958237
20
-3.61634712739399
30
0.000000000000000
11
-87.9974477958237
21
-3.62298745006485
31
0.000000000000000
  0
LINE
  5
F101BA
330
F101BB
100
AcDbEntity
8
Geo
100
AcDbLine
10
-96.0974477958237
20
3.22903961849103
30
0.000000000000000
11
-95.9974477958237
21
3.60031868038778
31
0.000000000000000
  0
LINE
  5
F101BC
330
F101BD
100
AcDbEntity
8
Geo
100
AcDbLine
10
-95.9974477958237
20
3.60031868038778
30
0.000000000000000
11
-95.8974477958237
21
3.70398118756674
31
0.000000000000000
  0
LINE
  5
F101BE
330
F101BF
100
AcDbEntity
8
Geo
100
AcDbLine
10
-95.8974477958237
20
3.70398118756674
30
0.000000000000000
11
-95.7974477958237
21
3.75247240285789
31
0.000000000000000
  0
LINE
  5
F101C0
330
F101C1
100
AcDbEntity
8
Geo
100
AcDbLine
10
-95.7974477958237
20
3.75247240285789
30
0.000000000000000
11
-95.6974477958237
21
3.76706013179551
31
0.000000000000000
  0
LINE
  5
F101C2
330
F101C3
100
AcDbEntity
8
Geo
100
AcDbLine
10
-95.6974477958237
20
3.76706013179551
30
0.000000000000000
11
-95.5974477958237
21
3.75630228334065
31
0.000000000000000
  0
LINE
  5
F101C4
330
F101C5
100
AcDbEntity
8
Geo
100
AcDbLine
10
-95.5974477958237
20
3.75630228334065
30
0.000000000000000
11
-95.4974477958237
21
3.72478726693134
31
0.000000000000000
  0
LINE
  5
F101C6
330
F101C7
100
AcDbEntity
8
Geo
100
AcDbLine
10
-95.4974477958237
20
3.72478726693134
30
0.000000000000000
11
-95.3974477958237
21
3.67539355924060
31
0.000000000000000
  0
LINE
  5
F101C8
330
F101C9
100
AcDbEntity
8
Geo
100
AcDbLine
10
-95.3974477958237
20
3.67539355924060
30
0.000000000000000
11
-95.2974477958237
21
3.61012478486757
31
0.000000000000000
  0
LINE
  5
F101CA
330
F101CB
100
AcDbEntity
8
Geo
100
AcDbLine
10
-95.2974477958237
20
3.61012478486757
30
0.000000000000000
11
-95.1974477958237
21
3.53048384742704
31
0.000000000000000
  0
LINE
  5
F101CC
330
F101CD
100
AcDbEntity
8
Geo
100
AcDbLine
10
-95.1974477958237
20
3.53048384742704
30
0.000000000000000
11
-95.0974477958237
21
3.43766115429447
31
0.000000000000000
  0
LINE
  5
F101CE
330
F101CF
100
AcDbEntity
8
Geo
100
AcDbLine
10
-95.0974477958237
20
3.43766115429447
30
0.000000000000000
11
-94.9974477958237
21
3.33634489924880
31
0.000000000000000
  0
LINE
  5
F101D0
330
F101D1
100
AcDbEntity
8
Geo
100
AcDbLine
10
-94.9974477958237
20
3.33634489924880
30
0.000000000000000
11
-94.8974477958237
21
3.23064329700762
31
0.000000000000000
  0
LINE
  5
F101D2
330
F101D3
100
AcDbEntity
8
Geo
100
AcDbLine
10
-94.8974477958237
20
3.23064329700762
30
0.000000000000000
11
-94.7974477958237
21
3.12071292320544
31
0.000000000000000
  0
LINE
  5
F101D4
330
F101D5
100
AcDbEntity
8
Geo
100
AcDbLine
10
-94.7974477958237
20
3.12071292320544
30
0.000000000000000
11
-94.6974477958237
21
3.00671661755016
31
0.000000000000000
  0
LINE
  5
F101D6
330
F101D7
100
AcDbEntity
8
Geo
100
AcDbLine
10
-94.6974477958237
20
3.00671661755016
30
0.000000000000000
11
-94.5974477958237
21
2.88882324260879
31
0.000000000000000
  0
LINE
  5
F101D8
330
F101D9
100
AcDbEntity
8
Geo
100
AcDbLine
10
-94.5974477958237
20
2.88882324260879
30
0.000000000000000
11
-94.4974477958237
21
2.76720743367158
31
0.000000000000000
  0
LINE
  5
F101DA
330
F101DB
100
AcDbEntity
8
Geo
100
AcDbLine
10
-94.4974477958237
20
2.76720743367158
30
0.000000000000000
11
-94.3974477958237
21
2.64204934006502
31
0.000000000000000
  0
LINE
  5
F101DC
330
F101DD
100
AcDbEntity
8
Geo
100
AcDbLine
10
-94.3974477958237
20
2.64204934006502
30
0.000000000000000
11
-94.2974477958237
21
2.51353435829690
31
0.000000000000000
  0
LINE
  5
F101DE
330
F101DF
100
AcDbEntity
8
Geo
100
AcDbLine
10
-94.2974477958237
20
2.51353435829690
30
0.000000000000000
11
-94.1974477958237
21
2.38185285742870
31
0.000000000000000
  0
LINE
  5
F101E0
330
F101E1
100
AcDbEntity
8
Geo
100
AcDbLine
10
-94.1974477958237
20
2.38185285742870
30
0.000000000000000
11
-94.0974477958237
21
2.24719989708219
31
0.000000000000000
  0
LINE
  5
F101E2
330
F101E3
100
AcDbEntity
8
Geo
100
AcDbLine
10
-94.0974477958237
20
2.24719989708219
30
0.000000000000000
11
-93.9974477958237
21
2.10977493849789
31
0.000000000000000
  0
LINE
  5
F101E4
330
F101E5
100
AcDbEntity
8
Geo
100
AcDbLine
10
-93.9974477958237
20
2.10977493849789
30
0.000000000000000
11
-93.8974477958237
21
1.96978154907339
31
0.000000000000000
  0
LINE
  5
F101E6
330
F101E7
100
AcDbEntity
8
Geo
100
AcDbLine
10
-93.8974477958237
20
1.96978154907339
30
0.000000000000000
11
-93.7974477958237
21
1.82742710081928
31
0.000000000000000
  0
LINE
  5
F101E8
330
F101E9
100
AcDbEntity
8
Geo
100
AcDbLine
10
-93.7974477958237
20
1.82742710081928
30
0.000000000000000
11
-93.6974477958237
21
1.68292246317925
31
0.000000000000000
  0
LINE
  5
F101EA
330
F101EB
100
AcDbEntity
8
Geo
100
AcDbLine
10
-93.6974477958237
20
1.68292246317925
30
0.000000000000000
11
-93.5974477958237
21
1.53648169066952
31
0.000000000000000
  0
LINE
  5
F101EC
330
F101ED
100
AcDbEntity
8
Geo
100
AcDbLine
10
-93.5974477958237
20
1.53648169066952
30
0.000000000000000
11
-93.4974477958237
21
1.38832170580016
31
0.000000000000000
  0
LINE
  5
F101EE
330
F101EF
100
AcDbEntity
8
Geo
100
AcDbLine
10
-93.4974477958237
20
1.38832170580016
30
0.000000000000000
11
-93.3974477958237
21
1.23866197774807
31
0.000000000000000
  0
LINE
  5
F101F0
330
F101F1
100
AcDbEntity
8
Geo
100
AcDbLine
10
-93.3974477958237
20
1.23866197774807
30
0.000000000000000
11
-93.2974477958237
21
1.08772419725764
31
0.000000000000000
  0
LINE
  5
F101F2
330
F101F3
100
AcDbEntity
8
Geo
100
AcDbLine
10
-93.2974477958237
20
1.08772419725764
30
0.000000000000000
11
-93.1974477958237
21
0.935731948250515
31
0.000000000000000
  0
LINE
  5
F101F4
330
F101F5
100
AcDbEntity
8
Geo
100
AcDbLine
10
-93.1974477958237
20
0.935731948250515
30
0.000000000000000
11
-93.0974477958237
21
0.782910376631084
31
0.000000000000000
  0
LINE
  5
F101F6
330
F101F7
100
AcDbEntity
8
Geo
100
AcDbLine
10
-93.0974477958237
20
0.782910376631084
30
0.000000000000000
11
-92.9974477958237
21
0.629485856778145
31
0.000000000000000
  0
LINE
  5
F101F8
330
F101F9
100
AcDbEntity
8
Geo
100
AcDbLine
10
-92.9974477958237
20
0.629485856778145
30
0.000000000000000
11
-92.8974477958237
21
0.475685656216870
31
0.000000000000000
  0
LINE
  5
F101FA
330
F101FB
100
AcDbEntity
8
Geo
100
AcDbLine
10
-92.8974477958237
20
0.475685656216870
30
0.000000000000000
11
-92.7974477958237
21
0.321737598967730
31
0.000000000000000
  0
LINE
  5
F101FC
330
F101FD
100
AcDbEntity
8
Geo
100
AcDbLine
10
-92.7974477958237
20
0.321737598967730
30
0.000000000000000
11
-92.6974477958237
21
0.167869728071104
31
0.000000000000000
  0
LINE
  5
F101FE
330
F101FF
100
AcDbEntity
8
Geo
100
AcDbLine
10
-92.6974477958237
20
0.167869728071104
30
0.000000000000000
11
-92.5974477958237
21
0.0143099677874387
31
0.000000000000000
  0
LINE
  5
F10200
330
F10201
100
AcDbEntity
8
Geo
100
AcDbLine
10
-92.5974477958237
20
0.0143099677874387
30
0.000000000000000
11
-92.4974477958237
21
-0.138714214026637
31
0.000000000000000
  0
LINE
  5
F10202
330
F10203
100
AcDbEntity
8
Geo
100
AcDbLine
10
-92.4974477958237
20
-0.138714214026637
30
0.000000000000000
11
-92.3974477958237
21
-0.290976142866128
31
0.000000000000000
  0
LINE
  5
F10204
330
F10205
100
AcDbEntity
8
Geo
100
AcDbLine
10
-92.3974477958237
20
-0.290976142866128
30
0.000000000000000
11
-92.2974477958237
21
-0.442250273350293
31
0.000000000000000
  0
LINE
  5
F10206
330
F10207
100
AcDbEntity
8
Geo
100
AcDbLine
10
-92.2974477958237
20
-0.442250273350293
30
0.000000000000000
11
-92.1974477958237
21
-0.592312523322708
31
0.000000000000000
  0
LINE
  5
F10208
330
F10209
100
AcDbEntity
8
Geo
100
AcDbLine
10
-92.1974477958237
20
-0.592312523322708
30
0.000000000000000
11
-92.0974477958237
21
-0.740940605783840
31
0.000000000000000
  0
LINE
  5
F1020A
330
F1020B
100
AcDbEntity
8
Geo
100
AcDbLine
10
-92.0974477958237
20
-0.740940605783840
30
0.000000000000000
11
-91.9974477958237
21
-0.887914358164472
31
0.000000000000000
  0
LINE
  5
F1020C
330
F1020D
100
AcDbEntity
8
Geo
100
AcDbLine
10
-91.9974477958237
20
-0.887914358164472
30
0.000000000000000
11
-91.8974477958237
21
-1.03301606845221
31
0.000000000000000
  0
LINE
  5
F1020E
330
F1020F
100
AcDbEntity
8
Geo
100
AcDbLine
10
-91.8974477958237
20
-1.03301606845221
30
0.000000000000000
11
-91.7974477958237
21
-1.17603079768796
31
0.000000000000000
  0
LINE
  5
F10210
330
F10211
100
AcDbEntity
8
Geo
100
AcDbLine
10
-91.7974477958237
20
-1.17603079768796
30
0.000000000000000
11
-91.6974477958237
21
-1.31674669835475
31
0.000000000000000
  0
LINE
  5
F10212
330
F10213
100
AcDbEntity
8
Geo
100
AcDbLine
10
-91.6974477958237
20
-1.31674669835475
30
0.000000000000000
11
-91.5974477958237
21
-1.45495532818709
31
0.000000000000000
  0
LINE
  5
F10214
330
F10215
100
AcDbEntity
8
Geo
100
AcDbLine
10
-91.5974477958237
20
-1.45495532818709
30
0.000000000000000
11
-91.4974477958237
21
-1.59045195893629
31
0.000000000000000
  0
LINE
  5
F10216
330
F10217
100
AcDbEntity
8
Geo
100
AcDbLine
10
-91.4974477958237
20
-1.59045195893629
30
0.000000000000000
11
-91.3974477958237
21
-1.72303587963404
31
0.000000000000000
  0
LINE
  5
F10218
330
F10219
100
AcDbEntity
8
Geo
100
AcDbLine
10
-91.3974477958237
20
-1.72303587963404
30
0.000000000000000
11
-91.2974477958237
21
-1.85251069390535
31
0.000000000000000
  0
LINE
  5
F1021A
330
F1021B
100
AcDbEntity
8
Geo
100
AcDbLine
10
-91.2974477958237
20
-1.85251069390535
30
0.000000000000000
11
-91.1974477958237
21
-1.97868461089021
31
0.000000000000000
  0
LINE
  5
F1021C
330
F1021D
100
AcDbEntity
8
Geo
100
AcDbLine
10
-91.1974477958237
20
-1.97868461089021
30
0.000000000000000
11
-91.0974477958237
21
-2.10137072934308
31
0.000000000000000
  0
LINE
  5
F1021E
330
F1021F
100
AcDbEntity
8
Geo
100
AcDbLine
10
-91.0974477958237
20
-2.10137072934308
30
0.000000000000000
11
-90.9974477958237
21
-2.22038731448951
31
0.000000000000000
  0
LINE
  5
F10220
330
F10221
100
AcDbEntity
8
Geo
100
AcDbLine
10
-90.9974477958237
20
-2.22038731448951
30
0.000000000000000
11
-90.8974477958237
21
-2.33555806722954
31
0.000000000000000
  0
LINE
  5
F10222
330
F10223
100
AcDbEntity
8
Geo
100
AcDbLine
10
-90.8974477958237
20
-2.33555806722954
30
0.000000000000000
11
-90.7974477958237
21
-2.44671238528934
31
0.000000000000000
  0
LINE
  5
F10224
330
F10225
100
AcDbEntity
8
Geo
100
AcDbLine
10
-90.7974477958237
20
-2.44671238528934
30
0.000000000000000
11
-90.6974477958237
21
-2.55368561593413
31
0.000000000000000
  0
LINE
  5
F10226
330
F10227
100
AcDbEntity
8
Geo
100
AcDbLine
10
-90.6974477958237
20
-2.55368561593413
30
0.000000000000000
11
-90.5974477958237
21
-2.65631929986802
31
0.000000000000000
  0
LINE
  5
F10228
330
F10229
100
AcDbEntity
8
Geo
100
AcDbLine
10
-90.5974477958237
20
-2.65631929986802
30
0.000000000000000
11
-90.4974477958237
21
-2.75446140595955
31
0.000000000000000
  0
LINE
  5
F1022A
330
F1022B
100
AcDbEntity
8
Geo
100
AcDbLine
10
-90.4974477958237
20
-2.75446140595955
30
0.000000000000000
11
-90.3974477958237
21
-2.84796655644519
31
0.000000000000000
  0
LINE
  5
F1022C
330
F1022D
100
AcDbEntity
8
Geo
100
AcDbLine
10
-90.3974477958237
20
-2.84796655644519
30
0.000000000000000
11
-90.2974477958237
21
-2.93669624227723
31
0.000000000000000
  0
LINE
  5
F1022E
330
F1022F
100
AcDbEntity
8
Geo
100
AcDbLine
10
-90.2974477958237
20
-2.93669624227723
30
0.000000000000000
11
-90.1974477958237
21
-3.02051902829701
31
0.000000000000000
  0
LINE
  5
F10230
330
F10231
100
AcDbEntity
8
Geo
100
AcDbLine
10
-90.1974477958237
20
-3.02051902829701
30
0.000000000000000
11
-90.0974477958237
21
-3.09931074792966
31
0.000000000000000
  0
LINE
  5
F10232
330
F10233
100
AcDbEntity
8
Geo
100
AcDbLine
10
-90.0974477958237
20
-3.09931074792966
30
0.000000000000000
11
-89.9974477958237
21
-3.17295468711187
31
0.000000000000000
  0
LINE
  5
F10234
330
F10235
100
AcDbEntity
8
Geo
100
AcDbLine
10
-89.9974477958237
20
-3.17295468711187
30
0.000000000000000
11
-89.8974477958237
21
-3.24134175718024
31
0.000000000000000
  0
LINE
  5
F10236
330
F10237
100
AcDbEntity
8
Geo
100
AcDbLine
10
-89.8974477958237
20
-3.24134175718024
30
0.000000000000000
11
-89.7974477958237
21
-3.30437065646419
31
0.000000000000000
  0
LINE
  5
F10238
330
F10239
100
AcDbEntity
8
Geo
100
AcDbLine
10
-89.7974477958237
20
-3.30437065646419
30
0.000000000000000
11
-89.6974477958237
21
-3.36194802034400
31
0.000000000000000
  0
LINE
  5
F1023A
330
F1023B
100
AcDbEntity
8
Geo
100
AcDbLine
10
-89.6974477958237
20
-3.36194802034400
30
0.000000000000000
11
-89.5974477958237
21
-3.41398855955165
31
0.000000000000000
  0
LINE
  5
F1023C
330
F1023D
100
AcDbEntity
8
Geo
100
AcDbLine
10
-89.5974477958237
20
-3.41398855955165
30
0.000000000000000
11
-89.4974477958237
21
-3.46041518650969
31
0.000000000000000
  0
LINE
  5
F1023E
330
F1023F
100
AcDbEntity
8
Geo
100
AcDbLine
10
-89.4974477958237
20
-3.46041518650969
30
0.000000000000000
11
-89.3974477958237
21
-3.50115912952100
31
0.000000000000000
  0
LINE
  5
F10240
330
F10241
100
AcDbEntity
8
Geo
100
AcDbLine
10
-89.3974477958237
20
-3.50115912952100
30
0.000000000000000
11
-89.2974477958237
21
-3.53616003464020
31
0.000000000000000
  0
LINE
  5
F10242
330
F10243
100
AcDbEntity
8
Geo
100
AcDbLine
10
-89.2974477958237
20
-3.53616003464020
30
0.000000000000000
11
-89.1974477958237
21
-3.56536605507581
31
0.000000000000000
  0
LINE
  5
F10244
330
F10245
100
AcDbEntity
8
Geo
100
AcDbLine
10
-89.1974477958237
20
-3.56536605507581
30
0.000000000000000
11
-89.0974477958237
21
-3.58873392799091
31
0.000000000000000
  0
LINE
  5
F10246
330
F10247
100
AcDbEntity
8
Geo
100
AcDbLine
10
-89.0974477958237
20
-3.58873392799091
30
0.000000000000000
11
-88.9974477958237
21
-3.60622903858826
31
0.000000000000000
  0
LINE
  5
F10248
330
F10249
100
AcDbEntity
8
Geo
100
AcDbLine
10
-88.9974477958237
20
-3.60622903858826
30
0.000000000000000
11
-88.8974477958237
21
-3.61782547138517
31
0.000000000000000
  0
LINE
  5
F1024A
330
F1024B
100
AcDbEntity
8
Geo
100
AcDbLine
10
-88.8974477958237
20
-3.61782547138517
30
0.000000000000000
11
-88.7974477958237
21
-3.62350604860207
31
0.000000000000000
  0
LINE
  5
F1024C
330
F1024D
100
AcDbEntity
8
Geo
100
AcDbLine
10
-79.8974477958237
20
4.37587006960557
30
0.000000000000000
11
-79.7974477958237
21
4.37537406966601
31
0.000000000000000
  0
LINE
  5
F1024E
330
F1024F
100
AcDbEntity
8
Geo
100
AcDbLine
10
-79.7974477958237
20
4.37537406966601
30
0.000000000000000
11
-79.6974477958237
21
4.37391614600563
31
0.000000000000000
  0
LINE
  5
F10250
330
F10251
100
AcDbEntity
8
Geo
100
AcDbLine
10
-79.6974477958237
20
4.37391614600563
30
0.000000000000000
11
-79.5974477958237
21
4.37165155748909
31
0.000000000000000
  0
LINE
  5
F10252
330
F10253
100
AcDbEntity
8
Geo
100
AcDbLine
10
-79.5974477958237
20
4.37165155748909
30
0.000000000000000
11
-79.4974477958237
21
4.36872795467788
31
0.000000000000000
  0
LINE
  5
F10254
330
F10255
100
AcDbEntity
8
Geo
100
AcDbLine
10
-79.4974477958237
20
4.36872795467788
30
0.000000000000000
11
-79.3974477958237
21
4.36528458252143
31
0.000000000000000
  0
LINE
  5
F10256
330
F10257
100
AcDbEntity
8
Geo
100
AcDbLine
10
-79.3974477958237
20
4.36528458252143
30
0.000000000000000
11
-79.2974477958237
21
4.36145222177757
31
0.000000000000000
  0
LINE
  5
F10258
330
F10259
100
AcDbEntity
8
Geo
100
AcDbLine
10
-79.2974477958237
20
4.36145222177757
30
0.000000000000000
11
-79.1974477958237
21
4.35735315109417
31
0.000000000000000
  0
LINE
  5
F1025A
330
F1025B
100
AcDbEntity
8
Geo
100
AcDbLine
10
-79.1974477958237
20
4.35735315109417
30
0.000000000000000
11
-79.0974477958237
21
4.35310112654789
31
0.000000000000000
  0
LINE
  5
F1025C
330
F1025D
100
AcDbEntity
8
Geo
100
AcDbLine
10
-79.0974477958237
20
4.35310112654789
30
0.000000000000000
11
-78.9974477958237
21
4.34880137563763
31
0.000000000000000
  0
LINE
  5
F1025E
330
F1025F
100
AcDbEntity
8
Geo
100
AcDbLine
10
-78.9974477958237
20
4.34880137563763
30
0.000000000000000
11
-78.8974477958237
21
4.34455060293482
31
0.000000000000000
  0
LINE
  5
F10260
330
F10261
100
AcDbEntity
8
Geo
100
AcDbLine
10
-78.8974477958237
20
4.34455060293482
30
0.000000000000000
11
-78.7974477958237
21
4.34043700479997
31
0.000000000000000
  0
LINE
  5
F10262
330
F10263
100
AcDbEntity
8
Geo
100
AcDbLine
10
-78.7974477958237
20
4.34043700479997
30
0.000000000000000
11
-78.6974477958237
21
4.33654029078383
31
0.000000000000000
  0
LINE
  5
F10264
330
F10265
100
AcDbEntity
8
Geo
100
AcDbLine
10
-78.6974477958237
20
4.33654029078383
30
0.000000000000000
11
-78.5974477958237
21
4.33293170954095
31
0.000000000000000
  0
LINE
  5
F10266
330
F10267
100
AcDbEntity
8
Geo
100
AcDbLine
10
-78.5974477958237
20
4.33293170954095
30
0.000000000000000
11
-78.4974477958237
21
4.32967407729301
31
0.000000000000000
  0
LINE
  5
F10268
330
F10269
100
AcDbEntity
8
Geo
100
AcDbLine
10
-78.4974477958237
20
4.32967407729301
30
0.000000000000000
11
-78.3974477958237
21
4.32682180708848
31
0.000000000000000
  0
LINE
  5
F1026A
330
F1026B
100
AcDbEntity
8
Geo
100
AcDbLine
10
-78.3974477958237
20
4.32682180708848
30
0.000000000000000
11
-78.2974477958237
21
4.32442093731397
31
0.000000000000000
  0
LINE
  5
F1026C
330
F1026D
100
AcDbEntity
8
Geo
100
AcDbLine
10
-78.2974477958237
20
4.32442093731397
30
0.000000000000000
11
-78.1974477958237
21
4.32250915811988
31
0.000000000000000
  0
LINE
  5
F1026E
330
F1026F
100
AcDbEntity
8
Geo
100
AcDbLine
10
-78.1974477958237
20
4.32250915811988
30
0.000000000000000
11
-78.0974477958237
21
4.32111583463007
31
0.000000000000000
  0
LINE
  5
F10270
330
F10271
100
AcDbEntity
8
Geo
100
AcDbLine
10
-96.0974477958237
20
0.375870069605558
30
0.000000000000000
11
-95.9974477958237
21
0.243655257187506
31
0.000000000000000
  0
LINE
  5
F10272
330
F10273
100
AcDbEntity
8
Geo
100
AcDbLine
10
-95.9974477958237
20
0.243655257187506
30
0.000000000000000
11
-95.8974477958237
21
0.0990155661019499
31
0.000000000000000
  0
LINE
  5
F10274
330
F10275
100
AcDbEntity
8
Geo
100
AcDbLine
10
-95.8974477958237
20
0.0990155661019499
30
0.000000000000000
11
-95.7974477958237
21
-0.0520497900874031
31
0.000000000000000
  0
LINE
  5
F10276
330
F10277
100
AcDbEntity
8
Geo
100
AcDbLine
10
-95.7974477958237
20
-0.0520497900874031
30
0.000000000000000
11
-95.6974477958237
21
-0.206869639130062
31
0.000000000000000
  0
LINE
  5
F10278
330
F10279
100
AcDbEntity
8
Geo
100
AcDbLine
10
-95.6974477958237
20
-0.206869639130062
30
0.000000000000000
11
-95.5974477958237
21
-0.363562666614378
31
0.000000000000000
  0
LINE
  5
F1027A
330
F1027B
100
AcDbEntity
8
Geo
100
AcDbLine
10
-95.5974477958237
20
-0.363562666614378
30
0.000000000000000
11
-95.4974477958237
21
-0.520591944612691
31
0.000000000000000
  0
LINE
  5
F1027C
330
F1027D
100
AcDbEntity
8
Geo
100
AcDbLine
10
-95.4974477958237
20
-0.520591944612691
30
0.000000000000000
11
-95.3974477958237
21
-0.676598027570362
31
0.000000000000000
  0
LINE
  5
F1027E
330
F1027F
100
AcDbEntity
8
Geo
100
AcDbLine
10
-95.3974477958237
20
-0.676598027570362
30
0.000000000000000
11
-95.2974477958237
21
-0.830315570067553
31
0.000000000000000
  0
LINE
  5
F10280
330
F10281
100
AcDbEntity
8
Geo
100
AcDbLine
10
-95.2974477958237
20
-0.830315570067553
30
0.000000000000000
11
-95.1974477958237
21
-0.980521683679067
31
0.000000000000000
  0
LINE
  5
F10282
330
F10283
100
AcDbEntity
8
Geo
100
AcDbLine
10
-95.1974477958237
20
-0.980521683679067
30
0.000000000000000
11
-95.0974477958237
21
-1.12599641581981
31
0.000000000000000
  0
LINE
  5
F10284
330
F10285
100
AcDbEntity
8
Geo
100
AcDbLine
10
-95.0974477958237
20
-1.12599641581981
30
0.000000000000000
11
-94.9974477958237
21
-1.26754455280993
31
0.000000000000000
  0
LINE
  5
F10286
330
F10287
100
AcDbEntity
8
Geo
100
AcDbLine
10
-94.9974477958237
20
-1.26754455280993
30
0.000000000000000
11
-94.8974477958237
21
-1.40665830203451
31
0.000000000000000
  0
LINE
  5
F10288
330
F10289
100
AcDbEntity
8
Geo
100
AcDbLine
10
-94.8974477958237
20
-1.40665830203451
30
0.000000000000000
11
-94.7974477958237
21
-1.54313159449275
31
0.000000000000000
  0
LINE
  5
F1028A
330
F1028B
100
AcDbEntity
8
Geo
100
AcDbLine
10
-94.7974477958237
20
-1.54313159449275
30
0.000000000000000
11
-94.6974477958237
21
-1.67676227248876
31
0.000000000000000
  0
LINE
  5
F1028C
330
F1028D
100
AcDbEntity
8
Geo
100
AcDbLine
10
-94.6974477958237
20
-1.67676227248876
30
0.000000000000000
11
-94.5974477958237
21
-1.80735238908742
31
0.000000000000000
  0
LINE
  5
F1028E
330
F1028F
100
AcDbEntity
8
Geo
100
AcDbLine
10
-94.5974477958237
20
-1.80735238908742
30
0.000000000000000
11
-94.4974477958237
21
-1.93470850133294
31
0.000000000000000
  0
LINE
  5
F10290
330
F10291
100
AcDbEntity
8
Geo
100
AcDbLine
10
-94.4974477958237
20
-1.93470850133294
30
0.000000000000000
11
-94.3974477958237
21
-2.05864195679563
31
0.000000000000000
  0
LINE
  5
F10292
330
F10293
100
AcDbEntity
8
Geo
100
AcDbLine
10
-94.3974477958237
20
-2.05864195679563
30
0.000000000000000
11
-94.2974477958237
21
-2.17896917302247
31
0.000000000000000
  0
LINE
  5
F10294
330
F10295
100
AcDbEntity
8
Geo
100
AcDbLine
10
-94.2974477958237
20
-2.17896917302247
30
0.000000000000000
11
-94.1974477958237
21
-2.29551190947752
31
0.000000000000000
  0
LINE
  5
F10296
330
F10297
100
AcDbEntity
8
Geo
100
AcDbLine
10
-94.1974477958237
20
-2.29551190947752
30
0.000000000000000
11
-94.0974477958237
21
-2.40809753156943
31
0.000000000000000
  0
LINE
  5
F10298
330
F10299
100
AcDbEntity
8
Geo
100
AcDbLine
10
-94.0974477958237
20
-2.40809753156943
30
0.000000000000000
11
-93.9974477958237
21
-2.51655926637476
31
0.000000000000000
  0
LINE
  5
F1029A
330
F1029B
100
AcDbEntity
8
Geo
100
AcDbLine
10
-93.9974477958237
20
-2.51655926637476
30
0.000000000000000
11
-93.8974477958237
21
-2.62073644967850
31
0.000000000000000
  0
LINE
  5
F1029C
330
F1029D
100
AcDbEntity
8
Geo
100
AcDbLine
10
-93.8974477958237
20
-2.62073644967850
30
0.000000000000000
11
-93.7974477958237
21
-2.72047476396574
31
0.000000000000000
  0
LINE
  5
F1029E
330
F1029F
100
AcDbEntity
8
Geo
100
AcDbLine
10
-93.7974477958237
20
-2.72047476396574
30
0.000000000000000
11
-93.6974477958237
21
-2.81562646701202
31
0.000000000000000
  0
LINE
  5
F102A0
330
F102A1
100
AcDbEntity
8
Geo
100
AcDbLine
10
-93.6974477958237
20
-2.81562646701202
30
0.000000000000000
11
-93.5974477958237
21
-2.90605061073363
31
0.000000000000000
  0
LINE
  5
F102A2
330
F102A3
100
AcDbEntity
8
Geo
100
AcDbLine
10
-93.5974477958237
20
-2.90605061073363
30
0.000000000000000
11
-93.4974477958237
21
-2.99161324997381
31
0.000000000000000
  0
LINE
  5
F102A4
330
F102A5
100
AcDbEntity
8
Geo
100
AcDbLine
10
-93.4974477958237
20
-2.99161324997381
30
0.000000000000000
11
-93.3974477958237
21
-3.07218764091559
31
0.000000000000000
  0
LINE
  5
F102A6
330
F102A7
100
AcDbEntity
8
Geo
100
AcDbLine
10
-93.3974477958237
20
-3.07218764091559
30
0.000000000000000
11
-93.2974477958237
21
-3.14765442882714
31
0.000000000000000
  0
LINE
  5
F102A8
330
F102A9
100
AcDbEntity
8
Geo
100
AcDbLine
10
-93.2974477958237
20
-3.14765442882714
30
0.000000000000000
11
-93.1974477958237
21
-3.21790182486181
31
0.000000000000000
  0
LINE
  5
F102AA
330
F102AB
100
AcDbEntity
8
Geo
100
AcDbLine
10
-93.1974477958237
20
-3.21790182486181
30
0.000000000000000
11
-93.0974477958237
21
-3.28282577165081
31
0.000000000000000
  0
LINE
  5
F102AC
330
F102AD
100
AcDbEntity
8
Geo
100
AcDbLine
10
-93.0974477958237
20
-3.28282577165081
30
0.000000000000000
11
-92.9974477958237
21
-3.34233009744318
31
0.000000000000000
  0
LINE
  5
F102AE
330
F102AF
100
AcDbEntity
8
Geo
100
AcDbLine
10
-92.9974477958237
20
-3.34233009744318
30
0.000000000000000
11
-92.8974477958237
21
-3.39632665856495
31
0.000000000000000
  0
LINE
  5
F102B0
330
F102B1
100
AcDbEntity
8
Geo
100
AcDbLine
10
-92.8974477958237
20
-3.39632665856495
30
0.000000000000000
11
-92.7974477958237
21
-3.44473546998618
31
0.000000000000000
  0
LINE
  5
F102B2
330
F102B3
100
AcDbEntity
8
Geo
100
AcDbLine
10
-92.7974477958237
20
-3.44473546998618
30
0.000000000000000
11
-92.6974477958237
21
-3.48748482380268
31
0.000000000000000
  0
LINE
  5
F102B4
330
F102B5
100
AcDbEntity
8
Geo
100
AcDbLine
10
-92.6974477958237
20
-3.48748482380268
30
0.000000000000000
11
-92.5974477958237
21
-3.52451139545686
31
0.000000000000000
  0
LINE
  5
F102B6
330
F102B7
100
AcDbEntity
8
Geo
100
AcDbLine
10
-92.5974477958237
20
-3.52451139545686
30
0.000000000000000
11
-92.4974477958237
21
-3.55576033754028
31
0.000000000000000
  0
LINE
  5
F102B8
330
F102B9
100
AcDbEntity
8
Geo
100
AcDbLine
10
-92.4974477958237
20
-3.55576033754028
30
0.000000000000000
11
-92.3974477958237
21
-3.58118536103904
31
0.000000000000000
  0
LINE
  5
F102BA
330
F102BB
100
AcDbEntity
8
Geo
100
AcDbLine
10
-92.3974477958237
20
-3.58118536103904
30
0.000000000000000
11
-92.2974477958237
21
-3.60074880390164
31
0.000000000000000
  0
LINE
  5
F102BC
330
F102BD
100
AcDbEntity
8
Geo
100
AcDbLine
10
-92.2974477958237
20
-3.60074880390164
30
0.000000000000000
11
-92.1974477958237
21
-3.61442168682772
31
0.000000000000000
  0
LINE
  5
F102BE
330
F102BF
100
AcDbEntity
8
Geo
100
AcDbLine
10
-92.1974477958237
20
-3.61442168682772
30
0.000000000000000
11
-92.0974477958237
21
-3.62218375619507
31
0.000000000000000
  0
LINE
  5
F102C0
330
F102C1
100
AcDbEntity
8
Geo
100
AcDbLine
10
-83.8974477958237
20
4.37531851126870
30
0.000000000000000
11
-83.7974477958237
21
4.37491235658001
31
0.000000000000000
  0
LINE
  5
F102C2
330
F102C3
100
AcDbEntity
8
Geo
100
AcDbLine
10
-83.7974477958237
20
4.37491235658001
30
0.000000000000000
11
-83.6974477958237
21
4.36858242618401
31
0.000000000000000
  0
LINE
  5
F102C4
330
F102C5
100
AcDbEntity
8
Geo
100
AcDbLine
10
-83.6974477958237
20
4.36858242618401
30
0.000000000000000
11
-83.5974477958237
21
4.35633809659768
31
0.000000000000000
  0
LINE
  5
F102C6
330
F102C7
100
AcDbEntity
8
Geo
100
AcDbLine
10
-83.5974477958237
20
4.35633809659768
30
0.000000000000000
11
-83.4974477958237
21
4.33819750532921
31
0.000000000000000
  0
LINE
  5
F102C8
330
F102C9
100
AcDbEntity
8
Geo
100
AcDbLine
10
-83.4974477958237
20
4.33819750532921
30
0.000000000000000
11
-83.3974477958237
21
4.31418752401088
31
0.000000000000000
  0
LINE
  5
F102CA
330
F102CB
100
AcDbEntity
8
Geo
100
AcDbLine
10
-83.3974477958237
20
4.31418752401088
30
0.000000000000000
11
-83.2974477958237
21
4.28434371859420
31
0.000000000000000
  0
LINE
  5
F102CC
330
F102CD
100
AcDbEntity
8
Geo
100
AcDbLine
10
-83.2974477958237
20
4.28434371859420
30
0.000000000000000
11
-83.1974477958237
21
4.24871029666610
31
0.000000000000000
  0
LINE
  5
F102CE
330
F102CF
100
AcDbEntity
8
Geo
100
AcDbLine
10
-83.1974477958237
20
4.24871029666610
30
0.000000000000000
11
-83.0974477958237
21
4.20734004196430
31
0.000000000000000
  0
LINE
  5
F102D0
330
F102D1
100
AcDbEntity
8
Geo
100
AcDbLine
10
-83.0974477958237
20
4.20734004196430
30
0.000000000000000
11
-82.9974477958237
21
4.21279938977574
31
0.000000000000000
  0
LINE
  5
F102D2
330
F102D3
100
AcDbEntity
8
Geo
100
AcDbLine
10
-82.9974477958237
20
4.21279938977574
30
0.000000000000000
11
-82.8974477958237
21
4.21806731626193
31
0.000000000000000
  0
LINE
  5
F102D4
330
F102D5
100
AcDbEntity
8
Geo
100
AcDbLine
10
-82.8974477958237
20
4.21806731626193
30
0.000000000000000
11
-82.7974477958237
21
4.22314873391382
31
0.000000000000000
  0
LINE
  5
F102D6
330
F102D7
100
AcDbEntity
8
Geo
100
AcDbLine
10
-82.7974477958237
20
4.22314873391382
30
0.000000000000000
11
-82.6974477958237
21
4.22804847087945
31
0.000000000000000
  0
LINE
  5
F102D8
330
F102D9
100
AcDbEntity
8
Geo
100
AcDbLine
10
-82.6974477958237
20
4.22804847087945
30
0.000000000000000
11
-82.5974477958237
21
4.23277126995862
31
0.000000000000000
  0
LINE
  5
F102DA
330
F102DB
100
AcDbEntity
8
Geo
100
AcDbLine
10
-82.5974477958237
20
4.23277126995862
30
0.000000000000000
11
-82.4974477958237
21
4.23732178764137
31
0.000000000000000
  0
LINE
  5
F102DC
330
F102DD
100
AcDbEntity
8
Geo
100
AcDbLine
10
-82.4974477958237
20
4.23732178764137
30
0.000000000000000
11
-82.3974477958237
21
4.24170459318843
31
0.000000000000000
  0
LINE
  5
F102DE
330
F102DF
100
AcDbEntity
8
Geo
100
AcDbLine
10
-82.3974477958237
20
4.24170459318843
30
0.000000000000000
11
-82.2974477958237
21
4.24592416775276
31
0.000000000000000
  0
LINE
  5
F102E0
330
F102E1
100
AcDbEntity
8
Geo
100
AcDbLine
10
-82.2974477958237
20
4.24592416775276
30
0.000000000000000
11
-82.1974477958237
21
4.24998490354043
31
0.000000000000000
  0
LINE
  5
F102E2
330
F102E3
100
AcDbEntity
8
Geo
100
AcDbLine
10
-82.1974477958237
20
4.24998490354043
30
0.000000000000000
11
-82.0974477958237
21
4.25389110300990
31
0.000000000000000
  0
LINE
  5
F102E4
330
F102E5
100
AcDbEntity
8
Geo
100
AcDbLine
10
-82.0974477958237
20
4.25389110300990
30
0.000000000000000
11
-81.9974477958237
21
4.25764697810821
31
0.000000000000000
  0
LINE
  5
F102E6
330
F102E7
100
AcDbEntity
8
Geo
100
AcDbLine
10
-81.9974477958237
20
4.25764697810821
30
0.000000000000000
11
-81.8974477958237
21
4.26125664954288
31
0.000000000000000
  0
LINE
  5
F102E8
330
F102E9
100
AcDbEntity
8
Geo
100
AcDbLine
10
-81.8974477958237
20
4.26125664954288
30
0.000000000000000
11
-81.7974477958237
21
4.26472414608837
31
0.000000000000000
  0
LINE
  5
F102EA
330
F102EB
100
AcDbEntity
8
Geo
100
AcDbLine
10
-81.7974477958237
20
4.26472414608837
30
0.000000000000000
11
-81.6974477958237
21
4.26805340392573
31
0.000000000000000
  0
LINE
  5
F102EC
330
F102ED
100
AcDbEntity
8
Geo
100
AcDbLine
10
-81.6974477958237
20
4.26805340392573
30
0.000000000000000
11
-81.5974477958237
21
4.27124826601445
31
0.000000000000000
  0
LINE
  5
F102EE
330
F102EF
100
AcDbEntity
8
Geo
100
AcDbLine
10
-81.5974477958237
20
4.27124826601445
30
0.000000000000000
11
-81.4974477958237
21
4.27431248149521
31
0.000000000000000
  0
LINE
  5
F102F0
330
F102F1
100
AcDbEntity
8
Geo
100
AcDbLine
10
-81.4974477958237
20
4.27431248149521
30
0.000000000000000
11
-81.3974477958237
21
4.27724970512246
31
0.000000000000000
  0
LINE
  5
F102F2
330
F102F3
100
AcDbEntity
8
Geo
100
AcDbLine
10
-81.3974477958237
20
4.27724970512246
30
0.000000000000000
11
-81.2974477958237
21
4.28006349672571
31
0.000000000000000
  0
LINE
  5
F102F4
330
F102F5
100
AcDbEntity
8
Geo
100
AcDbLine
10
-81.2974477958237
20
4.28006349672571
30
0.000000000000000
11
-81.1974477958237
21
4.28275732069845
31
0.000000000000000
  0
LINE
  5
F102F6
330
F102F7
100
AcDbEntity
8
Geo
100
AcDbLine
10
-81.1974477958237
20
4.28275732069845
30
0.000000000000000
11
-81.0974477958237
21
4.28533454551367
31
0.000000000000000
  0
LINE
  5
F102F8
330
F102F9
100
AcDbEntity
8
Geo
100
AcDbLine
10
-81.0974477958237
20
4.28533454551367
30
0.000000000000000
11
-80.9974477958237
21
4.28779844326492
31
0.000000000000000
  0
LINE
  5
F102FA
330
F102FB
100
AcDbEntity
8
Geo
100
AcDbLine
10
-80.9974477958237
20
4.28779844326492
30
0.000000000000000
11
-80.8974477958237
21
4.29015218923190
31
0.000000000000000
  0
LINE
  5
F102FC
330
F102FD
100
AcDbEntity
8
Geo
100
AcDbLine
10
-80.8974477958237
20
4.29015218923190
30
0.000000000000000
11
-80.7974477958237
21
4.29239886146966
31
0.000000000000000
  0
LINE
  5
F102FE
330
F102FF
100
AcDbEntity
8
Geo
100
AcDbLine
10
-80.7974477958237
20
4.29239886146966
30
0.000000000000000
11
-80.6974477958237
21
4.29454144042041
31
0.000000000000000
  0
LINE
  5
F10300
330
F10301
100
AcDbEntity
8
Geo
100
AcDbLine
10
-80.6974477958237
20
4.29454144042041
30
0.000000000000000
11
-80.5974477958237
21
4.29658280854708
31
0.000000000000000
  0
LINE
  5
F10302
330
F10303
100
AcDbEntity
8
Geo
100
AcDbLine
10
-80.5974477958237
20
4.29658280854708
30
0.000000000000000
11
-80.4974477958237
21
4.29852574998764
31
0.000000000000000
  0
LINE
  5
F10304
330
F10305
100
AcDbEntity
8
Geo
100
AcDbLine
10
-80.4974477958237
20
4.29852574998764
30
0.000000000000000
11
-80.3974477958237
21
4.30037295022949
31
0.000000000000000
  0
LINE
  5
F10306
330
F10307
100
AcDbEntity
8
Geo
100
AcDbLine
10
-80.3974477958237
20
4.30037295022949
30
0.000000000000000
11
-80.2974477958237
21
4.30212699580285
31
0.000000000000000
  0
LINE
  5
F10308
330
F10309
100
AcDbEntity
8
Geo
100
AcDbLine
10
-80.2974477958237
20
4.30212699580285
30
0.000000000000000
11
-80.1974477958237
21
4.30379037399260
31
0.000000000000000
  0
LINE
  5
F1030A
330
F1030B
100
AcDbEntity
8
Geo
100
AcDbLine
10
-80.1974477958237
20
4.30379037399260
30
0.000000000000000
11
-80.0974477958237
21
4.30536547256760
31
0.000000000000000
  0
LINE
  5
F1030C
330
F1030D
100
AcDbEntity
8
Geo
100
AcDbLine
10
-80.0974477958237
20
4.30536547256760
30
0.000000000000000
11
-79.9974477958237
21
4.30685457952682
31
0.000000000000000
  0
LINE
  5
F1030E
330
F1030F
100
AcDbEntity
8
Geo
100
AcDbLine
10
-79.9974477958237
20
4.30685457952682
30
0.000000000000000
11
-79.8974477958237
21
4.30825988286160
31
0.000000000000000
  0
LINE
  5
F10310
330
F10311
100
AcDbEntity
8
Geo
100
AcDbLine
10
-79.8974477958237
20
4.30825988286160
30
0.000000000000000
11
-79.7974477958237
21
4.30958347033330
31
0.000000000000000
  0
LINE
  5
F10312
330
F10313
100
AcDbEntity
8
Geo
100
AcDbLine
10
-79.7974477958237
20
4.30958347033330
30
0.000000000000000
11
-79.6974477958237
21
4.31082732926564
31
0.000000000000000
  0
LINE
  5
F10314
330
F10315
100
AcDbEntity
8
Geo
100
AcDbLine
10
-79.6974477958237
20
4.31082732926564
30
0.000000000000000
11
-79.5974477958237
21
4.31199334635126
31
0.000000000000000
  0
LINE
  5
F10316
330
F10317
100
AcDbEntity
8
Geo
100
AcDbLine
10
-79.5974477958237
20
4.31199334635126
30
0.000000000000000
11
-79.4974477958237
21
4.31308330747170
31
0.000000000000000
  0
LINE
  5
F10318
330
F10319
100
AcDbEntity
8
Geo
100
AcDbLine
10
-79.4974477958237
20
4.31308330747170
30
0.000000000000000
11
-79.3974477958237
21
4.31409889753037
31
0.000000000000000
  0
LINE
  5
F1031A
330
F1031B
100
AcDbEntity
8
Geo
100
AcDbLine
10
-79.3974477958237
20
4.31409889753037
30
0.000000000000000
11
-79.2974477958237
21
4.31504170029801
31
0.000000000000000
  0
LINE
  5
F1031C
330
F1031D
100
AcDbEntity
8
Geo
100
AcDbLine
10
-79.2974477958237
20
4.31504170029801
30
0.000000000000000
11
-79.1974477958237
21
4.31591319826987
31
0.000000000000000
  0
LINE
  5
F1031E
330
F1031F
100
AcDbEntity
8
Geo
100
AcDbLine
10
-79.1974477958237
20
4.31591319826987
30
0.000000000000000
11
-79.0974477958237
21
4.31671477253452
31
0.000000000000000
  0
LINE
  5
F10320
330
F10321
100
AcDbEntity
8
Geo
100
AcDbLine
10
-79.0974477958237
20
4.31671477253452
30
0.000000000000000
11
-78.9974477958237
21
4.31744770265353
31
0.000000000000000
  0
LINE
  5
F10322
330
F10323
100
AcDbEntity
8
Geo
100
AcDbLine
10
-78.9974477958237
20
4.31744770265353
30
0.000000000000000
11
-78.8974477958237
21
4.31811316655172
31
0.000000000000000
  0
LINE
  5
F10324
330
F10325
100
AcDbEntity
8
Geo
100
AcDbLine
10
-78.8974477958237
20
4.31811316655172
30
0.000000000000000
11
-78.7974477958237
21
4.31871224041761
31
0.000000000000000
  0
LINE
  5
F10326
330
F10327
100
AcDbEntity
8
Geo
100
AcDbLine
10
-78.7974477958237
20
4.31871224041761
30
0.000000000000000
11
-78.6974477958237
21
4.31924589861373
31
0.000000000000000
  0
LINE
  5
F10328
330
F10329
100
AcDbEntity
8
Geo
100
AcDbLine
10
-78.6974477958237
20
4.31924589861373
30
0.000000000000000
11
-78.5974477958237
21
4.31971501359630
31
0.000000000000000
  0
LINE
  5
F1032A
330
F1032B
100
AcDbEntity
8
Geo
100
AcDbLine
10
-78.5974477958237
20
4.31971501359630
30
0.000000000000000
11
-78.4974477958237
21
4.32012035584431
31
0.000000000000000
  0
LINE
  5
F1032C
330
F1032D
100
AcDbEntity
8
Geo
100
AcDbLine
10
-78.4974477958237
20
4.32012035584431
30
0.000000000000000
11
-78.3974477958237
21
4.32046259379733
31
0.000000000000000
  0
LINE
  5
F1032E
330
F1032F
100
AcDbEntity
8
Geo
100
AcDbLine
10
-78.3974477958237
20
4.32046259379733
30
0.000000000000000
11
-78.2974477958237
21
4.32074229380220
31
0.000000000000000
  0
LINE
  5
F10330
330
F10331
100
AcDbEntity
8
Geo
100
AcDbLine
10
-78.2974477958237
20
4.32074229380220
30
0.000000000000000
11
-78.1974477958237
21
4.32095992006811
31
0.000000000000000
  0
LINE
  5
F10332
330
F10333
100
AcDbEntity
8
Geo
100
AcDbLine
10
-78.1974477958237
20
4.32095992006811
30
0.000000000000000
11
-78.0974477958237
21
4.32111583463007
31
0.000000000000000
  0
LINE
  5
F10334
330
F10335
100
AcDbEntity
8
Geo
100
AcDbLine
10
-96.0974477958237
20
-0.551180913519265
30
0.000000000000000
11
-95.9974477958237
21
-0.810835674270725
31
0.000000000000000
  0
LINE
  5
F10336
330
F10337
100
AcDbEntity
8
Geo
100
AcDbLine
10
-95.9974477958237
20
-0.810835674270725
30
0.000000000000000
11
-95.8974477958237
21
-0.996600835916006
31
0.000000000000000
  0
LINE
  5
F10338
330
F10339
100
AcDbEntity
8
Geo
100
AcDbLine
10
-95.8974477958237
20
-0.996600835916006
30
0.000000000000000
11
-95.7974477958237
21
-1.17119610228258
31
0.000000000000000
  0
LINE
  5
F1033A
330
F1033B
100
AcDbEntity
8
Geo
100
AcDbLine
10
-95.7974477958237
20
-1.17119610228258
30
0.000000000000000
11
-95.6974477958237
21
-1.33872316556834
31
0.000000000000000
  0
LINE
  5
F1033C
330
F1033D
100
AcDbEntity
8
Geo
100
AcDbLine
10
-95.6974477958237
20
-1.33872316556834
30
0.000000000000000
11
-95.5974477958237
21
-1.49998452791756
31
0.000000000000000
  0
LINE
  5
F1033E
330
F1033F
100
AcDbEntity
8
Geo
100
AcDbLine
10
-95.5974477958237
20
-1.49998452791756
30
0.000000000000000
11
-95.4974477958237
21
-1.65485503227370
31
0.000000000000000
  0
LINE
  5
F10340
330
F10341
100
AcDbEntity
8
Geo
100
AcDbLine
10
-95.4974477958237
20
-1.65485503227370
30
0.000000000000000
11
-95.3974477958237
21
-1.80284054675638
31
0.000000000000000
  0
LINE
  5
F10342
330
F10343
100
AcDbEntity
8
Geo
100
AcDbLine
10
-95.3974477958237
20
-1.80284054675638
30
0.000000000000000
11
-95.2974477958237
21
-1.94326162555214
31
0.000000000000000
  0
LINE
  5
F10344
330
F10345
100
AcDbEntity
8
Geo
100
AcDbLine
10
-95.2974477958237
20
-1.94326162555214
30
0.000000000000000
11
-95.1974477958237
21
-2.07532077066341
31
0.000000000000000
  0
LINE
  5
F10346
330
F10347
100
AcDbEntity
8
Geo
100
AcDbLine
10
-95.1974477958237
20
-2.07532077066341
30
0.000000000000000
11
-95.0974477958237
21
-2.19812203483443
31
0.000000000000000
  0
LINE
  5
F10348
330
F10349
100
AcDbEntity
8
Geo
100
AcDbLine
10
-95.0974477958237
20
-2.19812203483443
30
0.000000000000000
11
-94.9974477958237
21
-2.31403490697795
31
0.000000000000000
  0
LINE
  5
F1034A
330
F1034B
100
AcDbEntity
8
Geo
100
AcDbLine
10
-94.9974477958237
20
-2.31403490697795
30
0.000000000000000
11
-94.8974477958237
21
-2.42596322666821
31
0.000000000000000
  0
LINE
  5
F1034C
330
F1034D
100
AcDbEntity
8
Geo
100
AcDbLine
10
-94.8974477958237
20
-2.42596322666821
30
0.000000000000000
11
-94.7974477958237
21
-2.53374119464290
31
0.000000000000000
  0
LINE
  5
F1034E
330
F1034F
100
AcDbEntity
8
Geo
100
AcDbLine
10
-94.7974477958237
20
-2.53374119464290
30
0.000000000000000
11
-94.6974477958237
21
-2.63720915954986
31
0.000000000000000
  0
LINE
  5
F10350
330
F10351
100
AcDbEntity
8
Geo
100
AcDbLine
10
-94.6974477958237
20
-2.63720915954986
30
0.000000000000000
11
-94.5974477958237
21
-2.73621385443840
31
0.000000000000000
  0
LINE
  5
F10352
330
F10353
100
AcDbEntity
8
Geo
100
AcDbLine
10
-94.5974477958237
20
-2.73621385443840
30
0.000000000000000
11
-94.4974477958237
21
-2.83060862379342
31
0.000000000000000
  0
LINE
  5
F10354
330
F10355
100
AcDbEntity
8
Geo
100
AcDbLine
10
-94.4974477958237
20
-2.83060862379342
30
0.000000000000000
11
-94.3974477958237
21
-2.92025364077603
31
0.000000000000000
  0
LINE
  5
F10356
330
F10357
100
AcDbEntity
8
Geo
100
AcDbLine
10
-94.3974477958237
20
-2.92025364077603
30
0.000000000000000
11
-94.2974477958237
21
-3.00501611434882
31
0.000000000000000
  0
LINE
  5
F10358
330
F10359
100
AcDbEntity
8
Geo
100
AcDbLine
10
-94.2974477958237
20
-3.00501611434882
30
0.000000000000000
11
-94.1974477958237
21
-3.08477048597908
31
0.000000000000000
  0
LINE
  5
F1035A
330
F1035B
100
AcDbEntity
8
Geo
100
AcDbLine
10
-94.1974477958237
20
-3.08477048597908
30
0.000000000000000
11
-94.0974477958237
21
-3.15939861562844
31
0.000000000000000
  0
LINE
  5
F1035C
330
F1035D
100
AcDbEntity
8
Geo
100
AcDbLine
10
-94.0974477958237
20
-3.15939861562844
30
0.000000000000000
11
-93.9974477958237
21
-3.22878995675356
31
0.000000000000000
  0
LINE
  5
F1035E
330
F1035F
100
AcDbEntity
8
Geo
100
AcDbLine
10
-93.9974477958237
20
-3.22878995675356
30
0.000000000000000
11
-93.8974477958237
21
-3.29284172005856
31
0.000000000000000
  0
LINE
  5
F10360
330
F10361
100
AcDbEntity
8
Geo
100
AcDbLine
10
-93.8974477958237
20
-3.29284172005856
30
0.000000000000000
11
-93.7974477958237
21
-3.35145902575668
31
0.000000000000000
  0
LINE
  5
F10362
330
F10363
100
AcDbEntity
8
Geo
100
AcDbLine
10
-93.7974477958237
20
-3.35145902575668
30
0.000000000000000
11
-93.6974477958237
21
-3.40455504411554
31
0.000000000000000
  0
LINE
  5
F10364
330
F10365
100
AcDbEntity
8
Geo
100
AcDbLine
10
-93.6974477958237
20
-3.40455504411554
30
0.000000000000000
11
-93.5974477958237
21
-3.45205112407792
31
0.000000000000000
  0
LINE
  5
F10366
330
F10367
100
AcDbEntity
8
Geo
100
AcDbLine
10
-93.5974477958237
20
-3.45205112407792
30
0.000000000000000
11
-93.4974477958237
21
-3.49387690976748
31
0.000000000000000
  0
LINE
  5
F10368
330
F10369
100
AcDbEntity
8
Geo
100
AcDbLine
10
-93.4974477958237
20
-3.49387690976748
30
0.000000000000000
11
-93.3974477958237
21
-3.52997044470678
31
0.000000000000000
  0
LINE
  5
F1036A
330
F1036B
100
AcDbEntity
8
Geo
100
AcDbLine
10
-93.3974477958237
20
-3.52997044470678
30
0.000000000000000
11
-93.2974477958237
21
-3.56027826359336
31
0.000000000000000
  0
LINE
  5
F1036C
330
F1036D
100
AcDbEntity
8
Geo
100
AcDbLine
10
-93.2974477958237
20
-3.56027826359336
30
0.000000000000000
11
-93.1974477958237
21
-3.58475547149777
31
0.000000000000000
  0
LINE
  5
F1036E
330
F1036F
100
AcDbEntity
8
Geo
100
AcDbLine
10
-93.1974477958237
20
-3.58475547149777
30
0.000000000000000
11
-93.0974477958237
21
-3.60336581036643
31
0.000000000000000
  0
LINE
  5
F10370
330
F10371
100
AcDbEntity
8
Geo
100
AcDbLine
10
-93.0974477958237
20
-3.60336581036643
30
0.000000000000000
11
-92.9974477958237
21
-3.61608171273059
31
0.000000000000000
  0
LINE
  5
F10372
330
F10373
100
AcDbEntity
8
Geo
100
AcDbLine
10
-92.9974477958237
20
-3.61608171273059
30
0.000000000000000
11
-92.8974477958237
21
-3.62288434254197
31
0.000000000000000
  0
LINE
  5
F10374
330
F10375
100
AcDbEntity
8
Geo
100
AcDbLine
10
-84.6974477958237
20
4.37565509440255
30
0.000000000000000
11
-84.5974477958237
21
4.37428844084807
31
0.000000000000000
  0
LINE
  5
F10376
330
F10377
100
AcDbEntity
8
Geo
100
AcDbLine
10
-84.5974477958237
20
4.37428844084807
30
0.000000000000000
11
-84.4974477958237
21
4.36699893579179
31
0.000000000000000
  0
LINE
  5
F10378
330
F10379
100
AcDbEntity
8
Geo
100
AcDbLine
10
-84.4974477958237
20
4.36699893579179
30
0.000000000000000
11
-84.3974477958237
21
4.35379737716726
31
0.000000000000000
  0
LINE
  5
F1037A
330
F1037B
100
AcDbEntity
8
Geo
100
AcDbLine
10
-84.3974477958237
20
4.35379737716726
30
0.000000000000000
11
-84.2974477958237
21
4.33470332042470
31
0.000000000000000
  0
LINE
  5
F1037C
330
F1037D
100
AcDbEntity
8
Geo
100
AcDbLine
10
-84.2974477958237
20
4.33470332042470
30
0.000000000000000
11
-84.1974477958237
21
4.30974504956346
31
0.000000000000000
  0
LINE
  5
F1037E
330
F1037F
100
AcDbEntity
8
Geo
100
AcDbLine
10
-84.1974477958237
20
4.30974504956346
30
0.000000000000000
11
-84.0974477958237
21
4.27895953523501
31
0.000000000000000
  0
LINE
  5
F10380
330
F10381
100
AcDbEntity
8
Geo
100
AcDbLine
10
-84.0974477958237
20
4.27895953523501
30
0.000000000000000
11
-83.9974477958237
21
4.24239237997838
31
0.000000000000000
  0
LINE
  5
F10382
330
F10383
100
AcDbEntity
8
Geo
100
AcDbLine
10
-83.9974477958237
20
4.24239237997838
30
0.000000000000000
11
-83.8974477958237
21
4.20009775066914
31
0.000000000000000
  0
LINE
  5
F10384
330
F10385
100
AcDbEntity
8
Geo
100
AcDbLine
10
-83.8974477958237
20
4.20009775066914
30
0.000000000000000
11
-83.7974477958237
21
4.15213829828211
31
0.000000000000000
  0
LINE
  5
F10386
330
F10387
100
AcDbEntity
8
Geo
100
AcDbLine
10
-83.7974477958237
20
4.15213829828211
30
0.000000000000000
11
-83.6974477958237
21
4.09858506508657
31
0.000000000000000
  0
LINE
  5
F10388
330
F10389
100
AcDbEntity
8
Geo
100
AcDbLine
10
-83.6974477958237
20
4.09858506508657
30
0.000000000000000
11
-83.5974477958237
21
4.03951737941143
31
0.000000000000000
  0
LINE
  5
F1038A
330
F1038B
100
AcDbEntity
8
Geo
100
AcDbLine
10
-83.5974477958237
20
4.03951737941143
30
0.000000000000000
11
-83.4974477958237
21
3.97502273813628
31
0.000000000000000
  0
LINE
  5
F1038C
330
F1038D
100
AcDbEntity
8
Geo
100
AcDbLine
10
-83.4974477958237
20
3.97502273813628
30
0.000000000000000
11
-83.3974477958237
21
3.90519667708242
31
0.000000000000000
  0
LINE
  5
F1038E
330
F1038F
100
AcDbEntity
8
Geo
100
AcDbLine
10
-83.3974477958237
20
3.90519667708242
30
0.000000000000000
11
-83.2974477958237
21
3.83014262949572
31
0.000000000000000
  0
LINE
  5
F10390
330
F10391
100
AcDbEntity
8
Geo
100
AcDbLine
10
-83.2974477958237
20
3.83014262949572
30
0.000000000000000
11
-83.1974477958237
21
3.74997177283118
31
0.000000000000000
  0
LINE
  5
F10392
330
F10393
100
AcDbEntity
8
Geo
100
AcDbLine
10
-83.1974477958237
20
3.74997177283118
30
0.000000000000000
11
-83.0974477958237
21
3.66480286406582
31
0.000000000000000
  0
LINE
  5
F10394
330
F10395
100
AcDbEntity
8
Geo
100
AcDbLine
10
-83.0974477958237
20
3.66480286406582
30
0.000000000000000
11
-82.9974477958237
21
3.56362605659323
31
0.000000000000000
  0
LINE
  5
F10396
330
F10397
100
AcDbEntity
8
Geo
100
AcDbLine
10
-82.9974477958237
20
3.56362605659323
30
0.000000000000000
11
-82.8974477958237
21
3.45865807602206
31
0.000000000000000
  0
LINE
  5
F10398
330
F10399
100
AcDbEntity
8
Geo
100
AcDbLine
10
-82.8974477958237
20
3.45865807602206
30
0.000000000000000
11
-82.7974477958237
21
3.35041908266348
31
0.000000000000000
  0
LINE
  5
F1039A
330
F1039B
100
AcDbEntity
8
Geo
100
AcDbLine
10
-82.7974477958237
20
3.35041908266348
30
0.000000000000000
11
-82.6974477958237
21
3.23940985499128
31
0.000000000000000
  0
LINE
  5
F1039C
330
F1039D
100
AcDbEntity
8
Geo
100
AcDbLine
10
-82.6974477958237
20
3.23940985499128
30
0.000000000000000
11
-82.5974477958237
21
3.12611080052790
31
0.000000000000000
  0
LINE
  5
F1039E
330
F1039F
100
AcDbEntity
8
Geo
100
AcDbLine
10
-82.5974477958237
20
3.12611080052790
30
0.000000000000000
11
-82.4974477958237
21
3.01098118163651
31
0.000000000000000
  0
LINE
  5
F103A0
330
F103A1
100
AcDbEntity
8
Geo
100
AcDbLine
10
-82.4974477958237
20
3.01098118163651
30
0.000000000000000
11
-82.3974477958237
21
2.89445854168919
31
0.000000000000000
  0
LINE
  5
F103A2
330
F103A3
100
AcDbEntity
8
Geo
100
AcDbLine
10
-82.3974477958237
20
2.89445854168919
30
0.000000000000000
11
-82.2974477958237
21
2.77695831697853
31
0.000000000000000
  0
LINE
  5
F103A4
330
F103A5
100
AcDbEntity
8
Geo
100
AcDbLine
10
-82.2974477958237
20
2.77695831697853
30
0.000000000000000
11
-82.1974477958237
21
2.65887361977555
31
0.000000000000000
  0
LINE
  5
F103A6
330
F103A7
100
AcDbEntity
8
Geo
100
AcDbLine
10
-82.1974477958237
20
2.65887361977555
30
0.000000000000000
11
-82.0974477958237
21
2.54057517809549
31
0.000000000000000
  0
LINE
  5
F103A8
330
F103A9
100
AcDbEntity
8
Geo
100
AcDbLine
10
-82.0974477958237
20
2.54057517809549
30
0.000000000000000
11
-81.9974477958237
21
2.42241141799803
31
0.000000000000000
  0
LINE
  5
F103AA
330
F103AB
100
AcDbEntity
8
Geo
100
AcDbLine
10
-81.9974477958237
20
2.42241141799803
30
0.000000000000000
11
-81.8974477958237
21
2.30470867460545
31
0.000000000000000
  0
LINE
  5
F103AC
330
F103AD
100
AcDbEntity
8
Geo
100
AcDbLine
10
-81.8974477958237
20
2.30470867460545
30
0.000000000000000
11
-81.7974477958237
21
2.18777151845728
31
0.000000000000000
  0
LINE
  5
F103AE
330
F103AF
100
AcDbEntity
8
Geo
100
AcDbLine
10
-81.7974477958237
20
2.18777151845728
30
0.000000000000000
11
-81.6974477958237
21
2.07188318431895
31
0.000000000000000
  0
LINE
  5
F103B0
330
F103B1
100
AcDbEntity
8
Geo
100
AcDbLine
10
-81.6974477958237
20
2.07188318431895
30
0.000000000000000
11
-81.5974477958237
21
1.95730609011374
31
0.000000000000000
  0
LINE
  5
F103B2
330
F103B3
100
AcDbEntity
8
Geo
100
AcDbLine
10
-81.5974477958237
20
1.95730609011374
30
0.000000000000000
11
-81.4974477958237
21
1.84428243423986
31
0.000000000000000
  0
LINE
  5
F103B4
330
F103B5
100
AcDbEntity
8
Geo
100
AcDbLine
10
-81.4974477958237
20
1.84428243423986
30
0.000000000000000
11
-81.3974477958237
21
1.73303486015730
31
0.000000000000000
  0
LINE
  5
F103B6
330
F103B7
100
AcDbEntity
8
Geo
100
AcDbLine
10
-81.3974477958237
20
1.73303486015730
30
0.000000000000000
11
-81.2974477958237
21
1.62376717777371
31
0.000000000000000
  0
LINE
  5
F103B8
330
F103B9
100
AcDbEntity
8
Geo
100
AcDbLine
10
-81.2974477958237
20
1.62376717777371
30
0.000000000000000
11
-81.1974477958237
21
1.51666513181508
31
0.000000000000000
  0
LINE
  5
F103BA
330
F103BB
100
AcDbEntity
8
Geo
100
AcDbLine
10
-81.1974477958237
20
1.51666513181508
30
0.000000000000000
11
-81.0974477958237
21
1.41189720802879
31
0.000000000000000
  0
LINE
  5
F103BC
330
F103BD
100
AcDbEntity
8
Geo
100
AcDbLine
10
-81.0974477958237
20
1.41189720802879
30
0.000000000000000
11
-80.9974477958237
21
1.30961546872715
31
0.000000000000000
  0
LINE
  5
F103BE
330
F103BF
100
AcDbEntity
8
Geo
100
AcDbLine
10
-80.9974477958237
20
1.30961546872715
30
0.000000000000000
11
-80.8974477958237
21
1.20995640983123
31
0.000000000000000
  0
LINE
  5
F103C0
330
F103C1
100
AcDbEntity
8
Geo
100
AcDbLine
10
-80.8974477958237
20
1.20995640983123
30
0.000000000000000
11
-80.7974477958237
21
1.11304183221508
31
0.000000000000000
  0
LINE
  5
F103C2
330
F103C3
100
AcDbEntity
8
Geo
100
AcDbLine
10
-80.7974477958237
20
1.11304183221508
30
0.000000000000000
11
-80.6974477958237
21
1.01897972077256
31
0.000000000000000
  0
LINE
  5
F103C4
330
F103C5
100
AcDbEntity
8
Geo
100
AcDbLine
10
-80.6974477958237
20
1.01897972077256
30
0.000000000000000
11
-80.5974477958237
21
0.927865125230186
31
0.000000000000000
  0
LINE
  5
F103C6
330
F103C7
100
AcDbEntity
8
Geo
100
AcDbLine
10
-80.5974477958237
20
0.927865125230186
30
0.000000000000000
11
-80.4974477958237
21
0.839781037307569
31
0.000000000000000
  0
LINE
  5
F103C8
330
F103C9
100
AcDbEntity
8
Geo
100
AcDbLine
10
-80.4974477958237
20
0.839781037307569
30
0.000000000000000
11
-80.3974477958237
21
0.754799259377217
31
0.000000000000000
  0
LINE
  5
F103CA
330
F103CB
100
AcDbEntity
8
Geo
100
AcDbLine
10
-80.3974477958237
20
0.754799259377217
30
0.000000000000000
11
-80.2974477958237
21
0.672981260298667
31
0.000000000000000
  0
LINE
  5
F103CC
330
F103CD
100
AcDbEntity
8
Geo
100
AcDbLine
10
-80.2974477958237
20
0.672981260298667
30
0.000000000000000
11
-80.1974477958237
21
0.594379014594181
31
0.000000000000000
  0
LINE
  5
F103CE
330
F103CF
100
AcDbEntity
8
Geo
100
AcDbLine
10
-80.1974477958237
20
0.594379014594181
30
0.000000000000000
11
-80.0974477958237
21
0.519035821595210
31
0.000000000000000
  0
LINE
  5
F103D0
330
F103D1
100
AcDbEntity
8
Geo
100
AcDbLine
10
-80.0974477958237
20
0.519035821595210
30
0.000000000000000
11
-79.9974477958237
21
0.446987101619065
31
0.000000000000000
  0
LINE
  5
F103D2
330
F103D3
100
AcDbEntity
8
Geo
100
AcDbLine
10
-79.9974477958237
20
0.446987101619065
30
0.000000000000000
11
-79.8974477958237
21
0.378261166633722
31
0.000000000000000
  0
LINE
  5
F103D4
330
F103D5
100
AcDbEntity
8
Geo
100
AcDbLine
10
-79.8974477958237
20
0.378261166633722
30
0.000000000000000
11
-79.7974477958237
21
0.312879963235558
31
0.000000000000000
  0
LINE
  5
F103D6
330
F103D7
100
AcDbEntity
8
Geo
100
AcDbLine
10
-79.7974477958237
20
0.312879963235558
30
0.000000000000000
11
-79.6974477958237
21
0.250859786100252
31
0.000000000000000
  0
LINE
  5
F103D8
330
F103D9
100
AcDbEntity
8
Geo
100
AcDbLine
10
-79.6974477958237
20
0.250859786100252
30
0.000000000000000
11
-79.5974477958237
21
0.192211960371758
31
0.000000000000000
  0
LINE
  5
F103DA
330
F103DB
100
AcDbEntity
8
Geo
100
AcDbLine
10
-79.5974477958237
20
0.192211960371758
30
0.000000000000000
11
-79.4974477958237
21
0.136943491728944
31
0.000000000000000
  0
LINE
  5
F103DC
330
F103DD
100
AcDbEntity
8
Geo
100
AcDbLine
10
-79.4974477958237
20
0.136943491728944
30
0.000000000000000
11
-79.3974477958237
21
0.0850576831150631
31
0.000000000000000
  0
LINE
  5
F103DE
330
F103DF
100
AcDbEntity
8
Geo
100
AcDbLine
10
-79.3974477958237
20
0.0850576831150631
30
0.000000000000000
11
-79.2974477958237
21
0.0365547173328766
31
0.000000000000000
  0
LINE
  5
F103E0
330
F103E1
100
AcDbEntity
8
Geo
100
AcDbLine
10
-79.2974477958237
20
0.0365547173328766
30
0.000000000000000
11
-79.1974477958237
21
-0.00856779510079231
31
0.000000000000000
  0
LINE
  5
F103E2
330
F103E3
100
AcDbEntity
8
Geo
100
AcDbLine
10
-79.1974477958237
20
-0.00856779510079231
30
0.000000000000000
11
-79.0974477958237
21
-0.0503143032818785
31
0.000000000000000
  0
LINE
  5
F103E4
330
F103E5
100
AcDbEntity
8
Geo
100
AcDbLine
10
-79.0974477958237
20
-0.0503143032818785
30
0.000000000000000
11
-78.9974477958237
21
-0.0886908387265395
31
0.000000000000000
  0
LINE
  5
F103E6
330
F103E7
100
AcDbEntity
8
Geo
100
AcDbLine
10
-78.9974477958237
20
-0.0886908387265395
30
0.000000000000000
11
-78.8974477958237
21
-0.123704573839623
31
0.000000000000000
  0
LINE
  5
F103E8
330
F103E9
100
AcDbEntity
8
Geo
100
AcDbLine
10
-78.8974477958237
20
-0.123704573839623
30
0.000000000000000
11
-78.7974477958237
21
-0.155363416126672
31
0.000000000000000
  0
LINE
  5
F103EA
330
F103EB
100
AcDbEntity
8
Geo
100
AcDbLine
10
-78.7974477958237
20
-0.155363416126672
30
0.000000000000000
11
-78.6974477958237
21
-0.183675638153603
31
0.000000000000000
  0
LINE
  5
F103EC
330
F103ED
100
AcDbEntity
8
Geo
100
AcDbLine
10
-78.6974477958237
20
-0.183675638153603
30
0.000000000000000
11
-78.5974477958237
21
-0.208649543197843
31
0.000000000000000
  0
LINE
  5
F103EE
330
F103EF
100
AcDbEntity
8
Geo
100
AcDbLine
10
-78.5974477958237
20
-0.208649543197843
30
0.000000000000000
11
-78.4974477958237
21
-0.230293166490698
31
0.000000000000000
  0
LINE
  5
F103F0
330
F103F1
100
AcDbEntity
8
Geo
100
AcDbLine
10
-78.4974477958237
20
-0.230293166490698
30
0.000000000000000
11
-78.3974477958237
21
-0.248614011921491
31
0.000000000000000
  0
LINE
  5
F103F2
330
F103F3
100
AcDbEntity
8
Geo
100
AcDbLine
10
-78.3974477958237
20
-0.248614011921491
30
0.000000000000000
11
-78.2974477958237
21
-0.263618824058100
31
0.000000000000000
  0
LINE
  5
F103F4
330
F103F5
100
AcDbEntity
8
Geo
100
AcDbLine
10
-78.2974477958237
20
-0.263618824058100
30
0.000000000000000
11
-78.1974477958237
21
-0.275313395334140
31
0.000000000000000
  0
LINE
  5
F103F6
330
F103F7
100
AcDbEntity
8
Geo
100
AcDbLine
10
-78.1974477958237
20
-0.275313395334140
30
0.000000000000000
11
-78.0974477958237
21
-0.283702408258827
31
0.000000000000000
  0
LINE
  5
F103F8
330
F103F9
100
AcDbEntity
8
Geo
100
AcDbLine
10
-87.9974477958237
20
4.37472758927599
30
0.000000000000000
11
-87.8974477958237
21
4.37544440993509
31
0.000000000000000
  0
LINE
  5
F103FA
330
F103FB
100
AcDbEntity
8
Geo
100
AcDbLine
10
-87.8974477958237
20
4.37544440993509
30
0.000000000000000
11
-87.7974477958237
21
4.37023666675700
31
0.000000000000000
  0
LINE
  5
F103FC
330
F103FD
100
AcDbEntity
8
Geo
100
AcDbLine
10
-87.7974477958237
20
4.37023666675700
30
0.000000000000000
11
-87.6974477958237
21
4.35911207396436
31
0.000000000000000
  0
LINE
  5
F103FE
330
F103FF
100
AcDbEntity
8
Geo
100
AcDbLine
10
-87.6974477958237
20
4.35911207396436
30
0.000000000000000
11
-87.5974477958237
21
4.34208711040080
31
0.000000000000000
  0
LINE
  5
F10400
330
F10401
100
AcDbEntity
8
Geo
100
AcDbLine
10
-87.5974477958237
20
4.34208711040080
30
0.000000000000000
11
-87.4974477958237
21
4.31918699512087
31
0.000000000000000
  0
LINE
  5
F10402
330
F10403
100
AcDbEntity
8
Geo
100
AcDbLine
10
-87.4974477958237
20
4.31918699512087
30
0.000000000000000
11
-87.3974477958237
21
4.29044565003308
31
0.000000000000000
  0
LINE
  5
F10404
330
F10405
100
AcDbEntity
8
Geo
100
AcDbLine
10
-87.3974477958237
20
4.29044565003308
30
0.000000000000000
11
-87.2974477958237
21
4.25590564965143
31
0.000000000000000
  0
LINE
  5
F10406
330
F10407
100
AcDbEntity
8
Geo
100
AcDbLine
10
-87.2974477958237
20
4.25590564965143
30
0.000000000000000
11
-87.1974477958237
21
4.21561815802983
31
0.000000000000000
  0
LINE
  5
F10408
330
F10409
100
AcDbEntity
8
Geo
100
AcDbLine
10
-87.1974477958237
20
4.21561815802983
30
0.000000000000000
11
-87.0974477958237
21
4.16964285297289
31
0.000000000000000
  0
LINE
  5
F1040A
330
F1040B
100
AcDbEntity
8
Geo
100
AcDbLine
10
-87.0974477958237
20
4.16964285297289
30
0.000000000000000
11
-86.9974477958237
21
4.11804783763523
31
0.000000000000000
  0
LINE
  5
F1040C
330
F1040D
100
AcDbEntity
8
Geo
100
AcDbLine
10
-86.9974477958237
20
4.11804783763523
30
0.000000000000000
11
-86.8974477958237
21
4.06090953964040
31
0.000000000000000
  0
LINE
  5
F1040E
330
F1040F
100
AcDbEntity
8
Geo
100
AcDbLine
10
-86.8974477958237
20
4.06090953964040
30
0.000000000000000
11
-86.7974477958237
21
3.99831259786874
31
0.000000000000000
  0
LINE
  5
F10410
330
F10411
100
AcDbEntity
8
Geo
100
AcDbLine
10
-86.7974477958237
20
3.99831259786874
30
0.000000000000000
11
-86.6974477958237
21
3.93034973708195
31
0.000000000000000
  0
LINE
  5
F10412
330
F10413
100
AcDbEntity
8
Geo
100
AcDbLine
10
-86.6974477958237
20
3.93034973708195
30
0.000000000000000
11
-86.5974477958237
21
3.85712163056997
31
0.000000000000000
  0
LINE
  5
F10414
330
F10415
100
AcDbEntity
8
Geo
100
AcDbLine
10
-86.5974477958237
20
3.85712163056997
30
0.000000000000000
11
-86.4974477958237
21
3.77873675102386
31
0.000000000000000
  0
LINE
  5
F10416
330
F10417
100
AcDbEntity
8
Geo
100
AcDbLine
10
-86.4974477958237
20
3.77873675102386
30
0.000000000000000
11
-86.3974477958237
21
3.69531120985527
31
0.000000000000000
  0
LINE
  5
F10418
330
F10419
100
AcDbEntity
8
Geo
100
AcDbLine
10
-86.3974477958237
20
3.69531120985527
30
0.000000000000000
11
-86.2974477958237
21
3.60696858520086
31
0.000000000000000
  0
LINE
  5
F1041A
330
F1041B
100
AcDbEntity
8
Geo
100
AcDbLine
10
-86.2974477958237
20
3.60696858520086
30
0.000000000000000
11
-86.1974477958237
21
3.51383973886608
31
0.000000000000000
  0
LINE
  5
F1041C
330
F1041D
100
AcDbEntity
8
Geo
100
AcDbLine
10
-86.1974477958237
20
3.51383973886608
30
0.000000000000000
11
-86.0974477958237
21
3.41606262247985
31
0.000000000000000
  0
LINE
  5
F1041E
330
F1041F
100
AcDbEntity
8
Geo
100
AcDbLine
10
-86.0974477958237
20
3.41606262247985
30
0.000000000000000
11
-85.9974477958237
21
3.31378207314697
31
0.000000000000000
  0
LINE
  5
F10420
330
F10421
100
AcDbEntity
8
Geo
100
AcDbLine
10
-85.9974477958237
20
3.31378207314697
30
0.000000000000000
11
-85.8974477958237
21
3.20714959890110
31
0.000000000000000
  0
LINE
  5
F10422
330
F10423
100
AcDbEntity
8
Geo
100
AcDbLine
10
-85.8974477958237
20
3.20714959890110
30
0.000000000000000
11
-85.7974477958237
21
3.09632315427615
31
0.000000000000000
  0
LINE
  5
F10424
330
F10425
100
AcDbEntity
8
Geo
100
AcDbLine
10
-85.7974477958237
20
3.09632315427615
30
0.000000000000000
11
-85.6974477958237
21
2.98146690632847
31
0.000000000000000
  0
LINE
  5
F10426
330
F10427
100
AcDbEntity
8
Geo
100
AcDbLine
10
-85.6974477958237
20
2.98146690632847
30
0.000000000000000
11
-85.5974477958237
21
2.86275099145636
31
0.000000000000000
  0
LINE
  5
F10428
330
F10429
100
AcDbEntity
8
Geo
100
AcDbLine
10
-85.5974477958237
20
2.86275099145636
30
0.000000000000000
11
-85.4974477958237
21
2.74035126337732
31
0.000000000000000
  0
LINE
  5
F1042A
330
F1042B
100
AcDbEntity
8
Geo
100
AcDbLine
10
-85.4974477958237
20
2.74035126337732
30
0.000000000000000
11
-85.3974477958237
21
2.61444903263617
31
0.000000000000000
  0
LINE
  5
F1042C
330
F1042D
100
AcDbEntity
8
Geo
100
AcDbLine
10
-85.3974477958237
20
2.61444903263617
30
0.000000000000000
11
-85.2974477958237
21
2.48523079802997
31
0.000000000000000
  0
LINE
  5
F1042E
330
F1042F
100
AcDbEntity
8
Geo
100
AcDbLine
10
-85.2974477958237
20
2.48523079802997
30
0.000000000000000
11
-85.1974477958237
21
2.35288797034766
31
0.000000000000000
  0
LINE
  5
F10430
330
F10431
100
AcDbEntity
8
Geo
100
AcDbLine
10
-85.1974477958237
20
2.35288797034766
30
0.000000000000000
11
-85.0974477958237
21
2.21761658883348
31
0.000000000000000
  0
LINE
  5
F10432
330
F10433
100
AcDbEntity
8
Geo
100
AcDbLine
10
-85.0974477958237
20
2.21761658883348
30
0.000000000000000
11
-84.9974477958237
21
2.07961703079434
31
0.000000000000000
  0
LINE
  5
F10434
330
F10435
100
AcDbEntity
8
Geo
100
AcDbLine
10
-84.9974477958237
20
2.07961703079434
30
0.000000000000000
11
-84.8974477958237
21
1.93909371478122
31
0.000000000000000
  0
LINE
  5
F10436
330
F10437
100
AcDbEntity
8
Geo
100
AcDbLine
10
-84.8974477958237
20
1.93909371478122
30
0.000000000000000
11
-84.7974477958237
21
1.79625479778419
31
0.000000000000000
  0
LINE
  5
F10438
330
F10439
100
AcDbEntity
8
Geo
100
AcDbLine
10
-84.7974477958237
20
1.79625479778419
30
0.000000000000000
11
-84.6974477958237
21
1.65131186688983
31
0.000000000000000
  0
LINE
  5
F1043A
330
F1043B
100
AcDbEntity
8
Geo
100
AcDbLine
10
-84.6974477958237
20
1.65131186688983
30
0.000000000000000
11
-84.5974477958237
21
1.50447962585754
31
0.000000000000000
  0
LINE
  5
F1043C
330
F1043D
100
AcDbEntity
8
Geo
100
AcDbLine
10
-84.5974477958237
20
1.50447962585754
30
0.000000000000000
11
-84.4974477958237
21
1.35597557707914
31
0.000000000000000
  0
LINE
  5
F1043E
330
F1043F
100
AcDbEntity
8
Geo
100
AcDbLine
10
-84.4974477958237
20
1.35597557707914
30
0.000000000000000
11
-84.3974477958237
21
1.20601969939293
31
0.000000000000000
  0
LINE
  5
F10440
330
F10441
100
AcDbEntity
8
Geo
100
AcDbLine
10
-84.3974477958237
20
1.20601969939293
30
0.000000000000000
11
-84.2974477958237
21
1.05483412222934
31
0.000000000000000
  0
LINE
  5
F10442
330
F10443
100
AcDbEntity
8
Geo
100
AcDbLine
10
-84.2974477958237
20
1.05483412222934
30
0.000000000000000
11
-84.1974477958237
21
0.902642796570863
31
0.000000000000000
  0
LINE
  5
F10444
330
F10445
100
AcDbEntity
8
Geo
100
AcDbLine
10
-84.1974477958237
20
0.902642796570863
30
0.000000000000000
11
-84.0974477958237
21
0.749671163213862
31
0.000000000000000
  0
LINE
  5
F10446
330
F10447
100
AcDbEntity
8
Geo
100
AcDbLine
10
-84.0974477958237
20
0.749671163213862
30
0.000000000000000
11
-83.9974477958237
21
0.596145818823374
31
0.000000000000000
  0
LINE
  5
F10448
330
F10449
100
AcDbEntity
8
Geo
100
AcDbLine
10
-83.9974477958237
20
0.596145818823374
30
0.000000000000000
11
-83.8974477958237
21
0.442294180275814
31
0.000000000000000
  0
LINE
  5
F1044A
330
F1044B
100
AcDbEntity
8
Geo
100
AcDbLine
10
-83.8974477958237
20
0.442294180275814
30
0.000000000000000
11
-83.7974477958237
21
0.288344147786668
31
0.000000000000000
  0
LINE
  5
F1044C
330
F1044D
100
AcDbEntity
8
Geo
100
AcDbLine
10
-83.7974477958237
20
0.288344147786668
30
0.000000000000000
11
-83.6974477958237
21
0.134523767322242
31
0.000000000000000
  0
LINE
  5
F1044E
330
F1044F
100
AcDbEntity
8
Geo
100
AcDbLine
10
-83.6974477958237
20
0.134523767322242
30
0.000000000000000
11
-83.5974477958237
21
-0.0189391072045328
31
0.000000000000000
  0
LINE
  5
F10450
330
F10451
100
AcDbEntity
8
Geo
100
AcDbLine
10
-83.5974477958237
20
-0.0189391072045328
30
0.000000000000000
11
-83.4974477958237
21
-0.171817151453762
31
0.000000000000000
  0
LINE
  5
F10452
330
F10453
100
AcDbEntity
8
Geo
100
AcDbLine
10
-83.4974477958237
20
-0.171817151453762
30
0.000000000000000
11
-83.3974477958237
21
-0.323883907393818
31
0.000000000000000
  0
LINE
  5
F10454
330
F10455
100
AcDbEntity
8
Geo
100
AcDbLine
10
-83.3974477958237
20
-0.323883907393818
30
0.000000000000000
11
-83.2974477958237
21
-0.474914118753302
31
0.000000000000000
  0
LINE
  5
F10456
330
F10457
100
AcDbEntity
8
Geo
100
AcDbLine
10
-83.2974477958237
20
-0.474914118753302
30
0.000000000000000
11
-83.1974477958237
21
-0.624684064692845
31
0.000000000000000
  0
LINE
  5
F10458
330
F10459
100
AcDbEntity
8
Geo
100
AcDbLine
10
-83.1974477958237
20
-0.624684064692845
30
0.000000000000000
11
-83.0974477958237
21
-0.772971891202508
31
0.000000000000000
  0
LINE
  5
F1045A
330
F1045B
100
AcDbEntity
8
Geo
100
AcDbLine
10
-83.0974477958237
20
-0.772971891202508
30
0.000000000000000
11
-82.9974477958237
21
-0.754604782842894
31
0.000000000000000
  0
LINE
  5
F1045C
330
F1045D
100
AcDbEntity
8
Geo
100
AcDbLine
10
-82.9974477958237
20
-0.754604782842894
30
0.000000000000000
11
-82.8974477958237
21
-0.736568835587089
31
0.000000000000000
  0
LINE
  5
F1045E
330
F1045F
100
AcDbEntity
8
Geo
100
AcDbLine
10
-82.8974477958237
20
-0.736568835587089
30
0.000000000000000
11
-82.7974477958237
21
-0.718865916446965
31
0.000000000000000
  0
LINE
  5
F10460
330
F10461
100
AcDbEntity
8
Geo
100
AcDbLine
10
-82.7974477958237
20
-0.718865916446965
30
0.000000000000000
11
-82.6974477958237
21
-0.701497817775041
31
0.000000000000000
  0
LINE
  5
F10462
330
F10463
100
AcDbEntity
8
Geo
100
AcDbLine
10
-82.6974477958237
20
-0.701497817775041
30
0.000000000000000
11
-82.5974477958237
21
-0.684466259450029
31
0.000000000000000
  0
LINE
  5
F10464
330
F10465
100
AcDbEntity
8
Geo
100
AcDbLine
10
-82.5974477958237
20
-0.684466259450029
30
0.000000000000000
11
-82.4974477958237
21
-0.667772891027197
31
0.000000000000000
  0
LINE
  5
F10466
330
F10467
100
AcDbEntity
8
Geo
100
AcDbLine
10
-82.4974477958237
20
-0.667772891027197
30
0.000000000000000
11
-82.3974477958237
21
-0.651419293852838
31
0.000000000000000
  0
LINE
  5
F10468
330
F10469
100
AcDbEntity
8
Geo
100
AcDbLine
10
-82.3974477958237
20
-0.651419293852838
30
0.000000000000000
11
-82.2974477958237
21
-0.635406983142125
31
0.000000000000000
  0
LINE
  5
F1046A
330
F1046B
100
AcDbEntity
8
Geo
100
AcDbLine
10
-82.2974477958237
20
-0.635406983142125
30
0.000000000000000
11
-82.1974477958237
21
-0.619737410019709
31
0.000000000000000
  0
LINE
  5
F1046C
330
F1046D
100
AcDbEntity
8
Geo
100
AcDbLine
10
-82.1974477958237
20
-0.619737410019709
30
0.000000000000000
11
-82.0974477958237
21
-0.604411963522412
31
0.000000000000000
  0
LINE
  5
F1046E
330
F1046F
100
AcDbEntity
8
Geo
100
AcDbLine
10
-82.0974477958237
20
-0.604411963522412
30
0.000000000000000
11
-81.9974477958237
21
-0.589431972563422
31
0.000000000000000
  0
LINE
  5
F10470
330
F10471
100
AcDbEntity
8
Geo
100
AcDbLine
10
-81.9974477958237
20
-0.589431972563422
30
0.000000000000000
11
-81.8974477958237
21
-0.574798707857411
31
0.000000000000000
  0
LINE
  5
F10472
330
F10473
100
AcDbEntity
8
Geo
100
AcDbLine
10
-81.8974477958237
20
-0.574798707857411
30
0.000000000000000
11
-81.7974477958237
21
-0.560513383806036
31
0.000000000000000
  0
LINE
  5
F10474
330
F10475
100
AcDbEntity
8
Geo
100
AcDbLine
10
-81.7974477958237
20
-0.560513383806036
30
0.000000000000000
11
-81.6974477958237
21
-0.546577160343301
31
0.000000000000000
  0
LINE
  5
F10476
330
F10477
100
AcDbEntity
8
Geo
100
AcDbLine
10
-81.6974477958237
20
-0.546577160343301
30
0.000000000000000
11
-81.5974477958237
21
-0.532991144740293
31
0.000000000000000
  0
LINE
  5
F10478
330
F10479
100
AcDbEntity
8
Geo
100
AcDbLine
10
-81.5974477958237
20
-0.532991144740293
30
0.000000000000000
11
-81.4974477958237
21
-0.519756393368817
31
0.000000000000000
  0
LINE
  5
F1047A
330
F1047B
100
AcDbEntity
8
Geo
100
AcDbLine
10
-81.4974477958237
20
-0.519756393368817
30
0.000000000000000
11
-81.3974477958237
21
-0.506873913423503
31
0.000000000000000
  0
LINE
  5
F1047C
330
F1047D
100
AcDbEntity
8
Geo
100
AcDbLine
10
-81.3974477958237
20
-0.506873913423503
30
0.000000000000000
11
-81.2974477958237
21
-0.494344664601950
31
0.000000000000000
  0
LINE
  5
F1047E
330
F1047F
100
AcDbEntity
8
Geo
100
AcDbLine
10
-81.2974477958237
20
-0.494344664601950
30
0.000000000000000
11
-81.1974477958237
21
-0.482169560742522
31
0.000000000000000
  0
LINE
  5
F10480
330
F10481
100
AcDbEntity
8
Geo
100
AcDbLine
10
-81.1974477958237
20
-0.482169560742522
30
0.000000000000000
11
-81.0974477958237
21
-0.470349471419414
31
0.000000000000000
  0
LINE
  5
F10482
330
F10483
100
AcDbEntity
8
Geo
100
AcDbLine
10
-81.0974477958237
20
-0.470349471419414
30
0.000000000000000
11
-80.9974477958237
21
-0.458885223494645
31
0.000000000000000
  0
LINE
  5
F10484
330
F10485
100
AcDbEntity
8
Geo
100
AcDbLine
10
-80.9974477958237
20
-0.458885223494645
30
0.000000000000000
11
-80.8974477958237
21
-0.447777602626625
31
0.000000000000000
  0
LINE
  5
F10486
330
F10487
100
AcDbEntity
8
Geo
100
AcDbLine
10
-80.8974477958237
20
-0.447777602626625
30
0.000000000000000
11
-80.7974477958237
21
-0.437027354735006
31
0.000000000000000
  0
LINE
  5
F10488
330
F10489
100
AcDbEntity
8
Geo
100
AcDbLine
10
-80.7974477958237
20
-0.437027354735006
30
0.000000000000000
11
-80.6974477958237
21
-0.426635187421492
31
0.000000000000000
  0
LINE
  5
F1048A
330
F1048B
100
AcDbEntity
8
Geo
100
AcDbLine
10
-80.6974477958237
20
-0.426635187421492
30
0.000000000000000
11
-80.5974477958237
21
-0.416601771346360
31
0.000000000000000
  0
LINE
  5
F1048C
330
F1048D
100
AcDbEntity
8
Geo
100
AcDbLine
10
-80.5974477958237
20
-0.416601771346360
30
0.000000000000000
11
-80.4974477958237
21
-0.406927741560392
31
0.000000000000000
  0
LINE
  5
F1048E
330
F1048F
100
AcDbEntity
8
Geo
100
AcDbLine
10
-80.4974477958237
20
-0.406927741560392
30
0.000000000000000
11
-80.3974477958237
21
-0.397613698792010
31
0.000000000000000
  0
LINE
  5
F10490
330
F10491
100
AcDbEntity
8
Geo
100
AcDbLine
10
-80.3974477958237
20
-0.397613698792010
30
0.000000000000000
11
-80.2974477958237
21
-0.388660210689354
31
0.000000000000000
  0
LINE
  5
F10492
330
F10493
100
AcDbEntity
8
Geo
100
AcDbLine
10
-80.2974477958237
20
-0.388660210689354
30
0.000000000000000
11
-80.1974477958237
21
-0.380067813017091
31
0.000000000000000
  0
LINE
  5
F10494
330
F10495
100
AcDbEntity
8
Geo
100
AcDbLine
10
-80.1974477958237
20
-0.380067813017091
30
0.000000000000000
11
-80.0974477958237
21
-0.371837010807769
31
0.000000000000000
  0
LINE
  5
F10496
330
F10497
100
AcDbEntity
8
Geo
100
AcDbLine
10
-80.0974477958237
20
-0.371837010807769
30
0.000000000000000
11
-79.9974477958237
21
-0.363968279467503
31
0.000000000000000
  0
LINE
  5
F10498
330
F10499
100
AcDbEntity
8
Geo
100
AcDbLine
10
-79.9974477958237
20
-0.363968279467503
30
0.000000000000000
11
-79.8974477958237
21
-0.356462065835825
31
0.000000000000000
  0
LINE
  5
F1049A
330
F1049B
100
AcDbEntity
8
Geo
100
AcDbLine
10
-79.8974477958237
20
-0.356462065835825
30
0.000000000000000
11
-79.7974477958237
21
-0.349318789199537
31
0.000000000000000
  0
LINE
  5
F1049C
330
F1049D
100
AcDbEntity
8
Geo
100
AcDbLine
10
-79.7974477958237
20
-0.349318789199537
30
0.000000000000000
11
-79.6974477958237
21
-0.342538842260407
31
0.000000000000000
  0
LINE
  5
F1049E
330
F1049F
100
AcDbEntity
8
Geo
100
AcDbLine
10
-79.6974477958237
20
-0.342538842260407
30
0.000000000000000
11
-79.5974477958237
21
-0.336122592056560
31
0.000000000000000
  0
LINE
  5
F104A0
330
F104A1
100
AcDbEntity
8
Geo
100
AcDbLine
10
-79.5974477958237
20
-0.336122592056560
30
0.000000000000000
11
-79.4974477958237
21
-0.330070380837452
31
0.000000000000000
  0
LINE
  5
F104A2
330
F104A3
100
AcDbEntity
8
Geo
100
AcDbLine
10
-79.4974477958237
20
-0.330070380837452
30
0.000000000000000
11
-79.3974477958237
21
-0.324382526892266
31
0.000000000000000
  0
LINE
  5
F104A4
330
F104A5
100
AcDbEntity
8
Geo
100
AcDbLine
10
-79.3974477958237
20
-0.324382526892266
30
0.000000000000000
11
-79.2974477958237
21
-0.319059325331658
31
0.000000000000000
  0
LINE
  5
F104A6
330
F104A7
100
AcDbEntity
8
Geo
100
AcDbLine
10
-79.2974477958237
20
-0.319059325331658
30
0.000000000000000
11
-79.1974477958237
21
-0.314101048822724
31
0.000000000000000
  0
LINE
  5
F104A8
330
F104A9
100
AcDbEntity
8
Geo
100
AcDbLine
10
-79.1974477958237
20
-0.314101048822724
30
0.000000000000000
11
-79.0974477958237
21
-0.309507948277085
31
0.000000000000000
  0
LINE
  5
F104AA
330
F104AB
100
AcDbEntity
8
Geo
100
AcDbLine
10
-79.0974477958237
20
-0.309507948277085
30
0.000000000000000
11
-78.9974477958237
21
-0.305280253492032
31
0.000000000000000
  0
LINE
  5
F104AC
330
F104AD
100
AcDbEntity
8
Geo
100
AcDbLine
10
-78.9974477958237
20
-0.305280253492032
30
0.000000000000000
11
-78.8974477958237
21
-0.301418173744615
31
0.000000000000000
  0
LINE
  5
F104AE
330
F104AF
100
AcDbEntity
8
Geo
100
AcDbLine
10
-78.8974477958237
20
-0.301418173744615
30
0.000000000000000
11
-78.7974477958237
21
-0.297921898338623
31
0.000000000000000
  0
LINE
  5
F104B0
330
F104B1
100
AcDbEntity
8
Geo
100
AcDbLine
10
-78.7974477958237
20
-0.297921898338623
30
0.000000000000000
11
-78.6974477958237
21
-0.294791597104395
31
0.000000000000000
  0
LINE
  5
F104B2
330
F104B3
100
AcDbEntity
8
Geo
100
AcDbLine
10
-78.6974477958237
20
-0.294791597104395
30
0.000000000000000
11
-78.5974477958237
21
-0.292027420851373
31
0.000000000000000
  0
LINE
  5
F104B4
330
F104B5
100
AcDbEntity
8
Geo
100
AcDbLine
10
-78.5974477958237
20
-0.292027420851373
30
0.000000000000000
11
-78.4974477958237
21
-0.289629501773383
31
0.000000000000000
  0
LINE
  5
F104B6
330
F104B7
100
AcDbEntity
8
Geo
100
AcDbLine
10
-78.4974477958237
20
-0.289629501773383
30
0.000000000000000
11
-78.3974477958237
21
-0.287597953806560
31
0.000000000000000
  0
LINE
  5
F104B8
330
F104B9
100
AcDbEntity
8
Geo
100
AcDbLine
10
-78.3974477958237
20
-0.287597953806560
30
0.000000000000000
11
-78.2974477958237
21
-0.285932872939905
31
0.000000000000000
  0
LINE
  5
F104BA
330
F104BB
100
AcDbEntity
8
Geo
100
AcDbLine
10
-78.2974477958237
20
-0.285932872939905
30
0.000000000000000
11
-78.1974477958237
21
-0.284634337478424
31
0.000000000000000
  0
LINE
  5
F104BC
330
F104BD
100
AcDbEntity
8
Geo
100
AcDbLine
10
-78.1974477958237
20
-0.284634337478424
30
0.000000000000000
11
-78.0974477958237
21
-0.283702408258820
31
0.000000000000000
  0
LINE
  5
F104BE
330
F104BF
100
AcDbEntity
8
Geo
100
AcDbLine
10
-88.7974477958237
20
4.37524618781320
30
0.000000000000000
11
-88.6974477958237
21
4.37500249481906
31
0.000000000000000
  0
LINE
  5
F104C0
330
F104C1
100
AcDbEntity
8
Geo
100
AcDbLine
10
-88.6974477958237
20
4.37500249481906
30
0.000000000000000
11
-88.5974477958237
21
4.36883489259597
31
0.000000000000000
  0
LINE
  5
F104C2
330
F104C3
100
AcDbEntity
8
Geo
100
AcDbLine
10
-88.5974477958237
20
4.36883489259597
30
0.000000000000000
11
-88.4974477958237
21
4.35675251720442
31
0.000000000000000
  0
LINE
  5
F104C4
330
F104C5
100
AcDbEntity
8
Geo
100
AcDbLine
10
-88.4974477958237
20
4.35675251720442
30
0.000000000000000
11
-88.3974477958237
21
4.33877326625005
31
0.000000000000000
  0
LINE
  5
F104C6
330
F104C7
100
AcDbEntity
8
Geo
100
AcDbLine
10
-88.3974477958237
20
4.33877326625005
30
0.000000000000000
11
-88.2974477958237
21
4.31492377237198
31
0.000000000000000
  0
LINE
  5
F104C8
330
F104C9
100
AcDbEntity
8
Geo
100
AcDbLine
10
-88.2974477958237
20
4.31492377237198
30
0.000000000000000
11
-88.1974477958237
21
4.28523936379191
31
0.000000000000000
  0
LINE
  5
F104CA
330
F104CB
100
AcDbEntity
8
Geo
100
AcDbLine
10
-88.1974477958237
20
4.28523936379191
30
0.000000000000000
11
-88.0974477958237
21
4.24976401198245
31
0.000000000000000
  0
LINE
  5
F104CC
330
F104CD
100
AcDbEntity
8
Geo
100
AcDbLine
10
-88.0974477958237
20
4.24976401198245
30
0.000000000000000
11
-87.9974477958237
21
4.20855026653228
31
0.000000000000000
  0
LINE
  5
F104CE
330
F104CF
100
AcDbEntity
8
Geo
100
AcDbLine
10
-87.9974477958237
20
4.20855026653228
30
0.000000000000000
11
-87.8974477958237
21
4.16165917730448
31
0.000000000000000
  0
LINE
  5
F104D0
330
F104D1
100
AcDbEntity
8
Geo
100
AcDbLine
10
-87.8974477958237
20
4.16165917730448
30
0.000000000000000
11
-87.7974477958237
21
4.10916020400348
31
0.000000000000000
  0
LINE
  5
F104D2
330
F104D3
100
AcDbEntity
8
Geo
100
AcDbLine
10
-87.7974477958237
20
4.10916020400348
30
0.000000000000000
11
-87.6974477958237
21
4.05113111328450
31
0.000000000000000
  0
LINE
  5
F104D4
330
F104D5
100
AcDbEntity
8
Geo
100
AcDbLine
10
-87.6974477958237
20
4.05113111328450
30
0.000000000000000
11
-87.5974477958237
21
3.98765786355788
31
0.000000000000000
  0
LINE
  5
F104D6
330
F104D7
100
AcDbEntity
8
Geo
100
AcDbLine
10
-87.5974477958237
20
3.98765786355788
30
0.000000000000000
11
-87.4974477958237
21
3.91883447765905
31
0.000000000000000
  0
LINE
  5
F104D8
330
F104D9
100
AcDbEntity
8
Geo
100
AcDbLine
10
-87.4974477958237
20
3.91883447765905
30
0.000000000000000
11
-87.3974477958237
21
3.84476290357261
31
0.000000000000000
  0
LINE
  5
F104DA
330
F104DB
100
AcDbEntity
8
Geo
100
AcDbLine
10
-87.3974477958237
20
3.84476290357261
30
0.000000000000000
11
-87.2974477958237
21
3.76555286341692
31
0.000000000000000
  0
LINE
  5
F104DC
330
F104DD
100
AcDbEntity
8
Geo
100
AcDbLine
10
-87.2974477958237
20
3.76555286341692
30
0.000000000000000
11
-87.1974477958237
21
3.68132169091290
31
0.000000000000000
  0
LINE
  5
F104DE
330
F104DF
100
AcDbEntity
8
Geo
100
AcDbLine
10
-87.1974477958237
20
3.68132169091290
30
0.000000000000000
11
-87.0974477958237
21
3.59219415757776
31
0.000000000000000
  0
LINE
  5
F104E0
330
F104E1
100
AcDbEntity
8
Geo
100
AcDbLine
10
-87.0974477958237
20
3.59219415757776
30
0.000000000000000
11
-86.9974477958237
21
3.49830228790109
31
0.000000000000000
  0
LINE
  5
F104E2
330
F104E3
100
AcDbEntity
8
Geo
100
AcDbLine
10
-86.9974477958237
20
3.49830228790109
30
0.000000000000000
11
-86.8974477958237
21
3.39978516377719
31
0.000000000000000
  0
LINE
  5
F104E4
330
F104E5
100
AcDbEntity
8
Geo
100
AcDbLine
10
-86.8974477958237
20
3.39978516377719
30
0.000000000000000
11
-86.7974477958237
21
3.29678871848329
31
0.000000000000000
  0
LINE
  5
F104E6
330
F104E7
100
AcDbEntity
8
Geo
100
AcDbLine
10
-86.7974477958237
20
3.29678871848329
30
0.000000000000000
11
-86.6974477958237
21
3.18946552050874
31
0.000000000000000
  0
LINE
  5
F104E8
330
F104E9
100
AcDbEntity
8
Geo
100
AcDbLine
10
-86.6974477958237
20
3.18946552050874
30
0.000000000000000
11
-86.5974477958237
21
3.07797454755552
31
0.000000000000000
  0
LINE
  5
F104EA
330
F104EB
100
AcDbEntity
8
Geo
100
AcDbLine
10
-86.5974477958237
20
3.07797454755552
30
0.000000000000000
11
-86.4974477958237
21
2.96248095104486
31
0.000000000000000
  0
LINE
  5
F104EC
330
F104ED
100
AcDbEntity
8
Geo
100
AcDbLine
10
-86.4974477958237
20
2.96248095104486
30
0.000000000000000
11
-86.3974477958237
21
2.84315581147859
31
0.000000000000000
  0
LINE
  5
F104EE
330
F104EF
100
AcDbEntity
8
Geo
100
AcDbLine
10
-86.3974477958237
20
2.84315581147859
30
0.000000000000000
11
-86.2974477958237
21
2.72017588501790
31
0.000000000000000
  0
LINE
  5
F104F0
330
F104F1
100
AcDbEntity
8
Geo
100
AcDbLine
10
-86.2974477958237
20
2.72017588501790
30
0.000000000000000
11
-86.1974477958237
21
2.59372334165464
31
0.000000000000000
  0
LINE
  5
F104F2
330
F104F3
100
AcDbEntity
8
Geo
100
AcDbLine
10
-86.1974477958237
20
2.59372334165464
30
0.000000000000000
11
-86.0974477958237
21
2.46398549536320
31
0.000000000000000
  0
LINE
  5
F104F4
330
F104F5
100
AcDbEntity
8
Geo
100
AcDbLine
10
-86.0974477958237
20
2.46398549536320
30
0.000000000000000
11
-85.9974477958237
21
2.33115452663255
31
0.000000000000000
  0
LINE
  5
F104F6
330
F104F7
100
AcDbEntity
8
Geo
100
AcDbLine
10
-85.9974477958237
20
2.33115452663255
30
0.000000000000000
11
-85.8974477958237
21
2.19542719778961
31
0.000000000000000
  0
LINE
  5
F104F8
330
F104F9
100
AcDbEntity
8
Geo
100
AcDbLine
10
-85.8974477958237
20
2.19542719778961
30
0.000000000000000
11
-85.7974477958237
21
2.05700456153541
31
0.000000000000000
  0
LINE
  5
F104FA
330
F104FB
100
AcDbEntity
8
Geo
100
AcDbLine
10
-85.7974477958237
20
2.05700456153541
30
0.000000000000000
11
-85.6974477958237
21
1.91609166312609
31
0.000000000000000
  0
LINE
  5
F104FC
330
F104FD
100
AcDbEntity
8
Geo
100
AcDbLine
10
-85.6974477958237
20
1.91609166312609
30
0.000000000000000
11
-85.5974477958237
21
1.77289723663959
31
0.000000000000000
  0
LINE
  5
F104FE
330
F104FF
100
AcDbEntity
8
Geo
100
AcDbLine
10
-85.5974477958237
20
1.77289723663959
30
0.000000000000000
11
-85.4974477958237
21
1.62763339577818
31
0.000000000000000
  0
LINE
  5
F10500
330
F10501
100
AcDbEntity
8
Geo
100
AcDbLine
10
-85.4974477958237
20
1.62763339577818
30
0.000000000000000
11
-85.3974477958237
21
1.48051531966474
31
0.000000000000000
  0
LINE
  5
F10502
330
F10503
100
AcDbEntity
8
Geo
100
AcDbLine
10
-85.3974477958237
20
1.48051531966474
30
0.000000000000000
11
-85.2974477958237
21
1.33176093409821
31
0.000000000000000
  0
LINE
  5
F10504
330
F10505
100
AcDbEntity
8
Geo
100
AcDbLine
10
-85.2974477958237
20
1.33176093409821
30
0.000000000000000
11
-85.1974477958237
21
1.18159058874041
31
0.000000000000000
  0
LINE
  5
F10506
330
F10507
100
AcDbEntity
8
Geo
100
AcDbLine
10
-85.1974477958237
20
1.18159058874041
30
0.000000000000000
11
-85.0974477958237
21
1.03022673071243
31
0.000000000000000
  0
LINE
  5
F10508
330
F10509
100
AcDbEntity
8
Geo
100
AcDbLine
10
-85.0974477958237
20
1.03022673071243
30
0.000000000000000
11
-84.9974477958237
21
0.877893575083966
31
0.000000000000000
  0
LINE
  5
F1050A
330
F1050B
100
AcDbEntity
8
Geo
100
AcDbLine
10
-84.9974477958237
20
0.877893575083966
30
0.000000000000000
11
-84.8974477958237
21
0.724816772743906
31
0.000000000000000
  0
LINE
  5
F1050C
330
F1050D
100
AcDbEntity
8
Geo
100
AcDbLine
10
-84.8974477958237
20
0.724816772743906
30
0.000000000000000
11
-84.7974477958237
21
0.571223076143955
31
0.000000000000000
  0
LINE
  5
F1050E
330
F1050F
100
AcDbEntity
8
Geo
100
AcDbLine
10
-84.7974477958237
20
0.571223076143955
30
0.000000000000000
11
-84.6974477958237
21
0.417340003410558
31
0.000000000000000
  0
LINE
  5
F10510
330
F10511
100
AcDbEntity
8
Geo
100
AcDbLine
10
-84.6974477958237
20
0.417340003410558
30
0.000000000000000
11
-84.5974477958237
21
0.263395501322627
31
0.000000000000000
  0
LINE
  5
F10512
330
F10513
100
AcDbEntity
8
Geo
100
AcDbLine
10
-84.5974477958237
20
0.263395501322627
30
0.000000000000000
11
-84.4974477958237
21
0.109617607654280
31
0.000000000000000
  0
LINE
  5
F10514
330
F10515
100
AcDbEntity
8
Geo
100
AcDbLine
10
-84.4974477958237
20
0.109617607654280
30
0.000000000000000
11
-84.3974477958237
21
-0.0437658866171782
31
0.000000000000000
  0
LINE
  5
F10516
330
F10517
100
AcDbEntity
8
Geo
100
AcDbLine
10
-84.3974477958237
20
-0.0437658866171782
30
0.000000000000000
11
-84.2974477958237
21
-0.196527774737713
31
0.000000000000000
  0
LINE
  5
F10518
330
F10519
100
AcDbEntity
8
Geo
100
AcDbLine
10
-84.2974477958237
20
-0.196527774737713
30
0.000000000000000
11
-84.1974477958237
21
-0.348441770737604
31
0.000000000000000
  0
LINE
  5
F1051A
330
F1051B
100
AcDbEntity
8
Geo
100
AcDbLine
10
-84.1974477958237
20
-0.348441770737604
30
0.000000000000000
11
-84.0974477958237
21
-0.499282844628545
31
0.000000000000000
  0
LINE
  5
F1051C
330
F1051D
100
AcDbEntity
8
Geo
100
AcDbLine
10
-84.0974477958237
20
-0.499282844628545
30
0.000000000000000
11
-83.9974477958237
21
-0.648827555740226
31
0.000000000000000
  0
LINE
  5
F1051E
330
F1051F
100
AcDbEntity
8
Geo
100
AcDbLine
10
-83.9974477958237
20
-0.648827555740226
30
0.000000000000000
11
-83.8974477958237
21
-0.796854383702703
31
0.000000000000000
  0
LINE
  5
F10520
330
F10521
100
AcDbEntity
8
Geo
100
AcDbLine
10
-83.8974477958237
20
-0.796854383702703
30
0.000000000000000
11
-83.7974477958237
21
-0.943144056584207
31
0.000000000000000
  0
LINE
  5
F10522
330
F10523
100
AcDbEntity
8
Geo
100
AcDbLine
10
-83.7974477958237
20
-0.943144056584207
30
0.000000000000000
11
-83.6974477958237
21
-1.08747987569833
31
0.000000000000000
  0
LINE
  5
F10524
330
F10525
100
AcDbEntity
8
Geo
100
AcDbLine
10
-83.6974477958237
20
-1.08747987569833
30
0.000000000000000
11
-83.5974477958237
21
-1.22964803659950
31
0.000000000000000
  0
LINE
  5
F10526
330
F10527
100
AcDbEntity
8
Geo
100
AcDbLine
10
-83.5974477958237
20
-1.22964803659950
30
0.000000000000000
11
-83.4974477958237
21
-1.36943794579122
31
0.000000000000000
  0
LINE
  5
F10528
330
F10529
100
AcDbEntity
8
Geo
100
AcDbLine
10
-83.4974477958237
20
-1.36943794579122
30
0.000000000000000
11
-83.3974477958237
21
-1.50664253267788
31
0.000000000000000
  0
LINE
  5
F1052A
330
F1052B
100
AcDbEntity
8
Geo
100
AcDbLine
10
-83.3974477958237
20
-1.50664253267788
30
0.000000000000000
11
-83.2974477958237
21
-1.64105855629818
31
0.000000000000000
  0
LINE
  5
F1052C
330
F1052D
100
AcDbEntity
8
Geo
100
AcDbLine
10
-83.2974477958237
20
-1.64105855629818
30
0.000000000000000
11
-83.1974477958237
21
-1.77248690638564
31
0.000000000000000
  0
LINE
  5
F1052E
330
F1052F
100
AcDbEntity
8
Geo
100
AcDbLine
10
-83.1974477958237
20
-1.77248690638564
30
0.000000000000000
11
-83.0974477958237
21
-1.90073289831043
31
0.000000000000000
  0
LINE
  5
F10530
330
F10531
100
AcDbEntity
8
Geo
100
AcDbLine
10
-83.0974477958237
20
-1.90073289831043
30
0.000000000000000
11
-82.9974477958237
21
-2.04036910883360
31
0.000000000000000
  0
LINE
  5
F10532
330
F10533
100
AcDbEntity
8
Geo
100
AcDbLine
10
-82.9974477958237
20
-2.04036910883360
30
0.000000000000000
11
-82.8974477958237
21
-2.17293712347411
31
0.000000000000000
  0
LINE
  5
F10534
330
F10535
100
AcDbEntity
8
Geo
100
AcDbLine
10
-82.8974477958237
20
-2.17293712347411
30
0.000000000000000
11
-82.7974477958237
21
-2.29846314989350
31
0.000000000000000
  0
LINE
  5
F10536
330
F10537
100
AcDbEntity
8
Geo
100
AcDbLine
10
-82.7974477958237
20
-2.29846314989350
30
0.000000000000000
11
-82.6974477958237
21
-2.41700298470843
31
0.000000000000000
  0
LINE
  5
F10538
330
F10539
100
AcDbEntity
8
Geo
100
AcDbLine
10
-82.6974477958237
20
-2.41700298470843
30
0.000000000000000
11
-82.5974477958237
21
-2.52863951412382
31
0.000000000000000
  0
LINE
  5
F1053A
330
F1053B
100
AcDbEntity
8
Geo
100
AcDbLine
10
-82.5974477958237
20
-2.52863951412382
30
0.000000000000000
11
-82.4974477958237
21
-2.63348026348148
31
0.000000000000000
  0
LINE
  5
F1053C
330
F1053D
100
AcDbEntity
8
Geo
100
AcDbLine
10
-82.4974477958237
20
-2.63348026348148
30
0.000000000000000
11
-82.3974477958237
21
-2.73165500805471
31
0.000000000000000
  0
LINE
  5
F1053E
330
F1053F
100
AcDbEntity
8
Geo
100
AcDbLine
10
-82.3974477958237
20
-2.73165500805471
30
0.000000000000000
11
-82.2974477958237
21
-2.82331345565951
31
0.000000000000000
  0
LINE
  5
F10540
330
F10541
100
AcDbEntity
8
Geo
100
AcDbLine
10
-82.2974477958237
20
-2.82331345565951
30
0.000000000000000
11
-82.1974477958237
21
-2.90862300999002
31
0.000000000000000
  0
LINE
  5
F10542
330
F10543
100
AcDbEntity
8
Geo
100
AcDbLine
10
-82.1974477958237
20
-2.90862300999002
30
0.000000000000000
11
-82.0974477958237
21
-2.98776662202415
31
0.000000000000000
  0
LINE
  5
F10544
330
F10545
100
AcDbEntity
8
Geo
100
AcDbLine
10
-82.0974477958237
20
-2.98776662202415
30
0.000000000000000
11
-81.9974477958237
21
-3.06094073538793
31
0.000000000000000
  0
LINE
  5
F10546
330
F10547
100
AcDbEntity
8
Geo
100
AcDbLine
10
-81.9974477958237
20
-3.06094073538793
30
0.000000000000000
11
-81.8974477958237
21
-3.12835333021673
31
0.000000000000000
  0
LINE
  5
F10548
330
F10549
100
AcDbEntity
8
Geo
100
AcDbLine
10
-81.8974477958237
20
-3.12835333021673
30
0.000000000000000
11
-81.7974477958237
21
-3.19022206880717
31
0.000000000000000
  0
LINE
  5
F1054A
330
F1054B
100
AcDbEntity
8
Geo
100
AcDbLine
10
-81.7974477958237
20
-3.19022206880717
30
0.000000000000000
11
-81.6974477958237
21
-3.24677254521587
31
0.000000000000000
  0
LINE
  5
F1054C
330
F1054D
100
AcDbEntity
8
Geo
100
AcDbLine
10
-81.6974477958237
20
-3.24677254521587
30
0.000000000000000
11
-81.5974477958237
21
-3.29823663992796
31
0.000000000000000
  0
LINE
  5
F1054E
330
F1054F
100
AcDbEntity
8
Geo
100
AcDbLine
10
-81.5974477958237
20
-3.29823663992796
30
0.000000000000000
11
-81.4974477958237
21
-3.34485097978649
31
0.000000000000000
  0
LINE
  5
F10550
330
F10551
100
AcDbEntity
8
Geo
100
AcDbLine
10
-81.4974477958237
20
-3.34485097978649
30
0.000000000000000
11
-81.3974477958237
21
-3.38685550254113
31
0.000000000000000
  0
LINE
  5
F10552
330
F10553
100
AcDbEntity
8
Geo
100
AcDbLine
10
-81.3974477958237
20
-3.38685550254113
30
0.000000000000000
11
-81.2974477958237
21
-3.42449212463666
31
0.000000000000000
  0
LINE
  5
F10554
330
F10555
100
AcDbEntity
8
Geo
100
AcDbLine
10
-81.2974477958237
20
-3.42449212463666
30
0.000000000000000
11
-81.1974477958237
21
-3.45800351021399
31
0.000000000000000
  0
LINE
  5
F10556
330
F10557
100
AcDbEntity
8
Geo
100
AcDbLine
10
-81.1974477958237
20
-3.45800351021399
30
0.000000000000000
11
-81.0974477958237
21
-3.48763193873487
31
0.000000000000000
  0
LINE
  5
F10558
330
F10559
100
AcDbEntity
8
Geo
100
AcDbLine
10
-81.0974477958237
20
-3.48763193873487
30
0.000000000000000
11
-80.9974477958237
21
-3.51361826816063
31
0.000000000000000
  0
LINE
  5
F1055A
330
F1055B
100
AcDbEntity
8
Geo
100
AcDbLine
10
-80.9974477958237
20
-3.51361826816063
30
0.000000000000000
11
-80.8974477958237
21
-3.53620099021032
31
0.000000000000000
  0
LINE
  5
F1055C
330
F1055D
100
AcDbEntity
8
Geo
100
AcDbLine
10
-80.8974477958237
20
-3.53620099021032
30
0.000000000000000
11
-80.7974477958237
21
-3.55561537388919
31
0.000000000000000
  0
LINE
  5
F1055E
330
F1055F
100
AcDbEntity
8
Geo
100
AcDbLine
10
-80.7974477958237
20
-3.55561537388919
30
0.000000000000000
11
-80.6974477958237
21
-3.57209269320969
31
0.000000000000000
  0
LINE
  5
F10560
330
F10561
100
AcDbEntity
8
Geo
100
AcDbLine
10
-80.6974477958237
20
-3.57209269320969
30
0.000000000000000
11
-80.5974477958237
21
-3.58585953481798
31
0.000000000000000
  0
LINE
  5
F10562
330
F10563
100
AcDbEntity
8
Geo
100
AcDbLine
10
-80.5974477958237
20
-3.58585953481798
30
0.000000000000000
11
-80.4974477958237
21
-3.59713718108575
31
0.000000000000000
  0
LINE
  5
F10564
330
F10565
100
AcDbEntity
8
Geo
100
AcDbLine
10
-80.4974477958237
20
-3.59713718108575
30
0.000000000000000
11
-80.3974477958237
21
-3.60614106412309
31
0.000000000000000
  0
LINE
  5
F10566
330
F10567
100
AcDbEntity
8
Geo
100
AcDbLine
10
-80.3974477958237
20
-3.60614106412309
30
0.000000000000000
11
-80.2974477958237
21
-3.61308028611020
31
0.000000000000000
  0
LINE
  5
F10568
330
F10569
100
AcDbEntity
8
Geo
100
AcDbLine
10
-80.2974477958237
20
-3.61308028611020
30
0.000000000000000
11
-80.1974477958237
21
-3.61815720132786
31
0.000000000000000
  0
LINE
  5
F1056A
330
F1056B
100
AcDbEntity
8
Geo
100
AcDbLine
10
-80.1974477958237
20
-3.61815720132786
30
0.000000000000000
11
-80.0974477958237
21
-3.62156705528548
31
0.000000000000000
  0
LINE
  5
F1056C
330
F1056D
100
AcDbEntity
8
Geo
100
AcDbLine
10
-80.0974477958237
20
-3.62156705528548
30
0.000000000000000
11
-79.9974477958237
21
-3.62349767639599
31
0.000000000000000
  0
LINE
  5
F1056E
330
F1056F
100
AcDbEntity
8
Geo
100
AcDbLine
10
-79.9974477958237
20
-3.62349767639599
30
0.000000000000000
11
-79.8974477958237
21
-3.62412921572624
31
0.000000000000000
  0
LINE
  5
F10570
330
F10571
100
AcDbEntity
8
Geo
100
AcDbLine
10
-79.8974477958237
20
-3.62412921572624
30
0.000000000000000
11
-79.7974477958237
21
-3.62412993039443
31
0.000000000000000
  0
LINE
  5
F10572
330
F10573
100
AcDbEntity
8
Geo
100
AcDbLine
10
-92.0974477958237
20
4.37392389540621
30
0.000000000000000
11
-91.9974477958237
21
4.37576365327239
31
0.000000000000000
  0
LINE
  5
F10574
330
F10575
100
AcDbEntity
8
Geo
100
AcDbLine
10
-91.9974477958237
20
4.37576365327239
30
0.000000000000000
11
-91.8974477958237
21
4.37167837440669
31
0.000000000000000
  0
LINE
  5
F10576
330
F10577
100
AcDbEntity
8
Geo
100
AcDbLine
10
-91.8974477958237
20
4.37167837440669
30
0.000000000000000
11
-91.7974477958237
21
4.36167411032691
31
0.000000000000000
  0
LINE
  5
F10578
330
F10579
100
AcDbEntity
8
Geo
100
AcDbLine
10
-91.7974477958237
20
4.36167411032691
30
0.000000000000000
11
-91.6974477958237
21
4.34576568033537
31
0.000000000000000
  0
LINE
  5
F1057A
330
F1057B
100
AcDbEntity
8
Geo
100
AcDbLine
10
-91.6974477958237
20
4.34576568033537
30
0.000000000000000
11
-91.5974477958237
21
4.32397664956698
31
0.000000000000000
  0
LINE
  5
F1057C
330
F1057D
100
AcDbEntity
8
Geo
100
AcDbLine
10
-91.5974477958237
20
4.32397664956698
30
0.000000000000000
11
-91.4974477958237
21
4.29633929408236
31
0.000000000000000
  0
LINE
  5
F1057E
330
F1057F
100
AcDbEntity
8
Geo
100
AcDbLine
10
-91.4974477958237
20
4.29633929408236
30
0.000000000000000
11
-91.3974477958237
21
4.26289455305724
31
0.000000000000000
  0
LINE
  5
F10580
330
F10581
100
AcDbEntity
8
Geo
100
AcDbLine
10
-91.3974477958237
20
4.26289455305724
30
0.000000000000000
11
-91.2974477958237
21
4.22369196813940
31
0.000000000000000
  0
LINE
  5
F10582
330
F10583
100
AcDbEntity
8
Geo
100
AcDbLine
10
-91.2974477958237
20
4.22369196813940
30
0.000000000000000
11
-91.1974477958237
21
4.17878961006268
31
0.000000000000000
  0
LINE
  5
F10584
330
F10585
100
AcDbEntity
8
Geo
100
AcDbLine
10
-91.1974477958237
20
4.17878961006268
30
0.000000000000000
11
-91.0974477958237
21
4.12825399262684
31
0.000000000000000
  0
LINE
  5
F10586
330
F10587
100
AcDbEntity
8
Geo
100
AcDbLine
10
-91.0974477958237
20
4.12825399262684
30
0.000000000000000
11
-90.9974477958237
21
4.07215997417082
31
0.000000000000000
  0
LINE
  5
F10588
330
F10589
100
AcDbEntity
8
Geo
100
AcDbLine
10
-90.9974477958237
20
4.07215997417082
30
0.000000000000000
11
-90.8974477958237
21
4.01059064668515
31
0.000000000000000
  0
LINE
  5
F1058A
330
F1058B
100
AcDbEntity
8
Geo
100
AcDbLine
10
-90.8974477958237
20
4.01059064668515
30
0.000000000000000
11
-90.7974477958237
21
3.94363721272792
31
0.000000000000000
  0
LINE
  5
F1058C
330
F1058D
100
AcDbEntity
8
Geo
100
AcDbLine
10
-90.7974477958237
20
3.94363721272792
30
0.000000000000000
11
-90.6974477958237
21
3.87139885032656
31
0.000000000000000
  0
LINE
  5
F1058E
330
F1058F
100
AcDbEntity
8
Geo
100
AcDbLine
10
-90.6974477958237
20
3.87139885032656
30
0.000000000000000
11
-90.5974477958237
21
3.79398256606553
31
0.000000000000000
  0
LINE
  5
F10590
330
F10591
100
AcDbEntity
8
Geo
100
AcDbLine
10
-90.5974477958237
20
3.79398256606553
30
0.000000000000000
11
-90.4974477958237
21
3.71150303657769
31
0.000000000000000
  0
LINE
  5
F10592
330
F10593
100
AcDbEntity
8
Geo
100
AcDbLine
10
-90.4974477958237
20
3.71150303657769
30
0.000000000000000
11
-90.3974477958237
21
3.62408243867389
31
0.000000000000000
  0
LINE
  5
F10594
330
F10595
100
AcDbEntity
8
Geo
100
AcDbLine
10
-90.3974477958237
20
3.62408243867389
30
0.000000000000000
11
-90.2974477958237
21
3.53185026836269
31
0.000000000000000
  0
LINE
  5
F10596
330
F10597
100
AcDbEntity
8
Geo
100
AcDbLine
10
-90.2974477958237
20
3.53185026836269
30
0.000000000000000
11
-90.1974477958237
21
3.43494314902807
31
0.000000000000000
  0
LINE
  5
F10598
330
F10599
100
AcDbEntity
8
Geo
100
AcDbLine
10
-90.1974477958237
20
3.43494314902807
30
0.000000000000000
11
-90.0974477958237
21
3.33350462904940
31
0.000000000000000
  0
LINE
  5
F1059A
330
F1059B
100
AcDbEntity
8
Geo
100
AcDbLine
10
-90.0974477958237
20
3.33350462904940
30
0.000000000000000
11
-89.9974477958237
21
3.22768496916346
31
0.000000000000000
  0
LINE
  5
F1059C
330
F1059D
100
AcDbEntity
8
Geo
100
AcDbLine
10
-89.9974477958237
20
3.22768496916346
30
0.000000000000000
11
-89.8974477958237
21
3.11764091988341
31
0.000000000000000
  0
LINE
  5
F1059E
330
F1059F
100
AcDbEntity
8
Geo
100
AcDbLine
10
-89.8974477958237
20
3.11764091988341
30
0.000000000000000
11
-89.7974477958237
21
3.00353548930444
31
0.000000000000000
  0
LINE
  5
F105A0
330
F105A1
100
AcDbEntity
8
Geo
100
AcDbLine
10
-89.7974477958237
20
3.00353548930444
30
0.000000000000000
11
-89.6974477958237
21
2.88553770164017
31
0.000000000000000
  0
LINE
  5
F105A2
330
F105A3
100
AcDbEntity
8
Geo
100
AcDbLine
10
-89.6974477958237
20
2.88553770164017
30
0.000000000000000
11
-89.5974477958237
21
2.76382234684727
31
0.000000000000000
  0
LINE
  5
F105A4
330
F105A5
100
AcDbEntity
8
Geo
100
AcDbLine
10
-89.5974477958237
20
2.76382234684727
30
0.000000000000000
11
-89.4974477958237
21
2.63856972170937
31
0.000000000000000
  0
LINE
  5
F105A6
330
F105A7
100
AcDbEntity
8
Geo
100
AcDbLine
10
-89.4974477958237
20
2.63856972170937
30
0.000000000000000
11
-89.3974477958237
21
2.50996536276368
31
0.000000000000000
  0
LINE
  5
F105A8
330
F105A9
100
AcDbEntity
8
Geo
100
AcDbLine
10
-89.3974477958237
20
2.50996536276368
30
0.000000000000000
11
-89.2974477958237
21
2.37819977146596
31
0.000000000000000
  0
LINE
  5
F105AA
330
F105AB
100
AcDbEntity
8
Geo
100
AcDbLine
10
-89.2974477958237
20
2.37819977146596
30
0.000000000000000
11
-89.1974477958237
21
2.24346813200103
31
0.000000000000000
  0
LINE
  5
F105AC
330
F105AD
100
AcDbEntity
8
Geo
100
AcDbLine
10
-89.1974477958237
20
2.24346813200103
30
0.000000000000000
11
-89.0974477958237
21
2.10597002215666
31
0.000000000000000
  0
LINE
  5
F105AE
330
F105AF
100
AcDbEntity
8
Geo
100
AcDbLine
10
-89.0974477958237
20
2.10597002215666
30
0.000000000000000
11
-88.9974477958237
21
1.96590911768931
31
0.000000000000000
  0
LINE
  5
F105B0
330
F105B1
100
AcDbEntity
8
Geo
100
AcDbLine
10
-88.9974477958237
20
1.96590911768931
30
0.000000000000000
11
-88.8974477958237
21
1.82349289061951
31
0.000000000000000
  0
LINE
  5
F105B2
330
F105B3
100
AcDbEntity
8
Geo
100
AcDbLine
10
-88.8974477958237
20
1.82349289061951
30
0.000000000000000
11
-88.7974477958237
21
1.67893230190381
31
0.000000000000000
  0
LINE
  5
F105B4
330
F105B5
100
AcDbEntity
8
Geo
100
AcDbLine
10
-88.7974477958237
20
1.67893230190381
30
0.000000000000000
11
-88.6974477958237
21
1.53244148893870
31
0.000000000000000
  0
LINE
  5
F105B6
330
F105B7
100
AcDbEntity
8
Geo
100
AcDbLine
10
-88.6974477958237
20
1.53244148893870
30
0.000000000000000
11
-88.5974477958237
21
1.38423744835908
31
0.000000000000000
  0
LINE
  5
F105B8
330
F105B9
100
AcDbEntity
8
Geo
100
AcDbLine
10
-88.5974477958237
20
1.38423744835908
30
0.000000000000000
11
-88.4974477958237
21
1.23453971460153
31
0.000000000000000
  0
LINE
  5
F105BA
330
F105BB
100
AcDbEntity
8
Geo
100
AcDbLine
10
-88.4974477958237
20
1.23453971460153
30
0.000000000000000
11
-88.3974477958237
21
1.08357003470823
31
0.000000000000000
  0
LINE
  5
F105BC
330
F105BD
100
AcDbEntity
8
Geo
100
AcDbLine
10
-88.3974477958237
20
1.08357003470823
30
0.000000000000000
11
-88.2974477958237
21
0.931552039853368
31
0.000000000000000
  0
LINE
  5
F105BE
330
F105BF
100
AcDbEntity
8
Geo
100
AcDbLine
10
-88.2974477958237
20
0.931552039853368
30
0.000000000000000
11
-88.1974477958237
21
0.778710914078625
31
0.000000000000000
  0
LINE
  5
F105C0
330
F105C1
100
AcDbEntity
8
Geo
100
AcDbLine
10
-88.1974477958237
20
0.778710914078625
30
0.000000000000000
11
-88.0974477958237
21
0.625273060728340
31
0.000000000000000
  0
LINE
  5
F105C2
330
F105C3
100
AcDbEntity
8
Geo
100
AcDbLine
10
-88.0974477958237
20
0.625273060728340
30
0.000000000000000
11
-87.9974477958237
21
0.471465767078572
31
0.000000000000000
  0
LINE
  5
F105C4
330
F105C5
100
AcDbEntity
8
Geo
100
AcDbLine
10
-87.9974477958237
20
0.471465767078572
30
0.000000000000000
11
-87.8974477958237
21
0.317516867656774
31
0.000000000000000
  0
LINE
  5
F105C6
330
F105C7
100
AcDbEntity
8
Geo
100
AcDbLine
10
-87.8974477958237
20
0.317516867656774
30
0.000000000000000
11
-87.7974477958237
21
0.163654406750840
31
0.000000000000000
  0
LINE
  5
F105C8
330
F105C9
100
AcDbEntity
8
Geo
100
AcDbLine
10
-87.7974477958237
20
0.163654406750840
30
0.000000000000000
11
-87.6974477958237
21
0.0101063006074000
31
0.000000000000000
  0
LINE
  5
F105CA
330
F105CB
100
AcDbEntity
8
Geo
100
AcDbLine
10
-87.6974477958237
20
0.0101063006074000
30
0.000000000000000
11
-87.5974477958237
21
-0.142900000180177
31
0.000000000000000
  0
LINE
  5
F105CC
330
F105CD
100
AcDbEntity
8
Geo
100
AcDbLine
10
-87.5974477958237
20
-0.142900000180177
30
0.000000000000000
11
-87.4974477958237
21
-0.295137847594035
31
0.000000000000000
  0
LINE
  5
F105CE
330
F105CF
100
AcDbEntity
8
Geo
100
AcDbLine
10
-87.4974477958237
20
-0.295137847594035
30
0.000000000000000
11
-87.3974477958237
21
-0.446381731925215
31
0.000000000000000
  0
LINE
  5
F105D0
330
F105D1
100
AcDbEntity
8
Geo
100
AcDbLine
10
-87.3974477958237
20
-0.446381731925215
30
0.000000000000000
11
-87.2974477958237
21
-0.596407615820877
31
0.000000000000000
  0
LINE
  5
F105D2
330
F105D3
100
AcDbEntity
8
Geo
100
AcDbLine
10
-87.2974477958237
20
-0.596407615820877
30
0.000000000000000
11
-87.1974477958237
21
-0.744993266150506
31
0.000000000000000
  0
LINE
  5
F105D4
330
F105D5
100
AcDbEntity
8
Geo
100
AcDbLine
10
-87.1974477958237
20
-0.744993266150506
30
0.000000000000000
11
-87.0974477958237
21
-0.891918583199543
31
0.000000000000000
  0
LINE
  5
F105D6
330
F105D7
100
AcDbEntity
8
Geo
100
AcDbLine
10
-87.0974477958237
20
-0.891918583199543
30
0.000000000000000
11
-86.9974477958237
21
-1.03696592670278
31
0.000000000000000
  0
LINE
  5
F105D8
330
F105D9
100
AcDbEntity
8
Geo
100
AcDbLine
10
-86.9974477958237
20
-1.03696592670278
30
0.000000000000000
11
-86.8974477958237
21
-1.17992043823457
31
0.000000000000000
  0
LINE
  5
F105DA
330
F105DB
100
AcDbEntity
8
Geo
100
AcDbLine
10
-86.8974477958237
20
-1.17992043823457
30
0.000000000000000
11
-86.7974477958237
21
-1.32057035947833
31
0.000000000000000
  0
LINE
  5
F105DC
330
F105DD
100
AcDbEntity
8
Geo
100
AcDbLine
10
-86.7974477958237
20
-1.32057035947833
30
0.000000000000000
11
-86.6974477958237
21
-1.45870734590381
31
0.000000000000000
  0
LINE
  5
F105DE
330
F105DF
100
AcDbEntity
8
Geo
100
AcDbLine
10
-86.6974477958237
20
-1.45870734590381
30
0.000000000000000
11
-86.5974477958237
21
-1.59412677538758
31
0.000000000000000
  0
LINE
  5
F105E0
330
F105E1
100
AcDbEntity
8
Geo
100
AcDbLine
10
-86.5974477958237
20
-1.59412677538758
30
0.000000000000000
11
-86.4974477958237
21
-1.72662805131947
31
0.000000000000000
  0
LINE
  5
F105E2
330
F105E3
100
AcDbEntity
8
Geo
100
AcDbLine
10
-86.4974477958237
20
-1.72662805131947
30
0.000000000000000
11
-86.3974477958237
21
-1.85601489974608
31
0.000000000000000
  0
LINE
  5
F105E4
330
F105E5
100
AcDbEntity
8
Geo
100
AcDbLine
10
-86.3974477958237
20
-1.85601489974608
30
0.000000000000000
11
-86.2974477958237
21
-1.98209566011104
31
0.000000000000000
  0
LINE
  5
F105E6
330
F105E7
100
AcDbEntity
8
Geo
100
AcDbLine
10
-86.2974477958237
20
-1.98209566011104
30
0.000000000000000
11
-86.1974477958237
21
-2.10468356916162
31
0.000000000000000
  0
LINE
  5
F105E8
330
F105E9
100
AcDbEntity
8
Geo
100
AcDbLine
10
-86.1974477958237
20
-2.10468356916162
30
0.000000000000000
11
-86.0974477958237
21
-2.22359703760079
31
0.000000000000000
  0
LINE
  5
F105EA
330
F105EB
100
AcDbEntity
8
Geo
100
AcDbLine
10
-86.0974477958237
20
-2.22359703760079
30
0.000000000000000
11
-85.9974477958237
21
-2.33865991907524
31
0.000000000000000
  0
LINE
  5
F105EC
330
F105ED
100
AcDbEntity
8
Geo
100
AcDbLine
10
-85.9974477958237
20
-2.33865991907524
30
0.000000000000000
11
-85.8974477958237
21
-2.44970177110069
31
0.000000000000000
  0
LINE
  5
F105EE
330
F105EF
100
AcDbEntity
8
Geo
100
AcDbLine
10
-85.8974477958237
20
-2.44970177110069
30
0.000000000000000
11
-85.7974477958237
21
-2.55655810753814
31
0.000000000000000
  0
LINE
  5
F105F0
330
F105F1
100
AcDbEntity
8
Geo
100
AcDbLine
10
-85.7974477958237
20
-2.55655810753814
30
0.000000000000000
11
-85.6974477958237
21
-2.65907064224692
31
0.000000000000000
  0
LINE
  5
F105F2
330
F105F3
100
AcDbEntity
8
Geo
100
AcDbLine
10
-85.6974477958237
20
-2.65907064224692
30
0.000000000000000
11
-85.5974477958237
21
-2.75708752355375
31
0.000000000000000
  0
LINE
  5
F105F4
330
F105F5
100
AcDbEntity
8
Geo
100
AcDbLine
10
-85.5974477958237
20
-2.75708752355375
30
0.000000000000000
11
-85.4974477958237
21
-2.85046355919040
31
0.000000000000000
  0
LINE
  5
F105F6
330
F105F7
100
AcDbEntity
8
Geo
100
AcDbLine
10
-85.4974477958237
20
-2.85046355919040
30
0.000000000000000
11
-85.3974477958237
21
-2.93906043136680
31
0.000000000000000
  0
LINE
  5
F105F8
330
F105F9
100
AcDbEntity
8
Geo
100
AcDbLine
10
-85.3974477958237
20
-2.93906043136680
30
0.000000000000000
11
-85.2974477958237
21
-3.02274690166097
31
0.000000000000000
  0
LINE
  5
F105FA
330
F105FB
100
AcDbEntity
8
Geo
100
AcDbLine
10
-85.2974477958237
20
-3.02274690166097
30
0.000000000000000
11
-85.1974477958237
21
-3.10139900542233
31
0.000000000000000
  0
LINE
  5
F105FC
330
F105FD
100
AcDbEntity
8
Geo
100
AcDbLine
10
-85.1974477958237
20
-3.10139900542233
30
0.000000000000000
11
-85.0974477958237
21
-3.17490023540036
31
0.000000000000000
  0
LINE
  5
F105FE
330
F105FF
100
AcDbEntity
8
Geo
100
AcDbLine
10
-85.0974477958237
20
-3.17490023540036
30
0.000000000000000
11
-84.9974477958237
21
-3.24314171432662
31
0.000000000000000
  0
LINE
  5
F10600
330
F10601
100
AcDbEntity
8
Geo
100
AcDbLine
10
-84.9974477958237
20
-3.24314171432662
30
0.000000000000000
11
-84.8974477958237
21
-3.30602235619448
31
0.000000000000000
  0
LINE
  5
F10602
330
F10603
100
AcDbEntity
8
Geo
100
AcDbLine
10
-84.8974477958237
20
-3.30602235619448
30
0.000000000000000
11
-84.7974477958237
21
-3.36344901599771
31
0.000000000000000
  0
LINE
  5
F10604
330
F10605
100
AcDbEntity
8
Geo
100
AcDbLine
10
-84.7974477958237
20
-3.36344901599771
30
0.000000000000000
11
-84.6974477958237
21
-3.41533662770603
31
0.000000000000000
  0
LINE
  5
F10606
330
F10607
100
AcDbEntity
8
Geo
100
AcDbLine
10
-84.6974477958237
20
-3.41533662770603
30
0.000000000000000
11
-84.5974477958237
21
-3.46160833027328
31
0.000000000000000
  0
LINE
  5
F10608
330
F10609
100
AcDbEntity
8
Geo
100
AcDbLine
10
-84.5974477958237
20
-3.46160833027328
30
0.000000000000000
11
-84.4974477958237
21
-3.50219558149164
31
0.000000000000000
  0
LINE
  5
F1060A
330
F1060B
100
AcDbEntity
8
Geo
100
AcDbLine
10
-84.4974477958237
20
-3.50219558149164
30
0.000000000000000
11
-84.3974477958237
21
-3.53703825952302
31
0.000000000000000
  0
LINE
  5
F1060C
330
F1060D
100
AcDbEntity
8
Geo
100
AcDbLine
10
-84.3974477958237
20
-3.53703825952302
30
0.000000000000000
11
-84.2974477958237
21
-3.56608475195755
31
0.000000000000000
  0
LINE
  5
F1060E
330
F1060F
100
AcDbEntity
8
Geo
100
AcDbLine
10
-84.2974477958237
20
-3.56608475195755
30
0.000000000000000
11
-84.1974477958237
21
-3.58929203226688
31
0.000000000000000
  0
LINE
  5
F10610
330
F10611
100
AcDbEntity
8
Geo
100
AcDbLine
10
-84.1974477958237
20
-3.58929203226688
30
0.000000000000000
11
-84.0974477958237
21
-3.60662572353939
31
0.000000000000000
  0
LINE
  5
F10612
330
F10613
100
AcDbEntity
8
Geo
100
AcDbLine
10
-84.0974477958237
20
-3.60662572353939
30
0.000000000000000
11
-83.9974477958237
21
-3.61806014940259
31
0.000000000000000
  0
LINE
  5
F10614
330
F10615
100
AcDbEntity
8
Geo
100
AcDbLine
10
-83.9974477958237
20
-3.61806014940259
30
0.000000000000000
11
-83.8974477958237
21
-3.62357837205757
31
0.000000000000000
  0
LINE
  5
F10616
330
F10617
100
AcDbEntity
8
Geo
100
AcDbLine
10
-96.0974477958237
20
3.32377561630549
30
0.000000000000000
11
-95.9974477958237
21
3.74579053211269
31
0.000000000000000
  0
LINE
  5
F10618
330
F10619
100
AcDbEntity
8
Geo
100
AcDbLine
10
-96.0974477958237
20
0.0804277437019061
30
0.000000000000000
11
-95.9974477958237
21
-0.0495636281769326
31
0.000000000000000
  0
LINE
  5
F1061A
330
F1061B
100
AcDbEntity
8
Geo
100
AcDbLine
10
-95.9974477958237
20
3.74579053211269
30
0.000000000000000
11
-95.8974477958237
21
3.89054778868919
31
0.000000000000000
  0
LINE
  5
F1061C
330
F1061D
100
AcDbEntity
8
Geo
100
AcDbLine
10
-95.9974477958237
20
-0.0495636281769326
30
0.000000000000000
11
-95.8974477958237
21
-0.191545534001355
31
0.000000000000000
  0
LINE
  5
F1061E
330
F1061F
100
AcDbEntity
8
Geo
100
AcDbLine
10
-95.8974477958237
20
3.89054778868919
30
0.000000000000000
11
-95.7974477958237
21
3.97949293619428
31
0.000000000000000
  0
LINE
  5
F10620
330
F10621
100
AcDbEntity
8
Geo
100
AcDbLine
10
-95.8974477958237
20
-0.191545534001355
30
0.000000000000000
11
-95.7974477958237
21
-0.339522697181228
31
0.000000000000000
  0
LINE
  5
F10622
330
F10623
100
AcDbEntity
8
Geo
100
AcDbLine
10
-95.7974477958237
20
3.97949293619428
30
0.000000000000000
11
-95.6974477958237
21
4.03413683266313
31
0.000000000000000
  0
LINE
  5
F10624
330
F10625
100
AcDbEntity
8
Geo
100
AcDbLine
10
-95.7974477958237
20
-0.339522697181228
30
0.000000000000000
11
-95.6974477958237
21
-0.490828520002015
31
0.000000000000000
  0
LINE
  5
F10626
330
F10627
100
AcDbEntity
8
Geo
100
AcDbLine
10
-95.6974477958237
20
4.03413683266313
30
0.000000000000000
11
-95.5974477958237
21
4.06288281214255
31
0.000000000000000
  0
LINE
  5
F10628
330
F10629
100
AcDbEntity
8
Geo
100
AcDbLine
10
-95.6974477958237
20
-0.490828520002015
30
0.000000000000000
11
-95.5974477958237
21
-0.643586893374162
31
0.000000000000000
  0
LINE
  5
F1062A
330
F1062B
100
AcDbEntity
8
Geo
100
AcDbLine
10
-95.5974477958237
20
4.06288281214255
30
0.000000000000000
11
-95.4974477958237
21
4.07007211546325
31
0.000000000000000
  0
LINE
  5
F1062C
330
F1062D
100
AcDbEntity
8
Geo
100
AcDbLine
10
-95.5974477958237
20
-0.643586893374162
30
0.000000000000000
11
-95.4974477958237
21
-0.796266717767602
31
0.000000000000000
  0
LINE
  5
F1062E
330
F1062F
100
AcDbEntity
8
Geo
100
AcDbLine
10
-95.4974477958237
20
4.07007211546325
30
0.000000000000000
11
-95.3974477958237
21
4.05830548507707
31
0.000000000000000
  0
LINE
  5
F10630
330
F10631
100
AcDbEntity
8
Geo
100
AcDbLine
10
-95.4974477958237
20
-0.796266717767602
30
0.000000000000000
11
-95.3974477958237
21
-0.947514990467196
31
0.000000000000000
  0
LINE
  5
F10632
330
F10633
100
AcDbEntity
8
Geo
100
AcDbLine
10
-95.3974477958237
20
4.05830548507707
30
0.000000000000000
11
-95.2974477958237
21
4.02929410485726
31
0.000000000000000
  0
LINE
  5
F10634
330
F10635
100
AcDbEntity
8
Geo
100
AcDbLine
10
-95.3974477958237
20
-0.947514990467196
30
0.000000000000000
11
-95.2974477958237
21
-1.09607341379074
31
0.000000000000000
  0
LINE
  5
F10636
330
F10637
100
AcDbEntity
8
Geo
100
AcDbLine
10
-95.2974477958237
20
4.02929410485726
30
0.000000000000000
11
-95.1974477958237
21
3.98423618184812
31
0.000000000000000
  0
LINE
  5
F10638
330
F10639
100
AcDbEntity
8
Geo
100
AcDbLine
10
-95.2974477958237
20
-1.09607341379074
30
0.000000000000000
11
-95.1974477958237
21
-1.24072674150900
31
0.000000000000000
  0
LINE
  5
F1063A
330
F1063B
100
AcDbEntity
8
Geo
100
AcDbLine
10
-95.1974477958237
20
3.98423618184812
30
0.000000000000000
11
-95.0974477958237
21
3.92400199360688
31
0.000000000000000
  0
LINE
  5
F1063C
330
F1063D
100
AcDbEntity
8
Geo
100
AcDbLine
10
-95.1974477958237
20
-1.24072674150900
30
0.000000000000000
11
-95.0974477958237
21
-1.38026324637081
31
0.000000000000000
  0
LINE
  5
F1063E
330
F1063F
100
AcDbEntity
8
Geo
100
AcDbLine
10
-95.0974477958237
20
3.92400199360688
30
0.000000000000000
11
-94.9974477958237
21
3.85379715789081
31
0.000000000000000
  0
LINE
  5
F10640
330
F10641
100
AcDbEntity
8
Geo
100
AcDbLine
10
-95.0974477958237
20
-1.38026324637081
30
0.000000000000000
11
-94.9974477958237
21
-1.51549651098402
31
0.000000000000000
  0
LINE
  5
F10642
330
F10643
100
AcDbEntity
8
Geo
100
AcDbLine
10
-94.9974477958237
20
3.85379715789081
30
0.000000000000000
11
-94.8974477958237
21
3.77844047367730
31
0.000000000000000
  0
LINE
  5
F10644
330
F10645
100
AcDbEntity
8
Geo
100
AcDbLine
10
-94.9974477958237
20
-1.51549651098402
30
0.000000000000000
11
-94.8974477958237
21
-1.64792809694527
31
0.000000000000000
  0
LINE
  5
F10646
330
F10647
100
AcDbEntity
8
Geo
100
AcDbLine
10
-94.8974477958237
20
3.77844047367730
30
0.000000000000000
11
-94.7974477958237
21
3.69804356671654
31
0.000000000000000
  0
LINE
  5
F10648
330
F10649
100
AcDbEntity
8
Geo
100
AcDbLine
10
-94.8974477958237
20
-1.64792809694527
30
0.000000000000000
11
-94.7974477958237
21
-1.77736183353280
31
0.000000000000000
  0
LINE
  5
F1064A
330
F1064B
100
AcDbEntity
8
Geo
100
AcDbLine
10
-94.7974477958237
20
3.69804356671654
30
0.000000000000000
11
-94.6974477958237
21
3.61272552883358
31
0.000000000000000
  0
LINE
  5
F1064C
330
F1064D
100
AcDbEntity
8
Geo
100
AcDbLine
10
-94.7974477958237
20
-1.77736183353280
30
0.000000000000000
11
-94.6974477958237
21
-1.90360599073489
31
0.000000000000000
  0
LINE
  5
F1064E
330
F1064F
100
AcDbEntity
8
Geo
100
AcDbLine
10
-94.6974477958237
20
3.61272552883358
30
0.000000000000000
11
-94.5974477958237
21
3.52261274151776
31
0.000000000000000
  0
LINE
  5
F10650
330
F10651
100
AcDbEntity
8
Geo
100
AcDbLine
10
-94.6974477958237
20
-1.90360599073489
30
0.000000000000000
11
-94.5974477958237
21
-2.02647356325930
31
0.000000000000000
  0
LINE
  5
F10652
330
F10653
100
AcDbEntity
8
Geo
100
AcDbLine
10
-94.5974477958237
20
3.52261274151776
30
0.000000000000000
11
-94.4974477958237
21
3.42783868871402
31
0.000000000000000
  0
LINE
  5
F10654
330
F10655
100
AcDbEntity
8
Geo
100
AcDbLine
10
-94.5974477958237
20
-2.02647356325930
30
0.000000000000000
11
-94.4974477958237
21
-2.14578254754388
31
0.000000000000000
  0
LINE
  5
F10656
330
F10657
100
AcDbEntity
8
Geo
100
AcDbLine
10
-94.4974477958237
20
3.42783868871402
30
0.000000000000000
11
-94.3974477958237
21
3.32854375909329
31
0.000000000000000
  0
LINE
  5
F10658
330
F10659
100
AcDbEntity
8
Geo
100
AcDbLine
10
-94.4974477958237
20
-2.14578254754388
30
0.000000000000000
11
-94.3974477958237
21
-2.26135621135827
31
0.000000000000000
  0
LINE
  5
F1065A
330
F1065B
100
AcDbEntity
8
Geo
100
AcDbLine
10
-94.3974477958237
20
3.32854375909329
30
0.000000000000000
11
-94.2974477958237
21
3.22487503809498
31
0.000000000000000
  0
LINE
  5
F1065C
330
F1065D
100
AcDbEntity
8
Geo
100
AcDbLine
10
-94.3974477958237
20
-2.26135621135827
30
0.000000000000000
11
-94.2974477958237
21
-2.37302335559703
31
0.000000000000000
  0
LINE
  5
F1065E
330
F1065F
100
AcDbEntity
8
Geo
100
AcDbLine
10
-94.2974477958237
20
3.22487503809498
30
0.000000000000000
11
-94.1974477958237
21
3.11698609004948
31
0.000000000000000
  0
LINE
  5
F10660
330
F10661
100
AcDbEntity
8
Geo
100
AcDbLine
10
-94.2974477958237
20
-2.37302335559703
30
0.000000000000000
11
-94.1974477958237
21
-2.48061856787667
31
0.000000000000000
  0
LINE
  5
F10662
330
F10663
100
AcDbEntity
8
Geo
100
AcDbLine
10
-94.1974477958237
20
3.11698609004948
30
0.000000000000000
11
-94.0974477958237
21
3.00503673070358
31
0.000000000000000
  0
LINE
  5
F10664
330
F10665
100
AcDbEntity
8
Geo
100
AcDbLine
10
-94.1974477958237
20
-2.48061856787667
30
0.000000000000000
11
-94.0974477958237
21
-2.58398246756080
31
0.000000000000000
  0
LINE
  5
F10666
330
F10667
100
AcDbEntity
8
Geo
100
AcDbLine
10
-94.0974477958237
20
3.00503673070358
30
0.000000000000000
11
-93.9974477958237
21
2.88919279048561
31
0.000000000000000
  0
LINE
  5
F10668
330
F10669
100
AcDbEntity
8
Geo
100
AcDbLine
10
-94.0974477958237
20
-2.58398246756080
30
0.000000000000000
11
-93.9974477958237
21
-2.68296194185037
31
0.000000000000000
  0
LINE
  5
F1066A
330
F1066B
100
AcDbEntity
8
Geo
100
AcDbLine
10
-93.9974477958237
20
2.88919279048561
30
0.000000000000000
11
-93.8974477958237
21
2.76962586886105
31
0.000000000000000
  0
LINE
  5
F1066C
330
F1066D
100
AcDbEntity
8
Geo
100
AcDbLine
10
-93.9974477958237
20
-2.68296194185037
30
0.000000000000000
11
-93.8974477958237
21
-2.77741037258954
31
0.000000000000000
  0
LINE
  5
F1066E
330
F1066F
100
AcDbEntity
8
Geo
100
AcDbLine
10
-93.8974477958237
20
2.76962586886105
30
0.000000000000000
11
-93.7974477958237
21
2.64651308014250
31
0.000000000000000
  0
LINE
  5
F10670
330
F10671
100
AcDbEntity
8
Geo
100
AcDbLine
10
-93.8974477958237
20
-2.77741037258954
30
0.000000000000000
11
-93.7974477958237
21
-2.86718785345088
31
0.000000000000000
  0
LINE
  5
F10672
330
F10673
100
AcDbEntity
8
Geo
100
AcDbLine
10
-93.7974477958237
20
2.64651308014250
30
0.000000000000000
11
-93.6974477958237
21
2.52003679113049
31
0.000000000000000
  0
LINE
  5
F10674
330
F10675
100
AcDbEntity
8
Geo
100
AcDbLine
10
-93.7974477958237
20
-2.86718785345088
30
0.000000000000000
11
-93.6974477958237
21
-2.95216139717843
31
0.000000000000000
  0
LINE
  5
F10676
330
F10677
100
AcDbEntity
8
Geo
100
AcDbLine
10
-93.6974477958237
20
2.52003679113049
30
0.000000000000000
11
-93.5974477958237
21
2.39038435097381
31
0.000000000000000
  0
LINE
  5
F10678
330
F10679
100
AcDbEntity
8
Geo
100
AcDbLine
10
-93.6974477958237
20
-2.95216139717843
30
0.000000000000000
11
-93.5974477958237
21
-3.03220513258155
31
0.000000000000000
  0
LINE
  5
F1067A
330
F1067B
100
AcDbEntity
8
Geo
100
AcDbLine
10
-93.5974477958237
20
2.39038435097381
30
0.000000000000000
11
-93.4974477958237
21
2.25774781364946
31
0.000000000000000
  0
LINE
  5
F1067C
330
F1067D
100
AcDbEntity
8
Geo
100
AcDbLine
10
-93.5974477958237
20
-3.03220513258155
30
0.000000000000000
11
-93.4974477958237
21
-3.10720049098773
31
0.000000000000000
  0
LINE
  5
F1067E
330
F1067F
100
AcDbEntity
8
Geo
100
AcDbLine
10
-93.4974477958237
20
2.25774781364946
30
0.000000000000000
11
-93.3974477958237
21
2.12232365347335
31
0.000000000000000
  0
LINE
  5
F10680
330
F10681
100
AcDbEntity
8
Geo
100
AcDbLine
10
-93.4974477958237
20
-3.10720049098773
30
0.000000000000000
11
-93.3974477958237
21
-3.17703638187817
31
0.000000000000000
  0
LINE
  5
F10682
330
F10683
100
AcDbEntity
8
Geo
100
AcDbLine
10
-93.3974477958237
20
2.12232365347335
30
0.000000000000000
11
-93.2974477958237
21
1.98431247406322
31
0.000000000000000
  0
LINE
  5
F10684
330
F10685
100
AcDbEntity
8
Geo
100
AcDbLine
10
-93.3974477958237
20
-3.17703638187817
30
0.000000000000000
11
-93.2974477958237
21
-3.24160935744607
31
0.000000000000000
  0
LINE
  5
F10686
330
F10687
100
AcDbEntity
8
Geo
100
AcDbLine
10
-93.2974477958237
20
1.98431247406322
30
0.000000000000000
11
-93.1974477958237
21
1.84391871118476
31
0.000000000000000
  0
LINE
  5
F10688
330
F10689
100
AcDbEntity
8
Geo
100
AcDbLine
10
-93.2974477958237
20
-3.24160935744607
30
0.000000000000000
11
-93.1974477958237
21
-3.30082376583367
31
0.000000000000000
  0
LINE
  5
F1068A
330
F1068B
100
AcDbEntity
8
Geo
100
AcDbLine
10
-93.1974477958237
20
1.84391871118476
30
0.000000000000000
11
-93.0974477958237
21
1.70135032992118
31
0.000000000000000
  0
LINE
  5
F1068C
330
F1068D
100
AcDbEntity
8
Geo
100
AcDbLine
10
-93.1974477958237
20
-3.30082376583367
30
0.000000000000000
11
-93.0974477958237
21
-3.35459189282121
31
0.000000000000000
  0
LINE
  5
F1068E
330
F1068F
100
AcDbEntity
8
Geo
100
AcDbLine
10
-93.0974477958237
20
1.70135032992118
30
0.000000000000000
11
-92.9974477958237
21
1.55681851661485
31
0.000000000000000
  0
LINE
  5
F10690
330
F10691
100
AcDbEntity
8
Geo
100
AcDbLine
10
-93.0974477958237
20
-3.35459189282121
30
0.000000000000000
11
-92.9974477958237
21
-3.40283409175792
31
0.000000000000000
  0
LINE
  5
F10692
330
F10693
100
AcDbEntity
8
Geo
100
AcDbLine
10
-92.9974477958237
20
1.55681851661485
30
0.000000000000000
11
-92.8974477958237
21
1.41053736603725
31
0.000000000000000
  0
LINE
  5
F10694
330
F10695
100
AcDbEntity
8
Geo
100
AcDbLine
10
-92.9974477958237
20
-3.40283409175792
30
0.000000000000000
11
-92.8974477958237
21
-3.44547890154247
31
0.000000000000000
  0
LINE
  5
F10696
330
F10697
100
AcDbEntity
8
Geo
100
AcDbLine
10
-92.8974477958237
20
1.41053736603725
30
0.000000000000000
11
-92.7974477958237
21
1.26272356425071
31
0.000000000000000
  0
LINE
  5
F10698
330
F10699
100
AcDbEntity
8
Geo
100
AcDbLine
10
-92.8974477958237
20
-3.44547890154247
30
0.000000000000000
11
-92.7974477958237
21
-3.48246315247817
31
0.000000000000000
  0
LINE
  5
F1069A
330
F1069B
100
AcDbEntity
8
Geo
100
AcDbLine
10
-92.7974477958237
20
1.26272356425071
30
0.000000000000000
11
-92.6974477958237
21
1.11359606763163
31
0.000000000000000
  0
LINE
  5
F1069C
330
F1069D
100
AcDbEntity
8
Geo
100
AcDbLine
10
-92.7974477958237
20
-3.48246315247817
30
0.000000000000000
11
-92.6974477958237
21
-3.51373205984621
31
0.000000000000000
  0
LINE
  5
F1069E
330
F1069F
100
AcDbEntity
8
Geo
100
AcDbLine
10
-92.6974477958237
20
1.11359606763163
30
0.000000000000000
11
-92.5974477958237
21
0.963375778530705
31
0.000000000000000
  0
LINE
  5
F106A0
330
F106A1
100
AcDbEntity
8
Geo
100
AcDbLine
10
-92.6974477958237
20
-3.51373205984621
30
0.000000000000000
11
-92.5974477958237
21
-3.53923930505815
31
0.000000000000000
  0
LINE
  5
F106A2
330
F106A3
100
AcDbEntity
8
Geo
100
AcDbLine
10
-92.5974477958237
20
0.963375778530705
30
0.000000000000000
11
-92.4974477958237
21
0.812285218050617
31
0.000000000000000
  0
LINE
  5
F106A4
330
F106A5
100
AcDbEntity
8
Geo
100
AcDbLine
10
-92.5974477958237
20
-3.53923930505815
30
0.000000000000000
11
-92.4974477958237
21
-3.55894710426758
31
0.000000000000000
  0
LINE
  5
F106A6
330
F106A7
100
AcDbEntity
8
Geo
100
AcDbLine
10
-92.4974477958237
20
0.812285218050617
30
0.000000000000000
11
-92.3974477958237
21
0.660548196425800
31
0.000000000000000
  0
LINE
  5
F106A8
330
F106A9
100
AcDbEntity
8
Geo
100
AcDbLine
10
-92.4974477958237
20
-3.55894710426758
30
0.000000000000000
11
-92.3974477958237
21
-3.57282626433928
31
0.000000000000000
  0
LINE
  5
F106AA
330
F106AB
100
AcDbEntity
8
Geo
100
AcDbLine
10
-92.3974477958237
20
0.660548196425800
30
0.000000000000000
11
-92.2974477958237
21
0.508389481492674
31
0.000000000000000
  0
LINE
  5
F106AC
330
F106AD
100
AcDbEntity
8
Geo
100
AcDbLine
10
-92.3974477958237
20
-3.57282626433928
30
0.000000000000000
11
-92.2974477958237
21
-3.58085622609299
31
0.000000000000000
  0
LINE
  5
F106AE
330
F106AF
100
AcDbEntity
8
Geo
100
AcDbLine
10
-92.2974477958237
20
0.508389481492674
30
0.000000000000000
11
-92.1974477958237
21
0.356034465741365
31
0.000000000000000
  0
LINE
  5
F106B0
330
F106B1
100
AcDbEntity
8
Geo
100
AcDbLine
10
-92.1974477958237
20
0.356034465741365
30
0.000000000000000
11
-92.0974477958237
21
0.203708832442124
31
0.000000000000000
  0
LINE
  5
F106B2
330
F106B3
100
AcDbEntity
8
Geo
100
AcDbLine
10
-92.1974477958237
20
4.33476523396882
30
0.000000000000000
11
-92.0974477958237
21
4.33106979680238
31
0.000000000000000
  0
LINE
  5
F106B4
330
F106B5
100
AcDbEntity
8
Geo
100
AcDbLine
10
-92.0974477958237
20
0.203708832442124
30
0.000000000000000
11
-91.9974477958237
21
0.0516382213410154
31
0.000000000000000
  0
LINE
  5
F106B6
330
F106B7
100
AcDbEntity
8
Geo
100
AcDbLine
10
-92.0974477958237
20
4.33106979680238
30
0.000000000000000
11
-91.9974477958237
21
4.32151552785069
31
0.000000000000000
  0
LINE
  5
F106B8
330
F106B9
100
AcDbEntity
8
Geo
100
AcDbLine
10
-91.9974477958237
20
0.0516382213410154
30
0.000000000000000
11
-91.8974477958237
21
-0.0999521055799193
31
0.000000000000000
  0
LINE
  5
F106BA
330
F106BB
100
AcDbEntity
8
Geo
100
AcDbLine
10
-91.9974477958237
20
4.32151552785069
30
0.000000000000000
11
-91.8974477958237
21
4.30611657983888
31
0.000000000000000
  0
LINE
  5
F106BC
330
F106BD
100
AcDbEntity
8
Geo
100
AcDbLine
10
-91.8974477958237
20
-0.0999521055799193
30
0.000000000000000
11
-91.7974477958237
21
-0.250837597782916
31
0.000000000000000
  0
LINE
  5
F106BE
330
F106BF
100
AcDbEntity
8
Geo
100
AcDbLine
10
-91.8974477958237
20
4.30611657983888
30
0.000000000000000
11
-91.7974477958237
21
4.28489576320696
31
0.000000000000000
  0
LINE
  5
F106C0
330
F106C1
100
AcDbEntity
8
Geo
100
AcDbLine
10
-91.7974477958237
20
-0.250837597782916
30
0.000000000000000
11
-91.6974477958237
21
-0.400794748800887
31
0.000000000000000
  0
LINE
  5
F106C2
330
F106C3
100
AcDbEntity
8
Geo
100
AcDbLine
10
-91.7974477958237
20
4.28489576320696
30
0.000000000000000
11
-91.6974477958237
21
4.25788451232072
31
0.000000000000000
  0
LINE
  5
F106C4
330
F106C5
100
AcDbEntity
8
Geo
100
AcDbLine
10
-91.6974477958237
20
-0.400794748800887
30
0.000000000000000
11
-91.5974477958237
21
-0.549601427317234
31
0.000000000000000
  0
LINE
  5
F106C6
330
F106C7
100
AcDbEntity
8
Geo
100
AcDbLine
10
-91.6974477958237
20
4.25788451232072
30
0.000000000000000
11
-91.5974477958237
21
4.22512283890805
31
0.000000000000000
  0
LINE
  5
F106C8
330
F106C9
100
AcDbEntity
8
Geo
100
AcDbLine
10
-91.5974477958237
20
-0.549601427317234
30
0.000000000000000
11
-91.4974477958237
21
-0.697037206208657
31
0.000000000000000
  0
LINE
  5
F106CA
330
F106CB
100
AcDbEntity
8
Geo
100
AcDbLine
10
-91.5974477958237
20
4.22512283890805
30
0.000000000000000
11
-91.4974477958237
21
4.18665927278964
31
0.000000000000000
  0
LINE
  5
F106CC
330
F106CD
100
AcDbEntity
8
Geo
100
AcDbLine
10
-91.4974477958237
20
-0.697037206208657
30
0.000000000000000
11
-91.3974477958237
21
-0.842883689063536
31
0.000000000000000
  0
LINE
  5
F106CE
330
F106CF
100
AcDbEntity
8
Geo
100
AcDbLine
10
-91.4974477958237
20
4.18665927278964
30
0.000000000000000
11
-91.3974477958237
21
4.14255078999179
31
0.000000000000000
  0
LINE
  5
F106D0
330
F106D1
100
AcDbEntity
8
Geo
100
AcDbLine
10
-91.3974477958237
20
-0.842883689063536
30
0.000000000000000
11
-91.2974477958237
21
-0.986924833692233
31
0.000000000000000
  0
LINE
  5
F106D2
330
F106D3
100
AcDbEntity
8
Geo
100
AcDbLine
10
-91.3974477958237
20
4.14255078999179
30
0.000000000000000
11
-91.2974477958237
21
4.09286272834797
31
0.000000000000000
  0
LINE
  5
F106D4
330
F106D5
100
AcDbEntity
8
Geo
100
AcDbLine
10
-91.2974477958237
20
-0.986924833692233
30
0.000000000000000
11
-91.1974477958237
21
-1.12894727215008
31
0.000000000000000
  0
LINE
  5
F106D6
330
F106D7
100
AcDbEntity
8
Geo
100
AcDbLine
10
-91.2974477958237
20
4.09286272834797
30
0.000000000000000
11
-91.1974477958237
21
4.03766869071389
31
0.000000000000000
  0
LINE
  5
F106D8
330
F106D9
100
AcDbEntity
8
Geo
100
AcDbLine
10
-91.1974477958237
20
-1.12894727215008
30
0.000000000000000
11
-91.0974477958237
21
-1.26874062679903
31
0.000000000000000
  0
LINE
  5
F106DA
330
F106DB
100
AcDbEntity
8
Geo
100
AcDbLine
10
-91.1974477958237
20
4.03766869071389
30
0.000000000000000
11
-91.0974477958237
21
3.97705043593977
31
0.000000000000000
  0
LINE
  5
F106DC
330
F106DD
100
AcDbEntity
8
Geo
100
AcDbLine
10
-91.0974477958237
20
-1.26874062679903
30
0.000000000000000
11
-90.9974477958237
21
-1.40609782193972
31
0.000000000000000
  0
LINE
  5
F106DE
330
F106DF
100
AcDbEntity
8
Geo
100
AcDbLine
10
-91.0974477958237
20
3.97705043593977
30
0.000000000000000
11
-90.9974477958237
21
3.91109775776103
31
0.000000000000000
  0
LINE
  5
F106E0
330
F106E1
100
AcDbEntity
8
Geo
100
AcDbLine
10
-90.9974477958237
20
-1.40609782193972
30
0.000000000000000
11
-90.8974477958237
21
-1.54081539055245
31
0.000000000000000
  0
LINE
  5
F106E2
330
F106E3
100
AcDbEntity
8
Geo
100
AcDbLine
10
-90.9974477958237
20
3.91109775776103
30
0.000000000000000
11
-90.8974477958237
21
3.83990835178696
31
0.000000000000000
  0
LINE
  5
F106E4
330
F106E5
100
AcDbEntity
8
Geo
100
AcDbLine
10
-90.8974477958237
20
-1.54081539055245
30
0.000000000000000
11
-90.7974477958237
21
-1.67269377569257
31
0.000000000000000
  0
LINE
  5
F106E6
330
F106E7
100
AcDbEntity
8
Geo
100
AcDbLine
10
-90.8974477958237
20
3.83990835178696
30
0.000000000000000
11
-90.7974477958237
21
3.76358767078437
31
0.000000000000000
  0
LINE
  5
F106E8
330
F106E9
100
AcDbEntity
8
Geo
100
AcDbLine
10
-90.7974477958237
20
-1.67269377569257
30
0.000000000000000
11
-90.6974477958237
21
-1.80153762609392
31
0.000000000000000
  0
LINE
  5
F106EA
330
F106EB
100
AcDbEntity
8
Geo
100
AcDbLine
10
-90.7974477958237
20
3.76358767078437
30
0.000000000000000
11
-90.6974477958237
21
3.68224876847054
31
0.000000000000000
  0
LINE
  5
F106EC
330
F106ED
100
AcDbEntity
8
Geo
100
AcDbLine
10
-90.6974477958237
20
-1.80153762609392
30
0.000000000000000
11
-90.5974477958237
21
-1.92715608554238
31
0.000000000000000
  0
LINE
  5
F106EE
330
F106EF
100
AcDbEntity
8
Geo
100
AcDbLine
10
-90.6974477958237
20
3.68224876847054
30
0.000000000000000
11
-90.5974477958237
21
3.59601213204689
31
0.000000000000000
  0
LINE
  5
F106F0
330
F106F1
100
AcDbEntity
8
Geo
100
AcDbLine
10
-90.5974477958237
20
-1.92715608554238
30
0.000000000000000
11
-90.4974477958237
21
-2.04936307559087
31
0.000000000000000
  0
LINE
  5
F106F2
330
F106F3
100
AcDbEntity
8
Geo
100
AcDbLine
10
-90.5974477958237
20
3.59601213204689
30
0.000000000000000
11
-90.4974477958237
21
3.50500550372151
31
0.000000000000000
  0
LINE
  5
F106F4
330
F106F5
100
AcDbEntity
8
Geo
100
AcDbLine
10
-90.4974477958237
20
-2.04936307559087
30
0.000000000000000
11
-90.3974477958237
21
-2.16797757119716
31
0.000000000000000
  0
LINE
  5
F106F6
330
F106F7
100
AcDbEntity
8
Geo
100
AcDbLine
10
-90.4974477958237
20
3.50500550372151
30
0.000000000000000
11
-90.3974477958237
21
3.40936369148476
31
0.000000000000000
  0
LINE
  5
F106F8
330
F106F9
100
AcDbEntity
8
Geo
100
AcDbLine
10
-90.3974477958237
20
-2.16797757119716
30
0.000000000000000
11
-90.2974477958237
21
-2.28282386887598
31
0.000000000000000
  0
LINE
  5
F106FA
330
F106FB
100
AcDbEntity
8
Geo
100
AcDbLine
10
-90.3974477958237
20
3.40936369148476
30
0.000000000000000
11
-90.2974477958237
21
3.30922836941840
31
0.000000000000000
  0
LINE
  5
F106FC
330
F106FD
100
AcDbEntity
8
Geo
100
AcDbLine
10
-90.2974477958237
20
-2.28282386887598
30
0.000000000000000
11
-90.1974477958237
21
-2.39373184696833
31
0.000000000000000
  0
LINE
  5
F106FE
330
F106FF
100
AcDbEntity
8
Geo
100
AcDbLine
10
-90.2974477958237
20
3.30922836941840
30
0.000000000000000
11
-90.1974477958237
21
3.20474786783397
31
0.000000000000000
  0
LINE
  5
F10700
330
F10701
100
AcDbEntity
8
Geo
100
AcDbLine
10
-90.1974477958237
20
-2.39373184696833
30
0.000000000000000
11
-90.0974477958237
21
-2.50053721764246
31
0.000000000000000
  0
LINE
  5
F10702
330
F10703
100
AcDbEntity
8
Geo
100
AcDbLine
10
-90.1974477958237
20
3.20474786783397
30
0.000000000000000
11
-90.0974477958237
21
3.09607695355131
31
0.000000000000000
  0
LINE
  5
F10704
330
F10705
100
AcDbEntity
8
Geo
100
AcDbLine
10
-90.0974477958237
20
-2.50053721764246
30
0.000000000000000
11
-89.9974477958237
21
-2.60308177025322
31
0.000000000000000
  0
LINE
  5
F10706
330
F10707
100
AcDbEntity
8
Geo
100
AcDbLine
10
-90.0974477958237
20
3.09607695355131
30
0.000000000000000
11
-89.9974477958237
21
2.98337660064271
31
0.000000000000000
  0
LINE
  5
F10708
330
F10709
100
AcDbEntity
8
Geo
100
AcDbLine
10
-89.9974477958237
20
-2.60308177025322
30
0.000000000000000
11
-89.8974477958237
21
-2.70121360569925
31
0.000000000000000
  0
LINE
  5
F1070A
330
F1070B
100
AcDbEntity
8
Geo
100
AcDbLine
10
-89.9974477958237
20
2.98337660064271
30
0.000000000000000
11
-89.8974477958237
21
2.86681375198217
31
0.000000000000000
  0
LINE
  5
F1070C
330
F1070D
100
AcDbEntity
8
Geo
100
AcDbLine
10
-89.8974477958237
20
-2.70121360569925
30
0.000000000000000
11
-89.7974477958237
21
-2.79478736143094
31
0.000000000000000
  0
LINE
  5
F1070E
330
F1070F
100
AcDbEntity
8
Geo
100
AcDbLine
10
-89.8974477958237
20
2.86681375198217
30
0.000000000000000
11
-89.7974477958237
21
2.74656107195327
31
0.000000000000000
  0
LINE
  5
F10710
330
F10711
100
AcDbEntity
8
Geo
100
AcDbLine
10
-89.7974477958237
20
-2.79478736143094
30
0.000000000000000
11
-89.6974477958237
21
-2.88366442677569
31
0.000000000000000
  0
LINE
  5
F10712
330
F10713
100
AcDbEntity
8
Geo
100
AcDbLine
10
-89.7974477958237
20
2.74656107195327
30
0.000000000000000
11
-89.6974477958237
21
2.62279669068156
31
0.000000000000000
  0
LINE
  5
F10714
330
F10715
100
AcDbEntity
8
Geo
100
AcDbLine
10
-89.6974477958237
20
-2.88366442677569
30
0.000000000000000
11
-89.5974477958237
21
-2.96771314826179
31
0.000000000000000
  0
LINE
  5
F10716
330
F10717
100
AcDbEntity
8
Geo
100
AcDbLine
10
-89.6974477958237
20
2.62279669068156
30
0.000000000000000
11
-89.5974477958237
21
2.49570394017069
31
0.000000000000000
  0
LINE
  5
F10718
330
F10719
100
AcDbEntity
8
Geo
100
AcDbLine
10
-89.5974477958237
20
-2.96771314826179
30
0.000000000000000
11
-89.4974477958237
21
-3.04680902463649
31
0.000000000000000
  0
LINE
  5
F1071A
330
F1071B
100
AcDbEntity
8
Geo
100
AcDbLine
10
-89.5974477958237
20
2.49570394017069
30
0.000000000000000
11
-89.4974477958237
21
2.36547108273300
31
0.000000000000000
  0
LINE
  5
F1071C
330
F1071D
100
AcDbEntity
8
Geo
100
AcDbLine
10
-89.4974477958237
20
-3.04680902463649
30
0.000000000000000
11
-89.3974477958237
21
-3.12083489128951
31
0.000000000000000
  0
LINE
  5
F1071E
330
F1071F
100
AcDbEntity
8
Geo
100
AcDbLine
10
-89.4974477958237
20
2.36547108273300
30
0.000000000000000
11
-89.3974477958237
21
2.23229103211680
31
0.000000000000000
  0
LINE
  5
F10720
330
F10721
100
AcDbEntity
8
Geo
100
AcDbLine
10
-89.3974477958237
20
-3.12083489128951
30
0.000000000000000
11
-89.2974477958237
21
-3.18968109380884
31
0.000000000000000
  0
LINE
  5
F10722
330
F10723
100
AcDbEntity
8
Geo
100
AcDbLine
10
-89.3974477958237
20
2.23229103211680
30
0.000000000000000
11
-89.2974477958237
21
2.09636106774347
31
0.000000000000000
  0
LINE
  5
F10724
330
F10725
100
AcDbEntity
8
Geo
100
AcDbLine
10
-89.2974477958237
20
-3.18968109380884
30
0.000000000000000
11
-89.1974477958237
21
-3.25324565041164
31
0.000000000000000
  0
LINE
  5
F10726
330
F10727
100
AcDbEntity
8
Geo
100
AcDbLine
10
-89.2974477958237
20
2.09636106774347
30
0.000000000000000
11
-89.1974477958237
21
1.95788254247780
31
0.000000000000000
  0
LINE
  5
F10728
330
F10729
100
AcDbEntity
8
Geo
100
AcDbLine
10
-89.1974477958237
20
-3.25324565041164
30
0.000000000000000
11
-89.0974477958237
21
-3.31143440300976
31
0.000000000000000
  0
LINE
  5
F1072A
330
F1072B
100
AcDbEntity
8
Geo
100
AcDbLine
10
-89.1974477958237
20
1.95788254247780
30
0.000000000000000
11
-89.0974477958237
21
1.81706058436423
31
0.000000000000000
  0
LINE
  5
F1072C
330
F1072D
100
AcDbEntity
8
Geo
100
AcDbLine
10
-89.0974477958237
20
-3.31143440300976
30
0.000000000000000
11
-88.9974477958237
21
-3.36416115668593
31
0.000000000000000
  0
LINE
  5
F1072E
330
F1072F
100
AcDbEntity
8
Geo
100
AcDbLine
10
-89.0974477958237
20
1.81706058436423
30
0.000000000000000
11
-88.9974477958237
21
1.67410379277097
31
0.000000000000000
  0
LINE
  5
F10730
330
F10731
100
AcDbEntity
8
Geo
100
AcDbLine
10
-88.9974477958237
20
-3.36416115668593
30
0.000000000000000
11
-88.8974477958237
21
-3.41134780737418
31
0.000000000000000
  0
LINE
  5
F10732
330
F10733
100
AcDbEntity
8
Geo
100
AcDbLine
10
-88.9974477958237
20
1.67410379277097
30
0.000000000000000
11
-88.8974477958237
21
1.52922392939206
31
0.000000000000000
  0
LINE
  5
F10734
330
F10735
100
AcDbEntity
8
Geo
100
AcDbLine
10
-88.8974477958237
20
-3.41134780737418
30
0.000000000000000
11
-88.7974477958237
21
-3.45292445755531
31
0.000000000000000
  0
LINE
  5
F10736
330
F10737
100
AcDbEntity
8
Geo
100
AcDbLine
10
-88.8974477958237
20
1.52922392939206
30
0.000000000000000
11
-88.7974477958237
21
1.38263560456508
31
0.000000000000000
  0
LINE
  5
F10738
330
F10739
100
AcDbEntity
8
Geo
100
AcDbLine
10
-88.7974477958237
20
-3.45292445755531
30
0.000000000000000
11
-88.6974477958237
21
-3.48882951979596
31
0.000000000000000
  0
LINE
  5
F1073A
330
F1073B
100
AcDbEntity
8
Geo
100
AcDbLine
10
-88.7974477958237
20
1.38263560456508
30
0.000000000000000
11
-88.6974477958237
21
1.23455595936912
31
0.000000000000000
  0
LINE
  5
F1073C
330
F1073D
100
AcDbEntity
8
Geo
100
AcDbLine
10
-88.6974477958237
20
-3.48882951979596
30
0.000000000000000
11
-88.5974477958237
21
-3.51900980797801
31
0.000000000000000
  0
LINE
  5
F1073E
330
F1073F
100
AcDbEntity
8
Geo
100
AcDbLine
10
-88.6974477958237
20
1.23455595936912
30
0.000000000000000
11
-88.5974477958237
21
1.08520434397406
31
0.000000000000000
  0
LINE
  5
F10740
330
F10741
100
AcDbEntity
8
Geo
100
AcDbLine
10
-88.5974477958237
20
-3.51900980797801
30
0.000000000000000
11
-88.4974477958237
21
-3.54342061608309
31
0.000000000000000
  0
LINE
  5
F10742
330
F10743
100
AcDbEntity
8
Geo
100
AcDbLine
10
-88.5974477958237
20
1.08520434397406
30
0.000000000000000
11
-88.4974477958237
21
0.934801992717426
31
0.000000000000000
  0
LINE
  5
F10744
330
F10745
100
AcDbEntity
8
Geo
100
AcDbLine
10
-88.4974477958237
20
-3.54342061608309
30
0.000000000000000
11
-88.3974477958237
21
-3.56202578441552
31
0.000000000000000
  0
LINE
  5
F10746
330
F10747
100
AcDbEntity
8
Geo
100
AcDbLine
10
-88.4974477958237
20
0.934801992717426
30
0.000000000000000
11
-88.3974477958237
21
0.783571696390305
31
0.000000000000000
  0
LINE
  5
F10748
330
F10749
100
AcDbEntity
8
Geo
100
AcDbLine
10
-88.3974477958237
20
-3.56202578441552
30
0.000000000000000
11
-88.2974477958237
21
-3.57479775316565
31
0.000000000000000
  0
LINE
  5
F1074A
330
F1074B
100
AcDbEntity
8
Geo
100
AcDbLine
10
-88.3974477958237
20
0.783571696390305
30
0.000000000000000
11
-88.2974477958237
21
0.631737472217652
31
0.000000000000000
  0
LINE
  5
F1074C
330
F1074D
100
AcDbEntity
8
Geo
100
AcDbLine
10
-88.2974477958237
20
-3.57479775316565
30
0.000000000000000
11
-88.1974477958237
21
-3.58171760323418
31
0.000000000000000
  0
LINE
  5
F1074E
330
F1074F
100
AcDbEntity
8
Geo
100
AcDbLine
10
-88.2974477958237
20
0.631737472217652
30
0.000000000000000
11
-88.1974477958237
21
0.479524232021883
31
0.000000000000000
  0
LINE
  5
F10750
330
F10751
100
AcDbEntity
8
Geo
100
AcDbLine
10
-88.1974477958237
20
0.479524232021883
30
0.000000000000000
11
-88.0974477958237
21
0.327157449061316
31
0.000000000000000
  0
LINE
  5
F10752
330
F10753
100
AcDbEntity
8
Geo
100
AcDbLine
10
-88.0974477958237
20
4.33451522346807
30
0.000000000000000
11
-87.9974477958237
21
4.32970876899990
31
0.000000000000000
  0
LINE
  5
F10754
330
F10755
100
AcDbEntity
8
Geo
100
AcDbLine
10
-88.0974477958237
20
0.327157449061316
30
0.000000000000000
11
-87.9974477958237
21
0.174862824036953
31
0.000000000000000
  0
LINE
  5
F10756
330
F10757
100
AcDbEntity
8
Geo
100
AcDbLine
10
-87.9974477958237
20
4.32970876899990
30
0.000000000000000
11
-87.8974477958237
21
4.31904549883505
31
0.000000000000000
  0
LINE
  5
F10758
330
F10759
100
AcDbEntity
8
Geo
100
AcDbLine
10
-87.9974477958237
20
0.174862824036953
30
0.000000000000000
11
-87.8974477958237
21
0.0228659507623418
31
0.000000000000000
  0
LINE
  5
F1075A
330
F1075B
100
AcDbEntity
8
Geo
100
AcDbLine
10
-87.8974477958237
20
4.31904549883505
30
0.000000000000000
11
-87.7974477958237
21
4.30254120846058
31
0.000000000000000
  0
LINE
  5
F1075C
330
F1075D
100
AcDbEntity
8
Geo
100
AcDbLine
10
-87.8974477958237
20
0.0228659507623418
30
0.000000000000000
11
-87.7974477958237
21
-0.128608018008207
31
0.000000000000000
  0
LINE
  5
F1075E
330
F1075F
100
AcDbEntity
8
Geo
100
AcDbLine
10
-87.7974477958237
20
4.30254120846058
30
0.000000000000000
11
-87.6974477958237
21
4.28022034565859
31
0.000000000000000
  0
LINE
  5
F10760
330
F10761
100
AcDbEntity
8
Geo
100
AcDbLine
10
-87.7974477958237
20
-0.128608018008207
30
0.000000000000000
11
-87.6974477958237
21
-0.279334704098098
31
0.000000000000000
  0
LINE
  5
F10762
330
F10763
100
AcDbEntity
8
Geo
100
AcDbLine
10
-87.6974477958237
20
4.28022034565859
30
0.000000000000000
11
-87.5974477958237
21
4.25211597429171
31
0.000000000000000
  0
LINE
  5
F10764
330
F10765
100
AcDbEntity
8
Geo
100
AcDbLine
10
-87.6974477958237
20
-0.279334704098098
30
0.000000000000000
11
-87.5974477958237
21
-0.429090836279515
31
0.000000000000000
  0
LINE
  5
F10766
330
F10767
100
AcDbEntity
8
Geo
100
AcDbLine
10
-87.5974477958237
20
4.25211597429171
30
0.000000000000000
11
-87.4974477958237
21
4.21826972532565
31
0.000000000000000
  0
LINE
  5
F10768
330
F10769
100
AcDbEntity
8
Geo
100
AcDbLine
10
-87.5974477958237
20
-0.429090836279515
30
0.000000000000000
11
-87.4974477958237
21
-0.577654581004780
31
0.000000000000000
  0
LINE
  5
F1076A
330
F1076B
100
AcDbEntity
8
Geo
100
AcDbLine
10
-87.4974477958237
20
4.21826972532565
30
0.000000000000000
11
-87.3974477958237
21
4.17873173516135
31
0.000000000000000
  0
LINE
  5
F1076C
330
F1076D
100
AcDbEntity
8
Geo
100
AcDbLine
10
-87.4974477958237
20
-0.577654581004780
30
0.000000000000000
11
-87.3974477958237
21
-0.724805871008073
31
0.000000000000000
  0
LINE
  5
F1076E
330
F1076F
100
AcDbEntity
8
Geo
100
AcDbLine
10
-87.3974477958237
20
4.17873173516135
30
0.000000000000000
11
-87.2974477958237
21
4.13356057136794
31
0.000000000000000
  0
LINE
  5
F10770
330
F10771
100
AcDbEntity
8
Geo
100
AcDbLine
10
-87.3974477958237
20
-0.724805871008073
30
0.000000000000000
11
-87.2974477958237
21
-0.870326731290766
31
0.000000000000000
  0
LINE
  5
F10772
330
F10773
100
AcDbEntity
8
Geo
100
AcDbLine
10
-87.2974477958237
20
4.13356057136794
30
0.000000000000000
11
-87.1974477958237
21
4.08282314592674
31
0.000000000000000
  0
LINE
  5
F10774
330
F10775
100
AcDbEntity
8
Geo
100
AcDbLine
10
-87.2974477958237
20
-0.870326731290766
30
0.000000000000000
11
-87.1974477958237
21
-1.01400160200748
31
0.000000000000000
  0
LINE
  5
F10776
330
F10777
100
AcDbEntity
8
Geo
100
AcDbLine
10
-87.1974477958237
20
4.08282314592674
30
0.000000000000000
11
-87.0974477958237
21
4.02659461611458
31
0.000000000000000
  0
LINE
  5
F10778
330
F10779
100
AcDbEntity
8
Geo
100
AcDbLine
10
-87.1974477958237
20
-1.01400160200748
30
0.000000000000000
11
-87.0974477958237
21
-1.15561765777457
31
0.000000000000000
  0
LINE
  5
F1077A
330
F1077B
100
AcDbEntity
8
Geo
100
AcDbLine
10
-87.0974477958237
20
4.02659461611458
30
0.000000000000000
11
-86.9974477958237
21
3.96495827317349
31
0.000000000000000
  0
LINE
  5
F1077C
330
F1077D
100
AcDbEntity
8
Geo
100
AcDbLine
10
-87.0974477958237
20
-1.15561765777457
30
0.000000000000000
11
-86.9974477958237
21
-1.29496512292810
31
0.000000000000000
  0
LINE
  5
F1077E
330
F1077F
100
AcDbEntity
8
Geo
100
AcDbLine
10
-86.9974477958237
20
3.96495827317349
30
0.000000000000000
11
-86.8974477958237
21
3.89800541893144
31
0.000000000000000
  0
LINE
  5
F10780
330
F10781
100
AcDbEntity
8
Geo
100
AcDbLine
10
-86.9974477958237
20
-1.29496512292810
30
0.000000000000000
11
-86.8974477958237
21
-1.43183758226419
31
0.000000000000000
  0
LINE
  5
F10782
330
F10783
100
AcDbEntity
8
Geo
100
AcDbLine
10
-86.8974477958237
20
3.89800541893144
30
0.000000000000000
11
-86.7974477958237
21
3.82583523055715
31
0.000000000000000
  0
LINE
  5
F10784
330
F10785
100
AcDbEntity
8
Geo
100
AcDbLine
10
-86.8974477958237
20
-1.43183758226419
30
0.000000000000000
11
-86.7974477958237
21
-1.56603228680161
31
0.000000000000000
  0
LINE
  5
F10786
330
F10787
100
AcDbEntity
8
Geo
100
AcDbLine
10
-86.7974477958237
20
3.82583523055715
30
0.000000000000000
11
-86.6974477958237
21
3.74855461364898
31
0.000000000000000
  0
LINE
  5
F10788
330
F10789
100
AcDbEntity
8
Geo
100
AcDbLine
10
-86.7974477958237
20
-1.56603228680161
30
0.000000000000000
11
-86.6974477958237
21
-1.69735045411352
31
0.000000000000000
  0
LINE
  5
F1078A
330
F1078B
100
AcDbEntity
8
Geo
100
AcDbLine
10
-86.6974477958237
20
3.74855461364898
30
0.000000000000000
11
-86.5974477958237
21
3.66627804387594
31
0.000000000000000
  0
LINE
  5
F1078C
330
F1078D
100
AcDbEntity
8
Geo
100
AcDbLine
10
-86.6974477958237
20
-1.69735045411352
30
0.000000000000000
11
-86.5974477958237
21
-1.82559756278365
31
0.000000000000000
  0
LINE
  5
F1078E
330
F1078F
100
AcDbEntity
8
Geo
100
AcDbLine
10
-86.5974477958237
20
3.66627804387594
30
0.000000000000000
11
-86.4974477958237
21
3.57912739740493
31
0.000000000000000
  0
LINE
  5
F10790
330
F10791
100
AcDbEntity
8
Geo
100
AcDbLine
10
-86.5974477958237
20
-1.82559756278365
30
0.000000000000000
11
-86.4974477958237
21
-1.95058364055054
31
0.000000000000000
  0
LINE
  5
F10792
330
F10793
100
AcDbEntity
8
Geo
100
AcDbLine
10
-86.4974477958237
20
3.57912739740493
30
0.000000000000000
11
-86.3974477958237
21
3.48723177036583
31
0.000000000000000
  0
LINE
  5
F10794
330
F10795
100
AcDbEntity
8
Geo
100
AcDbLine
10
-86.4974477958237
20
-1.95058364055054
30
0.000000000000000
11
-86.3974477958237
21
-2.07212354571324
31
0.000000000000000
  0
LINE
  5
F10796
330
F10797
100
AcDbEntity
8
Geo
100
AcDbLine
10
-86.3974477958237
20
3.48723177036583
30
0.000000000000000
11
-86.2974477958237
21
3.39072728762155
31
0.000000000000000
  0
LINE
  5
F10798
330
F10799
100
AcDbEntity
8
Geo
100
AcDbLine
10
-86.3974477958237
20
-2.07212354571324
30
0.000000000000000
11
-86.2974477958237
21
-2.19003724138140
31
0.000000000000000
  0
LINE
  5
F1079A
330
F1079B
100
AcDbEntity
8
Geo
100
AcDbLine
10
-86.2974477958237
20
3.39072728762155
30
0.000000000000000
11
-86.1974477958237
21
3.28975690112645
31
0.000000000000000
  0
LINE
  5
F1079C
330
F1079D
100
AcDbEntity
8
Geo
100
AcDbLine
10
-86.2974477958237
20
-2.19003724138140
30
0.000000000000000
11
-86.1974477958237
21
-2.30415006216372
31
0.000000000000000
  0
LINE
  5
F1079E
330
F1079F
100
AcDbEntity
8
Geo
100
AcDbLine
10
-86.1974477958237
20
3.28975690112645
30
0.000000000000000
11
-86.0974477958237
21
3.18447017817184
31
0.000000000000000
  0
LINE
  5
F107A0
330
F107A1
100
AcDbEntity
8
Geo
100
AcDbLine
10
-86.1974477958237
20
-2.30415006216372
30
0.000000000000000
11
-86.0974477958237
21
-2.41429297289947
31
0.000000000000000
  0
LINE
  5
F107A2
330
F107A3
100
AcDbEntity
8
Geo
100
AcDbLine
10
-86.0974477958237
20
3.18447017817184
30
0.000000000000000
11
-85.9974477958237
21
3.07502307983214
31
0.000000000000000
  0
LINE
  5
F107A4
330
F107A5
100
AcDbEntity
8
Geo
100
AcDbLine
10
-86.0974477958237
20
-2.41429297289947
30
0.000000000000000
11
-85.9974477958237
21
-2.52030281905013
31
0.000000000000000
  0
LINE
  5
F107A6
330
F107A7
100
AcDbEntity
8
Geo
100
AcDbLine
10
-85.9974477958237
20
3.07502307983214
30
0.000000000000000
11
-85.8974477958237
21
2.96157772993997
31
0.000000000000000
  0
LINE
  5
F107A8
330
F107A9
100
AcDbEntity
8
Geo
100
AcDbLine
10
-85.9974477958237
20
-2.52030281905013
30
0.000000000000000
11
-85.8974477958237
21
-2.62202256837989
31
0.000000000000000
  0
LINE
  5
F107AA
330
F107AB
100
AcDbEntity
8
Geo
100
AcDbLine
10
-85.8974477958237
20
2.96157772993997
30
0.000000000000000
11
-85.7974477958237
21
2.84430217493235
31
0.000000000000000
  0
LINE
  5
F107AC
330
F107AD
100
AcDbEntity
8
Geo
100
AcDbLine
10
-85.8974477958237
20
-2.62202256837989
30
0.000000000000000
11
-85.7974477958237
21
-2.71930154356734
31
0.000000000000000
  0
LINE
  5
F107AE
330
F107AF
100
AcDbEntity
8
Geo
100
AcDbLine
10
-85.7974477958237
20
2.84430217493235
30
0.000000000000000
11
-85.6974477958237
21
2.72337013492374
31
0.000000000000000
  0
LINE
  5
F107B0
330
F107B1
100
AcDbEntity
8
Geo
100
AcDbLine
10
-85.7974477958237
20
-2.71930154356734
30
0.000000000000000
11
-85.6974477958237
21
-2.81199564540355
31
0.000000000000000
  0
LINE
  5
F107B2
330
F107B3
100
AcDbEntity
8
Geo
100
AcDbLine
10
-85.6974477958237
20
2.72337013492374
30
0.000000000000000
11
-85.5974477958237
21
2.59896074637467
31
0.000000000000000
  0
LINE
  5
F107B4
330
F107B5
100
AcDbEntity
8
Geo
100
AcDbLine
10
-85.6974477958237
20
-2.81199564540355
30
0.000000000000000
11
-85.5974477958237
21
-2.89996756624602
31
0.000000000000000
  0
LINE
  5
F107B6
330
F107B7
100
AcDbEntity
8
Geo
100
AcDbLine
10
-85.5974477958237
20
2.59896074637467
30
0.000000000000000
11
-85.4974477958237
21
2.47125829673719
31
0.000000000000000
  0
LINE
  5
F107B8
330
F107B9
100
AcDbEntity
8
Geo
100
AcDbLine
10
-85.5974477958237
20
-2.89996756624602
30
0.000000000000000
11
-85.4974477958237
21
-2.98308699341230
31
0.000000000000000
  0
LINE
  5
F107BA
330
F107BB
100
AcDbEntity
8
Geo
100
AcDbLine
10
-85.4974477958237
20
2.47125829673719
30
0.000000000000000
11
-85.3974477958237
21
2.34045195147007
31
0.000000000000000
  0
LINE
  5
F107BC
330
F107BD
100
AcDbEntity
8
Geo
100
AcDbLine
10
-85.4974477958237
20
-2.98308699341230
30
0.000000000000000
11
-85.3974477958237
21
-3.06123080221201
31
0.000000000000000
  0
LINE
  5
F107BE
330
F107BF
100
AcDbEntity
8
Geo
100
AcDbLine
10
-85.3974477958237
20
2.34045195147007
30
0.000000000000000
11
-85.2974477958237
21
2.20673547382833
31
0.000000000000000
  0
LINE
  5
F107C0
330
F107C1
100
AcDbEntity
8
Geo
100
AcDbLine
10
-85.3974477958237
20
-3.06123080221201
30
0.000000000000000
11
-85.2974477958237
21
-3.13428323833123
31
0.000000000000000
  0
LINE
  5
F107C2
330
F107C3
100
AcDbEntity
8
Geo
100
AcDbLine
10
-85.2974477958237
20
2.20673547382833
30
0.000000000000000
11
-85.1974477958237
21
2.07030693784197
31
0.000000000000000
  0
LINE
  5
F107C4
330
F107C5
100
AcDbEntity
8
Geo
100
AcDbLine
10
-85.2974477958237
20
-3.13428323833123
30
0.000000000000000
11
-85.1974477958237
21
-3.20213608929922
31
0.000000000000000
  0
LINE
  5
F107C6
330
F107C7
100
AcDbEntity
8
Geo
100
AcDbLine
10
-85.1974477958237
20
2.07030693784197
30
0.000000000000000
11
-85.0974477958237
21
1.93136843490920
31
0.000000000000000
  0
LINE
  5
F107C8
330
F107C9
100
AcDbEntity
8
Geo
100
AcDbLine
10
-85.1974477958237
20
-3.20213608929922
30
0.000000000000000
11
-85.0974477958237
21
-3.26468884478342
31
0.000000000000000
  0
LINE
  5
F107CA
330
F107CB
100
AcDbEntity
8
Geo
100
AcDbLine
10
-85.0974477958237
20
1.93136843490920
30
0.000000000000000
11
-84.9974477958237
21
1.79012577443872
31
0.000000000000000
  0
LINE
  5
F107CC
330
F107CD
100
AcDbEntity
8
Geo
100
AcDbLine
10
-85.0974477958237
20
-3.26468884478342
30
0.000000000000000
11
-84.9974477958237
21
-3.32184884547523
31
0.000000000000000
  0
LINE
  5
F107CE
330
F107CF
100
AcDbEntity
8
Geo
100
AcDbLine
10
-84.9974477958237
20
1.79012577443872
30
0.000000000000000
11
-84.8974477958237
21
1.64678817898456
31
0.000000000000000
  0
LINE
  5
F107D0
330
F107D1
100
AcDbEntity
8
Geo
100
AcDbLine
10
-84.9974477958237
20
-3.32184884547523
30
0.000000000000000
11
-84.8974477958237
21
-3.37353142034612
31
0.000000000000000
  0
LINE
  5
F107D2
330
F107D3
100
AcDbEntity
8
Geo
100
AcDbLine
10
-84.8974477958237
20
1.64678817898456
30
0.000000000000000
11
-84.7974477958237
21
1.50156797432499
31
0.000000000000000
  0
LINE
  5
F107D4
330
F107D5
100
AcDbEntity
8
Geo
100
AcDbLine
10
-84.8974477958237
20
-3.37353142034612
30
0.000000000000000
11
-84.7974477958237
21
-3.41966001207073
31
0.000000000000000
  0
LINE
  5
F107D6
330
F107D7
100
AcDbEntity
8
Geo
100
AcDbLine
10
-84.7974477958237
20
1.50156797432499
30
0.000000000000000
11
-84.6974477958237
21
1.35468027494461
31
0.000000000000000
  0
LINE
  5
F107D8
330
F107D9
100
AcDbEntity
8
Geo
100
AcDbLine
10
-84.7974477958237
20
-3.41966001207073
30
0.000000000000000
11
-84.6974477958237
21
-3.46016629043112
31
0.000000000000000
  0
LINE
  5
F107DA
330
F107DB
100
AcDbEntity
8
Geo
100
AcDbLine
10
-84.6974477958237
20
1.35468027494461
30
0.000000000000000
11
-84.5974477958237
21
1.20634266538567
31
0.000000000000000
  0
LINE
  5
F107DC
330
F107DD
100
AcDbEntity
8
Geo
100
AcDbLine
10
-84.6974477958237
20
-3.46016629043112
30
0.000000000000000
11
-84.5974477958237
21
-3.49499025353419
31
0.000000000000000
  0
LINE
  5
F107DE
330
F107DF
100
AcDbEntity
8
Geo
100
AcDbLine
10
-84.5974477958237
20
1.20634266538567
30
0.000000000000000
11
-84.4974477958237
21
1.05677487794026
31
0.000000000000000
  0
LINE
  5
F107E0
330
F107E1
100
AcDbEntity
8
Geo
100
AcDbLine
10
-84.5974477958237
20
-3.49499025353419
30
0.000000000000000
11
-84.4974477958237
21
-3.52408031669245
31
0.000000000000000
  0
LINE
  5
F107E2
330
F107E3
100
AcDbEntity
8
Geo
100
AcDbLine
10
-84.4974477958237
20
1.05677487794026
30
0.000000000000000
11
-84.3974477958237
21
0.906198467161279
31
0.000000000000000
  0
LINE
  5
F107E4
330
F107E5
100
AcDbEntity
8
Geo
100
AcDbLine
10
-84.4974477958237
20
-3.52408031669245
30
0.000000000000000
11
-84.3974477958237
21
-3.54739338883632
31
0.000000000000000
  0
LINE
  5
F107E6
330
F107E7
100
AcDbEntity
8
Geo
100
AcDbLine
10
-84.3974477958237
20
0.906198467161279
30
0.000000000000000
11
-84.2974477958237
21
0.754836481673931
31
0.000000000000000
  0
LINE
  5
F107E8
330
F107E9
100
AcDbEntity
8
Geo
100
AcDbLine
10
-84.3974477958237
20
-3.54739338883632
30
0.000000000000000
11
-84.2974477958237
21
-3.56489493634485
31
0.000000000000000
  0
LINE
  5
F107EA
330
F107EB
100
AcDbEntity
8
Geo
100
AcDbLine
10
-84.2974477958237
20
0.754836481673931
30
0.000000000000000
11
-84.1974477958237
21
0.602913133774134
31
0.000000000000000
  0
LINE
  5
F107EC
330
F107ED
100
AcDbEntity
8
Geo
100
AcDbLine
10
-84.2974477958237
20
-3.56489493634485
30
0.000000000000000
11
-84.1974477958237
21
-3.57655903420038
31
0.000000000000000
  0
LINE
  5
F107EE
330
F107EF
100
AcDbEntity
8
Geo
100
AcDbLine
10
-84.1974477958237
20
0.602913133774134
30
0.000000000000000
11
-84.0974477958237
21
0.450653467303161
31
0.000000000000000
  0
LINE
  5
F107F0
330
F107F1
100
AcDbEntity
8
Geo
100
AcDbLine
10
-84.1974477958237
20
-3.57655903420038
30
0.000000000000000
11
-84.0974477958237
21
-3.58236840439119
31
0.000000000000000
  0
LINE
  5
F107F2
330
F107F3
100
AcDbEntity
8
Geo
100
AcDbLine
10
-84.0974477958237
20
0.450653467303161
30
0.000000000000000
11
-83.9974477958237
21
0.298283024290506
31
0.000000000000000
  0
LINE
  5
F107F4
330
F107F5
100
AcDbEntity
8
Geo
100
AcDbLine
10
-83.9974477958237
20
4.33405458071652
30
0.000000000000000
11
-83.8974477958237
21
4.32813736468925
31
0.000000000000000
  0
LINE
  5
F107F6
330
F107F7
100
AcDbEntity
8
Geo
100
AcDbLine
10
-83.9974477958237
20
0.298283024290506
30
0.000000000000000
11
-83.8974477958237
21
0.146027510858799
31
0.000000000000000
  0
LINE
  5
F107F8
330
F107F9
100
AcDbEntity
8
Geo
100
AcDbLine
10
-83.8974477958237
20
4.32813736468925
30
0.000000000000000
11
-83.7974477958237
21
4.31636566068429
31
0.000000000000000
  0
LINE
  5
F107FA
330
F107FB
100
AcDbEntity
8
Geo
100
AcDbLine
10
-83.8974477958237
20
0.146027510858799
30
0.000000000000000
11
-83.7974477958237
21
-0.00588753711435397
31
0.000000000000000
  0
LINE
  5
F107FC
330
F107FD
100
AcDbEntity
8
Geo
100
AcDbLine
10
-83.7974477958237
20
4.31636566068429
30
0.000000000000000
11
-83.6974477958237
21
4.29875690611019
31
0.000000000000000
  0
LINE
  5
F107FE
330
F107FF
100
AcDbEntity
8
Geo
100
AcDbLine
10
-83.7974477958237
20
-0.00588753711435397
30
0.000000000000000
11
-83.6974477958237
21
-0.157237088082354
31
0.000000000000000
  0
LINE
  5
F10800
330
F10801
100
AcDbEntity
8
Geo
100
AcDbLine
10
-83.6974477958237
20
4.29875690611019
30
0.000000000000000
11
-83.5974477958237
21
4.27533718479031
31
0.000000000000000
  0
LINE
  5
F10802
330
F10803
100
AcDbEntity
8
Geo
100
AcDbLine
10
-83.6974477958237
20
-0.157237088082354
30
0.000000000000000
11
-83.5974477958237
21
-0.307796948168517
31
0.000000000000000
  0
LINE
  5
F10804
330
F10805
100
AcDbEntity
8
Geo
100
AcDbLine
10
-83.5974477958237
20
4.27533718479031
30
0.000000000000000
11
-83.4974477958237
21
4.24614118832485
31
0.000000000000000
  0
LINE
  5
F10806
330
F10807
100
AcDbEntity
8
Geo
100
AcDbLine
10
-83.5974477958237
20
-0.307796948168517
30
0.000000000000000
11
-83.4974477958237
21
-0.457344093264152
31
0.000000000000000
  0
LINE
  5
F10808
330
F10809
100
AcDbEntity
8
Geo
100
AcDbLine
10
-83.4974477958237
20
4.24614118832485
30
0.000000000000000
11
-83.3974477958237
21
4.21121216470226
31
0.000000000000000
  0
LINE
  5
F1080A
330
F1080B
100
AcDbEntity
8
Geo
100
AcDbLine
10
-83.4974477958237
20
-0.457344093264152
30
0.000000000000000
11
-83.3974477958237
21
-0.605656999393857
31
0.000000000000000
  0
LINE
  5
F1080C
330
F1080D
100
AcDbEntity
8
Geo
100
AcDbLine
10
-83.3974477958237
20
4.21121216470226
30
0.000000000000000
11
-83.2974477958237
21
4.17060185423604
31
0.000000000000000
  0
LINE
  5
F1080E
330
F1080F
100
AcDbEntity
8
Geo
100
AcDbLine
10
-83.3974477958237
20
-0.605656999393857
30
0.000000000000000
11
-83.2974477958237
21
-0.752515970858670
31
0.000000000000000
  0
LINE
  5
F10810
330
F10811
100
AcDbEntity
8
Geo
100
AcDbLine
10
-83.2974477958237
20
4.17060185423604
30
0.000000000000000
11
-83.1974477958237
21
4.12437041292187
31
0.000000000000000
  0
LINE
  5
F10812
330
F10813
100
AcDbEntity
8
Geo
100
AcDbLine
10
-83.2974477958237
20
-0.752515970858670
30
0.000000000000000
11
-83.1974477958237
21
-0.897703465671001
31
0.000000000000000
  0
LINE
  5
F10814
330
F10815
100
AcDbEntity
8
Geo
100
AcDbLine
10
-83.1974477958237
20
4.12437041292187
30
0.000000000000000
11
-83.0974477958237
21
4.07258632332867
31
0.000000000000000
  0
LINE
  5
F10816
330
F10817
100
AcDbEntity
8
Geo
100
AcDbLine
10
-83.1974477958237
20
-0.897703465671001
30
0.000000000000000
11
-83.0974477958237
21
-1.04100441779927
31
0.000000000000000
  0
LINE
  5
F10818
330
F10819
100
AcDbEntity
8
Geo
100
AcDbLine
10
-96.0974477958237
20
0.375870069605568
30
0.000000000000000
11
-96.0974477958237
21
0.375870069605568
31
0.000000000000000
  0
LINE
  5
F1081A
330
F1081B
100
AcDbEntity
8
Geo
100
AcDbLine
10
-96.0974477958237
20
0.375870069605568
30
0.000000000000000
11
-96.0974477958237
21
0.375870069605568
31
0.000000000000000
  0
LINE
  5
F1081C
330
F1081D
100
AcDbEntity
8
Geo
100
AcDbLine
10
-97.0974477958237
20
0.375870069605568
30
0.000000000000000
11
-96.7974477958237
21
0.375870069605568
31
0.000000000000000
  0
LINE
  5
F1081E
330
F1081F
100
AcDbEntity
8
Geo
100
AcDbLine
10
-96.6699477958237
20
0.375870069605568
30
0.000000000000000
11
-96.5849477958237
21
0.375870069605568
31
0.000000000000000
  0
LINE
  5
F10820
330
F10821
100
AcDbEntity
8
Geo
100
AcDbLine
10
-96.3724477958237
20
0.375870069605568
30
0.000000000000000
11
-95.9474477958237
21
0.375870069605568
31
0.000000000000000
  0
LINE
  5
F10822
330
F10823
100
AcDbEntity
8
Geo
100
AcDbLine
10
-95.8199477958237
20
0.375870069605568
30
0.000000000000000
11
-95.7349477958237
21
0.375870069605568
31
0.000000000000000
  0
LINE
  5
F10824
330
F10825
100
AcDbEntity
8
Geo
100
AcDbLine
10
-95.5224477958237
20
0.375870069605568
30
0.000000000000000
11
-95.0974477958237
21
0.375870069605568
31
0.000000000000000
  0
LINE
  5
F10826
330
F10827
100
AcDbEntity
8
Geo
100
AcDbLine
10
-32.0974477958237
20
3.87587006960557
30
0.000000000000000
11
-32.0974477958237
21
0.375870069605568
31
0.000000000000000
  0
LINE
  5
F10828
330
F10829
100
AcDbEntity
8
Geo
100
AcDbLine
10
-95.9932950316473
20
0.375870069605568
30
0.000000000000000
11
-96.0968386228428
21
-2.58923043369193
31
0.000000000000000
  0
ARC
  5
F1082A
330
F1082B
100
AcDbEntity
8
Geo
100
AcDbCircle
10
-95.0974477958237
20
-2.62412993039443
30
0.000000000000000
 40
1.00000000000000
100
AcDbArc
 50
178.000000000000
 51
270.000000000000
  0
LINE
  5
F1082C
330
F1082D
100
AcDbEntity
8
Geo
100
AcDbLine
10
-95.0974477958237
20
-3.62412993039443
30
0.000000000000000
11
-78.0974477958237
21
-3.62412993039443
31
0.000000000000000
  0
LINE
  5
F1082E
330
F1082F
100
AcDbEntity
8
Geo
100
AcDbLine
10
-78.0974477958237
20
-3.62412993039443
30
0.000000000000000
11
-32.5974477958237
21
-3.62412993039443
31
0.000000000000000
  0
LINE
  5
F10830
330
F10831
100
AcDbEntity
8
Geo
100
AcDbLine
10
-32.5974477958237
20
-3.62412993039443
30
0.000000000000000
11
-32.0974477958237
21
-3.12412993039443
31
0.000000000000000
  0
LINE
  5
F10832
330
F10833
100
AcDbEntity
8
Geo
100
AcDbLine
10
-95.0974477958237
20
4.37587006960557
30
0.000000000000000
11
-95.0974477958237
21
-3.62412993039443
31
0.000000000000000
  0
LINE
  5
F10834
330
F10835
100
AcDbEntity
8
Geo
100
AcDbLine
10
-95.0974477958237
20
4.37587006960557
30
0.000000000000000
11
-95.0974477958237
21
-3.62412993039443
31
0.000000000000000
  0
LINE
  5
F10836
330
F10837
100
AcDbEntity
8
Geo
100
AcDbLine
10
-78.0974477958237
20
4.37587006960557
30
0.000000000000000
11
-78.0974477958237
21
-3.62412993039443
31
0.000000000000000
  0
LINE
  5
F10838
330
F10839
100
AcDbEntity
8
Geo
100
AcDbLine
10
-78.0974477958237
20
4.37587006960557
30
0.000000000000000
11
-78.0974477958237
21
-3.62412993039443
31
0.000000000000000
  0
LINE
  5
F1083A
330
F1083B
100
AcDbEntity
8
Geo
100
AcDbLine
10
-32.5974477958237
20
4.37587006960557
30
0.000000000000000
11
-32.5974477958237
21
-3.62412993039443
31
0.000000000000000
  0
LINE
  5
F1083C
330
F1083D
100
AcDbEntity
8
Geo
100
AcDbLine
10
-32.0974477958237
20
3.87587006960557
30
0.000000000000000
11
-32.0974477958237
21
-3.12412993039443
31
0.000000000000000
  0
LWPOLYLINE
  5
F1083E
330
F1083F
100
AcDbEntity
8
Rahmen
100
AcDbPolyline
90
   4
70
   1
43
   0.0
 10
-125.619653009631
 20
102.895381004719
 10
134.455327327855
 20
102.895381004719
 10
134.455327327855
 20
-103.087139217360
 10
-125.619653009631
 20
-103.087139217360
  0
TEXT
  5
F10840
330
F10841
 100
AcDbEntity
8
Text
100
AcDbText
10
-124.639717137975
20
-102.587139217360
30
0.000000000000000
40
1.00000000000000
1
ISBESketcher
100
AcDbText
  0
LWPOLYLINE
  5
F10842
330
F10843
100
AcDbEntity
8
Rahmen
100
AcDbPolyline
90
   4
70
   1
43
   0.0
 10
94.4739437642925
 20
-100.147331602392
 10
134.455327327855
 20
-100.147331602392
 10
134.455327327855
 20
-103.087139217360
 10
94.4739437642925
 20
-103.087139217360
  0
TEXT
  5
F10844
330
F10845
 100
AcDbEntity
8
Text
100
AcDbText
10
95.5000000000000
20
-102.033948697325
30
0.000000000000000
40
0.750000000000000
1
Created by:
100
AcDbText
  0
TEXT
  5
F10846
330
F10847
 100
AcDbEntity
8
Text
100
AcDbText
10
120.148153908026
20
-102.033948697325
30
0.000000000000000
40
0.750000000000000
1
nsarkol
100
AcDbText
  0
LWPOLYLINE
  5
F10848
330
F10849
100
AcDbEntity
8
Rahmen
100
AcDbPolyline
90
   4
70
   1
43
   0.0
 10
54.4925602007302
 20
-100.147331602392
 10
94.4739437642925
 20
-100.147331602392
 10
94.4739437642925
 20
-103.087139217360
 10
54.4925602007302
 20
-103.087139217360
  0
TEXT
  5
F1084A
330
F1084B
 100
AcDbEntity
8
Text
100
AcDbText
10
55.5000000000000
20
-102.033948697325
30
0.000000000000000
40
0.750000000000000
1
Created for:
100
AcDbText
  0
TEXT
  5
F1084C
330
F1084D
 100
AcDbEntity
8
Text
100
AcDbText
10
0.000000000000000
20
0.250000000000000
30
0.000000000000000
40
0.750000000000000
1

100
AcDbText
  0
LWPOLYLINE
  5
F1084E
330
F1084F
100
AcDbEntity
8
Rahmen
100
AcDbPolyline
90
   4
70
   1
43
   0.0
 10
121.128199473334
 20
-97.0115368130927
 10
134.455327327855
 20
-97.0115368130927
 10
134.455327327855
 20
-100.147331602392
 10
121.128199473334
 20
-100.147331602392
  0
TEXT
  5
F10850
330
F10851
 100
AcDbEntity
8
Text
100
AcDbText
10
122.166666666667
20
-99.0339486973247
30
0.000000000000000
40
0.750000000000000
1
Pages
100
AcDbText
  0
TEXT
  5
F10852
330
F10853
 100
AcDbEntity
8
Text
100
AcDbText
10
0.000000000000000
20
0.250000000000000
30
0.000000000000000
40
0.750000000000000
1

100
AcDbText
  0
LWPOLYLINE
  5
F10854
330
F10855
100
AcDbEntity
8
Rahmen
100
AcDbPolyline
90
   4
70
   1
43
   0.0
 10
121.128199473334
 20
-94.0717291981249
 10
134.455327327855
 20
-94.0717291981249
 10
134.455327327855
 20
-97.0115368130927
 10
121.128199473334
 20
-97.0115368130927
  0
TEXT
  5
F10856
330
F10857
 100
AcDbEntity
8
Text
100
AcDbText
10
122.166666666667
20
-96.0339486973247
30
0.000000000000000
40
0.750000000000000
1
Page
100
AcDbText
  0
TEXT
  5
F10858
330
F10859
 100
AcDbEntity
8
Text
100
AcDbText
10
0.000000000000000
20
0.250000000000000
30
0.000000000000000
40
0.750000000000000
1

100
AcDbText
  0
LWPOLYLINE
  5
F1085A
330
F1085B
100
AcDbEntity
8
Rahmen
100
AcDbPolyline
90
   4
70
   1
43
   0.0
 10
54.4925602007302
 20
-94.0717291981249
 10
121.128199473334
 20
-94.0717291981249
 10
121.128199473334
 20
-100.147331602392
 10
54.4925602007302
 20
-100.147331602392
  0
TEXT
  5
F1085C
330
F1085D
 100
AcDbEntity
8
Text
100
AcDbText
10
55.5000000000000
20
-96.0339486973247
30
0.000000000000000
40
0.750000000000000
1
Date:
100
AcDbText
  0
TEXT
  5
F1085E
330
F1085F
 100
AcDbEntity
8
Text
100
AcDbText
10
84.2075706082064
20
-99.0339486973247
30
0.000000000000000
40
0.750000000000000
1
05.07.2016
100
AcDbText
  0
LWPOLYLINE
  5
F10860
330
F10861
100
AcDbEntity
8
Rahmen
100
AcDbPolyline
90
   4
70
   1
43
   0.0
 10
54.4925602007302
 20
-88.1921139681893
 10
134.455327327855
 20
-88.1921139681893
 10
134.455327327855
 20
-94.0717291981249
 10
54.4925602007302
 20
-94.0717291981249
  0
TEXT
  5
F10862
330
F10863
 100
AcDbEntity
8
Text
100
AcDbText
10
0.000000000000000
20
0.500000000000000
30
0.000000000000000
40
1.50000000000000
1

100
AcDbText
  0
TEXT
  5
F10864
330
F10865
 100
AcDbEntity
8
Text
100
AcDbText
10
66.7678148321370
20
-92.7144999329721
30
0.000000000000000
40
2.50000000000000
1
VHRS 4 080 064 08 03 100
100
AcDbText
  0
LWPOLYLINE
  5
F10866
330
F10867
100
AcDbEntity
8
Rahmen
100
AcDbPolyline
90
   4
70
   1
43
   0.0
 10
94.4739437642925
 20
-82.1165115639225
 10
134.455327327855
 20
-82.1165115639225
 10
134.455327327855
 20
-88.1921139681893
 10
94.4739437642925
 20
-88.1921139681893
  0
TEXT
  5
F10868
330
F10869
 100
AcDbEntity
8
Text
100
AcDbText
10
95.5000000000000
20
-84.0339486973247
30
0.000000000000000
40
0.750000000000000
1
Work piece material:
100
AcDbText
  0
TEXT
  5
F1086A
330
F1086B
 100
AcDbEntity
8
Text
100
AcDbText
10
0.000000000000000
20
0.250000000000000
30
0.000000000000000
40
0.750000000000000
1

100
AcDbText
  0
LWPOLYLINE
  5
F1086C
330
F1086D
100
AcDbEntity
8
Rahmen
100
AcDbPolyline
90
   4
70
   1
43
   0.0
 10
54.4925602007302
 20
-82.1165115639225
 10
94.4739437642925
 20
-82.1165115639225
 10
94.4739437642925
 20
-88.1921139681893
 10
54.4925602007302
 20
-88.1921139681893
  0
TEXT
  5
F1086E
330
F1086F
 100
AcDbEntity
8
Text
100
AcDbText
10
55.5000000000000
20
-84.0339486973247
30
0.000000000000000
40
0.750000000000000
1
Tool material:
100
AcDbText
  0
TEXT
  5
F10870
330
F10871
 100
AcDbEntity
8
Text
100
AcDbText
10
0.000000000000000
20
0.250000000000000
30
0.000000000000000
40
0.750000000000000
1

100
AcDbText
  0
LWPOLYLINE
  5
F10872
330
F10873
100
AcDbEntity
8
Rahmen
100
AcDbPolyline
90
   4
70
   1
43
   0.0
 10
94.4739437642925
 20
-79.1767039489547
 10
134.455327327855
 20
-79.1767039489547
 10
134.455327327855
 20
-82.1165115639225
 10
94.4739437642925
 20
-82.1165115639225
  0
TEXT
  5
F10874
330
F10875
 100
AcDbEntity
8
Text
100
AcDbText
10
0.000000000000000
20
0.500000000000000
30
0.000000000000000
40
1.50000000000000
1

100
AcDbText
  0
TEXT
  5
F10876
330
F10877
 100
AcDbEntity
8
Text
100
AcDbText
10
0.000000000000000
20
0.250000000000000
30
0.000000000000000
40
0.750000000000000
1

100
AcDbText
  0
LWPOLYLINE
  5
F10878
330
F10879
100
AcDbEntity
8
Rahmen
100
AcDbPolyline
90
   4
70
   1
43
   0.0
 10
54.4925602007302
 20
-79.1767039489547
 10
94.4739437642925
 20
-79.1767039489547
 10
94.4739437642925
 20
-82.1165115639225
 10
54.4925602007302
 20
-82.1165115639225
  0
TEXT
  5
F1087A
330
F1087B
 100
AcDbEntity
8
Text
100
AcDbText
10
55.5000000000000
20
-81.0339486973247
30
0.000000000000000
40
0.750000000000000
1
Scale:
100
AcDbText
  0
TEXT
  5
F1087C
330
F1087D
 100
AcDbEntity
8
Text
100
AcDbText
10
81.0300961925161
20
-81.0339486973247
30
0.000000000000000
40
0.750000000000000
1
3 : 1
100
AcDbText
0
VIEWPORT
5
294
102
{ACAD_XDICTIONARY
360
58A
102
}
330
25D
100
AcDbEntity
67
1
8
0
60
1
100
AcDbViewport
10
0.0
20
0.0
30
0.0
40
10.0
41
10.0
68
-1
69
1
12
0.0
22
0.0
13
0.0
23
0.0
14
1.0
24
1.0
15
0.0
25
0.0
16
0.0
26
0.0
36
1.0
17
0.0
27
0.0
37
0.0
42
0.0
43
0.0
44
0.0
45
10.0
50
0.0
51
0.0000000000007958
72
100
90
32800
1

281
0
71
0
74
0
110
0.0
120
0.0
130
0.0
111
1.0
121
0.0
131
0.0
112
0.0
122
1.0
132
0.0
79
0
146
0.0
1001
VD_INVISIBLE_NOT_FOR_READ
1000
VD_INVISIBLE_NOT_FOR_READ
0
VIEWPORT
5
295
102
{ACAD_XDICTIONARY
360
58C
102
}
330
25D
100
AcDbEntity
67
1
8
0
60
1
100
AcDbViewport
10
0.0
20
0.0
30
0.0
40
10.0
41
10.0
68
0
69
2
12
0.0
22
0.0
13
0.0
23
0.0
14
1.0
24
1.0
15
0.0
25
0.0
16
0.0
26
0.0
36
1.0
17
0.0
27
0.0
37
0.0
42
0.0
43
0.0
44
0.0
45
10.0
50
0.0
51
0.0000000000007958
72
100
90
163872
1

281
0
71
0
74
0
110
0.0
120
0.0
130
0.0
111
1.0
121
0.0
131
0.0
112
0.0
122
1.0
132
0.0
79
0
146
0.0
1001
VD_INVISIBLE_NOT_FOR_READ
1000
VD_INVISIBLE_NOT_FOR_READ
0
ENDSEC
0
SECTION
2
OBJECTS
0
DICTIONARY
5
13
330
0
100
AcDbDictionary
281
1
3
ACAD_COLOR
350
FA7
3
ACAD_GROUP
350
14
3
ACAD_LAYOUT
350
FCF
3
ACAD_MATERIAL
350
F7A
3
ACAD_MLEADERSTYLE
350
FCD
3
ACAD_MLINESTYLE
350
16
3
ACAD_PLOTSETTINGS
350
17
3
ACAD_PLOTSTYLENAME
350
18
3
ACAD_SCALELIST
350
FAB
3
ACAD_TABLESTYLE
350
FA8
3
ACAD_VISUALSTYLE
350
F93
3
ACDB_RECOMPOSE_DATA
350
107E
3
AcDbVariableDictionary
350
FF0
3
DWGPROPS
350
107F
0
DICTIONARY
5
F10014
330
F10013
100
AcDbDictionary
280
1
281
1
3
ACAD_MTEXT_2008_RT
360
F10015
0
DICTIONARY
5
F1001E
330
F1001D
100
AcDbDictionary
280
1
281
1
3
ACAD_MTEXT_2008_RT
360
F1001F
0
DICTIONARY
5
F10023
330
F10022
100
AcDbDictionary
280
1
281
1
3
ACAD_MTEXT_2008_RT
360
F10024
0
DICTIONARY
5
F10005
330
F10004
100
AcDbDictionary
280
1
281
1
3
ACAD_MTEXT_2008_RT
360
F10006
0
DICTIONARY
5
F1000F
330
F1000E
100
AcDbDictionary
280
1
281
1
3
ACAD_MTEXT_2008_RT
360
F10010
0
DICTIONARY
5
F1000A
330
F10009
100
AcDbDictionary
280
1
281
1
3
ACAD_MTEXT_2008_RT
360
F1000B
0
DICTIONARY
5
F10019
330
F10018
100
AcDbDictionary
280
1
281
1
3
ACAD_MTEXT_2008_RT
360
F1001A
0
DICTIONARY
5
FA7
102
{ACAD_REACTORS
330
13
102
}
330
13
100
AcDbDictionary
281
1
0
DICTIONARY
5
14
330
13
100
AcDbDictionary
281
1
0
DICTIONARY
5
FCF
102
{ACAD_REACTORS
330
13
102
}
330
13
100
AcDbDictionary
281
1
3
Layout1
350
FD1
3
Model
350
FD0
0
DICTIONARY
5
F7A
102
{ACAD_REACTORS
330
13
102
}
330
13
100
AcDbDictionary
281
1
3
ByBlock
350
F83
3
ByLayer
350
F7B
3
Global
350
F8B
0
DICTIONARY
5
FCD
102
{ACAD_REACTORS
330
13
102
}
330
13
100
AcDbDictionary
281
1
3
Standard
350
FCE
0
DICTIONARY
5
16
330
13
100
AcDbDictionary
281
1
3
Standard
350
FAA
0
DICTIONARY
5
17
102
{ACAD_REACTORS
330
13
102
}
330
13
100
AcDbDictionary
281
1
0
ACDBDICTIONARYWDFLT
5
18
102
{ACAD_REACTORS
330
13
102
}
330
13
100
AcDbDictionary
281
1
3
Normal
350
19
100
AcDbDictionaryWithDefault
340
19
0
DICTIONARY
5
FAB
102
{ACAD_REACTORS
330
13
102
}
330
13
100
AcDbDictionary
281
1
3
A0
350
FAC
3
A1
350
FAD
3
A2
350
FAE
3
A3
350
FAF
3
A4
350
FB0
3
A5
350
FB1
3
A6
350
FB2
3
A7
350
FB3
3
A8
350
FB4
3
A9
350
FB5
3
B0
350
FB6
3
B1
350
FB7
3
B2
350
FB8
3
B3
350
FB9
3
B4
350
FBA
3
B5
350
FBB
3
B6
350
FBC
3
B7
350
FBD
3
B8
350
FBE
3
B9
350
FBF
3
C0
350
FC0
3
C1
350
FC1
3
C2
350
FC2
3
C3
350
FC3
3
C4
350
FC4
3
C5
350
FC5
3
C6
350
FC6
3
C7
350
FC7
3
C8
350
FC8
3
C9
350
FC9
3
D0
350
FCA
3
D1
350
FCB
3
D2
350
FCC
0
DICTIONARY
5
FA8
102
{ACAD_REACTORS
330
13
102
}
330
13
100
AcDbDictionary
281
1
3
Standard
350
FA9
0
DICTIONARY
5
F93
102
{ACAD_REACTORS
330
13
102
}
330
13
100
AcDbDictionary
281
1
3
2dWireframe
350
F99
3
3D Hidden
350
F9B
3
3dWireframe
350
F9A
3
Basic
350
F98
3
Brighten
350
F9F
3
ColorChange
350
FA3
3
Conceptual
350
F9C
3
Dim
350
F9E
3
EdgeColorOff
350
FA6
3
Facepattern
350
FA2
3
Flat
350
F94
3
FlatWithEdges
350
F95
3
Gouraud
350
F96
3
GouraudWithEdges
350
F97
3
JitterOff
350
FA4
3
Linepattern
350
FA1
3
OverhangOff
350
FA5
3
Realistic
350
F9D
3
Thicken
350
FA0
0
XRECORD
5
107E
102
{ACAD_REACTORS
330
13
102
}
330
13
100
AcDbXrecord
280
1
90
1
330
FA9
330
F10013
330
F1001D
330
F10022
330
F10004
330
F1000E
330
F10009
330
F10018
0
XRECORD
5
F10015
102
{ACAD_REACTORS
330
F10014
102
}
330
F10014
100
AcDbXrecord
280
1
40
48458.0
1
46
0
XRECORD
5
F1001F
102
{ACAD_REACTORS
330
F1001E
102
}
330
F1001E
100
AcDbXrecord
280
1
40
48458.0
1
18
0
XRECORD
5
F10024
102
{ACAD_REACTORS
330
F10023
102
}
330
F10023
100
AcDbXrecord
280
1
40
48458.0
1
64
0
XRECORD
5
F10006
102
{ACAD_REACTORS
330
F10005
102
}
330
F10005
100
AcDbXrecord
280
1
40
48458.0
1
2°
0
XRECORD
5
F10010
102
{ACAD_REACTORS
330
F1000F
102
}
330
F1000F
100
AcDbXrecord
280
1
40
48458.0
1
R1
0
XRECORD
5
F1000B
102
{ACAD_REACTORS
330
F1000A
102
}
330
F1000A
100
AcDbXrecord
280
1
40
48458.0
1
8
0
LAYOUT
5
FD1
102
{ACAD_XDICTIONARY
360
10A9
102
}
102
{ACAD_REACTORS
330
FCF
102
}
330
FCF
100
AcDbPlotSettings
1

2
Microsoft XPS Document Writer
4

6

40
0.0
41
0.0
42
0.0
43
0.0
44
0.0
45
0.0
46
0.0
47
0.0
48
0.0
49
0.0
140
0.0
141
0.0
142
1.0
143
1.0
70
688
72
0
73
0
74
5
7

75
16
147
1.0
148
0.0
149
0.0
100
AcDbLayout
1
Layout1
70
1
71
1
10
0.0
20
0.0
11
12.0
21
9.0
12
0.0
22
0.0
32
0.0
14
1.000000000000000E+20
24
1.000000000000000E+20
34
1.000000000000000E+20
15
-1.000000000000000E+20
25
-1.000000000000000E+20
35
-1.000000000000000E+20
146
0.0
13
0.0
23
0.0
33
0.0
16
1.0
26
0.0
36
0.0
17
0.0
27
1.0
37
0.0
76
0
330
25D
0
LAYOUT
5
FD0
102
{ACAD_XDICTIONARY
360
10A7
102
}
102
{ACAD_REACTORS
330
FCF
102
}
330
FCF
100
AcDbPlotSettings
1

2
Microsoft XPS Document Writer
4

6

40
0.0
41
0.0
42
0.0
43
0.0
44
0.0
45
0.0
46
0.0
47
0.0
48
0.0
49
0.0
140
0.0
141
0.0
142
1.0
143
1.0
70
1712
72
0
73
0
74
0
7

75
0
147
1.0
148
0.0
149
0.0
100
AcDbLayout
1
Model
70
1
71
0
10
0.0
20
0.0
11
12.0
21
9.0
12
0.0
22
0.0
32
0.0
14
0.0
24
0.0
34
0.0
15
0.0
25
0.0
35
0.0
146
0.0
13
0.0
23
0.0
33
0.0
16
1.0
26
0.0
36
0.0
17
0.0
27
1.0
37
0.0
76
0
330
261
331
26B
0
MATERIAL
5
F83
102
{ACAD_XDICTIONARY
360
F84
102
}
102
{ACAD_REACTORS
330
F7A
102
}
330
F7A
100
AcDbMaterial
1
ByBlock
72
0
43
0.0208333333333333
43
0.0
43
0.0
43
0.0
43
0.0
43
0.0208333333333333
43
0.0
43
0.0
43
0.0
43
0.0
43
1.0
43
0.0
43
0.0
43
0.0
43
0.0
43
1.0
77
0
47
0.0208333333333333
47
0.0
47
0.0
47
0.0
47
0.0
47
0.0208333333333333
47
0.0
47
0.0
47
0.0
47
0.0
47
1.0
47
0.0
47
0.0
47
0.0
47
0.0
47
1.0
171
0
49
0.0208333333333333
49
0.0
49
0.0
49
0.0
49
0.0
49
0.0208333333333333
49
0.0
49
0.0
49
0.0
49
0.0
49
1.0
49
0.0
49
0.0
49
0.0
49
0.0
49
1.0
175
0
142
0.0208333333333333
142
0.0
142
0.0
142
0.0
142
0.0
142
0.0208333333333333
142
0.0
142
0.0
142
0.0
142
0.0
142
1.0
142
0.0
142
0.0
142
0.0
142
0.0
142
1.0
179
0
144
0.0208333333333333
144
0.0
144
0.0
144
0.0
144
0.0
144
0.0208333333333333
144
0.0
144
0.0
144
0.0
144
0.0
144
1.0
144
0.0
144
0.0
144
0.0
144
0.0
144
1.0
147
0.0208333333333333
147
0.0
147
0.0
147
0.0
147
0.0
147
0.0208333333333333
147
0.0
147
0.0
147
0.0
147
0.0
147
1.0
147
0.0
147
0.0
147
0.0
147
0.0
147
1.0
0
MATERIAL
5
F7B
102
{ACAD_XDICTIONARY
360
F7C
102
}
102
{ACAD_REACTORS
330
F7A
102
}
330
F7A
100
AcDbMaterial
1
ByLayer
72
0
43
0.0208333333333333
43
0.0
43
0.0
43
0.0
43
0.0
43
0.0208333333333333
43
0.0
43
0.0
43
0.0
43
0.0
43
1.0
43
0.0
43
0.0
43
0.0
43
0.0
43
1.0
77
0
47
0.0208333333333333
47
0.0
47
0.0
47
0.0
47
0.0
47
0.0208333333333333
47
0.0
47
0.0
47
0.0
47
0.0
47
1.0
47
0.0
47
0.0
47
0.0
47
0.0
47
1.0
171
0
49
0.0208333333333333
49
0.0
49
0.0
49
0.0
49
0.0
49
0.0208333333333333
49
0.0
49
0.0
49
0.0
49
0.0
49
1.0
49
0.0
49
0.0
49
0.0
49
0.0
49
1.0
175
0
142
0.0208333333333333
142
0.0
142
0.0
142
0.0
142
0.0
142
0.0208333333333333
142
0.0
142
0.0
142
0.0
142
0.0
142
1.0
142
0.0
142
0.0
142
0.0
142
0.0
142
1.0
179
0
144
0.0208333333333333
144
0.0
144
0.0
144
0.0
144
0.0
144
0.0208333333333333
144
0.0
144
0.0
144
0.0
144
0.0
144
1.0
144
0.0
144
0.0
144
0.0
144
0.0
144
1.0
147
0.0208333333333333
147
0.0
147
0.0
147
0.0
147
0.0
147
0.0208333333333333
147
0.0
147
0.0
147
0.0
147
0.0
147
1.0
147
0.0
147
0.0
147
0.0
147
0.0
147
1.0
0
MATERIAL
5
F8B
102
{ACAD_XDICTIONARY
360
F8C
102
}
102
{ACAD_REACTORS
330
F7A
102
}
330
F7A
100
AcDbMaterial
1
Global
72
0
43
0.0208333333333333
43
0.0
43
0.0
43
0.0
43
0.0
43
0.0208333333333333
43
0.0
43
0.0
43
0.0
43
0.0
43
1.0
43
0.0
43
0.0
43
0.0
43
0.0
43
1.0
77
0
47
0.0208333333333333
47
0.0
47
0.0
47
0.0
47
0.0
47
0.0208333333333333
47
0.0
47
0.0
47
0.0
47
0.0
47
1.0
47
0.0
47
0.0
47
0.0
47
0.0
47
1.0
171
0
49
0.0208333333333333
49
0.0
49
0.0
49
0.0
49
0.0
49
0.0208333333333333
49
0.0
49
0.0
49
0.0
49
0.0
49
1.0
49
0.0
49
0.0
49
0.0
49
0.0
49
1.0
175
0
142
0.0208333333333333
142
0.0
142
0.0
142
0.0
142
0.0
142
0.0208333333333333
142
0.0
142
0.0
142
0.0
142
0.0
142
1.0
142
0.0
142
0.0
142
0.0
142
0.0
142
1.0
179
0
144
0.0208333333333333
144
0.0
144
0.0
144
0.0
144
0.0
144
0.0208333333333333
144
0.0
144
0.0
144
0.0
144
0.0
144
1.0
144
0.0
144
0.0
144
0.0
144
0.0
144
1.0
147
0.0208333333333333
147
0.0
147
0.0
147
0.0
147
0.0
147
0.0208333333333333
147
0.0
147
0.0
147
0.0
147
0.0
147
1.0
147
0.0
147
0.0
147
0.0
147
0.0
147
1.0
0
MLEADERSTYLE
5
FCE
102
{ACAD_REACTORS
330
FCD
102
}
330
FCD
100
AcDbMLeaderStyle
170
2
171
1
172
0
90
2
40
0.0
41
0.0
173
1
91
-1056964608
340
256
92
-2
290
1
42
0.09
291
1
43
0.36
3
Standard
44
0.18
300

342
253
174
1
178
6
175
1
176
0
93
-1056964608
45
0.18
292
0
297
0
46
0.18
94
-1056964608
47
1.0
49
1.0
140
1.0
293
1
141
0.0
294
1
177
0
142
1.0
295
0
296
0
143
0.125
1001
ACAD_MLEADERVER
1070
2
0
MLINESTYLE
5
FAA
102
{ACAD_REACTORS
330
16
102
}
330
16
100
AcDbMlineStyle
2
STANDARD
70
0
3

62
256
51
90.0
52
90.0
71
2
49
0.5
62
256
6
BYLAYER
49
-0.5
62
256
6
BYLAYER
0
ACDBPLACEHOLDER
5
19
102
{ACAD_REACTORS
330
18
102
}
330
18
0
SCALE
5
FAC
102
{ACAD_REACTORS
330
FAB
102
}
330
FAB
100
AcDbScale
70
0
300
1:1
140
1.0
141
1.0
290
1
0
SCALE
5
FAD
102
{ACAD_REACTORS
330
FAB
102
}
330
FAB
100
AcDbScale
70
0
300
1:2
140
1.0
141
2.0
290
0
0
SCALE
5
FAE
102
{ACAD_REACTORS
330
FAB
102
}
330
FAB
100
AcDbScale
70
0
300
1:4
140
1.0
141
4.0
290
0
0
SCALE
5
FAF
102
{ACAD_REACTORS
330
FAB
102
}
330
FAB
100
AcDbScale
70
0
300
1:5
140
1.0
141
5.0
290
0
0
SCALE
5
FB0
102
{ACAD_REACTORS
330
FAB
102
}
330
FAB
100
AcDbScale
70
0
300
1:8
140
1.0
141
8.0
290
0
0
SCALE
5
FB1
102
{ACAD_REACTORS
330
FAB
102
}
330
FAB
100
AcDbScale
70
0
300
1:10
140
1.0
141
10.0
290
0
0
SCALE
5
FB2
102
{ACAD_REACTORS
330
FAB
102
}
330
FAB
100
AcDbScale
70
0
300
1:16
140
1.0
141
16.0
290
0
0
SCALE
5
FB3
102
{ACAD_REACTORS
330
FAB
102
}
330
FAB
100
AcDbScale
70
0
300
1:20
140
1.0
141
20.0
290
0
0
SCALE
5
FB4
102
{ACAD_REACTORS
330
FAB
102
}
330
FAB
100
AcDbScale
70
0
300
1:30
140
1.0
141
30.0
290
0
0
SCALE
5
FB5
102
{ACAD_REACTORS
330
FAB
102
}
330
FAB
100
AcDbScale
70
0
300
1:40
140
1.0
141
40.0
290
0
0
SCALE
5
FB6
102
{ACAD_REACTORS
330
FAB
102
}
330
FAB
100
AcDbScale
70
0
300
1:50
140
1.0
141
50.0
290
0
0
SCALE
5
FB7
102
{ACAD_REACTORS
330
FAB
102
}
330
FAB
100
AcDbScale
70
0
300
1:100
140
1.0
141
100.0
290
0
0
SCALE
5
FB8
102
{ACAD_REACTORS
330
FAB
102
}
330
FAB
100
AcDbScale
70
0
300
2:1
140
2.0
141
1.0
290
0
0
SCALE
5
FB9
102
{ACAD_REACTORS
330
FAB
102
}
330
FAB
100
AcDbScale
70
0
300
4:1
140
4.0
141
1.0
290
0
0
SCALE
5
FBA
102
{ACAD_REACTORS
330
FAB
102
}
330
FAB
100
AcDbScale
70
0
300
8:1
140
8.0
141
1.0
290
0
0
SCALE
5
FBB
102
{ACAD_REACTORS
330
FAB
102
}
330
FAB
100
AcDbScale
70
0
300
10:1
140
10.0
141
1.0
290
0
0
SCALE
5
FBC
102
{ACAD_REACTORS
330
FAB
102
}
330
FAB
100
AcDbScale
70
0
300
100:1
140
100.0
141
1.0
290
0
0
SCALE
5
FBD
102
{ACAD_REACTORS
330
FAB
102
}
330
FAB
100
AcDbScale
70
0
300
1/128" = 1'-0"
140
0.0078125
141
12.0
290
0
0
SCALE
5
FBE
102
{ACAD_REACTORS
330
FAB
102
}
330
FAB
100
AcDbScale
70
0
300
1/64" = 1'-0"
140
0.015625
141
12.0
290
0
0
SCALE
5
FBF
102
{ACAD_REACTORS
330
FAB
102
}
330
FAB
100
AcDbScale
70
0
300
1/32" = 1'-0"
140
0.03125
141
12.0
290
0
0
SCALE
5
FC0
102
{ACAD_REACTORS
330
FAB
102
}
330
FAB
100
AcDbScale
70
0
300
1/16" = 1'-0"
140
0.0625
141
12.0
290
0
0
SCALE
5
FC1
102
{ACAD_REACTORS
330
FAB
102
}
330
FAB
100
AcDbScale
70
0
300
3/32" = 1'-0"
140
0.09375
141
12.0
290
0
0
SCALE
5
FC2
102
{ACAD_REACTORS
330
FAB
102
}
330
FAB
100
AcDbScale
70
0
300
1/8" = 1'-0"
140
0.125
141
12.0
290
0
0
SCALE
5
FC3
102
{ACAD_REACTORS
330
FAB
102
}
330
FAB
100
AcDbScale
70
0
300
3/16" = 1'-0"
140
0.1875
141
12.0
290
0
0
SCALE
5
FC4
102
{ACAD_REACTORS
330
FAB
102
}
330
FAB
100
AcDbScale
70
0
300
1/4" = 1'-0"
140
0.25
141
12.0
290
0
0
SCALE
5
FC5
102
{ACAD_REACTORS
330
FAB
102
}
330
FAB
100
AcDbScale
70
0
300
3/8" = 1'-0"
140
0.375
141
12.0
290
0
0
SCALE
5
FC6
102
{ACAD_REACTORS
330
FAB
102
}
330
FAB
100
AcDbScale
70
0
300
1/2" = 1'-0"
140
0.5
141
12.0
290
0
0
SCALE
5
FC7
102
{ACAD_REACTORS
330
FAB
102
}
330
FAB
100
AcDbScale
70
0
300
3/4" = 1'-0"
140
0.75
141
12.0
290
0
0
SCALE
5
FC8
102
{ACAD_REACTORS
330
FAB
102
}
330
FAB
100
AcDbScale
70
0
300
1" = 1'-0"
140
1.0
141
12.0
290
0
0
SCALE
5
FC9
102
{ACAD_REACTORS
330
FAB
102
}
330
FAB
100
AcDbScale
70
0
300
1-1/2" = 1'-0"
140
1.5
141
12.0
290
0
0
SCALE
5
FCA
102
{ACAD_REACTORS
330
FAB
102
}
330
FAB
100
AcDbScale
70
0
300
3" = 1'-0"
140
3.0
141
12.0
290
0
0
SCALE
5
FCB
102
{ACAD_REACTORS
330
FAB
102
}
330
FAB
100
AcDbScale
70
0
300
6" = 1'-0"
140
6.0
141
12.0
290
0
0
SCALE
5
FCC
102
{ACAD_REACTORS
330
FAB
102
}
330
FAB
100
AcDbScale
70
0
300
1'-0" = 1'-0"
140
12.0
141
12.0
290
0
0
TABLESTYLE
5
FA9
102
{ACAD_XDICTIONARY
360
FF8
102
}
102
{ACAD_REACTORS
330
FA8
102
}
330
FA8
100
AcDbTableStyle
3
Standard
70
0
71
0
40
0.06
41
0.06
280
0
281
0
7
Standard
140
0.18
170
2
62
0
63
7
283
0
274
-2
284
1
64
0
275
-2
285
1
65
0
276
-2
286
1
66
0
277
-2
287
1
67
0
278
-2
288
1
68
0
279
-2
289
1
69
0
7
Standard
140
0.25
170
5
62
0
63
7
283
0
274
-2
284
1
64
0
275
-2
285
1
65
0
276
-2
286
1
66
0
277
-2
287
1
67
0
278
-2
288
1
68
0
279
-2
289
1
69
0
7
Standard
140
0.18
170
5
62
0
63
7
283
0
274
-2
284
1
64
0
275
-2
285
1
65
0
276
-2
286
1
66
0
277
-2
287
1
67
0
278
-2
288
1
68
0
279
-2
289
1
69
0
0
VISUALSTYLE
5
F99
102
{ACAD_XDICTIONARY
360
108A
102
}
102
{ACAD_REACTORS
330
F93
102
}
330
F93
100
AcDbVisualStyle
2

70
4
71
0
72
2
73
0
90
0
40
-0.6
41
-30.0
62
5
63
7
74
1
91
4
64
7
65
257
75
1
175
1
42
1.0
92
0
66
257
43
1.0
76
1
77
6
78
2
67
7
79
5
170
0
171
0
290
0
174
0
93
1
44
0.0
173
0
291
0
45
0.0
1001
ACAD
1000
AcDbSavedByObjectVersion
1070
0
0
VISUALSTYLE
5
F9B
102
{ACAD_XDICTIONARY
360
108E
102
}
102
{ACAD_REACTORS
330
F93
102
}
330
F93
100
AcDbVisualStyle
2

70
6
71
1
72
2
73
2
90
0
40
-0.6
41
-30.0
62
5
63
7
74
2
91
2
64
7
65
257
75
2
175
1
42
179.0
92
0
66
257
43
1.0
76
1
77
6
78
2
67
7
79
3
170
0
171
0
290
0
174
0
93
1
44
0.0
173
0
291
0
45
0.0
1001
ACAD
1000
AcDbSavedByObjectVersion
1070
0
0
VISUALSTYLE
5
F9A
102
{ACAD_XDICTIONARY
360
108C
102
}
102
{ACAD_REACTORS
330
F93
102
}
330
F93
100
AcDbVisualStyle
2

70
5
71
0
72
2
73
0
90
0
40
-0.6
41
-30.0
62
5
63
7
74
1
91
4
64
7
65
257
75
1
175
1
42
1.0
92
0
66
257
43
1.0
76
1
77
6
78
2
67
7
79
5
170
0
171
0
290
0
174
0
93
1
44
0.0
173
0
291
0
45
0.0
1001
ACAD
1000
AcDbSavedByObjectVersion
1070
0
0
VISUALSTYLE
5
F98
102
{ACAD_XDICTIONARY
360
1088
102
}
102
{ACAD_REACTORS
330
F93
102
}
330
F93
100
AcDbVisualStyle
2

70
7
71
1
72
0
73
1
90
0
40
-0.6
41
-30.0
62
5
63
7
74
0
91
4
64
7
65
257
75
1
175
1
42
1.0
92
8
66
7
43
1.0
76
1
77
6
78
2
67
7
79
5
170
0
171
0
290
0
174
0
93
1
44
0.0
173
0
291
1
45
0.0
1001
ACAD
1000
AcDbSavedByObjectVersion
1070
0
0
VISUALSTYLE
5
F9F
102
{ACAD_XDICTIONARY
360
1096
102
}
102
{ACAD_REACTORS
330
F93
102
}
330
F93
100
AcDbVisualStyle
2

70
12
71
2
72
2
73
0
90
0
40
-0.6
41
-30.0
62
5
63
7
74
1
91
4
64
7
65
257
75
1
175
1
42
1.0
92
8
66
7
43
1.0
76
1
77
6
78
2
67
7
79
5
170
0
171
0
290
0
174
0
93
1
44
50.0
173
0
291
1
45
0.0
1001
ACAD
1000
AcDbSavedByObjectVersion
1070
0
0
VISUALSTYLE
5
FA3
102
{ACAD_XDICTIONARY
360
109E
102
}
102
{ACAD_REACTORS
330
F93
102
}
330
F93
100
AcDbVisualStyle
2

70
16
71
2
72
2
73
3
90
0
40
-0.6
41
-30.0
62
5
63
8
74
1
91
4
64
7
65
257
75
1
175
1
42
1.0
92
8
66
8
43
1.0
76
1
77
6
78
2
67
7
79
5
170
0
171
0
290
0
174
0
93
1
44
0.0
173
0
291
1
45
0.0
1001
ACAD
1000
AcDbSavedByObjectVersion
1070
0
0
VISUALSTYLE
5
F9C
102
{ACAD_XDICTIONARY
360
1090
102
}
102
{ACAD_REACTORS
330
F93
102
}
330
F93
100
AcDbVisualStyle
2

70
9
71
3
72
2
73
0
90
0
40
-0.6
41
-30.0
62
5
63
7
74
2
91
2
64
7
65
257
75
1
175
1
42
179.0
92
8
66
7
43
1.0
76
1
77
6
78
2
67
7
79
3
170
0
171
0
290
0
174
0
93
1
44
0.0
173
0
291
0
45
0.0
1001
ACAD
1000
AcDbSavedByObjectVersion
1070
0
0
VISUALSTYLE
5
F9E
102
{ACAD_XDICTIONARY
360
1094
102
}
102
{ACAD_REACTORS
330
F93
102
}
330
F93
100
AcDbVisualStyle
2

70
11
71
2
72
2
73
0
90
0
40
-0.6
41
-30.0
62
5
63
7
74
1
91
4
64
7
65
257
75
1
175
1
42
1.0
92
8
66
7
43
1.0
76
1
77
6
78
2
67
7
79
5
170
0
171
0
290
0
174
0
93
1
44
-50.0
173
0
291
1
45
0.0
1001
ACAD
1000
AcDbSavedByObjectVersion
1070
0
0
VISUALSTYLE
5
FA6
102
{ACAD_XDICTIONARY
360
10A4
102
}
102
{ACAD_REACTORS
330
F93
102
}
330
F93
100
AcDbVisualStyle
2

70
22
71
2
72
2
73
0
90
0
40
-0.6
41
-30.0
62
5
63
7
74
1
91
4
64
7
65
257
75
1
175
1
42
1.0
92
8
66
7
43
1.0
76
1
77
6
78
2
67
7
79
5
170
0
171
0
290
0
174
0
93
1
44
0.0
173
0
291
1
45
0.0
1001
ACAD
1000
AcDbSavedByObjectVersion
1070
0
0
VISUALSTYLE
5
FA2
102
{ACAD_XDICTIONARY
360
109C
102
}
102
{ACAD_REACTORS
330
F93
102
}
330
F93
100
AcDbVisualStyle
2

70
15
71
2
72
2
73
0
90
0
40
-0.6
41
-30.0
62
5
63
7
74
1
91
4
64
7
65
257
75
1
175
1
42
1.0
92
8
66
7
43
1.0
76
1
77
6
78
2
67
7
79
5
170
0
171
0
290
0
174
0
93
1
44
0.0
173
0
291
1
45
0.0
1001
ACAD
1000
AcDbSavedByObjectVersion
1070
0
0
VISUALSTYLE
5
F94
102
{ACAD_XDICTIONARY
360
1080
102
}
102
{ACAD_REACTORS
330
F93
102
}
330
F93
100
AcDbVisualStyle
2

70
0
71
2
72
1
73
1
90
2
40
-0.6
41
30.0
62
5
63
7
74
0
91
4
64
7
65
257
75
1
175
1
42
1.0
92
8
66
7
43
1.0
76
1
77
6
78
2
67
7
79
5
170
0
171
0
290
0
174
0
93
13
44
0.0
173
0
291
1
45
0.0
1001
ACAD
1000
AcDbSavedByObjectVersion
1070
0
0
VISUALSTYLE
5
F95
102
{ACAD_XDICTIONARY
360
1082
102
}
102
{ACAD_REACTORS
330
F93
102
}
330
F93
100
AcDbVisualStyle
2

70
1
71
2
72
1
73
1
90
2
40
-0.6
41
30.0
62
5
63
7
74
1
91
4
64
7
65
257
75
1
175
1
42
1.0
92
0
66
257
43
1.0
76
1
77
6
78
2
67
7
79
5
170
0
171
0
290
0
174
0
93
13
44
0.0
173
0
291
1
45
0.0
1001
ACAD
1000
AcDbSavedByObjectVersion
1070
0
0
VISUALSTYLE
5
F96
102
{ACAD_XDICTIONARY
360
1084
102
}
102
{ACAD_REACTORS
330
F93
102
}
330
F93
100
AcDbVisualStyle
2

70
2
71
2
72
2
73
1
90
2
40
-0.6
41
30.0
62
5
63
7
74
0
91
4
64
7
65
257
75
1
175
1
42
1.0
92
0
66
7
43
1.0
76
1
77
6
78
2
67
7
79
5
170
0
171
0
290
0
174
0
93
13
44
0.0
173
0
291
1
45
0.0
1001
ACAD
1000
AcDbSavedByObjectVersion
1070
0
0
VISUALSTYLE
5
F97
102
{ACAD_XDICTIONARY
360
1086
102
}
102
{ACAD_REACTORS
330
F93
102
}
330
F93
100
AcDbVisualStyle
2

70
3
71
2
72
2
73
1
90
2
40
-0.6
41
30.0
62
5
63
7
74
1
91
4
64
7
65
257
75
1
175
1
42
1.0
92
0
66
257
43
1.0
76
1
77
6
78
2
67
7
79
5
170
0
171
0
290
0
174
0
93
13
44
0.0
173
0
291
1
45
0.0
1001
ACAD
1000
AcDbSavedByObjectVersion
1070
0
0
VISUALSTYLE
5
FA4
102
{ACAD_XDICTIONARY
360
10A0
102
}
102
{ACAD_REACTORS
330
F93
102
}
330
F93
100
AcDbVisualStyle
2

70
20
71
2
72
2
73
0
90
0
40
-0.6
41
-30.0
62
5
63
7
74
1
91
4
64
7
65
257
75
1
175
1
42
1.0
92
10
66
7
43
1.0
76
1
77
6
78
2
67
7
79
5
170
0
171
0
290
0
174
0
93
1
44
0.0
173
0
291
1
45
0.0
1001
ACAD
1000
AcDbSavedByObjectVersion
1070
0
0
VISUALSTYLE
5
FA1
102
{ACAD_XDICTIONARY
360
109A
102
}
102
{ACAD_REACTORS
330
F93
102
}
330
F93
100
AcDbVisualStyle
2

70
14
71
2
72
2
73
0
90
0
40
-0.6
41
-30.0
62
5
63
7
74
1
91
4
64
7
65
257
75
7
175
7
42
1.0
92
8
66
7
43
1.0
76
1
77
6
78
2
67
7
79
5
170
0
171
0
290
0
174
0
93
1
44
0.0
173
0
291
1
45
0.0
1001
ACAD
1000
AcDbSavedByObjectVersion
1070
0
0
VISUALSTYLE
5
FA5
102
{ACAD_XDICTIONARY
360
10A2
102
}
102
{ACAD_REACTORS
330
F93
102
}
330
F93
100
AcDbVisualStyle
2

70
21
71
2
72
2
73
0
90
0
40
-0.6
41
-30.0
62
5
63
7
74
1
91
4
64
7
65
257
75
1
175
1
42
1.0
92
9
66
7
43
1.0
76
1
77
6
78
2
67
7
79
5
170
0
171
0
290
0
174
0
93
1
44
0.0
173
0
291
1
45
0.0
1001
ACAD
1000
AcDbSavedByObjectVersion
1070
0
0
VISUALSTYLE
5
F9D
102
{ACAD_XDICTIONARY
360
1092
102
}
102
{ACAD_REACTORS
330
F93
102
}
330
F93
100
AcDbVisualStyle
2

70
8
71
2
72
2
73
0
90
0
40
-0.6
41
-30.0
62
5
63
7
74
1
91
0
64
7
65
257
75
1
175
1
42
1.0
92
8
66
8
43
1.0
76
1
77
6
78
2
67
7
79
5
170
0
171
0
290
0
174
0
93
13
44
0.0
173
0
291
0
45
0.0
1001
ACAD
1000
AcDbSavedByObjectVersion
1070
0
0
VISUALSTYLE
5
FA0
102
{ACAD_XDICTIONARY
360
1098
102
}
102
{ACAD_REACTORS
330
F93
102
}
330
F93
100
AcDbVisualStyle
2

70
13
71
2
72
2
73
0
90
0
40
-0.6
41
-30.0
62
5
63
7
74
1
91
4
64
7
65
257
75
1
175
1
42
1.0
92
12
66
7
43
1.0
76
1
77
6
78
2
67
7
79
5
170
0
171
0
290
0
174
0
93
1
44
0.0
173
0
291
1
45
0.0
1001
ACAD
1000
AcDbSavedByObjectVersion
1070
0
0
DICTIONARYVAR
5
FF3
102
{ACAD_REACTORS
330
FF0
102
}
330
FF0
100
DictionaryVariables
280
0
1
1:1
0
DICTIONARYVAR
5
FF2
102
{ACAD_REACTORS
330
FF0
102
}
330
FF0
100
DictionaryVariables
280
0
1
STANDARD
0
DICTIONARYVAR
5
FF1
102
{ACAD_REACTORS
330
FF0
102
}
330
FF0
100
DictionaryVariables
280
0
1
STANDARD
0
DICTIONARYVAR
5
FF6
102
{ACAD_REACTORS
330
FF0
102
}
330
FF0
100
DictionaryVariables
280
0
1
1
0
DICTIONARYVAR
5
FF5
102
{ACAD_REACTORS
330
FF0
102
}
330
FF0
100
DictionaryVariables
280
0
1
0
0
DICTIONARYVAR
5
FF4
102
{ACAD_REACTORS
330
FF0
102
}
330
FF0
100
DictionaryVariables
280
0
1
127
0
DICTIONARYVAR
5
1078
102
{ACAD_REACTORS
330
FF0
102
}
330
FF0
100
DictionaryVariables
280
0
1
2
0
DICTIONARY
5
10A9
330
FD1
100
AcDbDictionary
280
1
281
1
3
ACAD_XREC_ROUNDTRIP
360
10AA
0
DICTIONARY
5
10A7
330
FD0
100
AcDbDictionary
280
1
281
1
3
ACAD_XREC_ROUNDTRIP
360
10A8
0
DICTIONARY
5
F84
330
F83
100
AcDbDictionary
280
1
281
1
3
ACAD_XREC_ROUNDTRIP
360
FFF
3
BUMPTILE
360
F86
3
DIFFUSETILE
360
F85
3
OPACITYTILE
360
F89
3
REFLECTIONTILE
360
F88
3
REFRACTIONTILE
360
F8A
3
SPECULARTILE
360
F87
0
DICTIONARY
5
F7C
330
F7B
100
AcDbDictionary
280
1
281
1
3
ACAD_XREC_ROUNDTRIP
360
FFE
3
BUMPTILE
360
F7E
3
DIFFUSETILE
360
F7D
3
OPACITYTILE
360
F81
3
REFLECTIONTILE
360
F80
3
REFRACTIONTILE
360
F82
3
SPECULARTILE
360
F7F
0
DICTIONARY
5
F8C
330
F8B
100
AcDbDictionary
280
1
281
1
3
ACAD_XREC_ROUNDTRIP
360
1000
3
BUMPTILE
360
F8E
3
DIFFUSETILE
360
F8D
3
OPACITYTILE
360
F91
3
REFLECTIONTILE
360
F90
3
REFRACTIONTILE
360
F92
3
SPECULARTILE
360
F8F
0
DICTIONARY
5
FF8
330
FA9
100
AcDbDictionary
280
1
281
1
3
ACAD_ROUNDTRIP_2008_TABLESTYLE_CELLSTYLEMAP
360
1079
3
ACAD_XREC_ROUNDTRIP
360
10A6
0
DICTIONARY
5
108A
330
F99
100
AcDbDictionary
280
1
281
1
3
ACAD_XREC_ROUNDTRIP
360
108B
0
DICTIONARY
5
108E
330
F9B
100
AcDbDictionary
280
1
281
1
3
ACAD_XREC_ROUNDTRIP
360
108F
0
DICTIONARY
5
108C
330
F9A
100
AcDbDictionary
280
1
281
1
3
ACAD_XREC_ROUNDTRIP
360
108D
0
DICTIONARY
5
1088
330
F98
100
AcDbDictionary
280
1
281
1
3
ACAD_XREC_ROUNDTRIP
360
1089
0
DICTIONARY
5
1096
330
F9F
100
AcDbDictionary
280
1
281
1
3
ACAD_XREC_ROUNDTRIP
360
1097
0
DICTIONARY
5
109E
330
FA3
100
AcDbDictionary
280
1
281
1
3
ACAD_XREC_ROUNDTRIP
360
109F
0
DICTIONARY
5
1090
330
F9C
100
AcDbDictionary
280
1
281
1
3
ACAD_XREC_ROUNDTRIP
360
1091
0
DICTIONARY
5
1094
330
F9E
100
AcDbDictionary
280
1
281
1
3
ACAD_XREC_ROUNDTRIP
360
1095
0
DICTIONARY
5
10A4
330
FA6
100
AcDbDictionary
280
1
281
1
3
ACAD_XREC_ROUNDTRIP
360
10A5
0
DICTIONARY
5
109C
330
FA2
100
AcDbDictionary
280
1
281
1
3
ACAD_XREC_ROUNDTRIP
360
109D
0
DICTIONARY
5
1080
330
F94
100
AcDbDictionary
280
1
281
1
3
ACAD_XREC_ROUNDTRIP
360
1081
0
DICTIONARY
5
1082
330
F95
100
AcDbDictionary
280
1
281
1
3
ACAD_XREC_ROUNDTRIP
360
1083
0
DICTIONARY
5
1084
330
F96
100
AcDbDictionary
280
1
281
1
3
ACAD_XREC_ROUNDTRIP
360
1085
0
DICTIONARY
5
1086
330
F97
100
AcDbDictionary
280
1
281
1
3
ACAD_XREC_ROUNDTRIP
360
1087
0
DICTIONARY
5
10A0
330
FA4
100
AcDbDictionary
280
1
281
1
3
ACAD_XREC_ROUNDTRIP
360
10A1
0
DICTIONARY
5
109A
330
FA1
100
AcDbDictionary
280
1
281
1
3
ACAD_XREC_ROUNDTRIP
360
109B
0
DICTIONARY
5
10A2
330
FA5
100
AcDbDictionary
280
1
281
1
3
ACAD_XREC_ROUNDTRIP
360
10A3
0
DICTIONARY
5
1092
330
F9D
100
AcDbDictionary
280
1
281
1
3
ACAD_XREC_ROUNDTRIP
360
1093
0
DICTIONARY
5
1098
330
FA0
100
AcDbDictionary
280
1
281
1
3
ACAD_XREC_ROUNDTRIP
360
1099
0
XRECORD
5
10AA
102
{ACAD_REACTORS
330
10A9
102
}
330
10A9
100
AcDbXrecord
280
1
102
SHADEPLOT
70
0
102
SHADEPLOTRESLEVEL
70
2
102
SHADEPLOTCUSTOMDPI
70
300
0
XRECORD
5
10A8
102
{ACAD_REACTORS
330
10A7
102
}
330
10A7
100
AcDbXrecord
280
1
102
SHADEPLOT
70
0
102
SHADEPLOTRESLEVEL
70
2
102
SHADEPLOTCUSTOMDPI
70
300
0
XRECORD
5
FFF
102
{ACAD_REACTORS
330
F84
102
}
330
F84
100
AcDbXrecord
280
1
102
MATERIAL
148
0.0
149
0.0
149
0.0
93
0
94
127
282
0
72
0
77
0
171
0
175
0
179
0
273
0
0
XRECORD
5
F86
102
{ACAD_REACTORS
330
F84
102
}
330
F84
100
AcDbXrecord
280
1
270
1
271
1
0
XRECORD
5
F85
102
{ACAD_REACTORS
330
F84
102
}
330
F84
100
AcDbXrecord
280
1
270
1
271
1
0
XRECORD
5
F89
102
{ACAD_REACTORS
330
F84
102
}
330
F84
100
AcDbXrecord
280
1
270
1
271
1
0
XRECORD
5
F88
102
{ACAD_REACTORS
330
F84
102
}
330
F84
100
AcDbXrecord
280
1
270
1
271
1
0
XRECORD
5
F8A
102
{ACAD_REACTORS
330
F84
102
}
330
F84
100
AcDbXrecord
280
1
270
1
271
1
0
XRECORD
5
F87
102
{ACAD_REACTORS
330
F84
102
}
330
F84
100
AcDbXrecord
280
1
270
1
271
1
0
XRECORD
5
FFE
102
{ACAD_REACTORS
330
F7C
102
}
330
F7C
100
AcDbXrecord
280
1
102
MATERIAL
148
0.0
149
0.0
149
0.0
93
0
94
127
282
0
72
0
77
0
171
0
175
0
179
0
273
0
0
XRECORD
5
F7E
102
{ACAD_REACTORS
330
F7C
102
}
330
F7C
100
AcDbXrecord
280
1
270
1
271
1
0
XRECORD
5
F7D
102
{ACAD_REACTORS
330
F7C
102
}
330
F7C
100
AcDbXrecord
280
1
270
1
271
1
0
XRECORD
5
F81
102
{ACAD_REACTORS
330
F7C
102
}
330
F7C
100
AcDbXrecord
280
1
270
1
271
1
0
XRECORD
5
F80
102
{ACAD_REACTORS
330
F7C
102
}
330
F7C
100
AcDbXrecord
280
1
270
1
271
1
0
XRECORD
5
F82
102
{ACAD_REACTORS
330
F7C
102
}
330
F7C
100
AcDbXrecord
280
1
270
1
271
1
0
XRECORD
5
F7F
102
{ACAD_REACTORS
330
F7C
102
}
330
F7C
100
AcDbXrecord
280
1
270
1
271
1
0
XRECORD
5
1000
102
{ACAD_REACTORS
330
F8C
102
}
330
F8C
100
AcDbXrecord
280
1
102
MATERIAL
148
0.0
149
0.0
149
0.0
93
0
94
127
282
0
72
0
77
0
171
0
175
0
179
0
273
0
0
XRECORD
5
F8E
102
{ACAD_REACTORS
330
F8C
102
}
330
F8C
100
AcDbXrecord
280
1
270
1
271
1
0
XRECORD
5
F8D
102
{ACAD_REACTORS
330
F8C
102
}
330
F8C
100
AcDbXrecord
280
1
270
1
271
1
0
XRECORD
5
F91
102
{ACAD_REACTORS
330
F8C
102
}
330
F8C
100
AcDbXrecord
280
1
270
1
271
1
0
XRECORD
5
F90
102
{ACAD_REACTORS
330
F8C
102
}
330
F8C
100
AcDbXrecord
280
1
270
1
271
1
0
XRECORD
5
F92
102
{ACAD_REACTORS
330
F8C
102
}
330
F8C
100
AcDbXrecord
280
1
270
1
271
1
0
XRECORD
5
F8F
102
{ACAD_REACTORS
330
F8C
102
}
330
F8C
100
AcDbXrecord
280
1
270
1
271
1
0
CELLSTYLEMAP
5
1079
102
{ACAD_REACTORS
330
FF8
102
}
330
FF8
100
AcDbCellStyleMap
90
3
300
CELLSTYLE
1
TABLEFORMAT_BEGIN
90
5
170
1
91
0
92
32768
62
257
93
1
300
CONTENTFORMAT
1
CONTENTFORMAT_BEGIN
90
0
91
0
92
512
93
0
300

40
0.0
140
1.0
94
5
62
0
340
253
144
0.25
309
CONTENTFORMAT_END
171
1
301
MARGIN
1
CELLMARGIN_BEGIN
40
0.06
40
0.06
40
0.06
40
0.06
40
0.18
40
0.18
309
CELLMARGIN_END
94
6
95
1
302
GRIDFORMAT
1
GRIDFORMAT_BEGIN
90
0
91
1
62
0
92
-2
340
0
93
0
40
0.045
309
GRIDFORMAT_END
95
2
302
GRIDFORMAT
1
GRIDFORMAT_BEGIN
90
0
91
1
62
0
92
-2
340
0
93
0
40
0.045
309
GRIDFORMAT_END
95
4
302
GRIDFORMAT
1
GRIDFORMAT_BEGIN
90
0
91
1
62
0
92
-2
340
0
93
0
40
0.045
309
GRIDFORMAT_END
95
8
302
GRIDFORMAT
1
GRIDFORMAT_BEGIN
90
0
91
1
62
0
92
-2
340
0
93
0
40
0.045
309
GRIDFORMAT_END
95
16
302
GRIDFORMAT
1
GRIDFORMAT_BEGIN
90
0
91
1
62
0
92
-2
340
0
93
0
40
0.045
309
GRIDFORMAT_END
95
32
302
GRIDFORMAT
1
GRIDFORMAT_BEGIN
90
0
91
1
62
0
92
-2
340
0
93
0
40
0.045
309
GRIDFORMAT_END
309
TABLEFORMAT_END
1
CELLSTYLE_BEGIN
90
1
91
1
300
_TITLE
309
CELLSTYLE_END
300
CELLSTYLE
1
TABLEFORMAT_BEGIN
90
5
170
1
91
0
92
0
62
257
93
1
300
CONTENTFORMAT
1
CONTENTFORMAT_BEGIN
90
0
91
0
92
512
93
0
300

40
0.0
140
1.0
94
5
62
0
340
253
144
0.18
309
CONTENTFORMAT_END
171
1
301
MARGIN
1
CELLMARGIN_BEGIN
40
0.06
40
0.06
40
0.06
40
0.06
40
0.18
40
0.18
309
CELLMARGIN_END
94
6
95
1
302
GRIDFORMAT
1
GRIDFORMAT_BEGIN
90
0
91
1
62
0
92
-2
340
0
93
0
40
0.045
309
GRIDFORMAT_END
95
2
302
GRIDFORMAT
1
GRIDFORMAT_BEGIN
90
0
91
1
62
0
92
-2
340
0
93
0
40
0.045
309
GRIDFORMAT_END
95
4
302
GRIDFORMAT
1
GRIDFORMAT_BEGIN
90
0
91
1
62
0
92
-2
340
0
93
0
40
0.045
309
GRIDFORMAT_END
95
8
302
GRIDFORMAT
1
GRIDFORMAT_BEGIN
90
0
91
1
62
0
92
-2
340
0
93
0
40
0.045
309
GRIDFORMAT_END
95
16
302
GRIDFORMAT
1
GRIDFORMAT_BEGIN
90
0
91
1
62
0
92
-2
340
0
93
0
40
0.045
309
GRIDFORMAT_END
95
32
302
GRIDFORMAT
1
GRIDFORMAT_BEGIN
90
0
91
1
62
0
92
-2
340
0
93
0
40
0.045
309
GRIDFORMAT_END
309
TABLEFORMAT_END
1
CELLSTYLE_BEGIN
90
2
91
1
300
_HEADER
309
CELLSTYLE_END
300
CELLSTYLE
1
TABLEFORMAT_BEGIN
90
5
170
1
91
0
92
0
62
257
93
1
300
CONTENTFORMAT
1
CONTENTFORMAT_BEGIN
90
0
91
0
92
512
93
0
300

40
0.0
140
1.0
94
2
62
0
340
253
144
0.18
309
CONTENTFORMAT_END
171
1
301
MARGIN
1
CELLMARGIN_BEGIN
40
0.06
40
0.06
40
0.06
40
0.06
40
0.18
40
0.18
309
CELLMARGIN_END
94
6
95
1
302
GRIDFORMAT
1
GRIDFORMAT_BEGIN
90
0
91
1
62
0
92
-2
340
0
93
0
40
0.045
309
GRIDFORMAT_END
95
2
302
GRIDFORMAT
1
GRIDFORMAT_BEGIN
90
0
91
1
62
0
92
-2
340
0
93
0
40
0.045
309
GRIDFORMAT_END
95
4
302
GRIDFORMAT
1
GRIDFORMAT_BEGIN
90
0
91
1
62
0
92
-2
340
0
93
0
40
0.045
309
GRIDFORMAT_END
95
8
302
GRIDFORMAT
1
GRIDFORMAT_BEGIN
90
0
91
1
62
0
92
-2
340
0
93
0
40
0.045
309
GRIDFORMAT_END
95
16
302
GRIDFORMAT
1
GRIDFORMAT_BEGIN
90
0
91
1
62
0
92
-2
340
0
93
0
40
0.045
309
GRIDFORMAT_END
95
32
302
GRIDFORMAT
1
GRIDFORMAT_BEGIN
90
0
91
1
62
0
92
-2
340
0
93
0
40
0.045
309
GRIDFORMAT_END
309
TABLEFORMAT_END
1
CELLSTYLE_BEGIN
90
3
91
2
300
_DATA
309
CELLSTYLE_END
0
XRECORD
5
10A6
102
{ACAD_REACTORS
330
FF8
102
}
330
FF8
100
AcDbXrecord
280
1
102
ACAD_ROUNDTRIP_PRE2007_TABLESTYLE
90
512
91
0
1

92
512
93
0
2

94
512
95
0
3

0
XRECORD
5
108B
102
{ACAD_REACTORS
330
108A
102
}
330
108A
100
AcDbXrecord
280
1
102
RTVSPropertyOp0
70
1
102
RTVSPropertyOp1
70
1
102
RTVSPropertyOp2
70
1
102
RTVSPropertyOp3
70
1
102
RTVSPropertyOp4
70
1
102
RTVSPropertyOp5
70
1
102
RTVSPropertyOp6
70
1
102
RTVSPropertyOp7
70
1
102
RTVSPropertyOp8
70
1
102
RTVSPropertyOp9
70
1
102
RTVSPropertyOp10
70
1
102
RTVSPropertyOp11
70
1
102
RTVSPropertyOp12
70
1
102
RTVSPropertyOp13
70
1
102
RTVSPropertyOp14
70
1
102
RTVSPropertyOp15
70
1
102
RTVSPropertyOp16
70
1
102
RTVSPropertyOp17
70
1
102
RTVSPropertyOp18
70
1
102
RTVSPropertyOp19
70
1
102
RTVSPropertyOp20
70
1
102
RTVSPropertyOp21
70
1
102
RTVSPropertyOp22
70
1
102
RTVSPropertyOp23
70
1
102
RTVSPropertyOp24
70
1
102
RTVSPropertyOp25
70
1
102
RTVSPropertyOp26
70
1
102
RTVSPropertyOp27
70
1
0
XRECORD
5
108F
102
{ACAD_REACTORS
330
108E
102
}
330
108E
100
AcDbXrecord
280
1
102
RTVSPropertyOp0
70
1
102
RTVSPropertyOp1
70
1
102
RTVSPropertyOp2
70
1
102
RTVSPropertyOp3
70
1
102
RTVSPropertyOp4
70
1
102
RTVSPropertyOp5
70
1
102
RTVSPropertyOp6
70
1
102
RTVSPropertyOp7
70
1
102
RTVSPropertyOp8
70
1
102
RTVSPropertyOp9
70
1
102
RTVSPropertyOp10
70
1
102
RTVSPropertyOp11
70
1
102
RTVSPropertyOp12
70
1
102
RTVSPropertyOp13
70
1
102
RTVSPropertyOp14
70
1
102
RTVSPropertyOp15
70
1
102
RTVSPropertyOp16
70
1
102
RTVSPropertyOp17
70
1
102
RTVSPropertyOp18
70
1
102
RTVSPropertyOp19
70
1
102
RTVSPropertyOp20
70
1
102
RTVSPropertyOp21
70
1
102
RTVSPropertyOp22
70
1
102
RTVSPropertyOp23
70
1
102
RTVSPropertyOp24
70
1
102
RTVSPropertyOp25
70
1
102
RTVSPropertyOp26
70
1
102
RTVSPropertyOp27
70
1
0
XRECORD
5
108D
102
{ACAD_REACTORS
330
108C
102
}
330
108C
100
AcDbXrecord
280
1
102
RTVSPropertyOp0
70
1
102
RTVSPropertyOp1
70
1
102
RTVSPropertyOp2
70
1
102
RTVSPropertyOp3
70
1
102
RTVSPropertyOp4
70
1
102
RTVSPropertyOp5
70
1
102
RTVSPropertyOp6
70
1
102
RTVSPropertyOp7
70
1
102
RTVSPropertyOp8
70
1
102
RTVSPropertyOp9
70
1
102
RTVSPropertyOp10
70
1
102
RTVSPropertyOp11
70
1
102
RTVSPropertyOp12
70
1
102
RTVSPropertyOp13
70
1
102
RTVSPropertyOp14
70
1
102
RTVSPropertyOp15
70
1
102
RTVSPropertyOp16
70
1
102
RTVSPropertyOp17
70
1
102
RTVSPropertyOp18
70
1
102
RTVSPropertyOp19
70
1
102
RTVSPropertyOp20
70
1
102
RTVSPropertyOp21
70
1
102
RTVSPropertyOp22
70
1
102
RTVSPropertyOp23
70
1
102
RTVSPropertyOp24
70
1
102
RTVSPropertyOp25
70
1
102
RTVSPropertyOp26
70
1
102
RTVSPropertyOp27
70
1
0
XRECORD
5
1089
102
{ACAD_REACTORS
330
1088
102
}
330
1088
100
AcDbXrecord
280
1
102
RTVSPropertyOp0
70
1
102
RTVSPropertyOp1
70
1
102
RTVSPropertyOp2
70
1
102
RTVSPropertyOp3
70
1
102
RTVSPropertyOp4
70
1
102
RTVSPropertyOp5
70
1
102
RTVSPropertyOp6
70
1
102
RTVSPropertyOp7
70
1
102
RTVSPropertyOp8
70
1
102
RTVSPropertyOp9
70
1
102
RTVSPropertyOp10
70
1
102
RTVSPropertyOp11
70
1
102
RTVSPropertyOp12
70
1
102
RTVSPropertyOp13
70
1
102
RTVSPropertyOp14
70
1
102
RTVSPropertyOp15
70
1
102
RTVSPropertyOp16
70
1
102
RTVSPropertyOp17
70
1
102
RTVSPropertyOp18
70
1
102
RTVSPropertyOp19
70
1
102
RTVSPropertyOp20
70
1
102
RTVSPropertyOp21
70
1
102
RTVSPropertyOp22
70
1
102
RTVSPropertyOp23
70
1
102
RTVSPropertyOp24
70
1
102
RTVSPropertyOp25
70
1
102
RTVSPropertyOp26
70
1
102
RTVSPropertyOp27
70
1
0
XRECORD
5
1097
102
{ACAD_REACTORS
330
1096
102
}
330
1096
100
AcDbXrecord
280
1
102
RTVSPropertyOp0
70
1
102
RTVSPropertyOp1
70
1
102
RTVSPropertyOp2
70
1
102
RTVSPropertyOp3
70
1
102
RTVSPropertyOp4
70
1
102
RTVSPropertyOp5
70
1
102
RTVSPropertyOp6
70
1
102
RTVSPropertyOp7
70
1
102
RTVSPropertyOp8
70
1
102
RTVSPropertyOp9
70
1
102
RTVSPropertyOp10
70
1
102
RTVSPropertyOp11
70
1
102
RTVSPropertyOp12
70
1
102
RTVSPropertyOp13
70
1
102
RTVSPropertyOp14
70
1
102
RTVSPropertyOp15
70
1
102
RTVSPropertyOp16
70
1
102
RTVSPropertyOp17
70
1
102
RTVSPropertyOp18
70
1
102
RTVSPropertyOp19
70
1
102
RTVSPropertyOp20
70
1
102
RTVSPropertyOp21
70
1
102
RTVSPropertyOp22
70
1
102
RTVSPropertyOp23
70
1
102
RTVSPropertyOp24
70
1
102
RTVSPropertyOp25
70
1
102
RTVSPropertyOp26
70
1
102
RTVSPropertyOp27
70
1
0
XRECORD
5
109F
102
{ACAD_REACTORS
330
109E
102
}
330
109E
100
AcDbXrecord
280
1
102
RTVSPropertyOp0
70
1
102
RTVSPropertyOp1
70
1
102
RTVSPropertyOp2
70
1
102
RTVSPropertyOp3
70
1
102
RTVSPropertyOp4
70
1
102
RTVSPropertyOp5
70
1
102
RTVSPropertyOp6
70
1
102
RTVSPropertyOp7
70
1
102
RTVSPropertyOp8
70
1
102
RTVSPropertyOp9
70
1
102
RTVSPropertyOp10
70
1
102
RTVSPropertyOp11
70
1
102
RTVSPropertyOp12
70
1
102
RTVSPropertyOp13
70
1
102
RTVSPropertyOp14
70
1
102
RTVSPropertyOp15
70
1
102
RTVSPropertyOp16
70
1
102
RTVSPropertyOp17
70
1
102
RTVSPropertyOp18
70
1
102
RTVSPropertyOp19
70
1
102
RTVSPropertyOp20
70
1
102
RTVSPropertyOp21
70
1
102
RTVSPropertyOp22
70
1
102
RTVSPropertyOp23
70
1
102
RTVSPropertyOp24
70
1
102
RTVSPropertyOp25
70
1
102
RTVSPropertyOp26
70
1
102
RTVSPropertyOp27
70
1
0
XRECORD
5
1091
102
{ACAD_REACTORS
330
1090
102
}
330
1090
100
AcDbXrecord
280
1
102
RTVSPropertyOp0
70
1
102
RTVSPropertyOp1
70
1
102
RTVSPropertyOp2
70
1
102
RTVSPropertyOp3
70
1
102
RTVSPropertyOp4
70
1
102
RTVSPropertyOp5
70
1
102
RTVSPropertyOp6
70
1
102
RTVSPropertyOp7
70
1
102
RTVSPropertyOp8
70
1
102
RTVSPropertyOp9
70
1
102
RTVSPropertyOp10
70
1
102
RTVSPropertyOp11
70
1
102
RTVSPropertyOp12
70
1
102
RTVSPropertyOp13
70
1
102
RTVSPropertyOp14
70
1
102
RTVSPropertyOp15
70
1
102
RTVSPropertyOp16
70
1
102
RTVSPropertyOp17
70
1
102
RTVSPropertyOp18
70
1
102
RTVSPropertyOp19
70
1
102
RTVSPropertyOp20
70
1
102
RTVSPropertyOp21
70
1
102
RTVSPropertyOp22
70
1
102
RTVSPropertyOp23
70
1
102
RTVSPropertyOp24
70
1
102
RTVSPropertyOp25
70
1
102
RTVSPropertyOp26
70
1
102
RTVSPropertyOp27
70
1
0
XRECORD
5
1095
102
{ACAD_REACTORS
330
1094
102
}
330
1094
100
AcDbXrecord
280
1
102
RTVSPropertyOp0
70
1
102
RTVSPropertyOp1
70
1
102
RTVSPropertyOp2
70
1
102
RTVSPropertyOp3
70
1
102
RTVSPropertyOp4
70
1
102
RTVSPropertyOp5
70
1
102
RTVSPropertyOp6
70
1
102
RTVSPropertyOp7
70
1
102
RTVSPropertyOp8
70
1
102
RTVSPropertyOp9
70
1
102
RTVSPropertyOp10
70
1
102
RTVSPropertyOp11
70
1
102
RTVSPropertyOp12
70
1
102
RTVSPropertyOp13
70
1
102
RTVSPropertyOp14
70
1
102
RTVSPropertyOp15
70
1
102
RTVSPropertyOp16
70
1
102
RTVSPropertyOp17
70
1
102
RTVSPropertyOp18
70
1
102
RTVSPropertyOp19
70
1
102
RTVSPropertyOp20
70
1
102
RTVSPropertyOp21
70
1
102
RTVSPropertyOp22
70
1
102
RTVSPropertyOp23
70
1
102
RTVSPropertyOp24
70
1
102
RTVSPropertyOp25
70
1
102
RTVSPropertyOp26
70
1
102
RTVSPropertyOp27
70
1
0
XRECORD
5
10A5
102
{ACAD_REACTORS
330
10A4
102
}
330
10A4
100
AcDbXrecord
280
1
102
RTVSPropertyOp0
70
0
102
RTVSPropertyOp1
70
0
102
RTVSPropertyOp2
70
0
102
RTVSPropertyOp3
70
0
102
RTVSPropertyOp4
70
0
102
RTVSPropertyOp5
70
0
102
RTVSPropertyOp6
70
0
102
RTVSPropertyOp7
70
0
102
RTVSPropertyOp8
70
0
102
RTVSPropertyOp9
70
0
102
RTVSPropertyOp10
70
0
102
RTVSPropertyOp11
70
0
102
RTVSPropertyOp12
70
0
102
RTVSPropertyOp13
70
0
102
RTVSPropertyOp14
70
2
102
RTVSPropertyOp15
70
0
102
RTVSPropertyOp16
70
0
102
RTVSPropertyOp17
70
0
102
RTVSPropertyOp18
70
0
102
RTVSPropertyOp19
70
0
102
RTVSPropertyOp20
70
0
102
RTVSPropertyOp21
70
0
102
RTVSPropertyOp22
70
0
102
RTVSPropertyOp23
70
0
102
RTVSPropertyOp24
70
0
102
RTVSPropertyOp25
70
0
102
RTVSPropertyOp26
70
0
102
RTVSPropertyOp27
70
0
0
XRECORD
5
109D
102
{ACAD_REACTORS
330
109C
102
}
330
109C
100
AcDbXrecord
280
1
102
RTVSPropertyOp0
70
1
102
RTVSPropertyOp1
70
1
102
RTVSPropertyOp2
70
1
102
RTVSPropertyOp3
70
1
102
RTVSPropertyOp4
70
1
102
RTVSPropertyOp5
70
1
102
RTVSPropertyOp6
70
1
102
RTVSPropertyOp7
70
1
102
RTVSPropertyOp8
70
1
102
RTVSPropertyOp9
70
1
102
RTVSPropertyOp10
70
1
102
RTVSPropertyOp11
70
1
102
RTVSPropertyOp12
70
1
102
RTVSPropertyOp13
70
1
102
RTVSPropertyOp14
70
1
102
RTVSPropertyOp15
70
1
102
RTVSPropertyOp16
70
1
102
RTVSPropertyOp17
70
1
102
RTVSPropertyOp18
70
1
102
RTVSPropertyOp19
70
1
102
RTVSPropertyOp20
70
1
102
RTVSPropertyOp21
70
1
102
RTVSPropertyOp22
70
1
102
RTVSPropertyOp23
70
1
102
RTVSPropertyOp24
70
1
102
RTVSPropertyOp25
70
1
102
RTVSPropertyOp26
70
1
102
RTVSPropertyOp27
70
1
0
XRECORD
5
1081
102
{ACAD_REACTORS
330
1080
102
}
330
1080
100
AcDbXrecord
280
1
102
RTVSPropertyOp0
70
1
102
RTVSPropertyOp1
70
1
102
RTVSPropertyOp2
70
1
102
RTVSPropertyOp3
70
1
102
RTVSPropertyOp4
70
1
102
RTVSPropertyOp5
70
1
102
RTVSPropertyOp6
70
1
102
RTVSPropertyOp7
70
1
102
RTVSPropertyOp8
70
1
102
RTVSPropertyOp9
70
1
102
RTVSPropertyOp10
70
1
102
RTVSPropertyOp11
70
1
102
RTVSPropertyOp12
70
1
102
RTVSPropertyOp13
70
1
102
RTVSPropertyOp14
70
1
102
RTVSPropertyOp15
70
1
102
RTVSPropertyOp16
70
1
102
RTVSPropertyOp17
70
1
102
RTVSPropertyOp18
70
1
102
RTVSPropertyOp19
70
1
102
RTVSPropertyOp20
70
1
102
RTVSPropertyOp21
70
1
102
RTVSPropertyOp22
70
1
102
RTVSPropertyOp23
70
1
102
RTVSPropertyOp24
70
1
102
RTVSPropertyOp25
70
1
102
RTVSPropertyOp26
70
1
102
RTVSPropertyOp27
70
1
0
XRECORD
5
1083
102
{ACAD_REACTORS
330
1082
102
}
330
1082
100
AcDbXrecord
280
1
102
RTVSPropertyOp0
70
1
102
RTVSPropertyOp1
70
1
102
RTVSPropertyOp2
70
1
102
RTVSPropertyOp3
70
1
102
RTVSPropertyOp4
70
1
102
RTVSPropertyOp5
70
1
102
RTVSPropertyOp6
70
1
102
RTVSPropertyOp7
70
1
102
RTVSPropertyOp8
70
1
102
RTVSPropertyOp9
70
1
102
RTVSPropertyOp10
70
1
102
RTVSPropertyOp11
70
1
102
RTVSPropertyOp12
70
1
102
RTVSPropertyOp13
70
1
102
RTVSPropertyOp14
70
1
102
RTVSPropertyOp15
70
1
102
RTVSPropertyOp16
70
1
102
RTVSPropertyOp17
70
1
102
RTVSPropertyOp18
70
1
102
RTVSPropertyOp19
70
1
102
RTVSPropertyOp20
70
1
102
RTVSPropertyOp21
70
1
102
RTVSPropertyOp22
70
1
102
RTVSPropertyOp23
70
1
102
RTVSPropertyOp24
70
1
102
RTVSPropertyOp25
70
1
102
RTVSPropertyOp26
70
1
102
RTVSPropertyOp27
70
1
0
XRECORD
5
1085
102
{ACAD_REACTORS
330
1084
102
}
330
1084
100
AcDbXrecord
280
1
102
RTVSPropertyOp0
70
1
102
RTVSPropertyOp1
70
1
102
RTVSPropertyOp2
70
1
102
RTVSPropertyOp3
70
1
102
RTVSPropertyOp4
70
1
102
RTVSPropertyOp5
70
1
102
RTVSPropertyOp6
70
1
102
RTVSPropertyOp7
70
1
102
RTVSPropertyOp8
70
1
102
RTVSPropertyOp9
70
1
102
RTVSPropertyOp10
70
1
102
RTVSPropertyOp11
70
1
102
RTVSPropertyOp12
70
1
102
RTVSPropertyOp13
70
1
102
RTVSPropertyOp14
70
1
102
RTVSPropertyOp15
70
1
102
RTVSPropertyOp16
70
1
102
RTVSPropertyOp17
70
1
102
RTVSPropertyOp18
70
1
102
RTVSPropertyOp19
70
1
102
RTVSPropertyOp20
70
1
102
RTVSPropertyOp21
70
1
102
RTVSPropertyOp22
70
1
102
RTVSPropertyOp23
70
1
102
RTVSPropertyOp24
70
1
102
RTVSPropertyOp25
70
1
102
RTVSPropertyOp26
70
1
102
RTVSPropertyOp27
70
1
0
XRECORD
5
1087
102
{ACAD_REACTORS
330
1086
102
}
330
1086
100
AcDbXrecord
280
1
102
RTVSPropertyOp0
70
1
102
RTVSPropertyOp1
70
1
102
RTVSPropertyOp2
70
1
102
RTVSPropertyOp3
70
1
102
RTVSPropertyOp4
70
1
102
RTVSPropertyOp5
70
1
102
RTVSPropertyOp6
70
1
102
RTVSPropertyOp7
70
1
102
RTVSPropertyOp8
70
1
102
RTVSPropertyOp9
70
1
102
RTVSPropertyOp10
70
1
102
RTVSPropertyOp11
70
1
102
RTVSPropertyOp12
70
1
102
RTVSPropertyOp13
70
1
102
RTVSPropertyOp14
70
1
102
RTVSPropertyOp15
70
1
102
RTVSPropertyOp16
70
1
102
RTVSPropertyOp17
70
1
102
RTVSPropertyOp18
70
1
102
RTVSPropertyOp19
70
1
102
RTVSPropertyOp20
70
1
102
RTVSPropertyOp21
70
1
102
RTVSPropertyOp22
70
1
102
RTVSPropertyOp23
70
1
102
RTVSPropertyOp24
70
1
102
RTVSPropertyOp25
70
1
102
RTVSPropertyOp26
70
1
102
RTVSPropertyOp27
70
1
0
XRECORD
5
10A1
102
{ACAD_REACTORS
330
10A0
102
}
330
10A0
100
AcDbXrecord
280
1
102
RTVSPropertyOp0
70
0
102
RTVSPropertyOp1
70
0
102
RTVSPropertyOp2
70
0
102
RTVSPropertyOp3
70
0
102
RTVSPropertyOp4
70
0
102
RTVSPropertyOp5
70
0
102
RTVSPropertyOp6
70
0
102
RTVSPropertyOp7
70
0
102
RTVSPropertyOp8
70
0
102
RTVSPropertyOp9
70
0
102
RTVSPropertyOp10
70
0
102
RTVSPropertyOp11
70
0
102
RTVSPropertyOp12
70
0
102
RTVSPropertyOp13
70
0
102
RTVSPropertyOp14
70
2
102
RTVSPropertyOp15
70
0
102
RTVSPropertyOp16
70
0
102
RTVSPropertyOp17
70
0
102
RTVSPropertyOp18
70
0
102
RTVSPropertyOp19
70
0
102
RTVSPropertyOp20
70
0
102
RTVSPropertyOp21
70
0
102
RTVSPropertyOp22
70
0
102
RTVSPropertyOp23
70
0
102
RTVSPropertyOp24
70
0
102
RTVSPropertyOp25
70
0
102
RTVSPropertyOp26
70
0
102
RTVSPropertyOp27
70
0
0
XRECORD
5
109B
102
{ACAD_REACTORS
330
109A
102
}
330
109A
100
AcDbXrecord
280
1
102
RTVSPropertyOp0
70
1
102
RTVSPropertyOp1
70
1
102
RTVSPropertyOp2
70
1
102
RTVSPropertyOp3
70
1
102
RTVSPropertyOp4
70
1
102
RTVSPropertyOp5
70
1
102
RTVSPropertyOp6
70
1
102
RTVSPropertyOp7
70
1
102
RTVSPropertyOp8
70
1
102
RTVSPropertyOp9
70
1
102
RTVSPropertyOp10
70
1
102
RTVSPropertyOp11
70
1
102
RTVSPropertyOp12
70
1
102
RTVSPropertyOp13
70
1
102
RTVSPropertyOp14
70
1
102
RTVSPropertyOp15
70
1
102
RTVSPropertyOp16
70
1
102
RTVSPropertyOp17
70
1
102
RTVSPropertyOp18
70
1
102
RTVSPropertyOp19
70
1
102
RTVSPropertyOp20
70
1
102
RTVSPropertyOp21
70
1
102
RTVSPropertyOp22
70
1
102
RTVSPropertyOp23
70
1
102
RTVSPropertyOp24
70
1
102
RTVSPropertyOp25
70
1
102
RTVSPropertyOp26
70
1
102
RTVSPropertyOp27
70
1
0
XRECORD
5
10A3
102
{ACAD_REACTORS
330
10A2
102
}
330
10A2
100
AcDbXrecord
280
1
102
RTVSPropertyOp0
70
0
102
RTVSPropertyOp1
70
0
102
RTVSPropertyOp2
70
0
102
RTVSPropertyOp3
70
0
102
RTVSPropertyOp4
70
0
102
RTVSPropertyOp5
70
0
102
RTVSPropertyOp6
70
0
102
RTVSPropertyOp7
70
0
102
RTVSPropertyOp8
70
0
102
RTVSPropertyOp9
70
0
102
RTVSPropertyOp10
70
0
102
RTVSPropertyOp11
70
0
102
RTVSPropertyOp12
70
0
102
RTVSPropertyOp13
70
0
102
RTVSPropertyOp14
70
2
102
RTVSPropertyOp15
70
0
102
RTVSPropertyOp16
70
0
102
RTVSPropertyOp17
70
0
102
RTVSPropertyOp18
70
0
102
RTVSPropertyOp19
70
0
102
RTVSPropertyOp20
70
0
102
RTVSPropertyOp21
70
0
102
RTVSPropertyOp22
70
0
102
RTVSPropertyOp23
70
0
102
RTVSPropertyOp24
70
0
102
RTVSPropertyOp25
70
0
102
RTVSPropertyOp26
70
0
102
RTVSPropertyOp27
70
0
0
XRECORD
5
1093
102
{ACAD_REACTORS
330
1092
102
}
330
1092
100
AcDbXrecord
280
1
102
RTVSPropertyOp0
70
1
102
RTVSPropertyOp1
70
1
102
RTVSPropertyOp2
70
1
102
RTVSPropertyOp3
70
1
102
RTVSPropertyOp4
70
1
102
RTVSPropertyOp5
70
1
102
RTVSPropertyOp6
70
1
102
RTVSPropertyOp7
70
1
102
RTVSPropertyOp8
70
1
102
RTVSPropertyOp9
70
1
102
RTVSPropertyOp10
70
1
102
RTVSPropertyOp11
70
1
102
RTVSPropertyOp12
70
1
102
RTVSPropertyOp13
70
1
102
RTVSPropertyOp14
70
1
102
RTVSPropertyOp15
70
1
102
RTVSPropertyOp16
70
1
102
RTVSPropertyOp17
70
1
102
RTVSPropertyOp18
70
1
102
RTVSPropertyOp19
70
1
102
RTVSPropertyOp20
70
1
102
RTVSPropertyOp21
70
1
102
RTVSPropertyOp22
70
1
102
RTVSPropertyOp23
70
1
102
RTVSPropertyOp24
70
1
102
RTVSPropertyOp25
70
1
102
RTVSPropertyOp26
70
1
102
RTVSPropertyOp27
70
1
0
XRECORD
5
1099
102
{ACAD_REACTORS
330
1098
102
}
330
1098
100
AcDbXrecord
280
1
102
RTVSPropertyOp0
70
1
102
RTVSPropertyOp1
70
1
102
RTVSPropertyOp2
70
1
102
RTVSPropertyOp3
70
1
102
RTVSPropertyOp4
70
1
102
RTVSPropertyOp5
70
1
102
RTVSPropertyOp6
70
1
102
RTVSPropertyOp7
70
1
102
RTVSPropertyOp8
70
1
102
RTVSPropertyOp9
70
1
102
RTVSPropertyOp10
70
1
102
RTVSPropertyOp11
70
1
102
RTVSPropertyOp12
70
1
102
RTVSPropertyOp13
70
1
102
RTVSPropertyOp14
70
1
102
RTVSPropertyOp15
70
1
102
RTVSPropertyOp16
70
1
102
RTVSPropertyOp17
70
1
102
RTVSPropertyOp18
70
1
102
RTVSPropertyOp19
70
1
102
RTVSPropertyOp20
70
1
102
RTVSPropertyOp21
70
1
102
RTVSPropertyOp22
70
1
102
RTVSPropertyOp23
70
1
102
RTVSPropertyOp24
70
1
102
RTVSPropertyOp25
70
1
102
RTVSPropertyOp26
70
1
102
RTVSPropertyOp27
70
1
0
ENDSEC
0
EOF
