0
SECTION
2
HEADER
9
$ACADVER
1
AC1015
9
$ACADMAINTVER
70
20
9
$DWGCODEPAGE
3
ANSI_1252
9
$INSBASE
10
0.0
20
0.0
30
0.0
9
$EXTMIN
10
-150.000000000000
20
-105.000000000000
30
0.0
9
$EXTMAX
10
150.000000000000
20
105.000000000000
30
0.0
9
$LIMMIN
10
0.0
20
0.0
9
$LIMMAX
10
12.0
20
9.0
9
$ORTHOMODE
70
0
9
$REGENMODE
70
1
9
$FILLMODE
70
1
9
$QTEXTMODE
70
0
9
$MIRRTEXT
70
1
9
$LTSCALE
40
1.0
9
$ATTMODE
70
1
9
$TEXTSIZE
40
0.2
9
$TRACEWID
40
0.05
9
$TEXTSTYLE
7
Standard
9
$CLAYER
8
0
9
$CELTYPE
6
ByLayer
9
$CECOLOR
62
256
9
$CELTSCALE
40
1.0
9
$DISPSILH
70
0
9
$DIMSCALE
40
1.0
9
$DIMASZ
40
2.5
9
$DIMEXO
40
0.625
9
$DIMDLI
40
0.38
9
$DIMRND
40
0.0
9
$DIMDLE
40
0.0
9
$DIMEXE
40
1.25
9
$DIMTP
40
0.0
9
$DIMTM
40
0.000000001
9
$DIMTXT
40
2.5
9
$DIMCEN
40
0.09
9
$DIMTSZ
40
0.0
9
$DIMTOL
70
1
9
$DIMLIM
70
0
9
$DIMTIH
70
0
9
$DIMTOH
70
0
9
$DIMSE1
70
0
9
$DIMSE2
70
0
9
$DIMTAD
70
1
9
$DIMZIN
70
0
9
$DIMBLK
1
VDDIM_DEFAULT
9
$DIMASO
70
1
9
$DIMSHO
70
1
9
$DIMPOST
1

9
$DIMAPOST
1

9
$DIMALT
70
0
9
$DIMALTD
70
2
9
$DIMALTF
40
25.4
9
$DIMLFAC
40
1.00000000000000
9
$DIMTOFL
70
0
9
$DIMTVP
40
0.0
9
$DIMTIX
70
0
9
$DIMSOXD
70
0
9
$DIMSAH
70
0
9
$DIMBLK1
1

9
$DIMBLK2
1

9
$DIMSTYLE
2
BEM-ISBE
9
$DIMCLRD
70
0
9
$DIMCLRE
70
0
9
$DIMCLRT
70
0
9
$DIMTFAC
40
0.5
9
$DIMGAP
40
0.625
9
$DIMJUST
70
0
9
$DIMSD1
70
0
9
$DIMSD2
70
0
9
$DIMTOLJ
70
1
9
$DIMTZIN
70
0
9
$DIMALTZ
70
0
9
$DIMALTTZ
70
0
9
$DIMUPT
70
0
9
$DIMDEC
70
3
9
$DIMTDEC
70
3
9
$DIMALTU
70
2
9
$DIMALTTD
70
2
9
$DIMTXSTY
7
Standard
9
$DIMAUNIT
70
0
9
$DIMADEC
70
3
9
$DIMALTRND
40
0.0
9
$DIMAZIN
70
0
9
$DIMDSEP
70
46
9
$DIMATFIT
70
3
9
$DIMFRAC
70
0
9
$DIMLDRBLK
1

9
$DIMLUNIT
70
2
9
$DIMLWD
70
-2
9
$DIMLWE
70
-2
9
$DIMTMOVE
70
0
9
$LUNITS
70
2
9
$LUPREC
70
4
9
$SKETCHINC
40
0.1
9
$FILLETRAD
40
0.5
9
$AUNITS
70
0
9
$AUPREC
70
0
9
$MENU
1
.
9
$ELEVATION
40
0.0
9
$PELEVATION
40
0.0
9
$THICKNESS
40
0.0
9
$LIMCHECK
70
0
9
$CHAMFERA
40
0.5
9
$CHAMFERB
40
0.5
9
$CHAMFERC
40
1.0
9
$CHAMFERD
40
0.0
9
$SKPOLY
70
0
9
$TDCREATE
40
0.0
9
$TDUCREATE
40
0.0
9
$TDUPDATE
40
0.0
9
$TDUUPDATE
40
0.0
9
$TDINDWG
40
0.0
9
$TDUSRTIMER
40
0.0
9
$USRTIMER
70
1
9
$ANGBASE
50
0.0
9
$ANGDIR
70
0
9
$PDMODE
70
0
9
$PDSIZE
40
0.0
9
$PLINEWID
40
0.0
9
$SPLFRAME
70
0
9
$SPLINETYPE
70
6
9
$SPLINESEGS
70
8
9
$HANDSEED
5
10AB
9
$SURFTAB1
70
6
9
$SURFTAB2
70
6
9
$SURFTYPE
70
6
9
$SURFU
70
6
9
$SURFV
70
6
9
$UCSBASE
2

9
$UCSNAME
2

9
$UCSORG
10
0.0
20
0.0
30
0.0
9
$UCSXDIR
10
1.0
20
0.0
30
0.0
9
$UCSYDIR
10
0.0
20
1.0
30
0.0
9
$UCSORTHOREF
2

9
$UCSORTHOVIEW
70
0
9
$UCSORGTOP
10
0.0
20
0.0
30
0.0
9
$UCSORGBOTTOM
10
0.0
20
0.0
30
0.0
9
$UCSORGLEFT
10
0.0
20
0.0
30
0.0
9
$UCSORGRIGHT
10
0.0
20
0.0
30
0.0
9
$UCSORGFRONT
10
0.0
20
0.0
30
0.0
9
$UCSORGBACK
10
0.0
20
0.0
30
0.0
9
$PUCSBASE
2

9
$PUCSNAME
2

9
$PUCSORG
10
0.0
20
0.0
30
0.0
9
$PUCSXDIR
10
1.0
20
0.0
30
0.0
9
$PUCSYDIR
10
0.0
20
1.0
30
0.0
9
$PUCSORTHOREF
2

9
$PUCSORTHOVIEW
70
0
9
$PUCSORGTOP
10
0.0
20
0.0
30
0.0
9
$PUCSORGBOTTOM
10
0.0
20
0.0
30
0.0
9
$PUCSORGLEFT
10
0.0
20
0.0
30
0.0
9
$PUCSORGRIGHT
10
0.0
20
0.0
30
0.0
9
$PUCSORGFRONT
10
0.0
20
0.0
30
0.0
9
$PUCSORGBACK
10
0.0
20
0.0
30
0.0
9
$USERI1
70
0
9
$USERI2
70
0
9
$USERI3
70
0
9
$USERI4
70
0
9
$USERI5
70
0
9
$USERR1
40
0.0
9
$USERR2
40
0.0
9
$USERR3
40
0.0
9
$USERR4
40
0.0
9
$USERR5
40
0.0
9
$WORLDVIEW
70
1
9
$SHADEDGE
70
3
9
$SHADEDIF
70
70
9
$TILEMODE
70
1
9
$MAXACTVP
70
64
9
$PINSBASE
10
0.0
20
0.0
30
0.0
9
$PLIMCHECK
70
0
9
$PEXTMIN
10
1.000000000000000E+20
20
1.000000000000000E+20
30
1.000000000000000E+20
9
$PEXTMAX
10
-1.000000000000000E+20
20
-1.000000000000000E+20
30
-1.000000000000000E+20
9
$PLIMMIN
10
0.0
20
0.0
9
$PLIMMAX
10
12.0
20
9.0
9
$UNITMODE
70
0
9
$VISRETAIN
70
1
9
$PLINEGEN
70
0
9
$PSLTSCALE
70
1
9
$TREEDEPTH
70
3020
9
$CMLSTYLE
2
Standard
9
$CMLJUST
70
0
9
$CMLSCALE
40
1.0
9
$PROXYGRAPHICS
70
1
9
$MEASUREMENT
70
0
9
$CELWEIGHT
370
-1
9
$ENDCAPS
280
0
9
$JOINSTYLE
280
0
9
$LWDISPLAY
290
0
9
$INSUNITS
70
4
9
$HYPERLINKBASE
1

9
$STYLESHEET
1

9
$XEDIT
290
1
9
$CEPSNTYPE
380
0
9
$PSTYLEMODE
290
0
9
$FINGERPRINTGUID
2
{FAEB1C30-E019-11D5-929B-00C0DF256EC4}
9
$VERSIONGUID
2
{04C5C4E4-4947-4D90-8812-D401569E61F7}
9
$EXTNAMES
290
1
9
$PSVPSCALE
40
0.0
9
$OLESTARTUP
290
0
0
ENDSEC
0
SECTION
2
CLASSES
0
CLASS
1
ACDBDICTIONARYWDFLT
2
AcDbDictionaryWithDefault
3
ObjectDBX Classes
90
0
280
0
281
0
0
CLASS
1
ACDBPLACEHOLDER
2
AcDbPlaceHolder
3
ObjectDBX Classes
90
0
280
0
281
0
0
CLASS
1
LAYOUT
2
AcDbLayout
3
ObjectDBX Classes
90
0
280
0
281
0
0
CLASS
1
MATERIAL
2
AcDbMaterial
3
ObjectDBX Classes
90
1153
280
0
281
0
0
CLASS
1
VISUALSTYLE
2
AcDbVisualStyle
3
ObjectDBX Classes
90
4095
280
0
281
0
0
CLASS
1
TABLESTYLE
2
AcDbTableStyle
3
ObjectDBX Classes
90
4095
280
0
281
0
0
CLASS
1
SCALE
2
AcDbScale
3
ObjectDBX Classes
90
1153
280
0
281
0
0
CLASS
1
MLEADERSTYLE
2
AcDbMLeaderStyle
3
ACDB_MLEADERSTYLE_CLASS
90
4095
280
0
281
0
0
CLASS
1
DICTIONARYVAR
2
AcDbDictionaryVar
3
ObjectDBX Classes
90
0
280
0
281
0
0
CLASS
1
CELLSTYLEMAP
2
AcDbCellStyleMap
3
ObjectDBX Classes
90
1152
280
0
281
0
0
ENDSEC
0
SECTION
2
TABLES
0
TABLE
2
VPORT
5
24A
330
0
100
AcDbSymbolTable
70
1
0
VPORT
5
26B
330
24A
100
AcDbSymbolTableRecord
100
AcDbViewportTableRecord
2
*Active
70
0
10
0.0
20
0.0
11
1.0
21
1.0
12
0.000000000000000
22
0.000000000000000
13
0.0
23
0.0
14
10.0
24
10.0
15
10.0
25
10.0
16
0.0
26
0.0
36
1.0
17
0.0
27
0.0
37
0.0
40
210.000000000000
41
1.42857142857143
42
1.0
43
0.0
44
0.0
50
0.0
51
0.0000000000007958
71
0
72
100
73
1
74
3
75
0
76
0
77
0
78
1
281
0
65
1
110
0.0
120
0.0
130
0.0
111
1.0
121
0.0
131
0.0
112
0.0
122
1.0
132
0.0
79
0
146
0.0
0
ENDTAB
0
TABLE
2
LTYPE
5
247
330
0
100
AcDbSymbolTable
70
25
0
LTYPE
5
256
330
247
100
AcDbSymbolTableRecord
100
AcDbLinetypeTableRecord
2
ByBlock
70
0
3

72
65
73
0
40
0.0
0
LTYPE
5
257
330
247
100
AcDbSymbolTableRecord
100
AcDbLinetypeTableRecord
2
ByLayer
70
0
3

72
65
73
0
40
0.0
0
LTYPE
5
258
330
247
100
AcDbSymbolTableRecord
100
AcDbLinetypeTableRecord
2
Continuous
70
0
3
Solid line
72
65
73
0
40
0.0
0
LTYPE
5
273
330
247
100
AcDbSymbolTableRecord
100
AcDbLinetypeTableRecord
2
CENTER
70
0
3
Center ____ _ ____ _ ____ _ ____ _ ____ _ ____
72
65
73
4
40
2.0
49
1.25
74
0
49
-0.25
74
0
49
0.25
74
0
49
-0.25
74
0
0
LTYPE
5
274
330
247
100
AcDbSymbolTableRecord
100
AcDbLinetypeTableRecord
2
DASHDOT
70
0
3
Dashdot __ . __ . __ . __ . __ . __ . __ . __
72
65
73
4
40
1.0
49
0.5
74
0
49
-0.25
74
0
49
0.0
74
0
49
-0.25
74
0
0
LTYPE
5
275
330
247
100
AcDbSymbolTableRecord
100
AcDbLinetypeTableRecord
2
DASHED
70
0
3
Dashed __ __ __ __ __ __ __ __ __ __ __ __ __ _
72
65
73
2
40
0.75
49
0.5
74
0
49
-0.25
74
0
0
LTYPE
5
276
330
247
100
AcDbSymbolTableRecord
100
AcDbLinetypeTableRecord
2
HIDDEN
70
0
3
Hidden __ __ __ __ __ __ __ __ __ __ __ __ __ __
72
65
73
2
40
0.375
49
0.25
74
0
49
-0.125
74
0
0
LTYPE
5
277
330
247
100
AcDbSymbolTableRecord
100
AcDbLinetypeTableRecord
2
HIDDEN2
70
0
3
Hidden2 _ _ _ _ _ _ _ _ _ _ _ _ _ _ _ _ _
72
65
73
2
40
0.1875
49
0.125
74
0
49
-0.0625
74
0
0
LTYPE
5
278
330
247
100
AcDbSymbolTableRecord
100
AcDbLinetypeTableRecord
2
BORDER
70
0
3
Border __ __ . __ __ . __ __ . __ __ . __ __ .
72
65
73
6
40
1.75
49
0.5
74
0
49
-0.25
74
0
49
0.5
74
0
49
-0.25
74
0
49
0.0
74
0
49
-0.25
74
0
0
LTYPE
5
279
330
247
100
AcDbSymbolTableRecord
100
AcDbLinetypeTableRecord
2
BORDER2
70
0
3
Border2 __.__.__.__.__.__.__.__.__.__.__.
72
65
73
6
40
0.875
49
0.25
74
0
49
-0.125
74
0
49
0.25
74
0
49
-0.125
74
0
49
0.0
74
0
49
-0.125
74
0
0
LTYPE
5
27A
330
247
100
AcDbSymbolTableRecord
100
AcDbLinetypeTableRecord
2
BORDERX2
70
0
3
Borderx2  ____  ____  .  ____  ____  .  ___
72
65
73
6
40
3.5
49
1.0
74
0
49
-0.5
74
0
49
1.0
74
0
49
-0.5
74
0
49
0.0
74
0
49
-0.5
74
0
0
LTYPE
5
27B
330
247
100
AcDbSymbolTableRecord
100
AcDbLinetypeTableRecord
2
CENTER2
70
0
3
Center2  ___ _ ___ _ ___ _ ___ _ ___ _ ___
72
65
73
4
40
1.125
49
0.75
74
0
49
-0.125
74
0
49
0.125
74
0
49
-0.125
74
0
0
LTYPE
5
27C
330
247
100
AcDbSymbolTableRecord
100
AcDbLinetypeTableRecord
2
CENTERX2
70
0
3
Centerx2  ________  __  ________  __  _____
72
65
73
4
40
4.0
49
2.5
74
0
49
-0.5
74
0
49
0.5
74
0
49
-0.5
74
0
0
LTYPE
5
27D
330
247
100
AcDbSymbolTableRecord
100
AcDbLinetypeTableRecord
2
DASHDOT2
70
0
3
Dashdot2  _._._._._._._._._._._._._._._.
72
65
73
4
40
0.5
49
0.25
74
0
49
-0.125
74
0
49
0.0
74
0
49
-0.125
74
0
0
LTYPE
5
27E
330
247
100
AcDbSymbolTableRecord
100
AcDbLinetypeTableRecord
2
DASHDOTX2
70
0
3
Dashdotx2 ____  .  ____  .  ____  .  ___
72
65
73
4
40
2.0
49
1.0
74
0
49
-0.5
74
0
49
0.0
74
0
49
-0.5
74
0
0
LTYPE
5
27F
330
247
100
AcDbSymbolTableRecord
100
AcDbLinetypeTableRecord
2
DASHED2
70
0
3
Dashed2 _ _ _ _ _ _ _ _ _ _ _ _ _ _ _ _ _
72
65
73
2
40
0.375
49
0.25
74
0
49
-0.125
74
0
0
LTYPE
5
280
330
247
100
AcDbSymbolTableRecord
100
AcDbLinetypeTableRecord
2
DASHEDX2
70
0
3
Dashedx2 ____  ____  ____  ____  ____  ___
72
65
73
2
40
1.5
49
1.0
74
0
49
-0.5
74
0
0
LTYPE
5
281
330
247
100
AcDbSymbolTableRecord
100
AcDbLinetypeTableRecord
2
DIVIDE
70
0
3
Divide ____ . . ____ . . ____ . . ____ . . ____
72
65
73
6
40
1.25
49
0.5
74
0
49
-0.25
74
0
49
0.0
74
0
49
-0.25
74
0
49
0.0
74
0
49
-0.25
74
0
0
LTYPE
5
282
330
247
100
AcDbSymbolTableRecord
100
AcDbLinetypeTableRecord
2
DIVIDE2
70
0
3
Divide2 __..__..__..__..__..__..__..__.._
72
65
73
6
40
0.625
49
0.25
74
0
49
-0.125
74
0
49
0.0
74
0
49
-0.125
74
0
49
0.0
74
0
49
-0.125
74
0
0
LTYPE
5
283
330
247
100
AcDbSymbolTableRecord
100
AcDbLinetypeTableRecord
2
DIVIDEX2
70
0
3
Dividex2 ________  .  .  ________  .  .  _
72
65
73
6
40
2.5
49
1.0
74
0
49
-0.5
74
0
49
0.0
74
0
49
-0.5
74
0
49
0.0
74
0
49
-0.5
74
0
0
LTYPE
5
284
330
247
100
AcDbSymbolTableRecord
100
AcDbLinetypeTableRecord
2
DOT
70
0
3
Dot . . . . . . . . . . . . . . . . . . . . . . . .
72
65
73
2
40
0.25
49
0.0
74
0
49
-0.25
74
0
0
LTYPE
5
285
330
247
100
AcDbSymbolTableRecord
100
AcDbLinetypeTableRecord
2
DOT2
70
0
3
Dot2 ........................................
72
65
73
2
40
0.125
49
0.0
74
0
49
-0.125
74
0
0
LTYPE
5
286
330
247
100
AcDbSymbolTableRecord
100
AcDbLinetypeTableRecord
2
DOTX2
70
0
3
Dotx2 .  .  .  .  .  .  .  .  .  .  .  .  .  .
72
65
73
2
40
0.5
49
0.0
74
0
49
-0.5
74
0
0
LTYPE
5
287
330
247
100
AcDbSymbolTableRecord
100
AcDbLinetypeTableRecord
2
HIDDENX2
70
0
3
Hiddenx2 ____ ____ ____ ____ ____ ____ ____
72
65
73
2
40
0.75
49
0.5
74
0
49
-0.25
74
0
0
LTYPE
5
288
330
247
100
AcDbSymbolTableRecord
100
AcDbLinetypeTableRecord
2
PHANTOM
70
0
3
Phantom ______  __  __  ______  __  __  ______
72
65
73
6
40
2.5
49
1.25
74
0
49
-0.25
74
0
49
0.25
74
0
49
-0.25
74
0
49
0.25
74
0
49
-0.25
74
0
0
LTYPE
5
289
330
247
100
AcDbSymbolTableRecord
100
AcDbLinetypeTableRecord
2
PHANTOM2
70
0
3
Phantom2 ___ _ _ ___ _ _ ___ _ _ ___ _ _
72
65
73
6
40
1.25
49
0.625
74
0
49
-0.125
74
0
49
0.125
74
0
49
-0.125
74
0
49
0.125
74
0
49
-0.125
74
0
0
LTYPE
5
28A
330
247
100
AcDbSymbolTableRecord
100
AcDbLinetypeTableRecord
2
PHANTOMX2
70
0
3
Phantomx2 ____________    ____    ____   _
72
65
73
6
40
5.0
49
2.5
74
0
49
-0.5
74
0
49
0.5
74
0
49
-0.5
74
0
49
0.5
74
0
49
-0.5
74
0
0
ENDTAB
0
TABLE
2
LAYER
5
244
330
0
100
AcDbSymbolTable
70
6
0
LAYER
5
252
330
244
100
AcDbSymbolTableRecord
100
AcDbLayerTableRecord
2
0
70
0
62
7
6
Continuous
370
0
390
251
0
LAYER
5
23F
330
244
100
AcDbSymbolTableRecord
100
AcDbLayerTableRecord
2
Bemassung
70
0
 62
   7
6
Continuous
370
0
390
251
0
LAYER
5
240
330
244
100
AcDbSymbolTableRecord
100
AcDbLayerTableRecord
2
Rahmen
70
0
 62
   7
6
Continuous
370
0
390
251
0
LAYER
5
241
330
244
100
AcDbSymbolTableRecord
100
AcDbLayerTableRecord
2
Geo
70
0
 62
   7
6
Continuous
370
0
390
251
0
LAYER
5
33A
330
244
100
AcDbSymbolTableRecord
100
AcDbLayerTableRecord
2
Defpoints
70
0
62
7
6
Continuous
290
0
370
-3
390
251
0
LAYER
5
57E
330
244
100
AcDbSymbolTableRecord
100
AcDbLayerTableRecord
2
Text
70
0
 62
   7
6
Continuous
370
0
390
251
1001
AcAecLayerStandard
1000

1000

0
ENDTAB
0
TABLE
2
STYLE
5
245
330
0
100
AcDbSymbolTable
70
2
0
STYLE
5
253
330
245
100
AcDbSymbolTableRecord
100
AcDbTextStyleTableRecord
2
Standard
70
0
40
0.0
41
1.0
50
0.0
71
0
42
0.2
3
Arial
4

1001
ACAD
1000
Arial
1071
0
0
STYLE
5
132
330
245
100
AcDbSymbolTableRecord
100
AcDbTextStyleTableRecord
2
Beschriftung
70
0
40
0.0
41
1.0
50
0.0
71
0
42
0.2
3
Arial
4

1001
ACAD
1000
Arial
1071
0
1001
AcadAnnotative
1000
AnnotativeData
1070
1
1070
1
0
ENDTAB
0
TABLE
2
VIEW
5
248
330
0
100
AcDbSymbolTable
70
0
0
ENDTAB
0
TABLE
2
UCS
5
249
330
0
100
AcDbSymbolTable
70
0
0
ENDTAB
0
TABLE
2
APPID
5
24B
330
0
100
AcDbSymbolTable
70
13
0
APPID
5
254
330
24B
100
AcDbSymbolTableRecord
100
AcDbRegAppTableRecord
2
ACAD
70
0
0
APPID
5
26C
330
24B
100
AcDbSymbolTableRecord
100
AcDbRegAppTableRecord
2
VD_INVISIBLE_NOT_FOR_READ
70
0
0
APPID
5
26D
330
24B
100
AcDbSymbolTableRecord
100
AcDbRegAppTableRecord
2
VD_TEMPHATCH
70
0
0
APPID
5
26E
330
24B
100
AcDbSymbolTableRecord
100
AcDbRegAppTableRecord
2
VDEXTRAPARAM
70
0
0
APPID
5
26F
330
24B
100
AcDbSymbolTableRecord
100
AcDbRegAppTableRecord
2
PE_URL
70
0
0
APPID
5
270
330
24B
100
AcDbSymbolTableRecord
100
AcDbRegAppTableRecord
2
VD_UNKNOWN
70
0
0
APPID
5
28F
330
24B
100
AcDbSymbolTableRecord
100
AcDbRegAppTableRecord
2
AcadAnnotative
70
0
0
APPID
5
290
330
24B
100
AcDbSymbolTableRecord
100
AcDbRegAppTableRecord
2
ACAD_DSTYLE_DIMJAG
70
0
0
APPID
5
291
330
24B
100
AcDbSymbolTableRecord
100
AcDbRegAppTableRecord
2
ACAD_DSTYLE_DIMTALN
70
0
0
APPID
5
293
330
24B
100
AcDbSymbolTableRecord
100
AcDbRegAppTableRecord
2
ACAD_PSEXT
70
0
0
APPID
5
42A
330
24B
100
AcDbSymbolTableRecord
100
AcDbRegAppTableRecord
2
ACAD_MLEADERVER
70
0
0
APPID
5
532
330
24B
100
AcDbSymbolTableRecord
100
AcDbRegAppTableRecord
2
ACAD_EXEMPT_FROM_CAD_STANDARDS
70
0
0
APPID
5
57F
330
24B
100
AcDbSymbolTableRecord
100
AcDbRegAppTableRecord
2
AcAecLayerStandard
70
0
0
ENDTAB
0
TABLE
2
DIMSTYLE
5
24C
330
0
100
AcDbSymbolTable
70
3
100
AcDbDimStyleTable
71
2
340
27
340
269
0
DIMSTYLE
105
269
330
24C
100
AcDbSymbolTableRecord
100
AcDbDimStyleTableRecord
2
Standard
70
0
172
1
174
1
288
1
340
253
342
23C
0
DIMSTYLE
105
137
330
24C
100
AcDbSymbolTableRecord
100
AcDbDimStyleTableRecord
2
Beschriftung
70
0
41
2.5
42
0.625
44
1.25
73
0
74
0
77
1
140
2.5
147
0.625
172
1
174
1
271
2
288
1
340
253
342
23C
1001
AcadAnnotative
1000
AnnotativeData
1070
1
1070
1
1001
ACAD_DSTYLE_DIMJAG
1070
388
1040
1.5
1001
ACAD_DSTYLE_DIMTALN
1070
392
1070
0
0
DIMSTYLE
105
27
102
{ACAD_REACTORS
330
F1000D
330
F10017
330
F1001C
330
F10008
330
F10003
330
F10012
102
}
330
24C
100
AcDbSymbolTableRecord
100
AcDbDimStyleTableRecord
2
BEM-ISBE
70
0
41
2.5
42
0.625
44
1.25
48
0.000000001
71
1
73
0
74
0
77
1
140
2.5
144
1.00000000000000
146
0.5
147
0.625
171
 3
172
 1
179
 3
271
 3
272
 3
274
 3
340
253
342
23C
1001
ACAD_DSTYLE_DIMJAG
1070
388
1040
1.5
1001
ACAD_DSTYLE_DIMTALN
1070
392
1070
1
0
ENDTAB
0
TABLE
2
BLOCK_RECORD
5
243
330
0
100
AcDbSymbolTable
70
5
0
BLOCK_RECORD
5
261
330
243
100
AcDbSymbolTableRecord
100
AcDbBlockTableRecord
2
*Model_Space
340
FD0
0
BLOCK_RECORD
5
25D
330
243
100
AcDbSymbolTableRecord
100
AcDbBlockTableRecord
2
*Paper_Space
340
FD1
0
BLOCK_RECORD
5
265
330
243
100
AcDbSymbolTableRecord
100
AcDbBlockTableRecord
2
*Paper_Space0
340
0
0
BLOCK_RECORD
5
23C
330
243
100
AcDbSymbolTableRecord
100
AcDbBlockTableRecord
2
VDDIM_DEFAULT
340
0
102
{BLKREFS
102
}
0
BLOCK_RECORD
5
23E
330
243
100
AcDbSymbolTableRecord
100
AcDbBlockTableRecord
2
VDDIM_NONE
340
0
0
BLOCK_RECORD
5
F1000C
330
243
100
AcDbSymbolTableRecord
100
AcDbBlockTableRecord
2
*D5
340
0
0
BLOCK_RECORD
5
F10016
330
243
100
AcDbSymbolTableRecord
100
AcDbBlockTableRecord
2
*D7
340
0
0
BLOCK_RECORD
5
F1001B
330
243
100
AcDbSymbolTableRecord
100
AcDbBlockTableRecord
2
*D8
340
0
0
BLOCK_RECORD
5
F10007
330
243
100
AcDbSymbolTableRecord
100
AcDbBlockTableRecord
2
*D4
340
0
0
BLOCK_RECORD
5
F10002
330
243
100
AcDbSymbolTableRecord
100
AcDbBlockTableRecord
2
*D3
340
0
0
BLOCK_RECORD
5
F10011
330
243
100
AcDbSymbolTableRecord
100
AcDbBlockTableRecord
2
*D6
340
0
0
ENDTAB
0
ENDSEC
0
SECTION
2
BLOCKS
0
BLOCK
5
262
330
261
100
AcDbEntity
8
0
100
AcDbBlockBegin
2
*Model_Space
70
0
10
0.0
20
0.0
30
0.0
3
*Model_Space
1

0
ENDBLK
5
263
330
261
100
AcDbEntity
8
0
100
AcDbBlockEnd
0
BLOCK
5
25E
330
25D
100
AcDbEntity
67
1
8
0
100
AcDbBlockBegin
2
*Paper_Space
70
0
10
0.0
20
0.0
30
0.0
3
*Paper_Space
1

0
ENDBLK
5
25F
330
25D
100
AcDbEntity
67
1
8
0
100
AcDbBlockEnd
0
BLOCK
5
266
330
265
100
AcDbEntity
8
0
100
AcDbBlockBegin
2
*Paper_Space0
70
0
10
0.0
20
0.0
30
0.0
3
*Paper_Space0
1

0
VIEWPORT
5
296
102
{ACAD_XDICTIONARY
360
58E
102
}
330
265
100
AcDbEntity
8
0
60
1
100
AcDbViewport
10
0.0
20
0.0
30
0.0
40
10.0
41
10.0
69
0
12
0.0
22
0.0
13
0.0
23
0.0
14
1.0
24
1.0
15
0.0
25
0.0
16
0.0
26
0.0
36
1.0
17
0.0
27
0.0
37
0.0
42
0.0
43
0.0
44
0.0
45
10.0
50
0.0
51
0.0000000000007958
72
100
90
163872
1

281
0
71
0
74
0
110
0.0
120
0.0
130
0.0
111
1.0
121
0.0
131
0.0
112
0.0
122
1.0
132
0.0
79
0
146
0.0
1001
VD_INVISIBLE_NOT_FOR_READ
1000
VD_INVISIBLE_NOT_FOR_READ
0
VIEWPORT
5
297
102
{ACAD_XDICTIONARY
360
590
102
}
330
265
100
AcDbEntity
8
0
60
1
100
AcDbViewport
10
0.0
20
0.0
30
0.0
40
10.0
41
10.0
69
0
12
0.0
22
0.0
13
0.0
23
0.0
14
1.0
24
1.0
15
0.0
25
0.0
16
0.0
26
0.0
36
1.0
17
0.0
27
0.0
37
0.0
42
0.0
43
0.0
44
0.0
45
10.0
50
0.0
51
0.0000000000007958
72
100
90
163872
1

281
0
71
0
74
0
110
0.0
120
0.0
130
0.0
111
1.0
121
0.0
131
0.0
112
0.0
122
1.0
132
0.0
79
0
146
0.0
1001
VD_INVISIBLE_NOT_FOR_READ
1000
VD_INVISIBLE_NOT_FOR_READ
0
ENDBLK
5
267
330
265
100
AcDbEntity
8
0
100
AcDbBlockEnd
0
BLOCK
5
28B
330
23C
100
AcDbEntity
8
0
100
AcDbBlockBegin
2
VDDIM_DEFAULT
70
0
10
0.0
20
0.0
30
0.0
3
VDDIM_DEFAULT
1

0
LWPOLYLINE
5
23D
330
23C
100
AcDbEntity
8
0
6
Continuous
62
0
100
AcDbPolyline
90
4
70
0
43
0.0
10
0.0
20
0.0
10
-1.0
20
-0.1665
10
-1.0
20
0.1665
10
0.0
20
0.0
1001
VDEXTRAPARAM
1071
1
1071
0
1071
0
1040
1.0
1000

1000

1040
0.0
1040
0.0
0
HATCH
5
292
330
23C
100
AcDbEntity
8
0
6
Continuous
62
0
100
AcDbHatch
10
0.0
20
0.0
30
0.0
210
0.0
220
0.0
230
1.0
2
SOLID
70
1
71
0
91
1
92
2
72
0
73
1
93
3
10
0.0
20
0.0
10
-1.0
20
-0.1665
10
-1.0
20
0.1665
97
0
75
0
76
1
98
1
10
0.0
20
0.0
1001
VDEXTRAPARAM
1071
1
1071
0
1071
0
1040
1.0
1000

1000

1040
0.0
1040
0.0
1001
VD_TEMPHATCH
1000
VD_TEMPHATCH
0
ENDBLK
5
28C
330
23C
100
AcDbEntity
8
0
100
AcDbBlockEnd
0
BLOCK
5
28D
330
23E
100
AcDbEntity
8
0
100
AcDbBlockBegin
2
VDDIM_NONE
70
0
10
0.0
20
0.0
30
0.0
3
VDDIM_NONE
1

0
ENDBLK
5
28E
330
23E
100
AcDbEntity
8
0
100
AcDbBlockEnd
  0
BLOCK
  5
F10020
330
F1000C
100
AcDbEntity
  8
0
100
AcDbBlockBegin
  2
*D5
 70
     1
 10
0.0
 20
0.0
 30
0.0
  3
*D5
  1

  0
LINE
  5
F10021
330
F1000C
100
AcDbEntity
  8
Bemassung
 62
     0
370
    -2
100
AcDbLine
10
-27.7382133995037
20
10.9039665012407
30
0.000000000000000
11
-27.7382133995037
21
22.9044665012407
31
0.000000000000000
  0
LINE
  5
F10022
330
F1000C
100
AcDbEntity
  8
Bemassung
 62
     0
370
    -2
100
AcDbLine
10
79.2617866004963
20
10.3044665012407
30
0.000000000000000
11
79.2617866004963
21
27.9044665012407
31
0.000000000000000
  0
LINE
  5
F10023
330
F1000C
100
AcDbEntity
  8
Bemassung
 62
     0
370
    -2
100
AcDbLine
10
-27.7382133995037
20
20.9044665012407
30
0.000000000000000
11
79.2617866004963
21
20.9044665012407
31
0.000000000000000
  0
INSERT
  5
F10024
330
F1000C
100
AcDbEntity
  8
Bemassung
 62
     0
370
    -2
100
AcDbBlockReference
  2
VDDIM_DEFAULT
10
-27.7382133995037
20
20.9044665012407
30
0.000000000000000
 41
2.50000000000000
 42
2.50000000000000
 43
2.50000000000000
 50
180.000000000000
  0
INSERT
  5
F10025
330
F1000C
100
AcDbEntity
  8
Bemassung
 62
     0
370
    -2
100
AcDbBlockReference
  2
VDDIM_DEFAULT
10
79.2617866004963
20
20.9044665012407
30
0.000000000000000
 41
2.50000000000000
 42
2.50000000000000
 43
2.50000000000000
  0
MTEXT
  5
F10026
102
{ACAD_XDICTIONARY
360
F1000F
102
}
330
F1000C
100
AcDbEntity
  8
Bemassung
 62
     0
100
AcDbMText
10
25.7617866004963
20
21.5711331679074
30
0.000000000000000
 40
2.50000000000000
 41
0.0
 71
     8
 72
     1
  1
\A1;107
 11
1.00000000000000
 21
0.000000000000000
 31
0.0
 73
     1
 44
1.0
1001
ACAD
1000
MTEXTBEGIN
1070
73
1070
1
1070
44
1040
1.0
1070
74
1070
0
1000
MTEXTEND
  0
POINT
  5
F10027
330
F1000C
100
AcDbEntity
  8
Bemassung
 62
     0
100
AcDbPoint
10
-27.7382133995037
20
10.9039665012407
30
0.000000000000000
  0
POINT
  5
F10028
330
F1000C
100
AcDbEntity
  8
Bemassung
 62
     0
100
AcDbPoint
10
79.2617866004963
20
10.3044665012407
30
0.000000000000000
  0
ENDBLK
  5
F10029
330
F1000C
100
AcDbEntity
  8
0
100
AcDbBlockEnd
  0
BLOCK
  5
F1002A
330
F10016
100
AcDbEntity
  8
0
100
AcDbBlockBegin
  2
*D7
 70
     1
 10
0.0
 20
0.0
 30
0.0
  3
*D7
  1

  0
LINE
  5
F1002B
330
F10016
100
AcDbEntity
  8
Bemassung
 62
     0
370
    -2
100
AcDbLine
10
-29.7382133995037
20
2.90496650124071
30
0.000000000000000
11
-29.7382133995037
21
-9.09553349875929
31
0.000000000000000
  0
LINE
  5
F1002C
330
F10016
100
AcDbEntity
  8
Bemassung
 62
     0
370
    -2
100
AcDbLine
10
-70.7382133995037
20
-9.09553349875929
30
0.000000000000000
11
-70.7382133995037
21
27.9044665012407
31
0.000000000000000
  0
LINE
  5
F1002D
330
F10016
100
AcDbEntity
  8
Bemassung
 62
     0
370
    -2
100
AcDbLine
10
-29.7382133995037
20
-7.09553349875929
30
0.000000000000000
11
-70.7382133995037
21
-7.09553349875929
31
0.000000000000000
  0
INSERT
  5
F1002E
330
F10016
100
AcDbEntity
  8
Bemassung
 62
     0
370
    -2
100
AcDbBlockReference
  2
VDDIM_DEFAULT
10
-29.7382133995037
20
-7.09553349875929
30
0.000000000000000
 41
2.50000000000000
 42
2.50000000000000
 43
2.50000000000000
  0
INSERT
  5
F1002F
330
F10016
100
AcDbEntity
  8
Bemassung
 62
     0
370
    -2
100
AcDbBlockReference
  2
VDDIM_DEFAULT
10
-70.7382133995037
20
-7.09553349875929
30
0.000000000000000
 41
2.50000000000000
 42
2.50000000000000
 43
2.50000000000000
 50
180.000000000000
  0
MTEXT
  5
F10030
102
{ACAD_XDICTIONARY
360
F10019
102
}
330
F10016
100
AcDbEntity
  8
Bemassung
 62
     0
100
AcDbMText
10
-50.2382133995037
20
-6.42886683209263
30
0.000000000000000
 40
2.50000000000000
 41
0.0
 71
     8
 72
     1
  1
\A1;41
 11
1.00000000000000
 21
0.000000000000000
 31
0.0
 73
     1
 44
1.0
1001
ACAD
1000
MTEXTBEGIN
1070
73
1070
1
1070
44
1040
1.0
1070
74
1070
0
1000
MTEXTEND
  0
POINT
  5
F10031
330
F10016
100
AcDbEntity
  8
Bemassung
 62
     0
100
AcDbPoint
10
-29.7382133995037
20
2.90496650124071
30
0.000000000000000
  0
POINT
  5
F10032
330
F10016
100
AcDbEntity
  8
Bemassung
 62
     0
100
AcDbPoint
10
-70.7382133995037
20
-9.09553349875929
30
0.000000000000000
  0
ENDBLK
  5
F10033
330
F10016
100
AcDbEntity
  8
0
100
AcDbBlockEnd
  0
BLOCK
  5
F10034
330
F1001B
100
AcDbEntity
  8
0
100
AcDbBlockBegin
  2
*D8
 70
     1
 10
0.0
 20
0.0
 30
0.0
  3
*D8
  1

  0
LINE
  5
F10035
330
F1001B
100
AcDbEntity
  8
Bemassung
 62
     0
370
    -2
100
AcDbLine
10
79.2617866004963
20
10.3044665012407
30
0.000000000000000
11
79.2617866004963
21
27.9044665012407
31
0.000000000000000
  0
LINE
  5
F10036
330
F1001B
100
AcDbEntity
  8
Bemassung
 62
     0
370
    -2
100
AcDbLine
10
-70.7382133995037
20
-9.09553349875929
30
0.000000000000000
11
-70.7382133995037
21
27.9044665012407
31
0.000000000000000
  0
LINE
  5
F10037
330
F1001B
100
AcDbEntity
  8
Bemassung
 62
     0
370
    -2
100
AcDbLine
10
79.2617866004963
20
25.9044665012407
30
0.000000000000000
11
-70.7382133995037
21
25.9044665012407
31
0.000000000000000
  0
INSERT
  5
F10038
330
F1001B
100
AcDbEntity
  8
Bemassung
 62
     0
370
    -2
100
AcDbBlockReference
  2
VDDIM_DEFAULT
10
79.2617866004963
20
25.9044665012407
30
0.000000000000000
 41
2.50000000000000
 42
2.50000000000000
 43
2.50000000000000
  0
INSERT
  5
F10039
330
F1001B
100
AcDbEntity
  8
Bemassung
 62
     0
370
    -2
100
AcDbBlockReference
  2
VDDIM_DEFAULT
10
-70.7382133995037
20
25.9044665012407
30
0.000000000000000
 41
2.50000000000000
 42
2.50000000000000
 43
2.50000000000000
 50
180.000000000000
  0
MTEXT
  5
F1003A
102
{ACAD_XDICTIONARY
360
F1001E
102
}
330
F1001B
100
AcDbEntity
  8
Bemassung
 62
     0
100
AcDbMText
10
4.26178660049627
20
26.5711331679074
30
0.000000000000000
 40
2.50000000000000
 41
0.0
 71
     8
 72
     1
  1
\A1;150
 11
1.00000000000000
 21
0.000000000000000
 31
0.0
 73
     1
 44
1.0
1001
ACAD
1000
MTEXTBEGIN
1070
73
1070
1
1070
44
1040
1.0
1070
74
1070
0
1000
MTEXTEND
  0
POINT
  5
F1003B
330
F1001B
100
AcDbEntity
  8
Bemassung
 62
     0
100
AcDbPoint
10
79.2617866004963
20
10.3044665012407
30
0.000000000000000
  0
POINT
  5
F1003C
330
F1001B
100
AcDbEntity
  8
Bemassung
 62
     0
100
AcDbPoint
10
-70.7382133995037
20
-9.09553349875929
30
0.000000000000000
  0
ENDBLK
  5
F1003D
330
F1001B
100
AcDbEntity
  8
0
100
AcDbBlockEnd
  0
BLOCK
  5
F1003E
330
F10007
100
AcDbEntity
  8
0
100
AcDbBlockBegin
  2
*D4
 70
     1
 10
0.0
 20
0.0
 30
0.0
  3
*D4
  1

  0
LINE
  5
F1003F
330
F10007
100
AcDbEntity
  8
Bemassung
 62
     0
370
    -2
100
AcDbLine
10
-70.4898267007594
20
10.8365437473799
30
0.000000000000000
11
-84.7322283921254
21
22.6372470222340
31
0.000000000000000
  0
INSERT
  5
F10040
330
F10007
100
AcDbEntity
  8
Bemassung
 62
     0
370
    -2
100
AcDbBlockReference
  2
VDDIM_DEFAULT
10
-70.4898267007594
20
10.8365437473799
30
0.000000000000000
 41
2.50000000000000
 42
2.50000000000000
 43
2.50000000000000
 50
320.356168149846
  0
MTEXT
  5
F10041
102
{ACAD_XDICTIONARY
360
F1000A
102
}
330
F10007
100
AcDbEntity
  8
Bemassung
 62
     0
100
AcDbMText
10
-81.9615275377874
20
20.3415514398486
30
0.000000000000000
 40
2.50000000000000
 41
0.0
 71
     8
 72
     1
  1
\A1;R0.5
 11
0.770025381563914
 21
-0.638013253582830
 31
0.0
 73
     1
 44
1.0
1001
ACAD
1000
MTEXTBEGIN
1070
73
1070
1
1070
44
1040
1.0
1070
74
1070
0
1000
MTEXTEND
  0
POINT
  5
F10042
330
F10007
100
AcDbEntity
  8
Bemassung
 62
     0
100
AcDbPoint
10
-70.4898267007594
20
10.8365437473799
30
0.000000000000000
  0
POINT
  5
F10043
330
F10007
100
AcDbEntity
  8
Bemassung
 62
     0
100
AcDbPoint
10
-70.2382133995037
20
10.4044665012407
30
0.000000000000000
  0
ENDBLK
  5
F10044
330
F10007
100
AcDbEntity
  8
0
100
AcDbBlockEnd
  0
BLOCK
  5
F10045
330
F10002
100
AcDbEntity
  8
0
100
AcDbBlockBegin
  2
*D3
 70
     1
 10
0.0
 20
0.0
 30
0.0
  3
*D3
  1

  0
LINE
  5
F10046
330
F10002
100
AcDbEntity
  8
Bemassung
 62
     0
370
    -2
100
AcDbLine
10
-70.2382133995037
20
2.90446650124071
30
0.000000000000000
11
-82.7382133995037
21
2.90446650124071
31
0.000000000000000
  0
LINE
  5
F10047
330
F10002
100
AcDbEntity
  8
Bemassung
 62
     0
370
    -2
100
AcDbLine
10
-70.2382133995037
20
10.9044665012407
30
0.000000000000000
11
-82.7382133995037
21
10.9044665012407
31
0.000000000000000
  0
LINE
  5
F10048
330
F10002
100
AcDbEntity
  8
Bemassung
 62
     0
370
    -2
100
AcDbLine
10
-80.7382133995037
20
2.90446650124071
30
0.000000000000000
11
-80.7382133995037
21
10.9044665012407
31
0.000000000000000
  0
INSERT
  5
F10049
330
F10002
100
AcDbEntity
  8
Bemassung
 62
     0
370
    -2
100
AcDbBlockReference
  2
VDDIM_DEFAULT
10
-80.7382133995037
20
2.90446650124071
30
0.000000000000000
 41
2.50000000000000
 42
2.50000000000000
 43
2.50000000000000
 50
90.0000000000000
  0
INSERT
  5
F1004A
330
F10002
100
AcDbEntity
  8
Bemassung
 62
     0
370
    -2
100
AcDbBlockReference
  2
VDDIM_DEFAULT
10
-80.7382133995037
20
10.9044665012407
30
0.000000000000000
 41
2.50000000000000
 42
2.50000000000000
 43
2.50000000000000
 50
270.000000000000
  0
MTEXT
  5
F1004B
102
{ACAD_XDICTIONARY
360
F10005
102
}
330
F10002
100
AcDbEntity
  8
Bemassung
 62
     0
100
AcDbMText
10
-81.4048800661704
20
6.90446650124071
30
0.000000000000000
 40
2.50000000000000
 41
0.0
 71
     8
 72
     1
  1
\A1;8
 11
6.12323399573677e-017
 21
1.00000000000000
 31
0.0
 73
     1
 44
1.0
1001
ACAD
1000
MTEXTBEGIN
1070
73
1070
1
1070
44
1040
1.0
1070
74
1070
0
1000
MTEXTEND
  0
POINT
  5
F1004C
330
F10002
100
AcDbEntity
  8
Bemassung
 62
     0
100
AcDbPoint
10
-70.2382133995037
20
2.90446650124071
30
0.000000000000000
  0
POINT
  5
F1004D
330
F10002
100
AcDbEntity
  8
Bemassung
 62
     0
100
AcDbPoint
10
-70.2382133995037
20
10.9044665012407
30
0.000000000000000
  0
ENDBLK
  5
F1004E
330
F10002
100
AcDbEntity
  8
0
100
AcDbBlockEnd
  0
BLOCK
  5
F1004F
330
F10011
100
AcDbEntity
  8
0
100
AcDbBlockBegin
  2
*D6
 70
     1
 10
0.0
 20
0.0
 30
0.0
  3
*D6
  1

  0
LINE
  5
F10050
330
F10011
100
AcDbEntity
  8
Bemassung
 62
     0
370
    -2
100
AcDbLine
10
78.6617866004963
20
2.90446650124071
30
0.000000000000000
11
91.2617866004963
21
2.90446650124071
31
0.000000000000000
  0
LINE
  5
F10051
330
F10011
100
AcDbEntity
  8
Bemassung
 62
     0
370
    -2
100
AcDbLine
10
78.6617866004963
20
10.9044665012407
30
0.000000000000000
11
91.2617866004963
21
10.9044665012407
31
0.000000000000000
  0
LINE
  5
F10052
330
F10011
100
AcDbEntity
  8
Bemassung
 62
     0
370
    -2
100
AcDbLine
10
89.2617866004963
20
2.60545905707198
30
0.000000000000000
11
89.2617866004963
21
10.9044665012407
31
0.000000000000000
  0
INSERT
  5
F10053
330
F10011
100
AcDbEntity
  8
Bemassung
 62
     0
370
    -2
100
AcDbBlockReference
  2
VDDIM_DEFAULT
10
89.2617866004963
20
2.90446650124071
30
0.000000000000000
 41
2.50000000000000
 42
2.50000000000000
 43
2.50000000000000
 50
90.0000000000000
  0
INSERT
  5
F10054
330
F10011
100
AcDbEntity
  8
Bemassung
 62
     0
370
    -2
100
AcDbBlockReference
  2
VDDIM_DEFAULT
10
89.2617866004963
20
10.9044665012407
30
0.000000000000000
 41
2.50000000000000
 42
2.50000000000000
 43
2.50000000000000
 50
270.000000000000
  0
MTEXT
  5
F10055
330
F10011
100
AcDbEntity
  8
Bemassung
 62
     0
100
AcDbMText
10
88.5951199338296
20
5.99255583126552
30
0.000000000000000
 40
2.50000000000000
 41
0.0
 71
     8
 72
     1
  1
\A1;8 h5
 11
6.12323399573677e-017
 21
1.00000000000000
 31
0.0
 73
     1
 44
1.0
  0
POINT
  5
F10056
330
F10011
100
AcDbEntity
  8
Bemassung
 62
     0
100
AcDbPoint
10
78.6617866004963
20
2.90446650124071
30
0.000000000000000
  0
POINT
  5
F10057
330
F10011
100
AcDbEntity
  8
Bemassung
 62
     0
100
AcDbPoint
10
78.6617866004963
20
10.9044665012407
30
0.000000000000000
  0
ENDBLK
  5
F10058
330
F10011
100
AcDbEntity
  8
0
100
AcDbBlockEnd
0
ENDSEC
0
SECTION
2
ENTITIES
  0
DIMENSION
  5
F1000D
330
261
100
AcDbEntity
  8
Bemassung
100
AcDbDimension
  2
*D5
10
79.2617866004963
20
20.9044665012407
30
0.000000000000000
11
25.7617866004963
21
21.5711331679074
31
0.000000000000000
 70
32
 1
<>
 71
     8
  3
BEM-ISBE
100
AcDbAlignedDimension
13
-27.7382133995037
23
10.9039665012407
33
0.000000000000000
14
79.2617866004963
24
10.3044665012407
34
0.000000000000000
100
AcDbRotatedDimension
1001
ACAD
1000
DSTYLE
1002
{
1070
284
1070
8
1070
78
1070
8
1070
144
1040
1.00000000000000
1070
147
1040
0.625
1070
 72
1070
 0
1070
 71
1070
 0
1002
}
  0
DIMENSION
  5
F10017
330
261
100
AcDbEntity
  8
Bemassung
100
AcDbDimension
  2
*D7
10
-70.7382133995037
20
-7.09553349875929
30
0.000000000000000
11
-50.2382133995037
21
-6.42886683209263
31
0.000000000000000
 70
32
 1
<>
 71
     8
  3
BEM-ISBE
100
AcDbAlignedDimension
13
-29.7382133995037
23
2.90496650124071
33
0.000000000000000
14
-70.7382133995037
24
-9.09553349875929
34
0.000000000000000
100
AcDbRotatedDimension
1001
ACAD
1000
DSTYLE
1002
{
1070
284
1070
8
1070
78
1070
8
1070
144
1040
1.00000000000000
1070
147
1040
0.625
1070
 72
1070
 0
1070
 71
1070
 0
1002
}
  0
DIMENSION
  5
F1001C
330
261
100
AcDbEntity
  8
Bemassung
100
AcDbDimension
  2
*D8
10
-70.7382133995037
20
25.9044665012407
30
0.000000000000000
11
4.26178660049627
21
26.5711331679074
31
0.000000000000000
 70
32
 1
<>
 71
     8
  3
BEM-ISBE
100
AcDbAlignedDimension
13
79.2617866004963
23
10.3044665012407
33
0.000000000000000
14
-70.7382133995037
24
-9.09553349875929
34
0.000000000000000
100
AcDbRotatedDimension
1001
ACAD
1000
DSTYLE
1002
{
1070
284
1070
8
1070
78
1070
8
1070
144
1040
1.00000000000000
1070
147
1040
0.625
1070
 72
1070
 0
1070
 71
1070
 0
1002
}
  0
DIMENSION
  5
F10008
330
261
100
AcDbEntity
  8
Bemassung
100
AcDbDimension
  2
*D4
10
-70.2382133995037
20
10.4044665012407
30
0.000000000000000
11
-81.9615275377874
21
20.3415514398486
31
0.000000000000000
 70
164
 1
<>
 71
     8
  3
BEM-ISBE
100
AcDbRadialDimension
15
-70.4898267007594
25
10.8365437473799
35
0.000000000000000
40
0.0
1001
ACAD
1000
DSTYLE
1002
{
1070
284
1070
8
1070
78
1070
8
1070
144
1040
1.00000000000000
1070
147
1040
0.625
1070
 72
1070
 0
1070
 71
1070
 0
1002
}
  0
DIMENSION
  5
F10003
330
261
100
AcDbEntity
  8
Bemassung
100
AcDbDimension
  2
*D3
10
-80.7382133995037
20
10.9044665012407
30
0.000000000000000
11
-81.4048800661704
21
6.90446650124071
31
0.000000000000000
 70
32
 1
Ø<>
 71
     8
  3
BEM-ISBE
100
AcDbAlignedDimension
13
-70.2382133995037
23
2.90446650124071
33
0.000000000000000
14
-70.2382133995037
24
10.9044665012407
34
0.000000000000000
50
90.0000000000000
100
AcDbRotatedDimension
1001
ACAD
1000
DSTYLE
1002
{
1070
284
1070
8
1070
78
1070
8
1070
144
1040
1.00000000000000
1070
147
1040
0.625
1070
 72
1070
 0
1070
 71
1070
 0
1002
}
  0
DIMENSION
  5
F10012
330
261
100
AcDbEntity
  8
Bemassung
100
AcDbDimension
  2
*D6
10
89.2617866004963
20
10.9044665012407
30
0.000000000000000
11
88.5951199338296
21
5.99255583126552
31
0.000000000000000
 70
32
 1
Ø<> h5
 71
     8
  3
BEM-ISBE
100
AcDbAlignedDimension
13
78.6617866004963
23
2.90446650124071
33
0.000000000000000
14
78.6617866004963
24
10.9044665012407
34
0.000000000000000
50
90.0000000000000
100
AcDbRotatedDimension
1001
ACAD
1000
DSTYLE
1002
{
1070
284
1070
8
1070
78
1070
8
1070
144
1040
1.00000000000000
1070
147
1040
0.625
1070
 72
1070
 0
1070
 71
1070
 0
1002
}
  0
LINE
  5
F10059
330
F1005A
100
AcDbEntity
8
Geo
100
AcDbLine
10
-70.7382133995037
20
6.90446650124071
30
0.000000000000000
11
-70.7382133995037
21
10.4044665012407
31
0.000000000000000
  0
ARC
  5
F1005B
330
F1005C
100
AcDbEntity
8
Geo
100
AcDbCircle
10
-70.2382133995037
20
10.4044665012407
30
0.000000000000000
 40
0.500000000000000
100
AcDbArc
 50
90.0000000000000
 51
180.000000000000
  0
LINE
  5
F1005D
330
F1005E
100
AcDbEntity
8
Geo
100
AcDbLine
10
-70.2382133995037
20
10.9044665012407
30
0.000000000000000
11
-29.7382133995037
21
10.9044665012407
31
0.000000000000000
  0
LINE
  5
F1005F
330
F10060
100
AcDbEntity
8
Geo
100
AcDbLine
10
-29.7382133995037
20
10.9044665012407
30
0.000000000000000
11
-29.7382133995037
21
10.9039665012407
31
0.000000000000000
  0
LINE
  5
F10061
330
F10062
100
AcDbEntity
8
Geo
100
AcDbLine
10
-29.7382133995037
20
10.9039665012407
30
0.000000000000000
11
-27.7382133995037
21
10.9039665012407
31
0.000000000000000
  0
LINE
  5
F10063
330
F10064
100
AcDbEntity
8
Geo
100
AcDbLine
10
-27.7382133995037
20
10.9039665012407
30
0.000000000000000
11
-27.7382133995037
21
10.9044665012407
31
0.000000000000000
  0
LINE
  5
F10065
330
F10066
100
AcDbEntity
8
Geo
100
AcDbLine
10
-27.7382133995037
20
10.9044665012407
30
0.000000000000000
11
78.6617866004963
21
10.9044665012407
31
0.000000000000000
  0
LINE
  5
F10067
330
F10068
100
AcDbEntity
8
Geo
100
AcDbLine
10
78.6617866004963
20
10.9044665012407
30
0.000000000000000
11
79.2617866004963
21
10.3044665012407
31
0.000000000000000
  0
LINE
  5
F10069
330
F1006A
100
AcDbEntity
8
Geo
100
AcDbLine
10
-51.4382133995037
20
10.9043737016049
30
0.000000000000000
11
-51.3382133995037
21
10.9043503119627
31
0.000000000000000
  0
LINE
  5
F1006B
330
F1006C
100
AcDbEntity
8
Geo
100
AcDbLine
10
-51.3382133995037
20
10.9043503119627
30
0.000000000000000
11
-51.2382133995037
21
10.9034936276604
31
0.000000000000000
  0
LINE
  5
F1006D
330
F1006E
100
AcDbEntity
8
Geo
100
AcDbLine
10
-51.2382133995037
20
10.9034936276604
30
0.000000000000000
11
-51.1382133995037
21
10.9018038271707
31
0.000000000000000
  0
LINE
  5
F1006F
330
F10070
100
AcDbEntity
8
Geo
100
AcDbLine
10
-51.1382133995037
20
10.9018038271707
30
0.000000000000000
11
-51.0382133995037
21
10.8992812625292
31
0.000000000000000
  0
LINE
  5
F10071
330
F10072
100
AcDbEntity
8
Geo
100
AcDbLine
10
-51.0382133995037
20
10.8992812625292
30
0.000000000000000
11
-50.9382133995037
21
10.8959264592613
31
0.000000000000000
  0
LINE
  5
F10073
330
F10074
100
AcDbEntity
8
Geo
100
AcDbLine
10
-50.9382133995037
20
10.8959264592613
30
0.000000000000000
11
-50.8382133995037
21
10.8917401162721
31
0.000000000000000
  0
LINE
  5
F10075
330
F10076
100
AcDbEntity
8
Geo
100
AcDbLine
10
-50.8382133995037
20
10.8917401162721
30
0.000000000000000
11
-50.7382133995037
21
10.8867231057011
31
0.000000000000000
  0
LINE
  5
F10077
330
F10078
100
AcDbEntity
8
Geo
100
AcDbLine
10
-50.7382133995037
20
10.8867231057011
30
0.000000000000000
11
-50.6382133995037
21
10.8808764727409
31
0.000000000000000
  0
LINE
  5
F10079
330
F1007A
100
AcDbEntity
8
Geo
100
AcDbLine
10
-50.6382133995037
20
10.8808764727409
30
0.000000000000000
11
-50.5382133995037
21
10.8742014354188
31
0.000000000000000
  0
LINE
  5
F1007B
330
F1007C
100
AcDbEntity
8
Geo
100
AcDbLine
10
-50.5382133995037
20
10.8742014354188
30
0.000000000000000
11
-50.4382133995037
21
10.8666993843435
31
0.000000000000000
  0
LINE
  5
F1007D
330
F1007E
100
AcDbEntity
8
Geo
100
AcDbLine
10
-50.4382133995037
20
10.8666993843435
30
0.000000000000000
11
-50.3382133995037
21
10.8583718824151
31
0.000000000000000
  0
LINE
  5
F1007F
330
F10080
100
AcDbEntity
8
Geo
100
AcDbLine
10
-50.3382133995037
20
10.8583718824151
30
0.000000000000000
11
-50.2382133995037
21
10.8492206644996
31
0.000000000000000
  0
LINE
  5
F10081
330
F10082
100
AcDbEntity
8
Geo
100
AcDbLine
10
-50.2382133995037
20
10.8492206644996
30
0.000000000000000
11
-50.1382133995037
21
10.8392476370679
31
0.000000000000000
  0
LINE
  5
F10083
330
F10084
100
AcDbEntity
8
Geo
100
AcDbLine
10
-50.1382133995037
20
10.8392476370679
30
0.000000000000000
11
-50.0382133995037
21
10.8284548777978
31
0.000000000000000
  0
LINE
  5
F10085
330
F10086
100
AcDbEntity
8
Geo
100
AcDbLine
10
-50.0382133995037
20
10.8284548777978
30
0.000000000000000
11
-49.9382133995037
21
10.8168446351418
31
0.000000000000000
  0
LINE
  5
F10087
330
F10088
100
AcDbEntity
8
Geo
100
AcDbLine
10
-49.9382133995037
20
10.8168446351418
30
0.000000000000000
11
-49.8382133995037
21
10.8044193278585
31
0.000000000000000
  0
LINE
  5
F10089
330
F1008A
100
AcDbEntity
8
Geo
100
AcDbLine
10
-49.8382133995037
20
10.8044193278585
30
0.000000000000000
11
-49.7382133995037
21
10.7911815445086
31
0.000000000000000
  0
LINE
  5
F1008B
330
F1008C
100
AcDbEntity
8
Geo
100
AcDbLine
10
-49.7382133995037
20
10.7911815445086
30
0.000000000000000
11
-49.6382133995037
21
10.7771340429158
31
0.000000000000000
  0
LINE
  5
F1008D
330
F1008E
100
AcDbEntity
8
Geo
100
AcDbLine
10
-49.6382133995037
20
10.7771340429158
30
0.000000000000000
11
-49.5382133995037
21
10.7622797495921
31
0.000000000000000
  0
LINE
  5
F1008F
330
F10090
100
AcDbEntity
8
Geo
100
AcDbLine
10
-49.5382133995037
20
10.7622797495921
30
0.000000000000000
11
-49.4382133995037
21
10.7466217591282
31
0.000000000000000
  0
LINE
  5
F10091
330
F10092
100
AcDbEntity
8
Geo
100
AcDbLine
10
-49.4382133995037
20
10.7466217591282
30
0.000000000000000
11
-49.3382133995037
21
10.7301633335488
31
0.000000000000000
  0
LINE
  5
F10093
330
F10094
100
AcDbEntity
8
Geo
100
AcDbLine
10
-49.3382133995037
20
10.7301633335488
30
0.000000000000000
11
-49.2382133995037
21
10.7129079016331
31
0.000000000000000
  0
LINE
  5
F10095
330
F10096
100
AcDbEntity
8
Geo
100
AcDbLine
10
-49.2382133995037
20
10.7129079016331
30
0.000000000000000
11
-49.1382133995037
21
10.6948590582003
31
0.000000000000000
  0
LINE
  5
F10097
330
F10098
100
AcDbEntity
8
Geo
100
AcDbLine
10
-49.1382133995037
20
10.6948590582003
30
0.000000000000000
11
-49.0382133995037
21
10.6760205633608
31
0.000000000000000
  0
LINE
  5
F10099
330
F1009A
100
AcDbEntity
8
Geo
100
AcDbLine
10
-49.0382133995037
20
10.6760205633608
30
0.000000000000000
11
-48.9382133995037
21
10.6563963417329
31
0.000000000000000
  0
LINE
  5
F1009B
330
F1009C
100
AcDbEntity
8
Geo
100
AcDbLine
10
-48.9382133995037
20
10.6563963417329
30
0.000000000000000
11
-48.8382133995037
21
10.6359904816252
31
0.000000000000000
  0
LINE
  5
F1009D
330
F1009E
100
AcDbEntity
8
Geo
100
AcDbLine
10
-48.8382133995037
20
10.6359904816252
30
0.000000000000000
11
-48.7382133995037
21
10.6148072341847
31
0.000000000000000
  0
LINE
  5
F1009F
330
F100A0
100
AcDbEntity
8
Geo
100
AcDbLine
10
-48.7382133995037
20
10.6148072341847
30
0.000000000000000
11
-48.6382133995037
21
10.5928510125114
31
0.000000000000000
  0
LINE
  5
F100A1
330
F100A2
100
AcDbEntity
8
Geo
100
AcDbLine
10
-48.6382133995037
20
10.5928510125114
30
0.000000000000000
11
-48.5382133995037
21
10.5701263907386
31
0.000000000000000
  0
LINE
  5
F100A3
330
F100A4
100
AcDbEntity
8
Geo
100
AcDbLine
10
-48.5382133995037
20
10.5701263907386
30
0.000000000000000
11
-48.4382133995037
21
10.5466381030803
31
0.000000000000000
  0
LINE
  5
F100A5
330
F100A6
100
AcDbEntity
8
Geo
100
AcDbLine
10
-48.4382133995037
20
10.5466381030803
30
0.000000000000000
11
-48.3382133995037
21
10.5223910428450
31
0.000000000000000
  0
LINE
  5
F100A7
330
F100A8
100
AcDbEntity
8
Geo
100
AcDbLine
10
-48.3382133995037
20
10.5223910428450
30
0.000000000000000
11
-48.2382133995037
21
10.4973902614158
31
0.000000000000000
  0
LINE
  5
F100A9
330
F100AA
100
AcDbEntity
8
Geo
100
AcDbLine
10
-48.2382133995037
20
10.4973902614158
30
0.000000000000000
11
-48.1382133995037
21
10.4716409671983
31
0.000000000000000
  0
LINE
  5
F100AB
330
F100AC
100
AcDbEntity
8
Geo
100
AcDbLine
10
-48.1382133995037
20
10.4716409671983
30
0.000000000000000
11
-48.0382133995037
21
10.4451485245358
31
0.000000000000000
  0
LINE
  5
F100AD
330
F100AE
100
AcDbEntity
8
Geo
100
AcDbLine
10
-48.0382133995037
20
10.4451485245358
30
0.000000000000000
11
-47.9382133995037
21
10.4179184525912
31
0.000000000000000
  0
LINE
  5
F100AF
330
F100B0
100
AcDbEntity
8
Geo
100
AcDbLine
10
-47.9382133995037
20
10.4179184525912
30
0.000000000000000
11
-47.8382133995037
21
10.3899564241979
31
0.000000000000000
  0
LINE
  5
F100B1
330
F100B2
100
AcDbEntity
8
Geo
100
AcDbLine
10
-47.8382133995037
20
10.3899564241979
30
0.000000000000000
11
-47.7382133995037
21
10.3612682646772
31
0.000000000000000
  0
LINE
  5
F100B3
330
F100B4
100
AcDbEntity
8
Geo
100
AcDbLine
10
-47.7382133995037
20
10.3612682646772
30
0.000000000000000
11
-47.6382133995037
21
10.3318599506252
31
0.000000000000000
  0
LINE
  5
F100B5
330
F100B6
100
AcDbEntity
8
Geo
100
AcDbLine
10
-47.6382133995037
20
10.3318599506252
30
0.000000000000000
11
-47.5382133995037
21
10.3017376086678
31
0.000000000000000
  0
LINE
  5
F100B7
330
F100B8
100
AcDbEntity
8
Geo
100
AcDbLine
10
-47.5382133995037
20
10.3017376086678
30
0.000000000000000
11
-47.4382133995037
21
10.2709075141838
31
0.000000000000000
  0
LINE
  5
F100B9
330
F100BA
100
AcDbEntity
8
Geo
100
AcDbLine
10
-47.4382133995037
20
10.2709075141838
30
0.000000000000000
11
-47.3382133995037
21
10.2393760899980
31
0.000000000000000
  0
LINE
  5
F100BB
330
F100BC
100
AcDbEntity
8
Geo
100
AcDbLine
10
-47.3382133995037
20
10.2393760899980
30
0.000000000000000
11
-47.2382133995037
21
10.2071499050433
31
0.000000000000000
  0
LINE
  5
F100BD
330
F100BE
100
AcDbEntity
8
Geo
100
AcDbLine
10
-47.2382133995037
20
10.2071499050433
30
0.000000000000000
11
-47.1382133995037
21
10.1742356729914
31
0.000000000000000
  0
LINE
  5
F100BF
330
F100C0
100
AcDbEntity
8
Geo
100
AcDbLine
10
-47.1382133995037
20
10.1742356729914
30
0.000000000000000
11
-47.0382133995037
21
10.1406402508552
31
0.000000000000000
  0
LINE
  5
F100C1
330
F100C2
100
AcDbEntity
8
Geo
100
AcDbLine
10
-47.0382133995037
20
10.1406402508552
30
0.000000000000000
11
-46.9382133995037
21
10.1063706375592
31
0.000000000000000
  0
LINE
  5
F100C3
330
F100C4
100
AcDbEntity
8
Geo
100
AcDbLine
10
-46.9382133995037
20
10.1063706375592
30
0.000000000000000
11
-46.8382133995037
21
10.0714339724824
31
0.000000000000000
  0
LINE
  5
F100C5
330
F100C6
100
AcDbEntity
8
Geo
100
AcDbLine
10
-46.8382133995037
20
10.0714339724824
30
0.000000000000000
11
-46.7382133995037
21
10.0358375339703
31
0.000000000000000
  0
LINE
  5
F100C7
330
F100C8
100
AcDbEntity
8
Geo
100
AcDbLine
10
-46.7382133995037
20
10.0358375339703
30
0.000000000000000
11
-46.6382133995037
21
9.99958873781878
31
0.000000000000000
  0
LINE
  5
F100C9
330
F100CA
100
AcDbEntity
8
Geo
100
AcDbLine
10
-46.6382133995037
20
9.99958873781878
30
0.000000000000000
11
-46.5382133995037
21
9.96269513572932
31
0.000000000000000
  0
LINE
  5
F100CB
330
F100CC
100
AcDbEntity
8
Geo
100
AcDbLine
10
-46.5382133995037
20
9.96269513572932
30
0.000000000000000
11
-46.4382133995037
21
9.92516441373556
31
0.000000000000000
  0
LINE
  5
F100CD
330
F100CE
100
AcDbEntity
8
Geo
100
AcDbLine
10
-46.4382133995037
20
9.92516441373556
30
0.000000000000000
11
-46.3382133995037
21
9.88700439060218
31
0.000000000000000
  0
LINE
  5
F100CF
330
F100D0
100
AcDbEntity
8
Geo
100
AcDbLine
10
-46.3382133995037
20
9.88700439060218
30
0.000000000000000
11
-46.2382133995037
21
9.84822301619598
31
0.000000000000000
  0
LINE
  5
F100D1
330
F100D2
100
AcDbEntity
8
Geo
100
AcDbLine
10
-46.2382133995037
20
9.84822301619598
30
0.000000000000000
11
-46.1382133995037
21
9.80882836982969
31
0.000000000000000
  0
LINE
  5
F100D3
330
F100D4
100
AcDbEntity
8
Geo
100
AcDbLine
10
-46.1382133995037
20
9.80882836982969
30
0.000000000000000
11
-46.0382133995037
21
9.76882865857882
31
0.000000000000000
  0
LINE
  5
F100D5
330
F100D6
100
AcDbEntity
8
Geo
100
AcDbLine
10
-46.0382133995037
20
9.76882865857882
30
0.000000000000000
11
-45.9382133995037
21
9.72823221557187
31
0.000000000000000
  0
LINE
  5
F100D7
330
F100D8
100
AcDbEntity
8
Geo
100
AcDbLine
10
-45.9382133995037
20
9.72823221557187
30
0.000000000000000
11
-45.8382133995037
21
9.68704749825430
31
0.000000000000000
  0
LINE
  5
F100D9
330
F100DA
100
AcDbEntity
8
Geo
100
AcDbLine
10
-45.8382133995037
20
9.68704749825430
30
0.000000000000000
11
-45.7382133995037
21
9.64528308662660
31
0.000000000000000
  0
LINE
  5
F100DB
330
F100DC
100
AcDbEntity
8
Geo
100
AcDbLine
10
-45.7382133995037
20
9.64528308662660
30
0.000000000000000
11
-45.6382133995036
21
9.60294768145679
31
0.000000000000000
  0
LINE
  5
F100DD
330
F100DE
100
AcDbEntity
8
Geo
100
AcDbLine
10
-45.6382133995036
20
9.60294768145679
30
0.000000000000000
11
-45.5382133995036
21
9.56005010246784
31
0.000000000000000
  0
LINE
  5
F100DF
330
F100E0
100
AcDbEntity
8
Geo
100
AcDbLine
10
-45.5382133995036
20
9.56005010246784
30
0.000000000000000
11
-45.4382133995036
21
9.51659928650021
31
0.000000000000000
  0
LINE
  5
F100E1
330
F100E2
100
AcDbEntity
8
Geo
100
AcDbLine
10
-45.4382133995036
20
9.51659928650021
30
0.000000000000000
11
-45.3382133995036
21
9.47260428565006
31
0.000000000000000
  0
LINE
  5
F100E3
330
F100E4
100
AcDbEntity
8
Geo
100
AcDbLine
10
-45.3382133995036
20
9.47260428565006
30
0.000000000000000
11
-45.2382133995036
21
9.42807426538346
31
0.000000000000000
  0
LINE
  5
F100E5
330
F100E6
100
AcDbEntity
8
Geo
100
AcDbLine
10
-45.2382133995036
20
9.42807426538346
30
0.000000000000000
11
-45.1382133995036
21
9.38301850262690
31
0.000000000000000
  0
LINE
  5
F100E7
330
F100E8
100
AcDbEntity
8
Geo
100
AcDbLine
10
-45.1382133995036
20
9.38301850262690
30
0.000000000000000
11
-45.0382133995036
21
9.33744638383466
31
0.000000000000000
  0
LINE
  5
F100E9
330
F100EA
100
AcDbEntity
8
Geo
100
AcDbLine
10
-45.0382133995036
20
9.33744638383466
30
0.000000000000000
11
-44.9382133995036
21
9.29136740303332
31
0.000000000000000
  0
LINE
  5
F100EB
330
F100EC
100
AcDbEntity
8
Geo
100
AcDbLine
10
-44.9382133995036
20
9.29136740303332
30
0.000000000000000
11
-44.8382133995036
21
9.24479115984390
31
0.000000000000000
  0
LINE
  5
F100ED
330
F100EE
100
AcDbEntity
8
Geo
100
AcDbLine
10
-44.8382133995036
20
9.24479115984390
30
0.000000000000000
11
-44.7382133995036
21
9.19772735748192
31
0.000000000000000
  0
LINE
  5
F100EF
330
F100F0
100
AcDbEntity
8
Geo
100
AcDbLine
10
-44.7382133995036
20
9.19772735748192
30
0.000000000000000
11
-44.6382133995036
21
9.15018580073599
31
0.000000000000000
  0
LINE
  5
F100F1
330
F100F2
100
AcDbEntity
8
Geo
100
AcDbLine
10
-44.6382133995036
20
9.15018580073599
30
0.000000000000000
11
-44.5382133995036
21
9.10217639392515
31
0.000000000000000
  0
LINE
  5
F100F3
330
F100F4
100
AcDbEntity
8
Geo
100
AcDbLine
10
-44.5382133995036
20
9.10217639392515
30
0.000000000000000
11
-44.4382133995036
21
9.05370913883550
31
0.000000000000000
  0
LINE
  5
F100F5
330
F100F6
100
AcDbEntity
8
Geo
100
AcDbLine
10
-44.4382133995036
20
9.05370913883550
30
0.000000000000000
11
-44.3382133995036
21
9.00479413263656
31
0.000000000000000
  0
LINE
  5
F100F7
330
F100F8
100
AcDbEntity
8
Geo
100
AcDbLine
10
-44.3382133995036
20
9.00479413263656
30
0.000000000000000
11
-44.2382133995036
21
8.95544156577770
31
0.000000000000000
  0
LINE
  5
F100F9
330
F100FA
100
AcDbEntity
8
Geo
100
AcDbLine
10
-44.2382133995036
20
8.95544156577770
30
0.000000000000000
11
-44.1382133995036
21
8.90566171986517
31
0.000000000000000
  0
LINE
  5
F100FB
330
F100FC
100
AcDbEntity
8
Geo
100
AcDbLine
10
-44.1382133995036
20
8.90566171986517
30
0.000000000000000
11
-44.0382133995036
21
8.85546496552017
31
0.000000000000000
  0
LINE
  5
F100FD
330
F100FE
100
AcDbEntity
8
Geo
100
AcDbLine
10
-44.0382133995036
20
8.85546496552017
30
0.000000000000000
11
-43.9382133995036
21
8.80486176021829
31
0.000000000000000
  0
LINE
  5
F100FF
330
F10100
100
AcDbEntity
8
Geo
100
AcDbLine
10
-43.9382133995036
20
8.80486176021829
30
0.000000000000000
11
-43.8382133995036
21
8.75386264611094
31
0.000000000000000
  0
LINE
  5
F10101
330
F10102
100
AcDbEntity
8
Geo
100
AcDbLine
10
-43.8382133995036
20
8.75386264611094
30
0.000000000000000
11
-43.7382133995036
21
8.70247824782911
31
0.000000000000000
  0
LINE
  5
F10103
330
F10104
100
AcDbEntity
8
Geo
100
AcDbLine
10
-43.7382133995036
20
8.70247824782911
30
0.000000000000000
11
-43.6382133995036
21
8.65071927026992
31
0.000000000000000
  0
LINE
  5
F10105
330
F10106
100
AcDbEntity
8
Geo
100
AcDbLine
10
-43.6382133995036
20
8.65071927026992
30
0.000000000000000
11
-43.5382133995036
21
8.59859649636649
31
0.000000000000000
  0
LINE
  5
F10107
330
F10108
100
AcDbEntity
8
Geo
100
AcDbLine
10
-43.5382133995036
20
8.59859649636649
30
0.000000000000000
11
-43.4382133995036
21
8.54612078484153
31
0.000000000000000
  0
LINE
  5
F10109
330
F1010A
100
AcDbEntity
8
Geo
100
AcDbLine
10
-43.4382133995036
20
8.54612078484153
30
0.000000000000000
11
-43.3382133995036
21
8.49330306794514
31
0.000000000000000
  0
LINE
  5
F1010B
330
F1010C
100
AcDbEntity
8
Geo
100
AcDbLine
10
-43.3382133995036
20
8.49330306794514
30
0.000000000000000
11
-43.2382133995036
21
8.44015434917731
31
0.000000000000000
  0
LINE
  5
F1010D
330
F1010E
100
AcDbEntity
8
Geo
100
AcDbLine
10
-43.2382133995036
20
8.44015434917731
30
0.000000000000000
11
-43.1382133995036
21
8.38668570099554
31
0.000000000000000
  0
LINE
  5
F1010F
330
F10110
100
AcDbEntity
8
Geo
100
AcDbLine
10
-43.1382133995036
20
8.38668570099554
30
0.000000000000000
11
-43.0382133995036
21
8.33290826250816
31
0.000000000000000
  0
LINE
  5
F10111
330
F10112
100
AcDbEntity
8
Geo
100
AcDbLine
10
-43.0382133995036
20
8.33290826250816
30
0.000000000000000
11
-42.9382133995036
21
8.27883323715368
31
0.000000000000000
  0
LINE
  5
F10113
330
F10114
100
AcDbEntity
8
Geo
100
AcDbLine
10
-42.9382133995036
20
8.27883323715368
30
0.000000000000000
11
-42.8382133995036
21
8.22447189036678
31
0.000000000000000
  0
LINE
  5
F10115
330
F10116
100
AcDbEntity
8
Geo
100
AcDbLine
10
-42.8382133995036
20
8.22447189036678
30
0.000000000000000
11
-42.7382133995036
21
8.16983554723145
31
0.000000000000000
  0
LINE
  5
F10117
330
F10118
100
AcDbEntity
8
Geo
100
AcDbLine
10
-42.7382133995036
20
8.16983554723145
30
0.000000000000000
11
-42.6382133995036
21
8.11493559012155
31
0.000000000000000
  0
LINE
  5
F10119
330
F1011A
100
AcDbEntity
8
Geo
100
AcDbLine
10
-42.6382133995036
20
8.11493559012155
30
0.000000000000000
11
-42.5382133995036
21
8.05978345632957
31
0.000000000000000
  0
LINE
  5
F1011B
330
F1011C
100
AcDbEntity
8
Geo
100
AcDbLine
10
-42.5382133995036
20
8.05978345632957
30
0.000000000000000
11
-42.4382133995036
21
8.00439063568392
31
0.000000000000000
  0
LINE
  5
F1011D
330
F1011E
100
AcDbEntity
8
Geo
100
AcDbLine
10
-42.4382133995036
20
8.00439063568392
30
0.000000000000000
11
-42.3382133995036
21
7.94876866815522
31
0.000000000000000
  0
LINE
  5
F1011F
330
F10120
100
AcDbEntity
8
Geo
100
AcDbLine
10
-42.3382133995036
20
7.94876866815522
30
0.000000000000000
11
-42.2382133995036
21
7.89292914145218
31
0.000000000000000
  0
LINE
  5
F10121
330
F10122
100
AcDbEntity
8
Geo
100
AcDbLine
10
-42.2382133995036
20
7.89292914145218
30
0.000000000000000
11
-42.1382133995036
21
7.83688368860757
31
0.000000000000000
  0
LINE
  5
F10123
330
F10124
100
AcDbEntity
8
Geo
100
AcDbLine
10
-42.1382133995036
20
7.83688368860757
30
0.000000000000000
11
-42.0382133995036
21
7.78064398555470
31
0.000000000000000
  0
LINE
  5
F10125
330
F10126
100
AcDbEntity
8
Geo
100
AcDbLine
10
-42.0382133995036
20
7.78064398555470
30
0.000000000000000
11
-41.9382133995036
21
7.72422174869495
31
0.000000000000000
  0
LINE
  5
F10127
330
F10128
100
AcDbEntity
8
Geo
100
AcDbLine
10
-41.9382133995036
20
7.72422174869495
30
0.000000000000000
11
-41.8382133995036
21
7.66762873245694
31
0.000000000000000
  0
LINE
  5
F10129
330
F1012A
100
AcDbEntity
8
Geo
100
AcDbLine
10
-41.8382133995036
20
7.66762873245694
30
0.000000000000000
11
-41.7382133995036
21
7.61087672684768
31
0.000000000000000
  0
LINE
  5
F1012B
330
F1012C
100
AcDbEntity
8
Geo
100
AcDbLine
10
-41.7382133995036
20
7.61087672684768
30
0.000000000000000
11
-41.6382133995036
21
7.55397755499641
31
0.000000000000000
  0
LINE
  5
F1012D
330
F1012E
100
AcDbEntity
8
Geo
100
AcDbLine
10
-41.6382133995036
20
7.55397755499641
30
0.000000000000000
11
-41.5382133995036
21
7.49694307069148
31
0.000000000000000
  0
LINE
  5
F1012F
330
F10130
100
AcDbEntity
8
Geo
100
AcDbLine
10
-41.5382133995036
20
7.49694307069148
30
0.000000000000000
11
-41.4382133995036
21
7.43978515591083
31
0.000000000000000
  0
LINE
  5
F10131
330
F10132
100
AcDbEntity
8
Geo
100
AcDbLine
10
-41.4382133995036
20
7.43978515591083
30
0.000000000000000
11
-41.3382133995036
21
7.38251571834663
31
0.000000000000000
  0
LINE
  5
F10133
330
F10134
100
AcDbEntity
8
Geo
100
AcDbLine
10
-41.3382133995036
20
7.38251571834663
30
0.000000000000000
11
-41.2382133995036
21
7.32514668892458
31
0.000000000000000
  0
LINE
  5
F10135
330
F10136
100
AcDbEntity
8
Geo
100
AcDbLine
10
-41.2382133995036
20
7.32514668892458
30
0.000000000000000
11
-41.1382133995036
21
7.26769001931831
31
0.000000000000000
  0
LINE
  5
F10137
330
F10138
100
AcDbEntity
8
Geo
100
AcDbLine
10
-41.1382133995036
20
7.26769001931831
30
0.000000000000000
11
-41.0382133995036
21
7.21015767945950
31
0.000000000000000
  0
LINE
  5
F10139
330
F1013A
100
AcDbEntity
8
Geo
100
AcDbLine
10
-41.0382133995036
20
7.21015767945950
30
0.000000000000000
11
-40.9382133995036
21
7.15256165504422
31
0.000000000000000
  0
LINE
  5
F1013B
330
F1013C
100
AcDbEntity
8
Geo
100
AcDbLine
10
-40.9382133995036
20
7.15256165504422
30
0.000000000000000
11
-40.8382133995036
21
7.09491394503588
31
0.000000000000000
  0
LINE
  5
F1013D
330
F1013E
100
AcDbEntity
8
Geo
100
AcDbLine
10
-40.8382133995036
20
7.09491394503588
30
0.000000000000000
11
-40.7382133995036
21
7.03722655916558
31
0.000000000000000
  0
LINE
  5
F1013F
330
F10140
100
AcDbEntity
8
Geo
100
AcDbLine
10
-40.7382133995036
20
7.03722655916558
30
0.000000000000000
11
-40.6382133995036
21
6.97951151543006
31
0.000000000000000
  0
LINE
  5
F10141
330
F10142
100
AcDbEntity
8
Geo
100
AcDbLine
10
-40.6382133995036
20
6.97951151543006
30
0.000000000000000
11
-40.5382133995036
21
6.92178083758800
31
0.000000000000000
  0
LINE
  5
F10143
330
F10144
100
AcDbEntity
8
Geo
100
AcDbLine
10
-40.5382133995036
20
6.92178083758800
30
0.000000000000000
11
-40.4382133995036
21
6.86404655265516
31
0.000000000000000
  0
LINE
  5
F10145
330
F10146
100
AcDbEntity
8
Geo
100
AcDbLine
10
-40.4382133995036
20
6.86404655265516
30
0.000000000000000
11
-40.3382133995036
21
6.80632068839876
31
0.000000000000000
  0
LINE
  5
F10147
330
F10148
100
AcDbEntity
8
Geo
100
AcDbLine
10
-40.3382133995036
20
6.80632068839876
30
0.000000000000000
11
-40.2382133995036
21
6.74861527083171
31
0.000000000000000
  0
LINE
  5
F10149
330
F1014A
100
AcDbEntity
8
Geo
100
AcDbLine
10
-40.2382133995036
20
6.74861527083171
30
0.000000000000000
11
-40.1382133995036
21
6.69094232170731
31
0.000000000000000
  0
LINE
  5
F1014B
330
F1014C
100
AcDbEntity
8
Geo
100
AcDbLine
10
-40.1382133995036
20
6.69094232170731
30
0.000000000000000
11
-40.0382133995036
21
6.63331385601468
31
0.000000000000000
  0
LINE
  5
F1014D
330
F1014E
100
AcDbEntity
8
Geo
100
AcDbLine
10
-40.0382133995036
20
6.63331385601468
30
0.000000000000000
11
-39.9382133995036
21
6.57574187947575
31
0.000000000000000
  0
LINE
  5
F1014F
330
F10150
100
AcDbEntity
8
Geo
100
AcDbLine
10
-39.9382133995036
20
6.57574187947575
30
0.000000000000000
11
-39.8382133995036
21
6.51823838604407
31
0.000000000000000
  0
LINE
  5
F10151
330
F10152
100
AcDbEntity
8
Geo
100
AcDbLine
10
-39.8382133995036
20
6.51823838604407
30
0.000000000000000
11
-39.7382133995036
21
6.46081535540612
31
0.000000000000000
  0
LINE
  5
F10153
330
F10154
100
AcDbEntity
8
Geo
100
AcDbLine
10
-39.7382133995036
20
6.46081535540612
30
0.000000000000000
11
-39.6382133995036
21
6.40348475048558
31
0.000000000000000
  0
LINE
  5
F10155
330
F10156
100
AcDbEntity
8
Geo
100
AcDbLine
10
-39.6382133995036
20
6.40348475048558
30
0.000000000000000
11
-39.5382133995036
21
6.34625851495113
31
0.000000000000000
  0
LINE
  5
F10157
330
F10158
100
AcDbEntity
8
Geo
100
AcDbLine
10
-39.5382133995036
20
6.34625851495113
30
0.000000000000000
11
-39.4382133995036
21
6.28914857072819
31
0.000000000000000
  0
LINE
  5
F10159
330
F1015A
100
AcDbEntity
8
Geo
100
AcDbLine
10
-39.4382133995036
20
6.28914857072819
30
0.000000000000000
11
-39.3382133995036
21
6.23216681551525
31
0.000000000000000
  0
LINE
  5
F1015B
330
F1015C
100
AcDbEntity
8
Geo
100
AcDbLine
10
-39.3382133995036
20
6.23216681551525
30
0.000000000000000
11
-39.2382133995036
21
6.17532512030521
31
0.000000000000000
  0
LINE
  5
F1015D
330
F1015E
100
AcDbEntity
8
Geo
100
AcDbLine
10
-39.2382133995036
20
6.17532512030521
30
0.000000000000000
11
-39.1382133995036
21
6.11863532691232
31
0.000000000000000
  0
LINE
  5
F1015F
330
F10160
100
AcDbEntity
8
Geo
100
AcDbLine
10
-39.1382133995036
20
6.11863532691232
30
0.000000000000000
11
-39.0382133995036
21
6.06210924550517
31
0.000000000000000
  0
LINE
  5
F10161
330
F10162
100
AcDbEntity
8
Geo
100
AcDbLine
10
-39.0382133995036
20
6.06210924550517
30
0.000000000000000
11
-38.9382133995036
21
6.00575865214626
31
0.000000000000000
  0
LINE
  5
F10163
330
F10164
100
AcDbEntity
8
Geo
100
AcDbLine
10
-38.9382133995036
20
6.00575865214626
30
0.000000000000000
11
-38.8382133995036
21
5.94959528633873
31
0.000000000000000
  0
LINE
  5
F10165
330
F10166
100
AcDbEntity
8
Geo
100
AcDbLine
10
-38.8382133995036
20
5.94959528633873
30
0.000000000000000
11
-38.7382133995036
21
5.89363084858066
31
0.000000000000000
  0
LINE
  5
F10167
330
F10168
100
AcDbEntity
8
Geo
100
AcDbLine
10
-38.7382133995036
20
5.89363084858066
30
0.000000000000000
11
-38.6382133995035
21
5.83787699792749
31
0.000000000000000
  0
LINE
  5
F10169
330
F1016A
100
AcDbEntity
8
Geo
100
AcDbLine
10
-38.6382133995035
20
5.83787699792749
30
0.000000000000000
11
-38.5382133995035
21
5.78234534956313
31
0.000000000000000
  0
LINE
  5
F1016B
330
F1016C
100
AcDbEntity
8
Geo
100
AcDbLine
10
-38.5382133995035
20
5.78234534956313
30
0.000000000000000
11
-38.4382133995035
21
5.72704747238014
31
0.000000000000000
  0
LINE
  5
F1016D
330
F1016E
100
AcDbEntity
8
Geo
100
AcDbLine
10
-38.4382133995035
20
5.72704747238014
30
0.000000000000000
11
-38.3382133995035
21
5.67199488656958
31
0.000000000000000
  0
LINE
  5
F1016F
330
F10170
100
AcDbEntity
8
Geo
100
AcDbLine
10
-38.3382133995035
20
5.67199488656958
30
0.000000000000000
11
-38.2382133995035
21
5.61719906122105
31
0.000000000000000
  0
LINE
  5
F10171
330
F10172
100
AcDbEntity
8
Geo
100
AcDbLine
10
-38.2382133995035
20
5.61719906122105
30
0.000000000000000
11
-38.1382133995035
21
5.56267141193331
31
0.000000000000000
  0
LINE
  5
F10173
330
F10174
100
AcDbEntity
8
Geo
100
AcDbLine
10
-38.1382133995035
20
5.56267141193331
30
0.000000000000000
11
-38.0382133995035
21
5.50842329843607
31
0.000000000000000
  0
LINE
  5
F10175
330
F10176
100
AcDbEntity
8
Geo
100
AcDbLine
10
-38.0382133995035
20
5.50842329843607
30
0.000000000000000
11
-37.9382133995035
21
5.45446602222344
31
0.000000000000000
  0
LINE
  5
F10177
330
F10178
100
AcDbEntity
8
Geo
100
AcDbLine
10
-37.9382133995035
20
5.45446602222344
30
0.000000000000000
11
-37.8382133995035
21
5.40081082419947
31
0.000000000000000
  0
LINE
  5
F10179
330
F1017A
100
AcDbEntity
8
Geo
100
AcDbLine
10
-37.8382133995035
20
5.40081082419947
30
0.000000000000000
11
-37.7382133995035
21
5.34746888233635
31
0.000000000000000
  0
LINE
  5
F1017B
330
F1017C
100
AcDbEntity
8
Geo
100
AcDbLine
10
-37.7382133995035
20
5.34746888233635
30
0.000000000000000
11
-37.6382133995035
21
5.29445130934571
31
0.000000000000000
  0
LINE
  5
F1017D
330
F1017E
100
AcDbEntity
8
Geo
100
AcDbLine
10
-37.6382133995035
20
5.29445130934571
30
0.000000000000000
11
-37.5382133995035
21
5.24176915036349
31
0.000000000000000
  0
LINE
  5
F1017F
330
F10180
100
AcDbEntity
8
Geo
100
AcDbLine
10
-37.5382133995035
20
5.24176915036349
30
0.000000000000000
11
-37.4382133995035
21
5.18943338064894
31
0.000000000000000
  0
LINE
  5
F10181
330
F10182
100
AcDbEntity
8
Geo
100
AcDbLine
10
-37.4382133995035
20
5.18943338064894
30
0.000000000000000
11
-37.3382133995035
21
5.13745490329812
31
0.000000000000000
  0
LINE
  5
F10183
330
F10184
100
AcDbEntity
8
Geo
100
AcDbLine
10
-37.3382133995035
20
5.13745490329812
30
0.000000000000000
11
-37.2382133995035
21
5.08584454697248
31
0.000000000000000
  0
LINE
  5
F10185
330
F10186
100
AcDbEntity
8
Geo
100
AcDbLine
10
-37.2382133995035
20
5.08584454697248
30
0.000000000000000
11
-37.1382133995035
21
5.03461306364293
31
0.000000000000000
  0
LINE
  5
F10187
330
F10188
100
AcDbEntity
8
Geo
100
AcDbLine
10
-37.1382133995035
20
5.03461306364293
30
0.000000000000000
11
-37.0382133995035
21
4.98377112634985
31
0.000000000000000
  0
LINE
  5
F10189
330
F1018A
100
AcDbEntity
8
Geo
100
AcDbLine
10
-37.0382133995035
20
4.98377112634985
30
0.000000000000000
11
-36.9382133995035
21
4.93332932697963
31
0.000000000000000
  0
LINE
  5
F1018B
330
F1018C
100
AcDbEntity
8
Geo
100
AcDbLine
10
-36.9382133995035
20
4.93332932697963
30
0.000000000000000
11
-36.8382133995035
21
4.88329817405803
31
0.000000000000000
  0
LINE
  5
F1018D
330
F1018E
100
AcDbEntity
8
Geo
100
AcDbLine
10
-36.8382133995035
20
4.88329817405803
30
0.000000000000000
11
-36.7382133995035
21
4.83368809056094
31
0.000000000000000
  0
LINE
  5
F1018F
330
F10190
100
AcDbEntity
8
Geo
100
AcDbLine
10
-36.7382133995035
20
4.83368809056094
30
0.000000000000000
11
-36.6382133995035
21
4.78450941174301
31
0.000000000000000
  0
LINE
  5
F10191
330
F10192
100
AcDbEntity
8
Geo
100
AcDbLine
10
-36.6382133995035
20
4.78450941174301
30
0.000000000000000
11
-36.5382133995035
21
4.73577238298444
31
0.000000000000000
  0
LINE
  5
F10193
330
F10194
100
AcDbEntity
8
Geo
100
AcDbLine
10
-36.5382133995035
20
4.73577238298444
30
0.000000000000000
11
-36.4382133995035
21
4.68748715765662
31
0.000000000000000
  0
LINE
  5
F10195
330
F10196
100
AcDbEntity
8
Geo
100
AcDbLine
10
-36.4382133995035
20
4.68748715765662
30
0.000000000000000
11
-36.3382133995035
21
4.63966379500684
31
0.000000000000000
  0
LINE
  5
F10197
330
F10198
100
AcDbEntity
8
Geo
100
AcDbLine
10
-36.3382133995035
20
4.63966379500684
30
0.000000000000000
11
-36.2382133995035
21
4.59231225806269
31
0.000000000000000
  0
LINE
  5
F10199
330
F1019A
100
AcDbEntity
8
Geo
100
AcDbLine
10
-36.2382133995035
20
4.59231225806269
30
0.000000000000000
11
-36.1382133995035
21
4.54544241155644
31
0.000000000000000
  0
LINE
  5
F1019B
330
F1019C
100
AcDbEntity
8
Geo
100
AcDbLine
10
-36.1382133995035
20
4.54544241155644
30
0.000000000000000
11
-36.0382133995035
21
4.49906401986991
31
0.000000000000000
  0
LINE
  5
F1019D
330
F1019E
100
AcDbEntity
8
Geo
100
AcDbLine
10
-36.0382133995035
20
4.49906401986991
30
0.000000000000000
11
-35.9382133995035
21
4.45318674500030
31
0.000000000000000
  0
LINE
  5
F1019F
330
F101A0
100
AcDbEntity
8
Geo
100
AcDbLine
10
-35.9382133995035
20
4.45318674500030
30
0.000000000000000
11
-35.8382133995035
21
4.40782014454727
31
0.000000000000000
  0
LINE
  5
F101A1
330
F101A2
100
AcDbEntity
8
Geo
100
AcDbLine
10
-35.8382133995035
20
4.40782014454727
30
0.000000000000000
11
-35.7382133995035
21
4.36297366972183
31
0.000000000000000
  0
LINE
  5
F101A3
330
F101A4
100
AcDbEntity
8
Geo
100
AcDbLine
10
-35.7382133995035
20
4.36297366972183
30
0.000000000000000
11
-35.6382133995035
21
4.31865666337737
31
0.000000000000000
  0
LINE
  5
F101A5
330
F101A6
100
AcDbEntity
8
Geo
100
AcDbLine
10
-35.6382133995035
20
4.31865666337737
30
0.000000000000000
11
-35.5382133995035
21
4.27487835806325
31
0.000000000000000
  0
LINE
  5
F101A7
330
F101A8
100
AcDbEntity
8
Geo
100
AcDbLine
10
-35.5382133995035
20
4.27487835806325
30
0.000000000000000
11
-35.4382133995035
21
4.23164787410141
31
0.000000000000000
  0
LINE
  5
F101A9
330
F101AA
100
AcDbEntity
8
Geo
100
AcDbLine
10
-35.4382133995035
20
4.23164787410141
30
0.000000000000000
11
-35.3382133995035
21
4.18897421768631
31
0.000000000000000
  0
LINE
  5
F101AB
330
F101AC
100
AcDbEntity
8
Geo
100
AcDbLine
10
-35.3382133995035
20
4.18897421768631
30
0.000000000000000
11
-35.2382133995035
21
4.14686627900869
31
0.000000000000000
  0
LINE
  5
F101AD
330
F101AE
100
AcDbEntity
8
Geo
100
AcDbLine
10
-35.2382133995035
20
4.14686627900869
30
0.000000000000000
11
-35.1382133995035
21
4.10533283040348
31
0.000000000000000
  0
LINE
  5
F101AF
330
F101B0
100
AcDbEntity
8
Geo
100
AcDbLine
10
-35.1382133995035
20
4.10533283040348
30
0.000000000000000
11
-35.0382133995035
21
4.06438252452225
31
0.000000000000000
  0
LINE
  5
F101B1
330
F101B2
100
AcDbEntity
8
Geo
100
AcDbLine
10
-35.0382133995035
20
4.06438252452225
30
0.000000000000000
11
-34.9382133995035
21
4.02402389253061
31
0.000000000000000
  0
LINE
  5
F101B3
330
F101B4
100
AcDbEntity
8
Geo
100
AcDbLine
10
-34.9382133995035
20
4.02402389253061
30
0.000000000000000
11
-34.8382133995035
21
3.98426534233093
31
0.000000000000000
  0
LINE
  5
F101B5
330
F101B6
100
AcDbEntity
8
Geo
100
AcDbLine
10
-34.8382133995035
20
3.98426534233093
30
0.000000000000000
11
-34.7382133995035
21
3.94511515681069
31
0.000000000000000
  0
LINE
  5
F101B7
330
F101B8
100
AcDbEntity
8
Geo
100
AcDbLine
10
-34.7382133995035
20
3.94511515681069
30
0.000000000000000
11
-34.6382133995035
21
3.90658149211694
31
0.000000000000000
  0
LINE
  5
F101B9
330
F101BA
100
AcDbEntity
8
Geo
100
AcDbLine
10
-34.6382133995035
20
3.90658149211694
30
0.000000000000000
11
-34.5382133995035
21
3.86867237595712
31
0.000000000000000
  0
LINE
  5
F101BB
330
F101BC
100
AcDbEntity
8
Geo
100
AcDbLine
10
-34.5382133995035
20
3.86867237595712
30
0.000000000000000
11
-34.4382133995035
21
3.83139570592665
31
0.000000000000000
  0
LINE
  5
F101BD
330
F101BE
100
AcDbEntity
8
Geo
100
AcDbLine
10
-34.4382133995035
20
3.83139570592665
30
0.000000000000000
11
-34.3382133995035
21
3.79475924786364
31
0.000000000000000
  0
LINE
  5
F101BF
330
F101C0
100
AcDbEntity
8
Geo
100
AcDbLine
10
-34.3382133995035
20
3.79475924786364
30
0.000000000000000
11
-34.2382133995035
21
3.75877063423099
31
0.000000000000000
  0
LINE
  5
F101C1
330
F101C2
100
AcDbEntity
8
Geo
100
AcDbLine
10
-34.2382133995035
20
3.75877063423099
30
0.000000000000000
11
-34.1382133995035
21
3.72343736252639
31
0.000000000000000
  0
LINE
  5
F101C3
330
F101C4
100
AcDbEntity
8
Geo
100
AcDbLine
10
-34.1382133995035
20
3.72343736252639
30
0.000000000000000
11
-34.0382133995035
21
3.68876679372031
31
0.000000000000000
  0
LINE
  5
F101C5
330
F101C6
100
AcDbEntity
8
Geo
100
AcDbLine
10
-34.0382133995035
20
3.68876679372031
30
0.000000000000000
11
-33.9382133995035
21
3.65476615072252
31
0.000000000000000
  0
LINE
  5
F101C7
330
F101C8
100
AcDbEntity
8
Geo
100
AcDbLine
10
-33.9382133995035
20
3.65476615072252
30
0.000000000000000
11
-33.8382133995035
21
3.62144251687733
31
0.000000000000000
  0
LINE
  5
F101C9
330
F101CA
100
AcDbEntity
8
Geo
100
AcDbLine
10
-33.8382133995035
20
3.62144251687733
30
0.000000000000000
11
-33.7382133995035
21
3.58880283448794
31
0.000000000000000
  0
LINE
  5
F101CB
330
F101CC
100
AcDbEntity
8
Geo
100
AcDbLine
10
-33.7382133995035
20
3.58880283448794
30
0.000000000000000
11
-33.6382133995035
21
3.55685390337012
31
0.000000000000000
  0
LINE
  5
F101CD
330
F101CE
100
AcDbEntity
8
Geo
100
AcDbLine
10
-33.6382133995035
20
3.55685390337012
30
0.000000000000000
11
-33.5382133995035
21
3.52560237943564
31
0.000000000000000
  0
LINE
  5
F101CF
330
F101D0
100
AcDbEntity
8
Geo
100
AcDbLine
10
-33.5382133995035
20
3.52560237943564
30
0.000000000000000
11
-33.4382133995035
21
3.49505477330561
31
0.000000000000000
  0
LINE
  5
F101D1
330
F101D2
100
AcDbEntity
8
Geo
100
AcDbLine
10
-33.4382133995035
20
3.49505477330561
30
0.000000000000000
11
-33.3382133995035
21
3.46521744895415
31
0.000000000000000
  0
LINE
  5
F101D3
330
F101D4
100
AcDbEntity
8
Geo
100
AcDbLine
10
-33.3382133995035
20
3.46521744895415
30
0.000000000000000
11
-33.2382133995035
21
3.43609662238259
31
0.000000000000000
  0
LINE
  5
F101D5
330
F101D6
100
AcDbEntity
8
Geo
100
AcDbLine
10
-33.2382133995035
20
3.43609662238259
30
0.000000000000000
11
-33.1382133995035
21
3.40769836032448
31
0.000000000000000
  0
LINE
  5
F101D7
330
F101D8
100
AcDbEntity
8
Geo
100
AcDbLine
10
-33.1382133995035
20
3.40769836032448
30
0.000000000000000
11
-33.0382133995035
21
3.38002857898169
31
0.000000000000000
  0
LINE
  5
F101D9
330
F101DA
100
AcDbEntity
8
Geo
100
AcDbLine
10
-33.0382133995035
20
3.38002857898169
30
0.000000000000000
11
-32.9382133995035
21
3.35309304279193
31
0.000000000000000
  0
LINE
  5
F101DB
330
F101DC
100
AcDbEntity
8
Geo
100
AcDbLine
10
-32.9382133995035
20
3.35309304279193
30
0.000000000000000
11
-32.8382133995035
21
3.32689736322781
31
0.000000000000000
  0
LINE
  5
F101DD
330
F101DE
100
AcDbEntity
8
Geo
100
AcDbLine
10
-32.8382133995035
20
3.32689736322781
30
0.000000000000000
11
-32.7382133995035
21
3.30144699762782
31
0.000000000000000
  0
LINE
  5
F101DF
330
F101E0
100
AcDbEntity
8
Geo
100
AcDbLine
10
-32.7382133995035
20
3.30144699762782
30
0.000000000000000
11
-32.6382133995035
21
3.27674724805943
31
0.000000000000000
  0
LINE
  5
F101E1
330
F101E2
100
AcDbEntity
8
Geo
100
AcDbLine
10
-32.6382133995035
20
3.27674724805943
30
0.000000000000000
11
-32.5382133995035
21
3.25280326021445
31
0.000000000000000
  0
LINE
  5
F101E3
330
F101E4
100
AcDbEntity
8
Geo
100
AcDbLine
10
-32.5382133995035
20
3.25280326021445
30
0.000000000000000
11
-32.4382133995035
21
3.22962002233709
31
0.000000000000000
  0
LINE
  5
F101E5
330
F101E6
100
AcDbEntity
8
Geo
100
AcDbLine
10
-32.4382133995035
20
3.22962002233709
30
0.000000000000000
11
-32.3382133995035
21
3.20720236418470
31
0.000000000000000
  0
LINE
  5
F101E7
330
F101E8
100
AcDbEntity
8
Geo
100
AcDbLine
10
-32.3382133995035
20
3.20720236418470
30
0.000000000000000
11
-32.2382133995035
21
3.18555495602167
31
0.000000000000000
  0
LINE
  5
F101E9
330
F101EA
100
AcDbEntity
8
Geo
100
AcDbLine
10
-32.2382133995035
20
3.18555495602167
30
0.000000000000000
11
-32.1382133995035
21
3.16468230764640
31
0.000000000000000
  0
LINE
  5
F101EB
330
F101EC
100
AcDbEntity
8
Geo
100
AcDbLine
10
-32.1382133995035
20
3.16468230764640
30
0.000000000000000
11
-32.0382133995035
21
3.14458876745180
31
0.000000000000000
  0
LINE
  5
F101ED
330
F101EE
100
AcDbEntity
8
Geo
100
AcDbLine
10
-32.0382133995035
20
3.14458876745180
30
0.000000000000000
11
-31.9382133995035
21
3.12527852151940
31
0.000000000000000
  0
LINE
  5
F101EF
330
F101F0
100
AcDbEntity
8
Geo
100
AcDbLine
10
-31.9382133995035
20
3.12527852151940
30
0.000000000000000
11
-31.8382133995035
21
3.10675559274727
31
0.000000000000000
  0
LINE
  5
F101F1
330
F101F2
100
AcDbEntity
8
Geo
100
AcDbLine
10
-31.8382133995035
20
3.10675559274727
30
0.000000000000000
11
-31.7382133995035
21
3.08902384001191
31
0.000000000000000
  0
LINE
  5
F101F3
330
F101F4
100
AcDbEntity
8
Geo
100
AcDbLine
10
-31.7382133995035
20
3.08902384001191
30
0.000000000000000
11
-31.6382133995034
21
3.07208695736433
31
0.000000000000000
  0
LINE
  5
F101F5
330
F101F6
100
AcDbEntity
8
Geo
100
AcDbLine
10
-31.6382133995034
20
3.07208695736433
30
0.000000000000000
11
-31.5382133995034
21
3.05594847326049
31
0.000000000000000
  0
LINE
  5
F101F7
330
F101F8
100
AcDbEntity
8
Geo
100
AcDbLine
10
-31.5382133995034
20
3.05594847326049
30
0.000000000000000
11
-31.4382133995034
21
3.04061174982622
31
0.000000000000000
  0
LINE
  5
F101F9
330
F101FA
100
AcDbEntity
8
Geo
100
AcDbLine
10
-31.4382133995034
20
3.04061174982622
30
0.000000000000000
11
-31.3382133995034
21
3.02607998215675
31
0.000000000000000
  0
LINE
  5
F101FB
330
F101FC
100
AcDbEntity
8
Geo
100
AcDbLine
10
-31.3382133995034
20
3.02607998215675
30
0.000000000000000
11
-31.2382133995034
21
3.01235619765113
31
0.000000000000000
  0
LINE
  5
F101FD
330
F101FE
100
AcDbEntity
8
Geo
100
AcDbLine
10
-31.2382133995034
20
3.01235619765113
30
0.000000000000000
11
-31.1382133995034
21
2.99944325538148
31
0.000000000000000
  0
LINE
  5
F101FF
330
F10200
100
AcDbEntity
8
Geo
100
AcDbLine
10
-31.1382133995034
20
2.99944325538148
30
0.000000000000000
11
-31.0382133995034
21
2.98734384549742
31
0.000000000000000
  0
LINE
  5
F10201
330
F10202
100
AcDbEntity
8
Geo
100
AcDbLine
10
-31.0382133995034
20
2.98734384549742
30
0.000000000000000
11
-30.9382133995034
21
2.97606048866556
31
0.000000000000000
  0
LINE
  5
F10203
330
F10204
100
AcDbEntity
8
Geo
100
AcDbLine
10
-30.9382133995034
20
2.97606048866556
30
0.000000000000000
11
-30.8382133995034
21
2.96559553554445
31
0.000000000000000
  0
LINE
  5
F10205
330
F10206
100
AcDbEntity
8
Geo
100
AcDbLine
10
-30.8382133995034
20
2.96559553554445
30
0.000000000000000
11
-30.7382133995034
21
2.95595116629480
31
0.000000000000000
  0
LINE
  5
F10207
330
F10208
100
AcDbEntity
8
Geo
100
AcDbLine
10
-30.7382133995034
20
2.95595116629480
30
0.000000000000000
11
-30.6382133995034
21
2.94712939012531
31
0.000000000000000
  0
LINE
  5
F10209
330
F1020A
100
AcDbEntity
8
Geo
100
AcDbLine
10
-30.6382133995034
20
2.94712939012531
30
0.000000000000000
11
-30.5382133995034
21
2.93913204487412
31
0.000000000000000
  0
LINE
  5
F1020B
330
F1020C
100
AcDbEntity
8
Geo
100
AcDbLine
10
-30.5382133995034
20
2.93913204487412
30
0.000000000000000
11
-30.4382133995034
21
2.93196079662590
31
0.000000000000000
  0
LINE
  5
F1020D
330
F1020E
100
AcDbEntity
8
Geo
100
AcDbLine
10
-30.4382133995034
20
2.93196079662590
30
0.000000000000000
11
-30.3382133995034
21
2.92561713936475
31
0.000000000000000
  0
LINE
  5
F1020F
330
F10210
100
AcDbEntity
8
Geo
100
AcDbLine
10
-30.3382133995034
20
2.92561713936475
30
0.000000000000000
11
-30.2382133995034
21
2.92010239466300
31
0.000000000000000
  0
LINE
  5
F10211
330
F10212
100
AcDbEntity
8
Geo
100
AcDbLine
10
-30.2382133995034
20
2.92010239466300
30
0.000000000000000
11
-30.1382133995034
21
2.91541771140585
31
0.000000000000000
  0
LINE
  5
F10213
330
F10214
100
AcDbEntity
8
Geo
100
AcDbLine
10
-30.1382133995034
20
2.91541771140585
30
0.000000000000000
11
-30.0382133995034
21
2.91156406555204
31
0.000000000000000
  0
LINE
  5
F10215
330
F10216
100
AcDbEntity
8
Geo
100
AcDbLine
10
-30.0382133995034
20
2.91156406555204
30
0.000000000000000
11
-29.9382133995034
21
2.90854225993050
31
0.000000000000000
  0
LINE
  5
F10217
330
F10218
100
AcDbEntity
8
Geo
100
AcDbLine
10
-29.9382133995034
20
2.90854225993050
30
0.000000000000000
11
-29.8382133995034
21
2.90635292407315
31
0.000000000000000
  0
LINE
  5
F10219
330
F1021A
100
AcDbEntity
8
Geo
100
AcDbLine
10
-29.8382133995034
20
2.90635292407315
30
0.000000000000000
11
-29.7382133995037
21
2.90499651408371
31
0.000000000000000
  0
LINE
  5
F1021B
330
F1021C
100
AcDbEntity
8
Geo
100
AcDbLine
10
-29.7382133995037
20
2.90499651408371
30
0.000000000000000
11
-29.6382133995037
21
2.90496650124071
31
0.000000000000000
  0
LINE
  5
F1021D
330
F1021E
100
AcDbEntity
8
Geo
100
AcDbLine
10
-70.7382133995037
20
10.4044665012407
30
0.000000000000000
11
-70.6382133995037
21
10.7040706747794
31
0.000000000000000
  0
LINE
  5
F1021F
330
F10220
100
AcDbEntity
8
Geo
100
AcDbLine
10
-70.6382133995037
20
10.7040706747794
30
0.000000000000000
11
-70.5382133995037
21
10.8028416140848
31
0.000000000000000
  0
LINE
  5
F10221
330
F10222
100
AcDbEntity
8
Geo
100
AcDbLine
10
-70.5382133995037
20
10.8028416140848
30
0.000000000000000
11
-70.4382133995037
21
10.8590137840515
31
0.000000000000000
  0
LINE
  5
F10223
330
F10224
100
AcDbEntity
8
Geo
100
AcDbLine
10
-70.4382133995037
20
10.8590137840515
30
0.000000000000000
11
-70.3382133995037
21
10.8877164668528
31
0.000000000000000
  0
LINE
  5
F10225
330
F10226
100
AcDbEntity
8
Geo
100
AcDbLine
10
-70.3382133995037
20
10.8877164668528
30
0.000000000000000
11
-70.2382133995037
21
10.8940543549119
31
0.000000000000000
  0
LINE
  5
F10227
330
F10228
100
AcDbEntity
8
Geo
100
AcDbLine
10
-70.2382133995037
20
10.8940543549119
30
0.000000000000000
11
-70.1382133995037
21
10.8894758738973
31
0.000000000000000
  0
LINE
  5
F10229
330
F1022A
100
AcDbEntity
8
Geo
100
AcDbLine
10
-70.1382133995037
20
10.8894758738973
30
0.000000000000000
11
-70.0382133995037
21
10.8840671970100
31
0.000000000000000
  0
LINE
  5
F1022B
330
F1022C
100
AcDbEntity
8
Geo
100
AcDbLine
10
-70.0382133995037
20
10.8840671970100
30
0.000000000000000
11
-69.9382133995037
21
10.8778294510381
31
0.000000000000000
  0
LINE
  5
F1022D
330
F1022E
100
AcDbEntity
8
Geo
100
AcDbLine
10
-69.9382133995037
20
10.8778294510381
30
0.000000000000000
11
-69.8382133995037
21
10.8707639354895
31
0.000000000000000
  0
LINE
  5
F1022F
330
F10230
100
AcDbEntity
8
Geo
100
AcDbLine
10
-69.8382133995037
20
10.8707639354895
30
0.000000000000000
11
-69.7382133995037
21
10.8628721223210
31
0.000000000000000
  0
LINE
  5
F10231
330
F10232
100
AcDbEntity
8
Geo
100
AcDbLine
10
-69.7382133995037
20
10.8628721223210
30
0.000000000000000
11
-69.6382133995037
21
10.8541556556318
31
0.000000000000000
  0
LINE
  5
F10233
330
F10234
100
AcDbEntity
8
Geo
100
AcDbLine
10
-69.6382133995037
20
10.8541556556318
30
0.000000000000000
11
-69.5382133995037
21
10.8446163513210
31
0.000000000000000
  0
LINE
  5
F10235
330
F10236
100
AcDbEntity
8
Geo
100
AcDbLine
10
-69.5382133995037
20
10.8446163513210
30
0.000000000000000
11
-69.4382133995037
21
10.8342561967092
31
0.000000000000000
  0
LINE
  5
F10237
330
F10238
100
AcDbEntity
8
Geo
100
AcDbLine
10
-69.4382133995037
20
10.8342561967092
30
0.000000000000000
11
-69.3382133995037
21
10.8230773501243
31
0.000000000000000
  0
LINE
  5
F10239
330
F1023A
100
AcDbEntity
8
Geo
100
AcDbLine
10
-69.3382133995037
20
10.8230773501243
30
0.000000000000000
11
-69.2382133995037
21
10.8110821404523
31
0.000000000000000
  0
LINE
  5
F1023B
330
F1023C
100
AcDbEntity
8
Geo
100
AcDbLine
10
-69.2382133995037
20
10.8110821404523
30
0.000000000000000
11
-69.1382133995037
21
10.7982730666519
31
0.000000000000000
  0
LINE
  5
F1023D
330
F1023E
100
AcDbEntity
8
Geo
100
AcDbLine
10
-69.1382133995037
20
10.7982730666519
30
0.000000000000000
11
-69.0382133995037
21
10.7846527972338
31
0.000000000000000
  0
LINE
  5
F1023F
330
F10240
100
AcDbEntity
8
Geo
100
AcDbLine
10
-69.0382133995037
20
10.7846527972338
30
0.000000000000000
11
-68.9382133995037
21
10.7702241697049
31
0.000000000000000
  0
LINE
  5
F10241
330
F10242
100
AcDbEntity
8
Geo
100
AcDbLine
10
-68.9382133995037
20
10.7702241697049
30
0.000000000000000
11
-68.8382133995037
21
10.7549901899769
31
0.000000000000000
  0
LINE
  5
F10243
330
F10244
100
AcDbEntity
8
Geo
100
AcDbLine
10
-68.8382133995037
20
10.7549901899769
30
0.000000000000000
11
-68.7382133995037
21
10.7389540317407
31
0.000000000000000
  0
LINE
  5
F10245
330
F10246
100
AcDbEntity
8
Geo
100
AcDbLine
10
-68.7382133995037
20
10.7389540317407
30
0.000000000000000
11
-68.6382133995037
21
10.7221190358045
31
0.000000000000000
  0
LINE
  5
F10247
330
F10248
100
AcDbEntity
8
Geo
100
AcDbLine
10
-68.6382133995037
20
10.7221190358045
30
0.000000000000000
11
-68.5382133995037
21
10.7044887093982
31
0.000000000000000
  0
LINE
  5
F10249
330
F1024A
100
AcDbEntity
8
Geo
100
AcDbLine
10
-68.5382133995037
20
10.7044887093982
30
0.000000000000000
11
-68.4382133995037
21
10.6860667254427
31
0.000000000000000
  0
LINE
  5
F1024B
330
F1024C
100
AcDbEntity
8
Geo
100
AcDbLine
10
-68.4382133995037
20
10.6860667254427
30
0.000000000000000
11
-68.3382133995037
21
10.6668569217847
31
0.000000000000000
  0
LINE
  5
F1024D
330
F1024E
100
AcDbEntity
8
Geo
100
AcDbLine
10
-68.3382133995037
20
10.6668569217847
30
0.000000000000000
11
-68.2382133995037
21
10.6468633003973
31
0.000000000000000
  0
LINE
  5
F1024F
330
F10250
100
AcDbEntity
8
Geo
100
AcDbLine
10
-68.2382133995037
20
10.6468633003973
30
0.000000000000000
11
-68.1382133995037
21
10.6260900265457
31
0.000000000000000
  0
LINE
  5
F10251
330
F10252
100
AcDbEntity
8
Geo
100
AcDbLine
10
-68.1382133995037
20
10.6260900265457
30
0.000000000000000
11
-68.0382133995037
21
10.6045414279204
31
0.000000000000000
  0
LINE
  5
F10253
330
F10254
100
AcDbEntity
8
Geo
100
AcDbLine
10
-68.0382133995037
20
10.6045414279204
30
0.000000000000000
11
-67.9382133995037
21
10.5822219937347
31
0.000000000000000
  0
LINE
  5
F10255
330
F10256
100
AcDbEntity
8
Geo
100
AcDbLine
10
-67.9382133995037
20
10.5822219937347
30
0.000000000000000
11
-67.8382133995037
21
10.5591363737901
31
0.000000000000000
  0
LINE
  5
F10257
330
F10258
100
AcDbEntity
8
Geo
100
AcDbLine
10
-67.8382133995037
20
10.5591363737901
30
0.000000000000000
11
-67.7382133995037
21
10.5352893775071
31
0.000000000000000
  0
LINE
  5
F10259
330
F1025A
100
AcDbEntity
8
Geo
100
AcDbLine
10
-67.7382133995037
20
10.5352893775071
30
0.000000000000000
11
-67.6382133995037
21
10.5106859729239
31
0.000000000000000
  0
LINE
  5
F1025B
330
F1025C
100
AcDbEntity
8
Geo
100
AcDbLine
10
-67.6382133995037
20
10.5106859729239
30
0.000000000000000
11
-67.5382133995037
21
10.4853312856606
31
0.000000000000000
  0
LINE
  5
F1025D
330
F1025E
100
AcDbEntity
8
Geo
100
AcDbLine
10
-67.5382133995037
20
10.4853312856606
30
0.000000000000000
11
-67.4382133995037
21
10.4592305978520
31
0.000000000000000
  0
LINE
  5
F1025F
330
F10260
100
AcDbEntity
8
Geo
100
AcDbLine
10
-67.4382133995037
20
10.4592305978520
30
0.000000000000000
11
-67.3382133995037
21
10.4323893470472
31
0.000000000000000
  0
LINE
  5
F10261
330
F10262
100
AcDbEntity
8
Geo
100
AcDbLine
10
-67.3382133995037
20
10.4323893470472
30
0.000000000000000
11
-67.2382133995037
21
10.4048131250762
31
0.000000000000000
  0
LINE
  5
F10263
330
F10264
100
AcDbEntity
8
Geo
100
AcDbLine
10
-67.2382133995037
20
10.4048131250762
30
0.000000000000000
11
-67.1382133995037
21
10.3765076768855
31
0.000000000000000
  0
LINE
  5
F10265
330
F10266
100
AcDbEntity
8
Geo
100
AcDbLine
10
-67.1382133995037
20
10.3765076768855
30
0.000000000000000
11
-67.0382133995037
21
10.3474788993411
31
0.000000000000000
  0
LINE
  5
F10267
330
F10268
100
AcDbEntity
8
Geo
100
AcDbLine
10
-67.0382133995037
20
10.3474788993411
30
0.000000000000000
11
-66.9382133995037
21
10.3177328400001
31
0.000000000000000
  0
LINE
  5
F10269
330
F1026A
100
AcDbEntity
8
Geo
100
AcDbLine
10
-66.9382133995037
20
10.3177328400001
30
0.000000000000000
11
-66.8382133995037
21
10.2872756958506
31
0.000000000000000
  0
LINE
  5
F1026B
330
F1026C
100
AcDbEntity
8
Geo
100
AcDbLine
10
-66.8382133995037
20
10.2872756958506
30
0.000000000000000
11
-66.7382133995037
21
10.2561138120207
31
0.000000000000000
  0
LINE
  5
F1026D
330
F1026E
100
AcDbEntity
8
Geo
100
AcDbLine
10
-66.7382133995037
20
10.2561138120207
30
0.000000000000000
11
-66.6382133995037
21
10.2242536804568
31
0.000000000000000
  0
LINE
  5
F1026F
330
F10270
100
AcDbEntity
8
Geo
100
AcDbLine
10
-66.6382133995037
20
10.2242536804568
30
0.000000000000000
11
-66.5382133995037
21
10.1917019385712
31
0.000000000000000
  0
LINE
  5
F10271
330
F10272
100
AcDbEntity
8
Geo
100
AcDbLine
10
-66.5382133995037
20
10.1917019385712
30
0.000000000000000
11
-66.4382133995037
21
10.1584653678591
31
0.000000000000000
  0
LINE
  5
F10273
330
F10274
100
AcDbEntity
8
Geo
100
AcDbLine
10
-66.4382133995037
20
10.1584653678591
30
0.000000000000000
11
-66.3382133995037
21
10.1245508924856
31
0.000000000000000
  0
LINE
  5
F10275
330
F10276
100
AcDbEntity
8
Geo
100
AcDbLine
10
-66.3382133995037
20
10.1245508924856
30
0.000000000000000
11
-66.2382133995037
21
10.0899655778440
31
0.000000000000000
  0
LINE
  5
F10277
330
F10278
100
AcDbEntity
8
Geo
100
AcDbLine
10
-66.2382133995037
20
10.0899655778440
30
0.000000000000000
11
-66.1382133995037
21
10.0547166290829
31
0.000000000000000
  0
LINE
  5
F10279
330
F1027A
100
AcDbEntity
8
Geo
100
AcDbLine
10
-66.1382133995037
20
10.0547166290829
30
0.000000000000000
11
-66.0382133995037
21
10.0188113896059
31
0.000000000000000
  0
LINE
  5
F1027B
330
F1027C
100
AcDbEntity
8
Geo
100
AcDbLine
10
-66.0382133995037
20
10.0188113896059
30
0.000000000000000
11
-65.9382133995037
21
9.98225733954143
31
0.000000000000000
  0
LINE
  5
F1027D
330
F1027E
100
AcDbEntity
8
Geo
100
AcDbLine
10
-65.9382133995037
20
9.98225733954143
30
0.000000000000000
11
-65.8382133995037
21
9.94506209418424
31
0.000000000000000
  0
LINE
  5
F1027F
330
F10280
100
AcDbEntity
8
Geo
100
AcDbLine
10
-65.8382133995037
20
9.94506209418424
30
0.000000000000000
11
-65.7382133995037
21
9.90723340240930
31
0.000000000000000
  0
LINE
  5
F10281
330
F10282
100
AcDbEntity
8
Geo
100
AcDbLine
10
-65.7382133995037
20
9.90723340240930
30
0.000000000000000
11
-65.6382133995037
21
9.86877914505725
31
0.000000000000000
  0
LINE
  5
F10283
330
F10284
100
AcDbEntity
8
Geo
100
AcDbLine
10
-65.6382133995037
20
9.86877914505725
30
0.000000000000000
11
-65.5382133995037
21
9.82970733329261
31
0.000000000000000
  0
LINE
  5
F10285
330
F10286
100
AcDbEntity
8
Geo
100
AcDbLine
10
-65.5382133995037
20
9.82970733329261
30
0.000000000000000
11
-65.4382133995037
21
9.79002610693485
31
0.000000000000000
  0
LINE
  5
F10287
330
F10288
100
AcDbEntity
8
Geo
100
AcDbLine
10
-65.4382133995037
20
9.79002610693485
30
0.000000000000000
11
-65.3382133995037
21
9.74974373276261
31
0.000000000000000
  0
LINE
  5
F10289
330
F1028A
100
AcDbEntity
8
Geo
100
AcDbLine
10
-65.3382133995037
20
9.74974373276261
30
0.000000000000000
11
-65.2382133995037
21
9.70886860279147
31
0.000000000000000
  0
LINE
  5
F1028B
330
F1028C
100
AcDbEntity
8
Geo
100
AcDbLine
10
-65.2382133995037
20
9.70886860279147
30
0.000000000000000
11
-65.1382133995037
21
9.66740923252568
31
0.000000000000000
  0
LINE
  5
F1028D
330
F1028E
100
AcDbEntity
8
Geo
100
AcDbLine
10
-65.1382133995037
20
9.66740923252568
30
0.000000000000000
11
-65.0382133995037
21
9.62537425918408
31
0.000000000000000
  0
LINE
  5
F1028F
330
F10290
100
AcDbEntity
8
Geo
100
AcDbLine
10
-65.0382133995037
20
9.62537425918408
30
0.000000000000000
11
-64.9382133995037
21
9.58277243990076
31
0.000000000000000
  0
LINE
  5
F10291
330
F10292
100
AcDbEntity
8
Geo
100
AcDbLine
10
-64.9382133995037
20
9.58277243990076
30
0.000000000000000
11
-64.8382133995037
21
9.53961264990064
31
0.000000000000000
  0
LINE
  5
F10293
330
F10294
100
AcDbEntity
8
Geo
100
AcDbLine
10
-64.8382133995037
20
9.53961264990064
30
0.000000000000000
11
-64.7382133995037
21
9.49590388065053
31
0.000000000000000
  0
LINE
  5
F10295
330
F10296
100
AcDbEntity
8
Geo
100
AcDbLine
10
-64.7382133995037
20
9.49590388065053
30
0.000000000000000
11
-64.6382133995037
21
9.45165523798596
31
0.000000000000000
  0
LINE
  5
F10297
330
F10298
100
AcDbEntity
8
Geo
100
AcDbLine
10
-64.6382133995037
20
9.45165523798596
30
0.000000000000000
11
-64.5382133995037
21
9.40687594021408
31
0.000000000000000
  0
LINE
  5
F10299
330
F1029A
100
AcDbEntity
8
Geo
100
AcDbLine
10
-64.5382133995037
20
9.40687594021408
30
0.000000000000000
11
-64.4382133995037
21
9.36157531619332
31
0.000000000000000
  0
LINE
  5
F1029B
330
F1029C
100
AcDbEntity
8
Geo
100
AcDbLine
10
-64.4382133995037
20
9.36157531619332
30
0.000000000000000
11
-64.3382133995037
21
9.31576280338982
31
0.000000000000000
  0
LINE
  5
F1029D
330
F1029E
100
AcDbEntity
8
Geo
100
AcDbLine
10
-64.3382133995037
20
9.31576280338982
30
0.000000000000000
11
-64.2382133995037
21
9.26944794591140
31
0.000000000000000
  0
LINE
  5
F1029F
330
F102A0
100
AcDbEntity
8
Geo
100
AcDbLine
10
-64.2382133995037
20
9.26944794591140
30
0.000000000000000
11
-64.1382133995037
21
9.22264039251917
31
0.000000000000000
  0
LINE
  5
F102A1
330
F102A2
100
AcDbEntity
8
Geo
100
AcDbLine
10
-64.1382133995037
20
9.22264039251917
30
0.000000000000000
11
-64.0382133995037
21
9.17534989461747
31
0.000000000000000
  0
LINE
  5
F102A3
330
F102A4
100
AcDbEntity
8
Geo
100
AcDbLine
10
-64.0382133995037
20
9.17534989461747
30
0.000000000000000
11
-63.9382133995037
21
9.12758630422231
31
0.000000000000000
  0
LINE
  5
F102A5
330
F102A6
100
AcDbEntity
8
Geo
100
AcDbLine
10
-63.9382133995037
20
9.12758630422231
30
0.000000000000000
11
-63.8382133995037
21
9.07935957190894
31
0.000000000000000
  0
LINE
  5
F102A7
330
F102A8
100
AcDbEntity
8
Geo
100
AcDbLine
10
-63.8382133995037
20
9.07935957190894
30
0.000000000000000
11
-63.7382133995037
21
9.03067974473882
31
0.000000000000000
  0
LINE
  5
F102A9
330
F102AA
100
AcDbEntity
8
Geo
100
AcDbLine
10
-63.7382133995037
20
9.03067974473882
30
0.000000000000000
11
-63.6382133995037
21
8.98155696416655
31
0.000000000000000
  0
LINE
  5
F102AB
330
F102AC
100
AcDbEntity
8
Geo
100
AcDbLine
10
-63.6382133995037
20
8.98155696416655
30
0.000000000000000
11
-63.5382133995037
21
8.93200146392708
31
0.000000000000000
  0
LINE
  5
F102AD
330
F102AE
100
AcDbEntity
8
Geo
100
AcDbLine
10
-63.5382133995037
20
8.93200146392708
30
0.000000000000000
11
-63.4382133995037
21
8.88202356790372
31
0.000000000000000
  0
LINE
  5
F102AF
330
F102B0
100
AcDbEntity
8
Geo
100
AcDbLine
10
-63.4382133995037
20
8.88202356790372
30
0.000000000000000
11
-63.3382133995037
21
8.83163368797738
31
0.000000000000000
  0
LINE
  5
F102B1
330
F102B2
100
AcDbEntity
8
Geo
100
AcDbLine
10
-63.3382133995037
20
8.83163368797738
30
0.000000000000000
11
-63.2382133995037
21
8.78084232185745
31
0.000000000000000
  0
LINE
  5
F102B3
330
F102B4
100
AcDbEntity
8
Geo
100
AcDbLine
10
-63.2382133995037
20
8.78084232185745
30
0.000000000000000
11
-63.1382133995037
21
8.72966005089485
31
0.000000000000000
  0
LINE
  5
F102B5
330
F102B6
100
AcDbEntity
8
Geo
100
AcDbLine
10
-63.1382133995037
20
8.72966005089485
30
0.000000000000000
11
-63.0382133995037
21
8.67809753787755
31
0.000000000000000
  0
LINE
  5
F102B7
330
F102B8
100
AcDbEntity
8
Geo
100
AcDbLine
10
-63.0382133995037
20
8.67809753787755
30
0.000000000000000
11
-62.9382133995037
21
8.62616552480929
31
0.000000000000000
  0
LINE
  5
F102B9
330
F102BA
100
AcDbEntity
8
Geo
100
AcDbLine
10
-62.9382133995037
20
8.62616552480929
30
0.000000000000000
11
-62.8382133995037
21
8.57387483067162
31
0.000000000000000
  0
LINE
  5
F102BB
330
F102BC
100
AcDbEntity
8
Geo
100
AcDbLine
10
-62.8382133995037
20
8.57387483067162
30
0.000000000000000
11
-62.7382133995037
21
8.52123634917002
31
0.000000000000000
  0
LINE
  5
F102BD
330
F102BE
100
AcDbEntity
8
Geo
100
AcDbLine
10
-62.7382133995037
20
8.52123634917002
30
0.000000000000000
11
-62.6382133995037
21
8.46826104646442
31
0.000000000000000
  0
LINE
  5
F102BF
330
F102C0
100
AcDbEntity
8
Geo
100
AcDbLine
10
-62.6382133995037
20
8.46826104646442
30
0.000000000000000
11
-62.5382133995037
21
8.41495995888462
31
0.000000000000000
  0
LINE
  5
F102C1
330
F102C2
100
AcDbEntity
8
Geo
100
AcDbLine
10
-62.5382133995037
20
8.41495995888462
30
0.000000000000000
11
-62.4382133995038
21
8.36134419063106
31
0.000000000000000
  0
LINE
  5
F102C3
330
F102C4
100
AcDbEntity
8
Geo
100
AcDbLine
10
-62.4382133995038
20
8.36134419063106
30
0.000000000000000
11
-62.3382133995038
21
8.30742491146156
31
0.000000000000000
  0
LINE
  5
F102C5
330
F102C6
100
AcDbEntity
8
Geo
100
AcDbLine
10
-62.3382133995038
20
8.30742491146156
30
0.000000000000000
11
-62.2382133995037
21
8.25321335436425
31
0.000000000000000
  0
LINE
  5
F102C7
330
F102C8
100
AcDbEntity
8
Geo
100
AcDbLine
10
-62.2382133995037
20
8.25321335436425
30
0.000000000000000
11
-62.1382133995037
21
8.19872081321745
31
0.000000000000000
  0
LINE
  5
F102C9
330
F102CA
100
AcDbEntity
8
Geo
100
AcDbLine
10
-62.1382133995037
20
8.19872081321745
30
0.000000000000000
11
-62.0382133995037
21
8.14395864043682
31
0.000000000000000
  0
LINE
  5
F102CB
330
F102CC
100
AcDbEntity
8
Geo
100
AcDbLine
10
-62.0382133995037
20
8.14395864043682
30
0.000000000000000
11
-61.9382133995038
21
8.08893824461027
31
0.000000000000000
  0
LINE
  5
F102CD
330
F102CE
100
AcDbEntity
8
Geo
100
AcDbLine
10
-61.9382133995038
20
8.08893824461027
30
0.000000000000000
11
-61.8382133995038
21
8.03367108812126
31
0.000000000000000
  0
LINE
  5
F102CF
330
F102D0
100
AcDbEntity
8
Geo
100
AcDbLine
10
-61.8382133995038
20
8.03367108812126
30
0.000000000000000
11
-61.7382133995037
21
7.97816868476085
31
0.000000000000000
  0
LINE
  5
F102D1
330
F102D2
100
AcDbEntity
8
Geo
100
AcDbLine
10
-61.7382133995037
20
7.97816868476085
30
0.000000000000000
11
-61.6382133995038
21
7.92244259732898
31
0.000000000000000
  0
LINE
  5
F102D3
330
F102D4
100
AcDbEntity
8
Geo
100
AcDbLine
10
-61.6382133995038
20
7.92244259732898
30
0.000000000000000
11
-61.5382133995038
21
7.86650443522565
31
0.000000000000000
  0
LINE
  5
F102D5
330
F102D6
100
AcDbEntity
8
Geo
100
AcDbLine
10
-61.5382133995038
20
7.86650443522565
30
0.000000000000000
11
-61.4382133995038
21
7.81036585203231
31
0.000000000000000
  0
LINE
  5
F102D7
330
F102D8
100
AcDbEntity
8
Geo
100
AcDbLine
10
-61.4382133995038
20
7.81036585203231
30
0.000000000000000
11
-61.3382133995038
21
7.75403854308407
31
0.000000000000000
  0
LINE
  5
F102D9
330
F102DA
100
AcDbEntity
8
Geo
100
AcDbLine
10
-61.3382133995038
20
7.75403854308407
30
0.000000000000000
11
-61.2382133995037
21
7.69753424303325
31
0.000000000000000
  0
LINE
  5
F102DB
330
F102DC
100
AcDbEntity
8
Geo
100
AcDbLine
10
-61.2382133995037
20
7.69753424303325
30
0.000000000000000
11
-61.1382133995038
21
7.64086472340465
31
0.000000000000000
  0
LINE
  5
F102DD
330
F102DE
100
AcDbEntity
8
Geo
100
AcDbLine
10
-61.1382133995038
20
7.64086472340465
30
0.000000000000000
11
-61.0382133995038
21
7.58404179014322
31
0.000000000000000
  0
LINE
  5
F102DF
330
F102E0
100
AcDbEntity
8
Geo
100
AcDbLine
10
-61.0382133995038
20
7.58404179014322
30
0.000000000000000
11
-60.9382133995038
21
7.52707728115453
31
0.000000000000000
  0
LINE
  5
F102E1
330
F102E2
100
AcDbEntity
8
Geo
100
AcDbLine
10
-60.9382133995038
20
7.52707728115453
30
0.000000000000000
11
-60.8382133995038
21
7.46998306383861
31
0.000000000000000
  0
LINE
  5
F102E3
330
F102E4
100
AcDbEntity
8
Geo
100
AcDbLine
10
-60.8382133995038
20
7.46998306383861
30
0.000000000000000
11
-60.7382133995038
21
7.41277103261754
31
0.000000000000000
  0
LINE
  5
F102E5
330
F102E6
100
AcDbEntity
8
Geo
100
AcDbLine
10
-60.7382133995038
20
7.41277103261754
30
0.000000000000000
11
-60.6382133995038
21
7.35545310645758
31
0.000000000000000
  0
LINE
  5
F102E7
330
F102E8
100
AcDbEntity
8
Geo
100
AcDbLine
10
-60.6382133995038
20
7.35545310645758
30
0.000000000000000
11
-60.5382133995038
21
7.29804122638603
31
0.000000000000000
  0
LINE
  5
F102E9
330
F102EA
100
AcDbEntity
8
Geo
100
AcDbLine
10
-60.5382133995038
20
7.29804122638603
30
0.000000000000000
11
-60.4382133995038
21
7.24054735300358
31
0.000000000000000
  0
LINE
  5
F102EB
330
F102EC
100
AcDbEntity
8
Geo
100
AcDbLine
10
-60.4382133995038
20
7.24054735300358
30
0.000000000000000
11
-60.3382133995038
21
7.18298346399257
31
0.000000000000000
  0
LINE
  5
F102ED
330
F102EE
100
AcDbEntity
8
Geo
100
AcDbLine
10
-60.3382133995038
20
7.18298346399257
30
0.000000000000000
11
-60.2382133995038
21
7.12536155162169
31
0.000000000000000
  0
LINE
  5
F102EF
330
F102F0
100
AcDbEntity
8
Geo
100
AcDbLine
10
-60.2382133995038
20
7.12536155162169
30
0.000000000000000
11
-60.1382133995038
21
7.06769362024759
31
0.000000000000000
  0
LINE
  5
F102F1
330
F102F2
100
AcDbEntity
8
Geo
100
AcDbLine
10
-60.1382133995038
20
7.06769362024759
30
0.000000000000000
11
-60.0382133995038
21
7.00999168381407
31
0.000000000000000
  0
LINE
  5
F102F3
330
F102F4
100
AcDbEntity
8
Geo
100
AcDbLine
10
-60.0382133995038
20
7.00999168381407
30
0.000000000000000
11
-59.9382133995038
21
6.95226776334919
31
0.000000000000000
  0
LINE
  5
F102F5
330
F102F6
100
AcDbEntity
8
Geo
100
AcDbLine
10
-59.9382133995038
20
6.95226776334919
30
0.000000000000000
11
-59.8382133995038
21
6.89453388446092
31
0.000000000000000
  0
LINE
  5
F102F7
330
F102F8
100
AcDbEntity
8
Geo
100
AcDbLine
10
-59.8382133995038
20
6.89453388446092
30
0.000000000000000
11
-59.7382133995038
21
6.83680207483189
31
0.000000000000000
  0
LINE
  5
F102F9
330
F102FA
100
AcDbEntity
8
Geo
100
AcDbLine
10
-59.7382133995038
20
6.83680207483189
30
0.000000000000000
11
-59.6382133995038
21
6.77908436171363
31
0.000000000000000
  0
LINE
  5
F102FB
330
F102FC
100
AcDbEntity
8
Geo
100
AcDbLine
10
-59.6382133995038
20
6.77908436171363
30
0.000000000000000
11
-59.5382133995038
21
6.72139276942095
31
0.000000000000000
  0
LINE
  5
F102FD
330
F102FE
100
AcDbEntity
8
Geo
100
AcDbLine
10
-59.5382133995038
20
6.72139276942095
30
0.000000000000000
11
-59.4382133995038
21
6.66373931682691
31
0.000000000000000
  0
LINE
  5
F102FF
330
F10300
100
AcDbEntity
8
Geo
100
AcDbLine
10
-59.4382133995038
20
6.66373931682691
30
0.000000000000000
11
-59.3382133995038
21
6.60613601485894
31
0.000000000000000
  0
LINE
  5
F10301
330
F10302
100
AcDbEntity
8
Geo
100
AcDbLine
10
-59.3382133995038
20
6.60613601485894
30
0.000000000000000
11
-59.2382133995038
21
6.54859486399661
31
0.000000000000000
  0
LINE
  5
F10303
330
F10304
100
AcDbEntity
8
Geo
100
AcDbLine
10
-59.2382133995038
20
6.54859486399661
30
0.000000000000000
11
-59.1382133995038
21
6.49112785177156
31
0.000000000000000
  0
LINE
  5
F10305
330
F10306
100
AcDbEntity
8
Geo
100
AcDbLine
10
-59.1382133995038
20
6.49112785177156
30
0.000000000000000
11
-59.0382133995038
21
6.43374695027016
31
0.000000000000000
  0
LINE
  5
F10307
330
F10308
100
AcDbEntity
8
Geo
100
AcDbLine
10
-59.0382133995038
20
6.43374695027016
30
0.000000000000000
11
-58.9382133995038
21
6.37646411363935
31
0.000000000000000
  0
LINE
  5
F10309
330
F1030A
100
AcDbEntity
8
Geo
100
AcDbLine
10
-58.9382133995038
20
6.37646411363935
30
0.000000000000000
11
-58.8382133995038
21
6.31929127559623
31
0.000000000000000
  0
LINE
  5
F1030B
330
F1030C
100
AcDbEntity
8
Geo
100
AcDbLine
10
-58.8382133995038
20
6.31929127559623
30
0.000000000000000
11
-58.7382133995038
21
6.26224034694196
31
0.000000000000000
  0
LINE
  5
F1030D
330
F1030E
100
AcDbEntity
8
Geo
100
AcDbLine
10
-58.7382133995038
20
6.26224034694196
30
0.000000000000000
11
-58.6382133995038
21
6.20532321308031
31
0.000000000000000
  0
LINE
  5
F1030F
330
F10310
100
AcDbEntity
8
Geo
100
AcDbLine
10
-58.6382133995038
20
6.20532321308031
30
0.000000000000000
11
-58.5382133995038
21
6.14855173154165
31
0.000000000000000
  0
LINE
  5
F10311
330
F10312
100
AcDbEntity
8
Geo
100
AcDbLine
10
-58.5382133995038
20
6.14855173154165
30
0.000000000000000
11
-58.4382133995038
21
6.09193772951263
31
0.000000000000000
  0
LINE
  5
F10313
330
F10314
100
AcDbEntity
8
Geo
100
AcDbLine
10
-58.4382133995038
20
6.09193772951263
30
0.000000000000000
11
-58.3382133995038
21
6.03549300137223
31
0.000000000000000
  0
LINE
  5
F10315
330
F10316
100
AcDbEntity
8
Geo
100
AcDbLine
10
-58.3382133995038
20
6.03549300137223
30
0.000000000000000
11
-58.2382133995038
21
5.97922930623468
31
0.000000000000000
  0
LINE
  5
F10317
330
F10318
100
AcDbEntity
8
Geo
100
AcDbLine
10
-58.2382133995038
20
5.97922930623468
30
0.000000000000000
11
-58.1382133995038
21
5.92315836549962
31
0.000000000000000
  0
LINE
  5
F10319
330
F1031A
100
AcDbEntity
8
Geo
100
AcDbLine
10
-58.1382133995038
20
5.92315836549962
30
0.000000000000000
11
-58.0382133995038
21
5.86729186041025
31
0.000000000000000
  0
LINE
  5
F1031B
330
F1031C
100
AcDbEntity
8
Geo
100
AcDbLine
10
-58.0382133995038
20
5.86729186041025
30
0.000000000000000
11
-57.9382133995038
21
5.81164142961971
31
0.000000000000000
  0
LINE
  5
F1031D
330
F1031E
100
AcDbEntity
8
Geo
100
AcDbLine
10
-57.9382133995038
20
5.81164142961971
30
0.000000000000000
11
-57.8382133995038
21
5.75621866676649
31
0.000000000000000
  0
LINE
  5
F1031F
330
F10320
100
AcDbEntity
8
Geo
100
AcDbLine
10
-57.8382133995038
20
5.75621866676649
30
0.000000000000000
11
-57.7382133995038
21
5.70103511805905
31
0.000000000000000
  0
LINE
  5
F10321
330
F10322
100
AcDbEntity
8
Geo
100
AcDbLine
10
-57.7382133995038
20
5.70103511805905
30
0.000000000000000
11
-57.6382133995038
21
5.64610227987044
31
0.000000000000000
  0
LINE
  5
F10323
330
F10324
100
AcDbEntity
8
Geo
100
AcDbLine
10
-57.6382133995038
20
5.64610227987044
30
0.000000000000000
11
-57.5382133995038
21
5.59143159634328
31
0.000000000000000
  0
LINE
  5
F10325
330
F10326
100
AcDbEntity
8
Geo
100
AcDbLine
10
-57.5382133995038
20
5.59143159634328
30
0.000000000000000
11
-57.4382133995038
21
5.53703445700556
31
0.000000000000000
  0
LINE
  5
F10327
330
F10328
100
AcDbEntity
8
Geo
100
AcDbLine
10
-57.4382133995038
20
5.53703445700556
30
0.000000000000000
11
-57.3382133995038
21
5.48292219439789
31
0.000000000000000
  0
LINE
  5
F10329
330
F1032A
100
AcDbEntity
8
Geo
100
AcDbLine
10
-57.3382133995038
20
5.48292219439789
30
0.000000000000000
11
-57.2382133995038
21
5.42910608171260
31
0.000000000000000
  0
LINE
  5
F1032B
330
F1032C
100
AcDbEntity
8
Geo
100
AcDbLine
10
-57.2382133995038
20
5.42910608171260
30
0.000000000000000
11
-57.1382133995038
21
5.37559733044519
31
0.000000000000000
  0
LINE
  5
F1032D
330
F1032E
100
AcDbEntity
8
Geo
100
AcDbLine
10
-57.1382133995038
20
5.37559733044519
30
0.000000000000000
11
-57.0382133995038
21
5.32240708805864
31
0.000000000000000
  0
LINE
  5
F1032F
330
F10330
100
AcDbEntity
8
Geo
100
AcDbLine
10
-57.0382133995038
20
5.32240708805864
30
0.000000000000000
11
-56.9382133995038
21
5.26954643566106
31
0.000000000000000
  0
LINE
  5
F10331
330
F10332
100
AcDbEntity
8
Geo
100
AcDbLine
10
-56.9382133995038
20
5.26954643566106
30
0.000000000000000
11
-56.8382133995038
21
5.21702638569718
31
0.000000000000000
  0
LINE
  5
F10333
330
F10334
100
AcDbEntity
8
Geo
100
AcDbLine
10
-56.8382133995038
20
5.21702638569718
30
0.000000000000000
11
-56.7382133995038
21
5.16485787965411
31
0.000000000000000
  0
LINE
  5
F10335
330
F10336
100
AcDbEntity
8
Geo
100
AcDbLine
10
-56.7382133995038
20
5.16485787965411
30
0.000000000000000
11
-56.6382133995038
21
5.11305178578192
31
0.000000000000000
  0
LINE
  5
F10337
330
F10338
100
AcDbEntity
8
Geo
100
AcDbLine
10
-56.6382133995038
20
5.11305178578192
30
0.000000000000000
11
-56.5382133995038
21
5.06161889682948
31
0.000000000000000
  0
LINE
  5
F10339
330
F1033A
100
AcDbEntity
8
Geo
100
AcDbLine
10
-56.5382133995038
20
5.06161889682948
30
0.000000000000000
11
-56.4382133995038
21
5.01056992779593
31
0.000000000000000
  0
LINE
  5
F1033B
330
F1033C
100
AcDbEntity
8
Geo
100
AcDbLine
10
-56.4382133995038
20
5.01056992779593
30
0.000000000000000
11
-56.3382133995038
21
4.95991551369854
31
0.000000000000000
  0
LINE
  5
F1033D
330
F1033E
100
AcDbEntity
8
Geo
100
AcDbLine
10
-56.3382133995038
20
4.95991551369854
30
0.000000000000000
11
-56.2382133995038
21
4.90966620735703
31
0.000000000000000
  0
LINE
  5
F1033F
330
F10340
100
AcDbEntity
8
Geo
100
AcDbLine
10
-56.2382133995038
20
4.90966620735703
30
0.000000000000000
11
-56.1382133995038
21
4.85983247719513
31
0.000000000000000
  0
LINE
  5
F10341
330
F10342
100
AcDbEntity
8
Geo
100
AcDbLine
10
-56.1382133995038
20
4.85983247719513
30
0.000000000000000
11
-56.0382133995038
21
4.81042470505974
31
0.000000000000000
  0
LINE
  5
F10343
330
F10344
100
AcDbEntity
8
Geo
100
AcDbLine
10
-56.0382133995038
20
4.81042470505974
30
0.000000000000000
11
-55.9382133995038
21
4.76145318405799
31
0.000000000000000
  0
LINE
  5
F10345
330
F10346
100
AcDbEntity
8
Geo
100
AcDbLine
10
-55.9382133995038
20
4.76145318405799
30
0.000000000000000
11
-55.8382133995038
21
4.71292811641299
31
0.000000000000000
  0
LINE
  5
F10347
330
F10348
100
AcDbEntity
8
Geo
100
AcDbLine
10
-55.8382133995038
20
4.71292811641299
30
0.000000000000000
11
-55.7382133995038
21
4.66485961133830
31
0.000000000000000
  0
LINE
  5
F10349
330
F1034A
100
AcDbEntity
8
Geo
100
AcDbLine
10
-55.7382133995038
20
4.66485961133830
30
0.000000000000000
11
-55.6382133995038
21
4.61725768293198
31
0.000000000000000
  0
LINE
  5
F1034B
330
F1034C
100
AcDbEntity
8
Geo
100
AcDbLine
10
-55.6382133995038
20
4.61725768293198
30
0.000000000000000
11
-55.5382133995038
21
4.57013224809025
31
0.000000000000000
  0
LINE
  5
F1034D
330
F1034E
100
AcDbEntity
8
Geo
100
AcDbLine
10
-55.5382133995038
20
4.57013224809025
30
0.000000000000000
11
-55.4382133995038
21
4.52349312444161
31
0.000000000000000
  0
LINE
  5
F1034F
330
F10350
100
AcDbEntity
8
Geo
100
AcDbLine
10
-55.4382133995038
20
4.52349312444161
30
0.000000000000000
11
-55.3382133995038
21
4.47735002830146
31
0.000000000000000
  0
LINE
  5
F10351
330
F10352
100
AcDbEntity
8
Geo
100
AcDbLine
10
-55.3382133995038
20
4.47735002830146
30
0.000000000000000
11
-55.2382133995038
21
4.43171257264793
31
0.000000000000000
  0
LINE
  5
F10353
330
F10354
100
AcDbEntity
8
Geo
100
AcDbLine
10
-55.2382133995038
20
4.43171257264793
30
0.000000000000000
11
-55.1382133995038
21
4.38659026511922
31
0.000000000000000
  0
LINE
  5
F10355
330
F10356
100
AcDbEntity
8
Geo
100
AcDbLine
10
-55.1382133995038
20
4.38659026511922
30
0.000000000000000
11
-55.0382133995038
21
4.34199250603287
31
0.000000000000000
  0
LINE
  5
F10357
330
F10358
100
AcDbEntity
8
Geo
100
AcDbLine
10
-55.0382133995038
20
4.34199250603287
30
0.000000000000000
11
-54.9382133995038
21
4.29792858642737
31
0.000000000000000
  0
LINE
  5
F10359
330
F1035A
100
AcDbEntity
8
Geo
100
AcDbLine
10
-54.9382133995038
20
4.29792858642737
30
0.000000000000000
11
-54.8382133995038
21
4.25440768612661
31
0.000000000000000
  0
LINE
  5
F1035B
330
F1035C
100
AcDbEntity
8
Geo
100
AcDbLine
10
-54.8382133995038
20
4.25440768612661
30
0.000000000000000
11
-54.7382133995038
21
4.21143887182740
31
0.000000000000000
  0
LINE
  5
F1035D
330
F1035E
100
AcDbEntity
8
Geo
100
AcDbLine
10
-54.7382133995038
20
4.21143887182740
30
0.000000000000000
11
-54.6382133995038
21
4.16903109521065
31
0.000000000000000
  0
LINE
  5
F1035F
330
F10360
100
AcDbEntity
8
Geo
100
AcDbLine
10
-54.6382133995038
20
4.16903109521065
30
0.000000000000000
11
-54.5382133995038
21
4.12719319107644
31
0.000000000000000
  0
LINE
  5
F10361
330
F10362
100
AcDbEntity
8
Geo
100
AcDbLine
10
-54.5382133995038
20
4.12719319107644
30
0.000000000000000
11
-54.4382133995038
21
4.08593387550346
31
0.000000000000000
  0
LINE
  5
F10363
330
F10364
100
AcDbEntity
8
Geo
100
AcDbLine
10
-54.4382133995038
20
4.08593387550346
30
0.000000000000000
11
-54.3382133995038
21
4.04526174403324
31
0.000000000000000
  0
LINE
  5
F10365
330
F10366
100
AcDbEntity
8
Geo
100
AcDbLine
10
-54.3382133995038
20
4.04526174403324
30
0.000000000000000
11
-54.2382133995038
21
4.00518526987938
31
0.000000000000000
  0
LINE
  5
F10367
330
F10368
100
AcDbEntity
8
Geo
100
AcDbLine
10
-54.2382133995038
20
4.00518526987938
30
0.000000000000000
11
-54.1382133995038
21
3.96571280216240
31
0.000000000000000
  0
LINE
  5
F10369
330
F1036A
100
AcDbEntity
8
Geo
100
AcDbLine
10
-54.1382133995038
20
3.96571280216240
30
0.000000000000000
11
-54.0382133995038
21
3.92685256417029
31
0.000000000000000
  0
LINE
  5
F1036B
330
F1036C
100
AcDbEntity
8
Geo
100
AcDbLine
10
-54.0382133995038
20
3.92685256417029
30
0.000000000000000
11
-53.9382133995038
21
3.88861265164542
31
0.000000000000000
  0
LINE
  5
F1036D
330
F1036E
100
AcDbEntity
8
Geo
100
AcDbLine
10
-53.9382133995038
20
3.88861265164542
30
0.000000000000000
11
-53.8382133995038
21
3.85100103109792
31
0.000000000000000
  0
LINE
  5
F1036F
330
F10370
100
AcDbEntity
8
Geo
100
AcDbLine
10
-53.8382133995038
20
3.85100103109792
30
0.000000000000000
11
-53.7382133995038
21
3.81402553814604
31
0.000000000000000
  0
LINE
  5
F10371
330
F10372
100
AcDbEntity
8
Geo
100
AcDbLine
10
-53.7382133995038
20
3.81402553814604
30
0.000000000000000
11
-53.6382133995038
21
3.77769387588374
31
0.000000000000000
  0
LINE
  5
F10373
330
F10374
100
AcDbEntity
8
Geo
100
AcDbLine
10
-53.6382133995038
20
3.77769387588374
30
0.000000000000000
11
-53.5382133995038
21
3.74201361327591
31
0.000000000000000
  0
LINE
  5
F10375
330
F10376
100
AcDbEntity
8
Geo
100
AcDbLine
10
-53.5382133995038
20
3.74201361327591
30
0.000000000000000
11
-53.4382133995038
21
3.70699218358155
31
0.000000000000000
  0
LINE
  5
F10377
330
F10378
100
AcDbEntity
8
Geo
100
AcDbLine
10
-53.4382133995038
20
3.70699218358155
30
0.000000000000000
11
-53.3382133995038
21
3.67263688280518
31
0.000000000000000
  0
LINE
  5
F10379
330
F1037A
100
AcDbEntity
8
Geo
100
AcDbLine
10
-53.3382133995038
20
3.67263688280518
30
0.000000000000000
11
-53.2382133995038
21
3.63895486817686
31
0.000000000000000
  0
LINE
  5
F1037B
330
F1037C
100
AcDbEntity
8
Geo
100
AcDbLine
10
-53.2382133995038
20
3.63895486817686
30
0.000000000000000
11
-53.1382133995038
21
3.60595315666116
31
0.000000000000000
  0
LINE
  5
F1037D
330
F1037E
100
AcDbEntity
8
Geo
100
AcDbLine
10
-53.1382133995038
20
3.60595315666116
30
0.000000000000000
11
-53.0382133995038
21
3.57363862349528
31
0.000000000000000
  0
LINE
  5
F1037F
330
F10380
100
AcDbEntity
8
Geo
100
AcDbLine
10
-53.0382133995038
20
3.57363862349528
30
0.000000000000000
11
-52.9382133995038
21
3.54201800075675
31
0.000000000000000
  0
LINE
  5
F10381
330
F10382
100
AcDbEntity
8
Geo
100
AcDbLine
10
-52.9382133995038
20
3.54201800075675
30
0.000000000000000
11
-52.8382133995038
21
3.51109787596093
31
0.000000000000000
  0
LINE
  5
F10383
330
F10384
100
AcDbEntity
8
Geo
100
AcDbLine
10
-52.8382133995038
20
3.51109787596093
30
0.000000000000000
11
-52.7382133995037
21
3.48088469068866
31
0.000000000000000
  0
LINE
  5
F10385
330
F10386
100
AcDbEntity
8
Geo
100
AcDbLine
10
-52.7382133995037
20
3.48088469068866
30
0.000000000000000
11
-52.6382133995037
21
3.45138473924427
31
0.000000000000000
  0
LINE
  5
F10387
330
F10388
100
AcDbEntity
8
Geo
100
AcDbLine
10
-52.6382133995037
20
3.45138473924427
30
0.000000000000000
11
-52.5382133995037
21
3.42260416734426
31
0.000000000000000
  0
LINE
  5
F10389
330
F1038A
100
AcDbEntity
8
Geo
100
AcDbLine
10
-52.5382133995037
20
3.42260416734426
30
0.000000000000000
11
-52.4382133995037
21
3.39454897083703
31
0.000000000000000
  0
LINE
  5
F1038B
330
F1038C
100
AcDbEntity
8
Geo
100
AcDbLine
10
-52.4382133995037
20
3.39454897083703
30
0.000000000000000
11
-52.3382133995037
21
3.36722499445371
31
0.000000000000000
  0
LINE
  5
F1038D
330
F1038E
100
AcDbEntity
8
Geo
100
AcDbLine
10
-52.3382133995037
20
3.36722499445371
30
0.000000000000000
11
-52.2382133995037
21
3.34063793059055
31
0.000000000000000
  0
LINE
  5
F1038F
330
F10390
100
AcDbEntity
8
Geo
100
AcDbLine
10
-52.2382133995037
20
3.34063793059055
30
0.000000000000000
11
-52.1382133995037
21
3.31479331812302
31
0.000000000000000
  0
LINE
  5
F10391
330
F10392
100
AcDbEntity
8
Geo
100
AcDbLine
10
-52.1382133995037
20
3.31479331812302
30
0.000000000000000
11
-52.0382133995037
21
3.28969654125192
31
0.000000000000000
  0
LINE
  5
F10393
330
F10394
100
AcDbEntity
8
Geo
100
AcDbLine
10
-52.0382133995037
20
3.28969654125192
30
0.000000000000000
11
-51.9382133995037
21
3.26535282838165
31
0.000000000000000
  0
LINE
  5
F10395
330
F10396
100
AcDbEntity
8
Geo
100
AcDbLine
10
-51.9382133995037
20
3.26535282838165
30
0.000000000000000
11
-51.8382133995037
21
3.24176725103102
31
0.000000000000000
  0
LINE
  5
F10397
330
F10398
100
AcDbEntity
8
Geo
100
AcDbLine
10
-51.8382133995037
20
3.24176725103102
30
0.000000000000000
11
-51.7382133995037
21
3.21894472277666
31
0.000000000000000
  0
LINE
  5
F10399
330
F1039A
100
AcDbEntity
8
Geo
100
AcDbLine
10
-51.7382133995037
20
3.21894472277666
30
0.000000000000000
11
-51.6382133995037
21
3.19688999822942
31
0.000000000000000
  0
LINE
  5
F1039B
330
F1039C
100
AcDbEntity
8
Geo
100
AcDbLine
10
-51.6382133995037
20
3.19688999822942
30
0.000000000000000
11
-51.5382133995037
21
3.17560767204380
31
0.000000000000000
  0
LINE
  5
F1039D
330
F1039E
100
AcDbEntity
8
Geo
100
AcDbLine
10
-51.5382133995037
20
3.17560767204380
30
0.000000000000000
11
-51.4382133995037
21
3.15510217796079
31
0.000000000000000
  0
LINE
  5
F1039F
330
F103A0
100
AcDbEntity
8
Geo
100
AcDbLine
10
-51.4382133995037
20
3.15510217796079
30
0.000000000000000
11
-51.3382133995037
21
3.13537778788416
31
0.000000000000000
  0
LINE
  5
F103A1
330
F103A2
100
AcDbEntity
8
Geo
100
AcDbLine
10
-51.3382133995037
20
3.13537778788416
30
0.000000000000000
11
-51.2382133995037
21
3.11643861099050
31
0.000000000000000
  0
LINE
  5
F103A3
330
F103A4
100
AcDbEntity
8
Geo
100
AcDbLine
10
-51.2382133995037
20
3.11643861099050
30
0.000000000000000
11
-51.1382133995037
21
3.09828859287315
31
0.000000000000000
  0
LINE
  5
F103A5
330
F103A6
100
AcDbEntity
8
Geo
100
AcDbLine
10
-51.1382133995037
20
3.09828859287315
30
0.000000000000000
11
-51.0382133995037
21
3.08093151472025
31
0.000000000000000
  0
LINE
  5
F103A7
330
F103A8
100
AcDbEntity
8
Geo
100
AcDbLine
10
-51.0382133995037
20
3.08093151472025
30
0.000000000000000
11
-50.9382133995037
21
3.06437099252697
31
0.000000000000000
  0
LINE
  5
F103A9
330
F103AA
100
AcDbEntity
8
Geo
100
AcDbLine
10
-50.9382133995037
20
3.06437099252697
30
0.000000000000000
11
-50.8382133995037
21
3.04861047634220
31
0.000000000000000
  0
LINE
  5
F103AB
330
F103AC
100
AcDbEntity
8
Geo
100
AcDbLine
10
-50.8382133995037
20
3.04861047634220
30
0.000000000000000
11
-50.7382133995037
21
3.03365324954981
31
0.000000000000000
  0
LINE
  5
F103AD
330
F103AE
100
AcDbEntity
8
Geo
100
AcDbLine
10
-50.7382133995037
20
3.03365324954981
30
0.000000000000000
11
-50.6382133995037
21
3.01950242818462
31
0.000000000000000
  0
LINE
  5
F103AF
330
F103B0
100
AcDbEntity
8
Geo
100
AcDbLine
10
-50.6382133995037
20
3.01950242818462
30
0.000000000000000
11
-50.5382133995037
21
3.00616096028322
31
0.000000000000000
  0
LINE
  5
F103B1
330
F103B2
100
AcDbEntity
8
Geo
100
AcDbLine
10
-50.5382133995037
20
3.00616096028322
30
0.000000000000000
11
-50.4382133995037
21
2.99363162526985
31
0.000000000000000
  0
LINE
  5
F103B3
330
F103B4
100
AcDbEntity
8
Geo
100
AcDbLine
10
-50.4382133995037
20
2.99363162526985
30
0.000000000000000
11
-50.3382133995037
21
2.98191703337731
31
0.000000000000000
  0
LINE
  5
F103B5
330
F103B6
100
AcDbEntity
8
Geo
100
AcDbLine
10
-50.3382133995037
20
2.98191703337731
30
0.000000000000000
11
-50.2382133995037
21
2.97101962510321
31
0.000000000000000
  0
LINE
  5
F103B7
330
F103B8
100
AcDbEntity
8
Geo
100
AcDbLine
10
-50.2382133995037
20
2.97101962510321
30
0.000000000000000
11
-50.1382133995037
21
2.96094167070153
31
0.000000000000000
  0
LINE
  5
F103B9
330
F103BA
100
AcDbEntity
8
Geo
100
AcDbLine
10
-50.1382133995037
20
2.96094167070153
30
0.000000000000000
11
-50.0382133995037
21
2.95168526970965
31
0.000000000000000
  0
LINE
  5
F103BB
330
F103BC
100
AcDbEntity
8
Geo
100
AcDbLine
10
-50.0382133995037
20
2.95168526970965
30
0.000000000000000
11
-49.9382133995037
21
2.94325235051096
31
0.000000000000000
  0
LINE
  5
F103BD
330
F103BE
100
AcDbEntity
8
Geo
100
AcDbLine
10
-49.9382133995037
20
2.94325235051096
30
0.000000000000000
11
-49.8382133995037
21
2.93564466993314
31
0.000000000000000
  0
LINE
  5
F103BF
330
F103C0
100
AcDbEntity
8
Geo
100
AcDbLine
10
-49.8382133995037
20
2.93564466993314
30
0.000000000000000
11
-49.7382133995037
21
2.92886381288211
31
0.000000000000000
  0
LINE
  5
F103C1
330
F103C2
100
AcDbEntity
8
Geo
100
AcDbLine
10
-49.7382133995037
20
2.92886381288211
30
0.000000000000000
11
-49.6382133995037
21
2.92291119201191
31
0.000000000000000
  0
LINE
  5
F103C3
330
F103C4
100
AcDbEntity
8
Geo
100
AcDbLine
10
-49.6382133995037
20
2.92291119201191
30
0.000000000000000
11
-49.5382133995037
21
2.91778804743035
31
0.000000000000000
  0
LINE
  5
F103C5
330
F103C6
100
AcDbEntity
8
Geo
100
AcDbLine
10
-49.5382133995037
20
2.91778804743035
30
0.000000000000000
11
-49.4382133995037
21
2.91349544644069
31
0.000000000000000
  0
LINE
  5
F103C7
330
F103C8
100
AcDbEntity
8
Geo
100
AcDbLine
10
-49.4382133995037
20
2.91349544644069
30
0.000000000000000
11
-49.3382133995037
21
2.91003428331927
31
0.000000000000000
  0
LINE
  5
F103C9
330
F103CA
100
AcDbEntity
8
Geo
100
AcDbLine
10
-49.3382133995037
20
2.91003428331927
30
0.000000000000000
11
-49.2382133995037
21
2.90740527912924
31
0.000000000000000
  0
LINE
  5
F103CB
330
F103CC
100
AcDbEntity
8
Geo
100
AcDbLine
10
-49.2382133995037
20
2.90740527912924
30
0.000000000000000
11
-49.1382133995037
21
2.90560898157029
31
0.000000000000000
  0
LINE
  5
F103CD
330
F103CE
100
AcDbEntity
8
Geo
100
AcDbLine
10
-49.1382133995037
20
2.90560898157029
30
0.000000000000000
11
-49.0382133995037
21
2.90464576486457
31
0.000000000000000
  0
LINE
  5
F103CF
330
F103D0
100
AcDbEntity
8
Geo
100
AcDbLine
10
-70.7382133995037
20
10.1933906739914
30
0.000000000000000
11
-70.6382133995037
21
10.4561679413046
31
0.000000000000000
  0
LINE
  5
F103D1
330
F103D2
100
AcDbEntity
8
Geo
100
AcDbLine
10
-70.6382133995037
20
10.4561679413046
30
0.000000000000000
11
-70.5382133995037
21
10.5292404183804
31
0.000000000000000
  0
LINE
  5
F103D3
330
F103D4
100
AcDbEntity
8
Geo
100
AcDbLine
10
-70.5382133995037
20
10.5292404183804
30
0.000000000000000
11
-70.4382133995037
21
10.5619222938783
31
0.000000000000000
  0
LINE
  5
F103D5
330
F103D6
100
AcDbEntity
8
Geo
100
AcDbLine
10
-70.4382133995037
20
10.5619222938783
30
0.000000000000000
11
-70.3382133995037
21
10.5687541756180
31
0.000000000000000
  0
LINE
  5
F103D7
330
F103D8
100
AcDbEntity
8
Geo
100
AcDbLine
10
-70.3382133995037
20
10.5687541756180
30
0.000000000000000
11
-70.2382133995037
21
10.5548057395658
31
0.000000000000000
  0
LINE
  5
F103D9
330
F103DA
100
AcDbEntity
8
Geo
100
AcDbLine
10
-70.2382133995037
20
10.5548057395658
30
0.000000000000000
11
-70.1382133995037
21
10.5308191929375
31
0.000000000000000
  0
LINE
  5
F103DB
330
F103DC
100
AcDbEntity
8
Geo
100
AcDbLine
10
-70.1382133995037
20
10.5308191929375
30
0.000000000000000
11
-70.0382133995037
21
10.5060771692811
31
0.000000000000000
  0
LINE
  5
F103DD
330
F103DE
100
AcDbEntity
8
Geo
100
AcDbLine
10
-70.0382133995037
20
10.5060771692811
30
0.000000000000000
11
-69.9382133995037
21
10.4805848230955
31
0.000000000000000
  0
LINE
  5
F103DF
330
F103E0
100
AcDbEntity
8
Geo
100
AcDbLine
10
-69.9382133995037
20
10.4805848230955
30
0.000000000000000
11
-69.8382133995037
21
10.4543474651939
31
0.000000000000000
  0
LINE
  5
F103E1
330
F103E2
100
AcDbEntity
8
Geo
100
AcDbLine
10
-69.8382133995037
20
10.4543474651939
30
0.000000000000000
11
-69.7382133995037
21
10.4273705615976
31
0.000000000000000
  0
LINE
  5
F103E3
330
F103E4
100
AcDbEntity
8
Geo
100
AcDbLine
10
-69.7382133995037
20
10.4273705615976
30
0.000000000000000
11
-69.6382133995037
21
10.3996597323972
31
0.000000000000000
  0
LINE
  5
F103E5
330
F103E6
100
AcDbEntity
8
Geo
100
AcDbLine
10
-69.6382133995037
20
10.3996597323972
30
0.000000000000000
11
-69.5382133995037
21
10.3712207505821
31
0.000000000000000
  0
LINE
  5
F103E7
330
F103E8
100
AcDbEntity
8
Geo
100
AcDbLine
10
-69.5382133995037
20
10.3712207505821
30
0.000000000000000
11
-69.4382133995037
21
10.3420595408371
31
0.000000000000000
  0
LINE
  5
F103E9
330
F103EA
100
AcDbEntity
8
Geo
100
AcDbLine
10
-69.4382133995037
20
10.3420595408371
30
0.000000000000000
11
-69.3382133995037
21
10.3121821783089
31
0.000000000000000
  0
LINE
  5
F103EB
330
F103EC
100
AcDbEntity
8
Geo
100
AcDbLine
10
-69.3382133995037
20
10.3121821783089
30
0.000000000000000
11
-69.2382133995037
21
10.2815948873399
31
0.000000000000000
  0
LINE
  5
F103ED
330
F103EE
100
AcDbEntity
8
Geo
100
AcDbLine
10
-69.2382133995037
20
10.2815948873399
30
0.000000000000000
11
-69.1382133995037
21
10.2503040401718
31
0.000000000000000
  0
LINE
  5
F103EF
330
F103F0
100
AcDbEntity
8
Geo
100
AcDbLine
10
-69.1382133995037
20
10.2503040401718
30
0.000000000000000
11
-69.0382133995037
21
10.2183161556179
31
0.000000000000000
  0
LINE
  5
F103F1
330
F103F2
100
AcDbEntity
8
Geo
100
AcDbLine
10
-69.0382133995037
20
10.2183161556179
30
0.000000000000000
11
-68.9382133995037
21
10.1856378977051
31
0.000000000000000
  0
LINE
  5
F103F3
330
F103F4
100
AcDbEntity
8
Geo
100
AcDbLine
10
-68.9382133995037
20
10.1856378977051
30
0.000000000000000
11
-68.8382133995037
21
10.1522760742856
31
0.000000000000000
  0
LINE
  5
F103F5
330
F103F6
100
AcDbEntity
8
Geo
100
AcDbLine
10
-68.8382133995037
20
10.1522760742856
30
0.000000000000000
11
-68.7382133995037
21
10.1182376356187
31
0.000000000000000
  0
LINE
  5
F103F7
330
F103F8
100
AcDbEntity
8
Geo
100
AcDbLine
10
-68.7382133995037
20
10.1182376356187
30
0.000000000000000
11
-68.6382133995037
21
10.0835296729225
31
0.000000000000000
  0
LINE
  5
F103F9
330
F103FA
100
AcDbEntity
8
Geo
100
AcDbLine
10
-68.6382133995037
20
10.0835296729225
30
0.000000000000000
11
-68.5382133995037
21
10.0481594168972
31
0.000000000000000
  0
LINE
  5
F103FB
330
F103FC
100
AcDbEntity
8
Geo
100
AcDbLine
10
-68.5382133995037
20
10.0481594168972
30
0.000000000000000
11
-68.4382133995037
21
10.0121342362181
31
0.000000000000000
  0
LINE
  5
F103FD
330
F103FE
100
AcDbEntity
8
Geo
100
AcDbLine
10
-68.4382133995037
20
10.0121342362181
30
0.000000000000000
11
-68.3382133995037
21
9.97546163600095
31
0.000000000000000
  0
LINE
  5
F103FF
330
F10400
100
AcDbEntity
8
Geo
100
AcDbLine
10
-68.3382133995037
20
9.97546163600095
30
0.000000000000000
11
-68.2382133995037
21
9.93814925623812
31
0.000000000000000
  0
LINE
  5
F10401
330
F10402
100
AcDbEntity
8
Geo
100
AcDbLine
10
-68.2382133995037
20
9.93814925623812
30
0.000000000000000
11
-68.1382133995037
21
9.90020487020711
31
0.000000000000000
  0
LINE
  5
F10403
330
F10404
100
AcDbEntity
8
Geo
100
AcDbLine
10
-68.1382133995037
20
9.90020487020711
30
0.000000000000000
11
-68.0382133995037
21
9.86163638285111
31
0.000000000000000
  0
LINE
  5
F10405
330
F10406
100
AcDbEntity
8
Geo
100
AcDbLine
10
-68.0382133995037
20
9.86163638285111
30
0.000000000000000
11
-67.9382133995037
21
9.82245182913214
31
0.000000000000000
  0
LINE
  5
F10407
330
F10408
100
AcDbEntity
8
Geo
100
AcDbLine
10
-67.9382133995037
20
9.82245182913214
30
0.000000000000000
11
-67.8382133995037
21
9.78265937235718
31
0.000000000000000
  0
LINE
  5
F10409
330
F1040A
100
AcDbEntity
8
Geo
100
AcDbLine
10
-67.8382133995037
20
9.78265937235718
30
0.000000000000000
11
-67.7382133995037
21
9.74226730247746
31
0.000000000000000
  0
LINE
  5
F1040B
330
F1040C
100
AcDbEntity
8
Geo
100
AcDbLine
10
-67.7382133995037
20
9.74226730247746
30
0.000000000000000
11
-67.6382133995037
21
9.70128403436144
31
0.000000000000000
  0
LINE
  5
F1040D
330
F1040E
100
AcDbEntity
8
Geo
100
AcDbLine
10
-67.6382133995037
20
9.70128403436144
30
0.000000000000000
11
-67.5382133995037
21
9.65971810604177
31
0.000000000000000
  0
LINE
  5
F1040F
330
F10410
100
AcDbEntity
8
Geo
100
AcDbLine
10
-67.5382133995037
20
9.65971810604177
30
0.000000000000000
11
-67.4382133995037
21
9.61757817693648
31
0.000000000000000
  0
LINE
  5
F10411
330
F10412
100
AcDbEntity
8
Geo
100
AcDbLine
10
-67.4382133995037
20
9.61757817693648
30
0.000000000000000
11
-67.3382133995037
21
9.57487302604508
31
0.000000000000000
  0
LINE
  5
F10413
330
F10414
100
AcDbEntity
8
Geo
100
AcDbLine
10
-67.3382133995037
20
9.57487302604508
30
0.000000000000000
11
-67.2382133995037
21
9.53161155011952
31
0.000000000000000
  0
LINE
  5
F10415
330
F10416
100
AcDbEntity
8
Geo
100
AcDbLine
10
-67.2382133995037
20
9.53161155011952
30
0.000000000000000
11
-67.1382133995037
21
9.48780276181084
31
0.000000000000000
  0
LINE
  5
F10417
330
F10418
100
AcDbEntity
8
Geo
100
AcDbLine
10
-67.1382133995037
20
9.48780276181084
30
0.000000000000000
11
-67.0382133995037
21
9.44345578779146
31
0.000000000000000
  0
LINE
  5
F10419
330
F1041A
100
AcDbEntity
8
Geo
100
AcDbLine
10
-67.0382133995037
20
9.44345578779146
30
0.000000000000000
11
-66.9382133995037
21
9.39857986685393
31
0.000000000000000
  0
LINE
  5
F1041B
330
F1041C
100
AcDbEntity
8
Geo
100
AcDbLine
10
-66.9382133995037
20
9.39857986685393
30
0.000000000000000
11
-66.8382133995037
21
9.35318434798612
31
0.000000000000000
  0
LINE
  5
F1041D
330
F1041E
100
AcDbEntity
8
Geo
100
AcDbLine
10
-66.8382133995037
20
9.35318434798612
30
0.000000000000000
11
-66.7382133995037
21
9.30727868842360
31
0.000000000000000
  0
LINE
  5
F1041F
330
F10420
100
AcDbEntity
8
Geo
100
AcDbLine
10
-66.7382133995037
20
9.30727868842360
30
0.000000000000000
11
-66.6382133995037
21
9.26087245167942
31
0.000000000000000
  0
LINE
  5
F10421
330
F10422
100
AcDbEntity
8
Geo
100
AcDbLine
10
-66.6382133995037
20
9.26087245167942
30
0.000000000000000
11
-66.5382133995037
21
9.21397530555172
31
0.000000000000000
  0
LINE
  5
F10423
330
F10424
100
AcDbEntity
8
Geo
100
AcDbLine
10
-66.5382133995037
20
9.21397530555172
30
0.000000000000000
11
-66.4382133995037
21
9.16659702010966
31
0.000000000000000
  0
LINE
  5
F10425
330
F10426
100
AcDbEntity
8
Geo
100
AcDbLine
10
-66.4382133995037
20
9.16659702010966
30
0.000000000000000
11
-66.3382133995037
21
9.11874746565800
31
0.000000000000000
  0
LINE
  5
F10427
330
F10428
100
AcDbEntity
8
Geo
100
AcDbLine
10
-66.3382133995037
20
9.11874746565800
30
0.000000000000000
11
-66.2382133995037
21
9.07043661068086
31
0.000000000000000
  0
LINE
  5
F10429
330
F1042A
100
AcDbEntity
8
Geo
100
AcDbLine
10
-66.2382133995037
20
9.07043661068086
30
0.000000000000000
11
-66.1382133995037
21
9.02167451976496
31
0.000000000000000
  0
LINE
  5
F1042B
330
F1042C
100
AcDbEntity
8
Geo
100
AcDbLine
10
-66.1382133995037
20
9.02167451976496
30
0.000000000000000
11
-66.0382133995037
21
8.97247135150288
31
0.000000000000000
  0
LINE
  5
F1042D
330
F1042E
100
AcDbEntity
8
Geo
100
AcDbLine
10
-66.0382133995037
20
8.97247135150288
30
0.000000000000000
11
-65.9382133995037
21
8.92283735637670
31
0.000000000000000
  0
LINE
  5
F1042F
330
F10430
100
AcDbEntity
8
Geo
100
AcDbLine
10
-65.9382133995037
20
8.92283735637670
30
0.000000000000000
11
-65.8382133995037
21
8.87278287462256
31
0.000000000000000
  0
LINE
  5
F10431
330
F10432
100
AcDbEntity
8
Geo
100
AcDbLine
10
-65.8382133995037
20
8.87278287462256
30
0.000000000000000
11
-65.7382133995037
21
8.82231833407645
31
0.000000000000000
  0
LINE
  5
F10433
330
F10434
100
AcDbEntity
8
Geo
100
AcDbLine
10
-65.7382133995037
20
8.82231833407645
30
0.000000000000000
11
-65.6382133995037
21
8.77145424800179
31
0.000000000000000
  0
LINE
  5
F10435
330
F10436
100
AcDbEntity
8
Geo
100
AcDbLine
10
-65.6382133995037
20
8.77145424800179
30
0.000000000000000
11
-65.5382133995037
21
8.72020121289921
31
0.000000000000000
  0
LINE
  5
F10437
330
F10438
100
AcDbEntity
8
Geo
100
AcDbLine
10
-65.5382133995037
20
8.72020121289921
30
0.000000000000000
11
-65.4382133995037
21
8.66856990629899
31
0.000000000000000
  0
LINE
  5
F10439
330
F1043A
100
AcDbEntity
8
Geo
100
AcDbLine
10
-65.4382133995037
20
8.66856990629899
30
0.000000000000000
11
-65.3382133995037
21
8.61657108453658
31
0.000000000000000
  0
LINE
  5
F1043B
330
F1043C
100
AcDbEntity
8
Geo
100
AcDbLine
10
-65.3382133995037
20
8.61657108453658
30
0.000000000000000
11
-65.2382133995037
21
8.56421558051179
31
0.000000000000000
  0
LINE
  5
F1043D
330
F1043E
100
AcDbEntity
8
Geo
100
AcDbLine
10
-65.2382133995037
20
8.56421558051179
30
0.000000000000000
11
-65.1382133995037
21
8.51151430143191
31
0.000000000000000
  0
LINE
  5
F1043F
330
F10440
100
AcDbEntity
8
Geo
100
AcDbLine
10
-65.1382133995037
20
8.51151430143191
30
0.000000000000000
11
-65.0382133995037
21
8.45847822653949
31
0.000000000000000
  0
LINE
  5
F10441
330
F10442
100
AcDbEntity
8
Geo
100
AcDbLine
10
-65.0382133995037
20
8.45847822653949
30
0.000000000000000
11
-64.9382133995037
21
8.40511840482495
31
0.000000000000000
  0
LINE
  5
F10443
330
F10444
100
AcDbEntity
8
Geo
100
AcDbLine
10
-64.9382133995037
20
8.40511840482495
30
0.000000000000000
11
-64.8382133995037
21
8.35144595272484
31
0.000000000000000
  0
LINE
  5
F10445
330
F10446
100
AcDbEntity
8
Geo
100
AcDbLine
10
-64.8382133995037
20
8.35144595272484
30
0.000000000000000
11
-64.7382133995037
21
8.29747205180588
31
0.000000000000000
  0
LINE
  5
F10447
330
F10448
100
AcDbEntity
8
Geo
100
AcDbLine
10
-64.7382133995037
20
8.29747205180588
30
0.000000000000000
11
-64.6382133995037
21
8.24320794643553
31
0.000000000000000
  0
LINE
  5
F10449
330
F1044A
100
AcDbEntity
8
Geo
100
AcDbLine
10
-64.6382133995037
20
8.24320794643553
30
0.000000000000000
11
-64.5382133995037
21
8.18866494143950
31
0.000000000000000
  0
LINE
  5
F1044B
330
F1044C
100
AcDbEntity
8
Geo
100
AcDbLine
10
-64.5382133995037
20
8.18866494143950
30
0.000000000000000
11
-64.4382133995037
21
8.13385439974654
31
0.000000000000000
  0
LINE
  5
F1044D
330
F1044E
100
AcDbEntity
8
Geo
100
AcDbLine
10
-64.4382133995037
20
8.13385439974654
30
0.000000000000000
11
-64.3382133995037
21
8.07878774002127
31
0.000000000000000
  0
LINE
  5
F1044F
330
F10450
100
AcDbEntity
8
Geo
100
AcDbLine
10
-64.3382133995037
20
8.07878774002127
30
0.000000000000000
11
-64.2382133995037
21
8.02347643428529
31
0.000000000000000
  0
LINE
  5
F10451
330
F10452
100
AcDbEntity
8
Geo
100
AcDbLine
10
-64.2382133995037
20
8.02347643428529
30
0.000000000000000
11
-64.1382133995037
21
7.96793200552724
31
0.000000000000000
  0
LINE
  5
F10453
330
F10454
100
AcDbEntity
8
Geo
100
AcDbLine
10
-64.1382133995037
20
7.96793200552724
30
0.000000000000000
11
-64.0382133995037
21
7.91216602530222
31
0.000000000000000
  0
LINE
  5
F10455
330
F10456
100
AcDbEntity
8
Geo
100
AcDbLine
10
-64.0382133995037
20
7.91216602530222
30
0.000000000000000
11
-63.9382133995037
21
7.85619011132107
31
0.000000000000000
  0
LINE
  5
F10457
330
F10458
100
AcDbEntity
8
Geo
100
AcDbLine
10
-63.9382133995037
20
7.85619011132107
30
0.000000000000000
11
-63.8382133995037
21
7.80001592503008
31
0.000000000000000
  0
LINE
  5
F10459
330
F1045A
100
AcDbEntity
8
Geo
100
AcDbLine
10
-63.8382133995037
20
7.80001592503008
30
0.000000000000000
11
-63.7382133995037
21
7.74365516918157
31
0.000000000000000
  0
LINE
  5
F1045B
330
F1045C
100
AcDbEntity
8
Geo
100
AcDbLine
10
-63.7382133995037
20
7.74365516918157
30
0.000000000000000
11
-63.6382133995037
21
7.68711958539580
31
0.000000000000000
  0
LINE
  5
F1045D
330
F1045E
100
AcDbEntity
8
Geo
100
AcDbLine
10
-63.6382133995037
20
7.68711958539580
30
0.000000000000000
11
-63.5382133995037
21
7.63042095171492
31
0.000000000000000
  0
LINE
  5
F1045F
330
F10460
100
AcDbEntity
8
Geo
100
AcDbLine
10
-63.5382133995037
20
7.63042095171492
30
0.000000000000000
11
-63.4382133995037
21
7.57357108014921
31
0.000000000000000
  0
LINE
  5
F10461
330
F10462
100
AcDbEntity
8
Geo
100
AcDbLine
10
-63.4382133995037
20
7.57357108014921
30
0.000000000000000
11
-63.3382133995037
21
7.51658181421630
31
0.000000000000000
  0
LINE
  5
F10463
330
F10464
100
AcDbEntity
8
Geo
100
AcDbLine
10
-63.3382133995037
20
7.51658181421630
30
0.000000000000000
11
-63.2382133995037
21
7.45946502647380
31
0.000000000000000
  0
LINE
  5
F10465
330
F10466
100
AcDbEntity
8
Geo
100
AcDbLine
10
-63.2382133995037
20
7.45946502647380
30
0.000000000000000
11
-63.1382133995037
21
7.40223261604589
31
0.000000000000000
  0
LINE
  5
F10467
330
F10468
100
AcDbEntity
8
Geo
100
AcDbLine
10
-63.1382133995037
20
7.40223261604589
30
0.000000000000000
11
-63.0382133995037
21
7.34489650614443
31
0.000000000000000
  0
LINE
  5
F10469
330
F1046A
100
AcDbEntity
8
Geo
100
AcDbLine
10
-63.0382133995037
20
7.34489650614443
30
0.000000000000000
11
-62.9382133995037
21
7.28746864158492
31
0.000000000000000
  0
LINE
  5
F1046B
330
F1046C
100
AcDbEntity
8
Geo
100
AcDbLine
10
-62.9382133995037
20
7.28746864158492
30
0.000000000000000
11
-62.8382133995037
21
7.22996098629811
31
0.000000000000000
  0
LINE
  5
F1046D
330
F1046E
100
AcDbEntity
8
Geo
100
AcDbLine
10
-62.8382133995037
20
7.22996098629811
30
0.000000000000000
11
-62.7382133995037
21
7.17238552083752
31
0.000000000000000
  0
LINE
  5
F1046F
330
F10470
100
AcDbEntity
8
Geo
100
AcDbLine
10
-62.7382133995037
20
7.17238552083752
30
0.000000000000000
11
-62.6382133995037
21
7.11475423988355
31
0.000000000000000
  0
LINE
  5
F10471
330
F10472
100
AcDbEntity
8
Geo
100
AcDbLine
10
-62.6382133995037
20
7.11475423988355
30
0.000000000000000
11
-62.5382133995037
21
7.05707914974460
31
0.000000000000000
  0
LINE
  5
F10473
330
F10474
100
AcDbEntity
8
Geo
100
AcDbLine
10
-62.5382133995037
20
7.05707914974460
30
0.000000000000000
11
-62.4382133995038
21
6.99937226585587
31
0.000000000000000
  0
LINE
  5
F10475
330
F10476
100
AcDbEntity
8
Geo
100
AcDbLine
10
-62.4382133995038
20
6.99937226585587
30
0.000000000000000
11
-62.3382133995038
21
6.94164561027610
31
0.000000000000000
  0
LINE
  5
F10477
330
F10478
100
AcDbEntity
8
Geo
100
AcDbLine
10
-62.3382133995038
20
6.94164561027610
30
0.000000000000000
11
-62.2382133995037
21
6.88391120918309
31
0.000000000000000
  0
LINE
  5
F10479
330
F1047A
100
AcDbEntity
8
Geo
100
AcDbLine
10
-62.2382133995037
20
6.88391120918309
30
0.000000000000000
11
-62.1382133995037
21
6.82618109036825
31
0.000000000000000
  0
LINE
  5
F1047B
330
F1047C
100
AcDbEntity
8
Geo
100
AcDbLine
10
-62.1382133995037
20
6.82618109036825
30
0.000000000000000
11
-62.0382133995037
21
6.76846728073085
31
0.000000000000000
  0
LINE
  5
F1047D
330
F1047E
100
AcDbEntity
8
Geo
100
AcDbLine
10
-62.0382133995037
20
6.76846728073085
30
0.000000000000000
11
-61.9382133995038
21
6.71078180377250
31
0.000000000000000
  0
LINE
  5
F1047F
330
F10480
100
AcDbEntity
8
Geo
100
AcDbLine
10
-61.9382133995038
20
6.71078180377250
30
0.000000000000000
11
-61.8382133995038
21
6.65313667709226
31
0.000000000000000
  0
LINE
  5
F10481
330
F10482
100
AcDbEntity
8
Geo
100
AcDbLine
10
-61.8382133995038
20
6.65313667709226
30
0.000000000000000
11
-61.7382133995037
21
6.59554390988303
31
0.000000000000000
  0
LINE
  5
F10483
330
F10484
100
AcDbEntity
8
Geo
100
AcDbLine
10
-61.7382133995037
20
6.59554390988303
30
0.000000000000000
11
-61.6382133995038
21
6.53801550042965
31
0.000000000000000
  0
LINE
  5
F10485
330
F10486
100
AcDbEntity
8
Geo
100
AcDbLine
10
-61.6382133995038
20
6.53801550042965
30
0.000000000000000
11
-61.5382133995038
21
6.48056343360938
31
0.000000000000000
  0
LINE
  5
F10487
330
F10488
100
AcDbEntity
8
Geo
100
AcDbLine
10
-61.5382133995038
20
6.48056343360938
30
0.000000000000000
11
-61.4382133995038
21
6.42319967839499
31
0.000000000000000
  0
LINE
  5
F10489
330
F1048A
100
AcDbEntity
8
Geo
100
AcDbLine
10
-61.4382133995038
20
6.42319967839499
30
0.000000000000000
11
-61.3382133995038
21
6.36593618536134
31
0.000000000000000
  0
LINE
  5
F1048B
330
F1048C
100
AcDbEntity
8
Geo
100
AcDbLine
10
-61.3382133995038
20
6.36593618536134
30
0.000000000000000
11
-61.2382133995037
21
6.30878488419571
31
0.000000000000000
  0
LINE
  5
F1048D
330
F1048E
100
AcDbEntity
8
Geo
100
AcDbLine
10
-61.2382133995037
20
6.30878488419571
30
0.000000000000000
11
-61.1382133995038
21
6.25175768121246
31
0.000000000000000
  0
LINE
  5
F1048F
330
F10490
100
AcDbEntity
8
Geo
100
AcDbLine
10
-61.1382133995038
20
6.25175768121246
30
0.000000000000000
11
-61.0382133995038
21
6.19486645687261
31
0.000000000000000
  0
LINE
  5
F10491
330
F10492
100
AcDbEntity
8
Geo
100
AcDbLine
10
-61.0382133995038
20
6.19486645687261
30
0.000000000000000
11
-60.9382133995038
21
6.13812306330881
31
0.000000000000000
  0
LINE
  5
F10493
330
F10494
100
AcDbEntity
8
Geo
100
AcDbLine
10
-60.9382133995038
20
6.13812306330881
30
0.000000000000000
11
-60.8382133995038
21
6.08153932185614
31
0.000000000000000
  0
LINE
  5
F10495
330
F10496
100
AcDbEntity
8
Geo
100
AcDbLine
10
-60.8382133995038
20
6.08153932185614
30
0.000000000000000
11
-60.7382133995038
21
6.02512702058943
31
0.000000000000000
  0
LINE
  5
F10497
330
F10498
100
AcDbEntity
8
Geo
100
AcDbLine
10
-60.7382133995038
20
6.02512702058943
30
0.000000000000000
11
-60.6382133995038
21
5.96889791186738
31
0.000000000000000
  0
LINE
  5
F10499
330
F1049A
100
AcDbEntity
8
Geo
100
AcDbLine
10
-60.6382133995038
20
5.96889791186738
30
0.000000000000000
11
-60.5382133995038
21
5.91286370988430
31
0.000000000000000
  0
LINE
  5
F1049B
330
F1049C
100
AcDbEntity
8
Geo
100
AcDbLine
10
-60.5382133995038
20
5.91286370988430
30
0.000000000000000
11
-60.4382133995038
21
5.85703608822957
31
0.000000000000000
  0
LINE
  5
F1049D
330
F1049E
100
AcDbEntity
8
Geo
100
AcDbLine
10
-60.4382133995038
20
5.85703608822957
30
0.000000000000000
11
-60.3382133995038
21
5.80142667745580
31
0.000000000000000
  0
LINE
  5
F1049F
330
F104A0
100
AcDbEntity
8
Geo
100
AcDbLine
10
-60.3382133995038
20
5.80142667745580
30
0.000000000000000
11
-60.2382133995038
21
5.74604706265577
31
0.000000000000000
  0
LINE
  5
F104A1
330
F104A2
100
AcDbEntity
8
Geo
100
AcDbLine
10
-60.2382133995038
20
5.74604706265577
30
0.000000000000000
11
-60.1382133995038
21
5.69090878104891
31
0.000000000000000
  0
LINE
  5
F104A3
330
F104A4
100
AcDbEntity
8
Geo
100
AcDbLine
10
-60.1382133995038
20
5.69090878104891
30
0.000000000000000
11
-60.0382133995038
21
5.63602331957782
31
0.000000000000000
  0
LINE
  5
F104A5
330
F104A6
100
AcDbEntity
8
Geo
100
AcDbLine
10
-60.0382133995038
20
5.63602331957782
30
0.000000000000000
11
-59.9382133995038
21
5.58140211251510
31
0.000000000000000
  0
LINE
  5
F104A7
330
F104A8
100
AcDbEntity
8
Geo
100
AcDbLine
10
-59.9382133995038
20
5.58140211251510
30
0.000000000000000
11
-59.8382133995038
21
5.52705653908135
31
0.000000000000000
  0
LINE
  5
F104A9
330
F104AA
100
AcDbEntity
8
Geo
100
AcDbLine
10
-59.8382133995038
20
5.52705653908135
30
0.000000000000000
11
-59.7382133995038
21
5.47299792107446
31
0.000000000000000
  0
LINE
  5
F104AB
330
F104AC
100
AcDbEntity
8
Geo
100
AcDbLine
10
-59.7382133995038
20
5.47299792107446
30
0.000000000000000
11
-59.6382133995038
21
5.41923752051100
31
0.000000000000000
  0
LINE
  5
F104AD
330
F104AE
100
AcDbEntity
8
Geo
100
AcDbLine
10
-59.6382133995038
20
5.41923752051100
30
0.000000000000000
11
-59.5382133995038
21
5.36578653727998
31
0.000000000000000
  0
LINE
  5
F104AF
330
F104B0
100
AcDbEntity
8
Geo
100
AcDbLine
10
-59.5382133995038
20
5.36578653727998
30
0.000000000000000
11
-59.4382133995038
21
5.31265610680957
31
0.000000000000000
  0
LINE
  5
F104B1
330
F104B2
100
AcDbEntity
8
Geo
100
AcDbLine
10
-59.4382133995038
20
5.31265610680957
30
0.000000000000000
11
-59.3382133995038
21
5.25985729774729
31
0.000000000000000
  0
LINE
  5
F104B3
330
F104B4
100
AcDbEntity
8
Geo
100
AcDbLine
10
-59.3382133995038
20
5.25985729774729
30
0.000000000000000
11
-59.2382133995038
21
5.20740110965406
31
0.000000000000000
  0
LINE
  5
F104B5
330
F104B6
100
AcDbEntity
8
Geo
100
AcDbLine
10
-59.2382133995038
20
5.20740110965406
30
0.000000000000000
11
-59.1382133995038
21
5.15529847071268
31
0.000000000000000
  0
LINE
  5
F104B7
330
F104B8
100
AcDbEntity
8
Geo
100
AcDbLine
10
-59.1382133995038
20
5.15529847071268
30
0.000000000000000
11
-59.0382133995038
21
5.10356023545113
31
0.000000000000000
  0
LINE
  5
F104B9
330
F104BA
100
AcDbEntity
8
Geo
100
AcDbLine
10
-59.0382133995038
20
5.10356023545113
30
0.000000000000000
11
-58.9382133995038
21
5.05219718248132
31
0.000000000000000
  0
LINE
  5
F104BB
330
F104BC
100
AcDbEntity
8
Geo
100
AcDbLine
10
-58.9382133995038
20
5.05219718248132
30
0.000000000000000
11
-58.8382133995038
21
5.00122001225348
31
0.000000000000000
  0
LINE
  5
F104BD
330
F104BE
100
AcDbEntity
8
Geo
100
AcDbLine
10
-58.8382133995038
20
5.00122001225348
30
0.000000000000000
11
-58.7382133995038
21
4.95063934482705
31
0.000000000000000
  0
LINE
  5
F104BF
330
F104C0
100
AcDbEntity
8
Geo
100
AcDbLine
10
-58.7382133995038
20
4.95063934482705
30
0.000000000000000
11
-58.6382133995038
21
4.90046571765813
31
0.000000000000000
  0
LINE
  5
F104C1
330
F104C2
100
AcDbEntity
8
Geo
100
AcDbLine
10
-58.6382133995038
20
4.90046571765813
30
0.000000000000000
11
-58.5382133995038
21
4.85070958340424
31
0.000000000000000
  0
LINE
  5
F104C3
330
F104C4
100
AcDbEntity
8
Geo
100
AcDbLine
10
-58.5382133995038
20
4.85070958340424
30
0.000000000000000
11
-58.4382133995038
21
4.80138130774672
31
0.000000000000000
  0
LINE
  5
F104C5
330
F104C6
100
AcDbEntity
8
Geo
100
AcDbLine
10
-58.4382133995038
20
4.80138130774672
30
0.000000000000000
11
-58.3382133995038
21
4.75249116723125
31
0.000000000000000
  0
LINE
  5
F104C7
330
F104C8
100
AcDbEntity
8
Geo
100
AcDbLine
10
-58.3382133995038
20
4.75249116723125
30
0.000000000000000
11
-58.2382133995038
21
4.70404934712695
31
0.000000000000000
  0
LINE
  5
F104C9
330
F104CA
100
AcDbEntity
8
Geo
100
AcDbLine
10
-58.2382133995038
20
4.70404934712695
30
0.000000000000000
11
-58.1382133995038
21
4.65606593930445
31
0.000000000000000
  0
LINE
  5
F104CB
330
F104CC
100
AcDbEntity
8
Geo
100
AcDbLine
10
-58.1382133995038
20
4.65606593930445
30
0.000000000000000
11
-58.0382133995038
21
4.60855094013352
31
0.000000000000000
  0
LINE
  5
F104CD
330
F104CE
100
AcDbEntity
8
Geo
100
AcDbLine
10
-58.0382133995038
20
4.60855094013352
30
0.000000000000000
11
-57.9382133995038
21
4.56151424840044
31
0.000000000000000
  0
LINE
  5
F104CF
330
F104D0
100
AcDbEntity
8
Geo
100
AcDbLine
10
-57.9382133995038
20
4.56151424840044
30
0.000000000000000
11
-57.8382133995038
21
4.51496566324589
31
0.000000000000000
  0
LINE
  5
F104D1
330
F104D2
100
AcDbEntity
8
Geo
100
AcDbLine
10
-57.8382133995038
20
4.51496566324589
30
0.000000000000000
11
-57.7382133995038
21
4.46891488212339
31
0.000000000000000
  0
LINE
  5
F104D3
330
F104D4
100
AcDbEntity
8
Geo
100
AcDbLine
10
-57.7382133995038
20
4.46891488212339
30
0.000000000000000
11
-57.6382133995038
21
4.42337149877913
31
0.000000000000000
  0
LINE
  5
F104D5
330
F104D6
100
AcDbEntity
8
Geo
100
AcDbLine
10
-57.6382133995038
20
4.42337149877913
30
0.000000000000000
11
-57.5382133995038
21
4.37834500125324
31
0.000000000000000
  0
LINE
  5
F104D7
330
F104D8
100
AcDbEntity
8
Geo
100
AcDbLine
10
-57.5382133995038
20
4.37834500125324
30
0.000000000000000
11
-57.4382133995038
21
4.33384476990318
31
0.000000000000000
  0
LINE
  5
F104D9
330
F104DA
100
AcDbEntity
8
Geo
100
AcDbLine
10
-57.4382133995038
20
4.33384476990318
30
0.000000000000000
11
-57.3382133995038
21
4.28988007544955
31
0.000000000000000
  0
LINE
  5
F104DB
330
F104DC
100
AcDbEntity
8
Geo
100
AcDbLine
10
-57.3382133995038
20
4.28988007544955
30
0.000000000000000
11
-57.2382133995038
21
4.24646007704466
31
0.000000000000000
  0
LINE
  5
F104DD
330
F104DE
100
AcDbEntity
8
Geo
100
AcDbLine
10
-57.2382133995038
20
4.24646007704466
30
0.000000000000000
11
-57.1382133995038
21
4.20359382036447
31
0.000000000000000
  0
LINE
  5
F104DF
330
F104E0
100
AcDbEntity
8
Geo
100
AcDbLine
10
-57.1382133995038
20
4.20359382036447
30
0.000000000000000
11
-57.0382133995038
21
4.16129023572409
31
0.000000000000000
  0
LINE
  5
F104E1
330
F104E2
100
AcDbEntity
8
Geo
100
AcDbLine
10
-57.0382133995038
20
4.16129023572409
30
0.000000000000000
11
-56.9382133995038
21
4.11955813621730
31
0.000000000000000
  0
LINE
  5
F104E3
330
F104E4
100
AcDbEntity
8
Geo
100
AcDbLine
10
-56.9382133995038
20
4.11955813621730
30
0.000000000000000
11
-56.8382133995038
21
4.07840621588056
31
0.000000000000000
  0
LINE
  5
F104E5
330
F104E6
100
AcDbEntity
8
Geo
100
AcDbLine
10
-56.8382133995038
20
4.07840621588056
30
0.000000000000000
11
-56.7382133995038
21
4.03784304788177
31
0.000000000000000
  0
LINE
  5
F104E7
330
F104E8
100
AcDbEntity
8
Geo
100
AcDbLine
10
-56.7382133995038
20
4.03784304788177
30
0.000000000000000
11
-56.6382133995038
21
3.99787708273422
31
0.000000000000000
  0
LINE
  5
F104E9
330
F104EA
100
AcDbEntity
8
Geo
100
AcDbLine
10
-56.6382133995038
20
3.99787708273422
30
0.000000000000000
11
-56.5382133995038
21
3.95851664653610
31
0.000000000000000
  0
LINE
  5
F104EB
330
F104EC
100
AcDbEntity
8
Geo
100
AcDbLine
10
-56.5382133995038
20
3.95851664653610
30
0.000000000000000
11
-56.4382133995038
21
3.91976993923591
31
0.000000000000000
  0
LINE
  5
F104ED
330
F104EE
100
AcDbEntity
8
Geo
100
AcDbLine
10
-56.4382133995038
20
3.91976993923591
30
0.000000000000000
11
-56.3382133995038
21
3.88164503292420
31
0.000000000000000
  0
LINE
  5
F104EF
330
F104F0
100
AcDbEntity
8
Geo
100
AcDbLine
10
-56.3382133995038
20
3.88164503292420
30
0.000000000000000
11
-56.2382133995038
21
3.84414987015190
31
0.000000000000000
  0
LINE
  5
F104F1
330
F104F2
100
AcDbEntity
8
Geo
100
AcDbLine
10
-56.2382133995038
20
3.84414987015190
30
0.000000000000000
11
-56.1382133995038
21
3.80729226227563
31
0.000000000000000
  0
LINE
  5
F104F3
330
F104F4
100
AcDbEntity
8
Geo
100
AcDbLine
10
-56.1382133995038
20
3.80729226227563
30
0.000000000000000
11
-56.0382133995038
21
3.77107988783039
31
0.000000000000000
  0
LINE
  5
F104F5
330
F104F6
100
AcDbEntity
8
Geo
100
AcDbLine
10
-56.0382133995038
20
3.77107988783039
30
0.000000000000000
11
-55.9382133995038
21
3.73552029092988
31
0.000000000000000
  0
LINE
  5
F104F7
330
F104F8
100
AcDbEntity
8
Geo
100
AcDbLine
10
-55.9382133995038
20
3.73552029092988
30
0.000000000000000
11
-55.8382133995038
21
3.70062087969485
31
0.000000000000000
  0
LINE
  5
F104F9
330
F104FA
100
AcDbEntity
8
Geo
100
AcDbLine
10
-55.8382133995038
20
3.70062087969485
30
0.000000000000000
11
-55.7382133995038
21
3.66638892470974
31
0.000000000000000
  0
LINE
  5
F104FB
330
F104FC
100
AcDbEntity
8
Geo
100
AcDbLine
10
-55.7382133995038
20
3.66638892470974
30
0.000000000000000
11
-55.6382133995038
21
3.63283155750802
31
0.000000000000000
  0
LINE
  5
F104FD
330
F104FE
100
AcDbEntity
8
Geo
100
AcDbLine
10
-55.6382133995038
20
3.63283155750802
30
0.000000000000000
11
-55.5382133995038
21
3.59995576908649
31
0.000000000000000
  0
LINE
  5
F104FF
330
F10500
100
AcDbEntity
8
Geo
100
AcDbLine
10
-55.5382133995038
20
3.59995576908649
30
0.000000000000000
11
-55.4382133995038
21
3.56776840844883
31
0.000000000000000
  0
LINE
  5
F10501
330
F10502
100
AcDbEntity
8
Geo
100
AcDbLine
10
-55.4382133995038
20
3.56776840844883
30
0.000000000000000
11
-55.3382133995038
21
3.53627618117875
31
0.000000000000000
  0
LINE
  5
F10503
330
F10504
100
AcDbEntity
8
Geo
100
AcDbLine
10
-55.3382133995038
20
3.53627618117875
30
0.000000000000000
11
-55.2382133995038
21
3.50548564804304
31
0.000000000000000
  0
LINE
  5
F10505
330
F10506
100
AcDbEntity
8
Geo
100
AcDbLine
10
-55.2382133995038
20
3.50548564804304
30
0.000000000000000
11
-55.1382133995038
21
3.47540322362473
31
0.000000000000000
  0
LINE
  5
F10507
330
F10508
100
AcDbEntity
8
Geo
100
AcDbLine
10
-55.1382133995038
20
3.47540322362473
30
0.000000000000000
11
-55.0382133995038
21
3.44603517498677
31
0.000000000000000
  0
LINE
  5
F10509
330
F1050A
100
AcDbEntity
8
Geo
100
AcDbLine
10
-55.0382133995038
20
3.44603517498677
30
0.000000000000000
11
-54.9382133995038
21
3.41738762036640
31
0.000000000000000
  0
LINE
  5
F1050B
330
F1050C
100
AcDbEntity
8
Geo
100
AcDbLine
10
-54.9382133995038
20
3.41738762036640
30
0.000000000000000
11
-54.8382133995038
21
3.38946652790056
31
0.000000000000000
  0
LINE
  5
F1050D
330
F1050E
100
AcDbEntity
8
Geo
100
AcDbLine
10
-54.8382133995038
20
3.38946652790056
30
0.000000000000000
11
-54.7382133995038
21
3.36227771438253
31
0.000000000000000
  0
LINE
  5
F1050F
330
F10510
100
AcDbEntity
8
Geo
100
AcDbLine
10
-54.7382133995038
20
3.36227771438253
30
0.000000000000000
11
-54.6382133995038
21
3.33582684405011
31
0.000000000000000
  0
LINE
  5
F10511
330
F10512
100
AcDbEntity
8
Geo
100
AcDbLine
10
-54.6382133995038
20
3.33582684405011
30
0.000000000000000
11
-54.5382133995038
21
3.31011942740562
31
0.000000000000000
  0
LINE
  5
F10513
330
F10514
100
AcDbEntity
8
Geo
100
AcDbLine
10
-54.5382133995038
20
3.31011942740562
30
0.000000000000000
11
-54.4382133995038
21
3.28516082006789
31
0.000000000000000
  0
LINE
  5
F10515
330
F10516
100
AcDbEntity
8
Geo
100
AcDbLine
10
-54.4382133995038
20
3.28516082006789
30
0.000000000000000
11
-54.3382133995038
21
3.26095622165649
31
0.000000000000000
  0
LINE
  5
F10517
330
F10518
100
AcDbEntity
8
Geo
100
AcDbLine
10
-54.3382133995038
20
3.26095622165649
30
0.000000000000000
11
-54.2382133995038
21
3.23751067470856
31
0.000000000000000
  0
LINE
  5
F10519
330
F1051A
100
AcDbEntity
8
Geo
100
AcDbLine
10
-54.2382133995038
20
3.23751067470856
30
0.000000000000000
11
-54.1382133995038
21
3.21482906362825
31
0.000000000000000
  0
LINE
  5
F1051B
330
F1051C
100
AcDbEntity
8
Geo
100
AcDbLine
10
-54.1382133995038
20
3.21482906362825
30
0.000000000000000
11
-54.0382133995038
21
3.19291611366916
31
0.000000000000000
  0
LINE
  5
F1051D
330
F1051E
100
AcDbEntity
8
Geo
100
AcDbLine
10
-54.0382133995038
20
3.19291611366916
30
0.000000000000000
11
-53.9382133995038
21
3.17177638994993
31
0.000000000000000
  0
LINE
  5
F1051F
330
F10520
100
AcDbEntity
8
Geo
100
AcDbLine
10
-53.9382133995038
20
3.17177638994993
30
0.000000000000000
11
-53.8382133995038
21
3.15141429650323
31
0.000000000000000
  0
LINE
  5
F10521
330
F10522
100
AcDbEntity
8
Geo
100
AcDbLine
10
-53.8382133995038
20
3.15141429650323
30
0.000000000000000
11
-53.7382133995038
21
3.13183407535820
31
0.000000000000000
  0
LINE
  5
F10523
330
F10524
100
AcDbEntity
8
Geo
100
AcDbLine
10
-53.7382133995038
20
3.13183407535820
30
0.000000000000000
11
-53.6382133995038
21
3.11303980565676
31
0.000000000000000
  0
LINE
  5
F10525
330
F10526
100
AcDbEntity
8
Geo
100
AcDbLine
10
-53.6382133995038
20
3.11303980565676
30
0.000000000000000
11
-53.5382133995038
21
3.09503540280379
31
0.000000000000000
  0
LINE
  5
F10527
330
F10528
100
AcDbEntity
8
Geo
100
AcDbLine
10
-53.5382133995038
20
3.09503540280379
30
0.000000000000000
11
-53.4382133995038
21
3.07782461765144
31
0.000000000000000
  0
LINE
  5
F10529
330
F1052A
100
AcDbEntity
8
Geo
100
AcDbLine
10
-53.4382133995038
20
3.07782461765144
30
0.000000000000000
11
-53.3382133995038
21
3.06141103571768
31
0.000000000000000
  0
LINE
  5
F1052B
330
F1052C
100
AcDbEntity
8
Geo
100
AcDbLine
10
-53.3382133995038
20
3.06141103571768
30
0.000000000000000
11
-53.2382133995038
21
3.04579807643941
31
0.000000000000000
  0
LINE
  5
F1052D
330
F1052E
100
AcDbEntity
8
Geo
100
AcDbLine
10
-53.2382133995038
20
3.04579807643941
30
0.000000000000000
11
-53.1382133995038
21
3.03098899245998
31
0.000000000000000
  0
LINE
  5
F1052F
330
F10530
100
AcDbEntity
8
Geo
100
AcDbLine
10
-53.1382133995038
20
3.03098899245998
30
0.000000000000000
11
-53.0382133995038
21
3.01698686895168
31
0.000000000000000
  0
LINE
  5
F10531
330
F10532
100
AcDbEntity
8
Geo
100
AcDbLine
10
-53.0382133995038
20
3.01698686895168
30
0.000000000000000
11
-52.9382133995038
21
3.00379462297291
31
0.000000000000000
  0
LINE
  5
F10533
330
F10534
100
AcDbEntity
8
Geo
100
AcDbLine
10
-52.9382133995038
20
3.00379462297291
30
0.000000000000000
11
-52.8382133995038
21
2.99141500286055
31
0.000000000000000
  0
LINE
  5
F10535
330
F10536
100
AcDbEntity
8
Geo
100
AcDbLine
10
-52.8382133995038
20
2.99141500286055
30
0.000000000000000
11
-52.7382133995037
21
2.97985058765734
31
0.000000000000000
  0
LINE
  5
F10537
330
F10538
100
AcDbEntity
8
Geo
100
AcDbLine
10
-52.7382133995037
20
2.97985058765734
30
0.000000000000000
11
-52.6382133995037
21
2.96910378657463
31
0.000000000000000
  0
LINE
  5
F10539
330
F1053A
100
AcDbEntity
8
Geo
100
AcDbLine
10
-52.6382133995037
20
2.96910378657463
30
0.000000000000000
11
-52.5382133995037
21
2.95917683849043
31
0.000000000000000
  0
LINE
  5
F1053B
330
F1053C
100
AcDbEntity
8
Geo
100
AcDbLine
10
-52.5382133995037
20
2.95917683849043
30
0.000000000000000
11
-52.4382133995037
21
2.95007181148302
31
0.000000000000000
  0
LINE
  5
F1053D
330
F1053E
100
AcDbEntity
8
Geo
100
AcDbLine
10
-52.4382133995037
20
2.95007181148302
30
0.000000000000000
11
-52.3382133995037
21
2.94179060240010
31
0.000000000000000
  0
LINE
  5
F1053F
330
F10540
100
AcDbEntity
8
Geo
100
AcDbLine
10
-52.3382133995037
20
2.94179060240010
30
0.000000000000000
11
-52.2382133995037
21
2.93433493646362
31
0.000000000000000
  0
LINE
  5
F10541
330
F10542
100
AcDbEntity
8
Geo
100
AcDbLine
10
-52.2382133995037
20
2.93433493646362
30
0.000000000000000
11
-52.1382133995037
21
2.92770636691033
31
0.000000000000000
  0
LINE
  5
F10543
330
F10544
100
AcDbEntity
8
Geo
100
AcDbLine
10
-52.1382133995037
20
2.92770636691033
30
0.000000000000000
11
-52.0382133995037
21
2.92190627466826
31
0.000000000000000
  0
LINE
  5
F10545
330
F10546
100
AcDbEntity
8
Geo
100
AcDbLine
10
-52.0382133995037
20
2.92190627466826
30
0.000000000000000
11
-51.9382133995037
21
2.91693586806897
31
0.000000000000000
  0
LINE
  5
F10547
330
F10548
100
AcDbEntity
8
Geo
100
AcDbLine
10
-51.9382133995037
20
2.91693586806897
30
0.000000000000000
11
-51.8382133995037
21
2.91279618259588
31
0.000000000000000
  0
LINE
  5
F10549
330
F1054A
100
AcDbEntity
8
Geo
100
AcDbLine
10
-51.8382133995037
20
2.91279618259588
30
0.000000000000000
11
-51.7382133995037
21
2.90948808066846
31
0.000000000000000
  0
LINE
  5
F1054B
330
F1054C
100
AcDbEntity
8
Geo
100
AcDbLine
10
-51.7382133995037
20
2.90948808066846
30
0.000000000000000
11
-51.6382133995037
21
2.90701225146267
31
0.000000000000000
  0
LINE
  5
F1054D
330
F1054E
100
AcDbEntity
8
Geo
100
AcDbLine
10
-51.6382133995037
20
2.90701225146267
30
0.000000000000000
11
-51.5382133995037
21
2.90536921076730
31
0.000000000000000
  0
LINE
  5
F1054F
330
F10550
100
AcDbEntity
8
Geo
100
AcDbLine
10
-51.5382133995037
20
2.90536921076730
30
0.000000000000000
11
-51.4382133995037
21
2.90455930087656
31
0.000000000000000
  0
LINE
  5
F10551
330
F10552
100
AcDbEntity
8
Geo
100
AcDbLine
10
-29.7382133995037
20
10.9039665012407
30
0.000000000000000
11
-29.6382133995037
21
10.9027695230986
31
0.000000000000000
  0
LINE
  5
F10553
330
F10554
100
AcDbEntity
8
Geo
100
AcDbLine
10
-29.6382133995037
20
10.9027695230986
30
0.000000000000000
11
-29.5382133995037
21
10.8929763726149
31
0.000000000000000
  0
LINE
  5
F10555
330
F10556
100
AcDbEntity
8
Geo
100
AcDbLine
10
-29.5382133995037
20
10.8929763726149
30
0.000000000000000
11
-29.4382133995037
21
10.8687652015687
31
0.000000000000000
  0
LINE
  5
F10557
330
F10558
100
AcDbEntity
8
Geo
100
AcDbLine
10
-29.4382133995037
20
10.8687652015687
30
0.000000000000000
11
-29.3382133995037
21
10.8239764341346
31
0.000000000000000
  0
LINE
  5
F10559
330
F1055A
100
AcDbEntity
8
Geo
100
AcDbLine
10
-29.3382133995037
20
10.8239764341346
30
0.000000000000000
11
-29.2382133995037
21
10.7516862708246
31
0.000000000000000
  0
LINE
  5
F1055B
330
F1055C
100
AcDbEntity
8
Geo
100
AcDbLine
10
-29.2382133995037
20
10.7516862708246
30
0.000000000000000
11
-29.1382133995037
21
10.6443714075369
31
0.000000000000000
  0
LINE
  5
F1055D
330
F1055E
100
AcDbEntity
8
Geo
100
AcDbLine
10
-29.1382133995037
20
10.6443714075369
30
0.000000000000000
11
-29.0382133995037
21
10.4941518769669
31
0.000000000000000
  0
LINE
  5
F1055F
330
F10560
100
AcDbEntity
8
Geo
100
AcDbLine
10
-29.0382133995037
20
10.4941518769669
30
0.000000000000000
11
-28.9382133995037
21
10.2931283230088
31
0.000000000000000
  0
LINE
  5
F10561
330
F10562
100
AcDbEntity
8
Geo
100
AcDbLine
10
-28.9382133995037
20
10.2931283230088
30
0.000000000000000
11
-28.8382133995037
21
10.0338275403519
31
0.000000000000000
  0
LINE
  5
F10563
330
F10564
100
AcDbEntity
8
Geo
100
AcDbLine
10
-28.8382133995037
20
10.0338275403519
30
0.000000000000000
11
-28.7382133995037
21
9.70976506148970
31
0.000000000000000
  0
LINE
  5
F10565
330
F10566
100
AcDbEntity
8
Geo
100
AcDbLine
10
-28.7382133995037
20
9.70976506148970
30
0.000000000000000
11
-28.6382133995037
21
9.31612530784393
31
0.000000000000000
  0
LINE
  5
F10567
330
F10568
100
AcDbEntity
8
Geo
100
AcDbLine
10
-28.6382133995037
20
9.31612530784393
30
0.000000000000000
11
-28.5382133995037
21
8.85054778492832
31
0.000000000000000
  0
LINE
  5
F10569
330
F1056A
100
AcDbEntity
8
Geo
100
AcDbLine
10
-28.5382133995037
20
8.85054778492832
30
0.000000000000000
11
-28.4382133995037
21
8.31399166283104
31
0.000000000000000
  0
LINE
  5
F1056B
330
F1056C
100
AcDbEntity
8
Geo
100
AcDbLine
10
-28.4382133995037
20
8.31399166283104
30
0.000000000000000
11
-28.3382133995037
21
7.71163091625590
31
0.000000000000000
  0
LINE
  5
F1056D
330
F1056E
100
AcDbEntity
8
Geo
100
AcDbLine
10
-28.3382133995037
20
7.71163091625590
30
0.000000000000000
11
-28.2382133995037
21
7.05370869461494
31
0.000000000000000
  0
LINE
  5
F1056F
330
F10570
100
AcDbEntity
8
Geo
100
AcDbLine
10
-28.2382133995037
20
7.05370869461494
30
0.000000000000000
11
-28.1382133995037
21
6.35625429346268
31
0.000000000000000
  0
LINE
  5
F10571
330
F10572
100
AcDbEntity
8
Geo
100
AcDbLine
10
-28.1382133995037
20
6.35625429346268
30
0.000000000000000
11
-28.0382133995037
21
5.64154161013794
31
0.000000000000000
  0
LINE
  5
F10573
330
F10574
100
AcDbEntity
8
Geo
100
AcDbLine
10
-28.0382133995037
20
5.64154161013794
30
0.000000000000000
11
-27.9382133995037
21
4.93814810849287
31
0.000000000000000
  0
LINE
  5
F10575
330
F10576
100
AcDbEntity
8
Geo
100
AcDbLine
10
-27.9382133995037
20
4.93814810849287
30
0.000000000000000
11
-27.8382133995037
21
4.28046313502139
31
0.000000000000000
  0
LINE
  5
F10577
330
F10578
100
AcDbEntity
8
Geo
100
AcDbLine
10
-27.8382133995037
20
4.28046313502139
30
0.000000000000000
11
-27.7382133995037
21
3.70710031166013
31
0.000000000000000
  0
LINE
  5
F10579
330
F1057A
100
AcDbEntity
8
Geo
100
AcDbLine
10
-49.0382133995037
20
10.9042872376168
30
0.000000000000000
11
-48.9382133995037
21
10.9044171728027
31
0.000000000000000
  0
LINE
  5
F1057B
330
F1057C
100
AcDbEntity
8
Geo
100
AcDbLine
10
-48.9382133995037
20
10.9044171728027
30
0.000000000000000
11
-48.8382133995037
21
10.9037137993992
31
0.000000000000000
  0
LINE
  5
F1057D
330
F1057E
100
AcDbEntity
8
Geo
100
AcDbLine
10
-48.8382133995037
20
10.9037137993992
30
0.000000000000000
11
-48.7382133995037
21
10.9021772639401
31
0.000000000000000
  0
LINE
  5
F1057F
330
F10580
100
AcDbEntity
8
Geo
100
AcDbLine
10
-48.7382133995037
20
10.9021772639401
30
0.000000000000000
11
-48.6382133995037
21
10.8998078865313
31
0.000000000000000
  0
LINE
  5
F10581
330
F10582
100
AcDbEntity
8
Geo
100
AcDbLine
10
-48.6382133995037
20
10.8998078865313
30
0.000000000000000
11
-48.5382133995037
21
10.8966061607845
31
0.000000000000000
  0
LINE
  5
F10583
330
F10584
100
AcDbEntity
8
Geo
100
AcDbLine
10
-48.5382133995037
20
10.8966061607845
30
0.000000000000000
11
-48.4382133995037
21
10.8925727537144
31
0.000000000000000
  0
LINE
  5
F10585
330
F10586
100
AcDbEntity
8
Geo
100
AcDbLine
10
-48.4382133995037
20
10.8925727537144
30
0.000000000000000
11
-48.3382133995037
21
10.8877085055995
31
0.000000000000000
  0
LINE
  5
F10587
330
F10588
100
AcDbEntity
8
Geo
100
AcDbLine
10
-48.3382133995037
20
10.8877085055995
30
0.000000000000000
11
-48.2382133995037
21
10.8820144298072
31
0.000000000000000
  0
LINE
  5
F10589
330
F1058A
100
AcDbEntity
8
Geo
100
AcDbLine
10
-48.2382133995037
20
10.8820144298072
30
0.000000000000000
11
-48.1382133995037
21
10.8754917125828
31
0.000000000000000
  0
LINE
  5
F1058B
330
F1058C
100
AcDbEntity
8
Geo
100
AcDbLine
10
-48.1382133995037
20
10.8754917125828
30
0.000000000000000
11
-48.0382133995037
21
10.8681417128020
31
0.000000000000000
  0
LINE
  5
F1058D
330
F1058E
100
AcDbEntity
8
Geo
100
AcDbLine
10
-48.0382133995037
20
10.8681417128020
30
0.000000000000000
11
-47.9382133995037
21
10.8599659616883
31
0.000000000000000
  0
LINE
  5
F1058F
330
F10590
100
AcDbEntity
8
Geo
100
AcDbLine
10
-47.9382133995037
20
10.8599659616883
30
0.000000000000000
11
-47.8382133995037
21
10.8509661624935
31
0.000000000000000
  0
LINE
  5
F10591
330
F10592
100
AcDbEntity
8
Geo
100
AcDbLine
10
-47.8382133995037
20
10.8509661624935
30
0.000000000000000
11
-47.7382133995037
21
10.8411441901433
31
0.000000000000000
  0
LINE
  5
F10593
330
F10594
100
AcDbEntity
8
Geo
100
AcDbLine
10
-47.7382133995037
20
10.8411441901433
30
0.000000000000000
11
-47.6382133995037
21
10.8305020908464
31
0.000000000000000
  0
LINE
  5
F10595
330
F10596
100
AcDbEntity
8
Geo
100
AcDbLine
10
-47.6382133995037
20
10.8305020908464
30
0.000000000000000
11
-47.5382133995037
21
10.8190420816682
31
0.000000000000000
  0
LINE
  5
F10597
330
F10598
100
AcDbEntity
8
Geo
100
AcDbLine
10
-47.5382133995037
20
10.8190420816682
30
0.000000000000000
11
-47.4382133995037
21
10.8067665500693
31
0.000000000000000
  0
LINE
  5
F10599
330
F1059A
100
AcDbEntity
8
Geo
100
AcDbLine
10
-47.4382133995037
20
10.8067665500693
30
0.000000000000000
11
-47.3382133995037
21
10.7936780534077
31
0.000000000000000
  0
LINE
  5
F1059B
330
F1059C
100
AcDbEntity
8
Geo
100
AcDbLine
10
-47.3382133995037
20
10.7936780534077
30
0.000000000000000
11
-47.2382133995037
21
10.7797793184062
31
0.000000000000000
  0
LINE
  5
F1059D
330
F1059E
100
AcDbEntity
8
Geo
100
AcDbLine
10
-47.2382133995037
20
10.7797793184062
30
0.000000000000000
11
-47.1382133995037
21
10.7650732405843
31
0.000000000000000
  0
LINE
  5
F1059F
330
F105A0
100
AcDbEntity
8
Geo
100
AcDbLine
10
-47.1382133995037
20
10.7650732405843
30
0.000000000000000
11
-47.0382133995037
21
10.7495628836550
31
0.000000000000000
  0
LINE
  5
F105A1
330
F105A2
100
AcDbEntity
8
Geo
100
AcDbLine
10
-47.0382133995037
20
10.7495628836550
30
0.000000000000000
11
-46.9382133995037
21
10.7332514788867
31
0.000000000000000
  0
LINE
  5
F105A3
330
F105A4
100
AcDbEntity
8
Geo
100
AcDbLine
10
-46.9382133995037
20
10.7332514788867
30
0.000000000000000
11
-46.8382133995037
21
10.7161424244295
31
0.000000000000000
  0
LINE
  5
F105A5
330
F105A6
100
AcDbEntity
8
Geo
100
AcDbLine
10
-46.8382133995037
20
10.7161424244295
30
0.000000000000000
11
-46.7382133995037
21
10.6982392846080
31
0.000000000000000
  0
LINE
  5
F105A7
330
F105A8
100
AcDbEntity
8
Geo
100
AcDbLine
10
-46.7382133995037
20
10.6982392846080
30
0.000000000000000
11
-46.6382133995037
21
10.6795457891782
31
0.000000000000000
  0
LINE
  5
F105A9
330
F105AA
100
AcDbEntity
8
Geo
100
AcDbLine
10
-46.6382133995037
20
10.6795457891782
30
0.000000000000000
11
-46.5382133995037
21
10.6600658325508
31
0.000000000000000
  0
LINE
  5
F105AB
330
F105AC
100
AcDbEntity
8
Geo
100
AcDbLine
10
-46.5382133995037
20
10.6600658325508
30
0.000000000000000
11
-46.4382133995037
21
10.6398034729796
31
0.000000000000000
  0
LINE
  5
F105AD
330
F105AE
100
AcDbEntity
8
Geo
100
AcDbLine
10
-46.4382133995037
20
10.6398034729796
30
0.000000000000000
11
-46.3382133995037
21
10.6187629317161
31
0.000000000000000
  0
LINE
  5
F105AF
330
F105B0
100
AcDbEntity
8
Geo
100
AcDbLine
10
-46.3382133995037
20
10.6187629317161
30
0.000000000000000
11
-46.2382133995037
21
10.5969485921304
31
0.000000000000000
  0
LINE
  5
F105B1
330
F105B2
100
AcDbEntity
8
Geo
100
AcDbLine
10
-46.2382133995037
20
10.5969485921304
30
0.000000000000000
11
-46.1382133995037
21
10.5743649987977
31
0.000000000000000
  0
LINE
  5
F105B3
330
F105B4
100
AcDbEntity
8
Geo
100
AcDbLine
10
-46.1382133995037
20
10.5743649987977
30
0.000000000000000
11
-46.0382133995037
21
10.5510168565516
31
0.000000000000000
  0
LINE
  5
F105B5
330
F105B6
100
AcDbEntity
8
Geo
100
AcDbLine
10
-46.0382133995037
20
10.5510168565516
30
0.000000000000000
11
-45.9382133995037
21
10.5269090295038
31
0.000000000000000
  0
LINE
  5
F105B7
330
F105B8
100
AcDbEntity
8
Geo
100
AcDbLine
10
-45.9382133995037
20
10.5269090295038
30
0.000000000000000
11
-45.8382133995037
21
10.5020465400313
31
0.000000000000000
  0
LINE
  5
F105B9
330
F105BA
100
AcDbEntity
8
Geo
100
AcDbLine
10
-45.8382133995037
20
10.5020465400313
30
0.000000000000000
11
-45.7382133995037
21
10.4764345677294
31
0.000000000000000
  0
LINE
  5
F105BB
330
F105BC
100
AcDbEntity
8
Geo
100
AcDbLine
10
-45.7382133995037
20
10.4764345677294
30
0.000000000000000
11
-45.6382133995036
21
10.4500784483329
31
0.000000000000000
  0
LINE
  5
F105BD
330
F105BE
100
AcDbEntity
8
Geo
100
AcDbLine
10
-45.6382133995036
20
10.4500784483329
30
0.000000000000000
11
-45.5382133995036
21
10.4229836726049
31
0.000000000000000
  0
LINE
  5
F105BF
330
F105C0
100
AcDbEntity
8
Geo
100
AcDbLine
10
-45.5382133995036
20
10.4229836726049
30
0.000000000000000
11
-45.4382133995036
21
10.3951558851921
31
0.000000000000000
  0
LINE
  5
F105C1
330
F105C2
100
AcDbEntity
8
Geo
100
AcDbLine
10
-45.4382133995036
20
10.3951558851921
30
0.000000000000000
11
-45.3382133995036
21
10.3666008834498
31
0.000000000000000
  0
LINE
  5
F105C3
330
F105C4
100
AcDbEntity
8
Geo
100
AcDbLine
10
-45.3382133995036
20
10.3666008834498
30
0.000000000000000
11
-45.2382133995036
21
10.3373246162332
31
0.000000000000000
  0
LINE
  5
F105C5
330
F105C6
100
AcDbEntity
8
Geo
100
AcDbLine
10
-45.2382133995036
20
10.3373246162332
30
0.000000000000000
11
-45.1382133995036
21
10.3073331826590
31
0.000000000000000
  0
LINE
  5
F105C7
330
F105C8
100
AcDbEntity
8
Geo
100
AcDbLine
10
-45.1382133995036
20
10.3073331826590
30
0.000000000000000
11
-45.0382133995036
21
10.2766328308338
31
0.000000000000000
  0
LINE
  5
F105C9
330
F105CA
100
AcDbEntity
8
Geo
100
AcDbLine
10
-45.0382133995036
20
10.2766328308338
30
0.000000000000000
11
-44.9382133995036
21
10.2452299565533
31
0.000000000000000
  0
LINE
  5
F105CB
330
F105CC
100
AcDbEntity
8
Geo
100
AcDbLine
10
-44.9382133995036
20
10.2452299565533
30
0.000000000000000
11
-44.8382133995036
21
10.2131311019694
31
0.000000000000000
  0
LINE
  5
F105CD
330
F105CE
100
AcDbEntity
8
Geo
100
AcDbLine
10
-44.8382133995036
20
10.2131311019694
30
0.000000000000000
11
-44.7382133995036
21
10.1803429542274
31
0.000000000000000
  0
LINE
  5
F105CF
330
F105D0
100
AcDbEntity
8
Geo
100
AcDbLine
10
-44.7382133995036
20
10.1803429542274
30
0.000000000000000
11
-44.6382133995036
21
10.1468723440728
31
0.000000000000000
  0
LINE
  5
F105D1
330
F105D2
100
AcDbEntity
8
Geo
100
AcDbLine
10
-44.6382133995036
20
10.1468723440728
30
0.000000000000000
11
-44.5382133995036
21
10.1127262444283
31
0.000000000000000
  0
LINE
  5
F105D3
330
F105D4
100
AcDbEntity
8
Geo
100
AcDbLine
10
-44.5382133995036
20
10.1127262444283
30
0.000000000000000
11
-44.4382133995036
21
10.0779117689411
31
0.000000000000000
  0
LINE
  5
F105D5
330
F105D6
100
AcDbEntity
8
Geo
100
AcDbLine
10
-44.4382133995036
20
10.0779117689411
30
0.000000000000000
11
-44.3382133995036
21
10.0424361705012
31
0.000000000000000
  0
LINE
  5
F105D7
330
F105D8
100
AcDbEntity
8
Geo
100
AcDbLine
10
-44.3382133995036
20
10.0424361705012
30
0.000000000000000
11
-44.2382133995036
21
10.0063068397297
31
0.000000000000000
  0
LINE
  5
F105D9
330
F105DA
100
AcDbEntity
8
Geo
100
AcDbLine
10
-44.2382133995036
20
10.0063068397297
30
0.000000000000000
11
-44.1382133995036
21
9.96953130344010
31
0.000000000000000
  0
LINE
  5
F105DB
330
F105DC
100
AcDbEntity
8
Geo
100
AcDbLine
10
-44.1382133995036
20
9.96953130344010
30
0.000000000000000
11
-44.0382133995036
21
9.93211722306928
31
0.000000000000000
  0
LINE
  5
F105DD
330
F105DE
100
AcDbEntity
8
Geo
100
AcDbLine
10
-44.0382133995036
20
9.93211722306928
30
0.000000000000000
11
-43.9382133995036
21
9.89407239308204
31
0.000000000000000
  0
LINE
  5
F105DF
330
F105E0
100
AcDbEntity
8
Geo
100
AcDbLine
10
-43.9382133995036
20
9.89407239308204
30
0.000000000000000
11
-43.8382133995036
21
9.85540473934703
31
0.000000000000000
  0
LINE
  5
F105E1
330
F105E2
100
AcDbEntity
8
Geo
100
AcDbLine
10
-43.8382133995036
20
9.85540473934703
30
0.000000000000000
11
-43.7382133995036
21
9.81612231748558
31
0.000000000000000
  0
LINE
  5
F105E3
330
F105E4
100
AcDbEntity
8
Geo
100
AcDbLine
10
-43.7382133995036
20
9.81612231748558
30
0.000000000000000
11
-43.6382133995036
21
9.77623331119350
31
0.000000000000000
  0
LINE
  5
F105E5
330
F105E6
100
AcDbEntity
8
Geo
100
AcDbLine
10
-43.6382133995036
20
9.77623331119350
30
0.000000000000000
11
-43.5382133995036
21
9.73574603053617
31
0.000000000000000
  0
LINE
  5
F105E7
330
F105E8
100
AcDbEntity
8
Geo
100
AcDbLine
10
-43.5382133995036
20
9.73574603053617
30
0.000000000000000
11
-43.4382133995036
21
9.69466891021727
31
0.000000000000000
  0
LINE
  5
F105E9
330
F105EA
100
AcDbEntity
8
Geo
100
AcDbLine
10
-43.4382133995036
20
9.69466891021727
30
0.000000000000000
11
-43.3382133995036
21
9.65301050782165
31
0.000000000000000
  0
LINE
  5
F105EB
330
F105EC
100
AcDbEntity
8
Geo
100
AcDbLine
10
-43.3382133995036
20
9.65301050782165
30
0.000000000000000
11
-43.2382133995036
21
9.61077950203246
31
0.000000000000000
  0
LINE
  5
F105ED
330
F105EE
100
AcDbEntity
8
Geo
100
AcDbLine
10
-43.2382133995036
20
9.61077950203246
30
0.000000000000000
11
-43.1382133995036
21
9.56798469082316
31
0.000000000000000
  0
LINE
  5
F105EF
330
F105F0
100
AcDbEntity
8
Geo
100
AcDbLine
10
-43.1382133995036
20
9.56798469082316
30
0.000000000000000
11
-43.0382133995036
21
9.52463498962464
31
0.000000000000000
  0
LINE
  5
F105F1
330
F105F2
100
AcDbEntity
8
Geo
100
AcDbLine
10
-43.0382133995036
20
9.52463498962464
30
0.000000000000000
11
-42.9382133995036
21
9.48073942946785
31
0.000000000000000
  0
LINE
  5
F105F3
330
F105F4
100
AcDbEntity
8
Geo
100
AcDbLine
10
-42.9382133995036
20
9.48073942946785
30
0.000000000000000
11
-42.8382133995036
21
9.43630715510240
31
0.000000000000000
  0
LINE
  5
F105F5
330
F105F6
100
AcDbEntity
8
Geo
100
AcDbLine
10
-42.8382133995036
20
9.43630715510240
30
0.000000000000000
11
-42.7382133995036
21
9.39134742309141
31
0.000000000000000
  0
LINE
  5
F105F7
330
F105F8
100
AcDbEntity
8
Geo
100
AcDbLine
10
-42.7382133995036
20
9.39134742309141
30
0.000000000000000
11
-42.6382133995036
21
9.34586959988311
31
0.000000000000000
  0
LINE
  5
F105F9
330
F105FA
100
AcDbEntity
8
Geo
100
AcDbLine
10
-42.6382133995036
20
9.34586959988311
30
0.000000000000000
11
-42.5382133995036
21
9.29988315985949
31
0.000000000000000
  0
LINE
  5
F105FB
330
F105FC
100
AcDbEntity
8
Geo
100
AcDbLine
10
-42.5382133995036
20
9.29988315985949
30
0.000000000000000
11
-42.4382133995036
21
9.25339768336258
31
0.000000000000000
  0
LINE
  5
F105FD
330
F105FE
100
AcDbEntity
8
Geo
100
AcDbLine
10
-42.4382133995036
20
9.25339768336258
30
0.000000000000000
11
-42.3382133995036
21
9.20642285469852
31
0.000000000000000
  0
LINE
  5
F105FF
330
F10600
100
AcDbEntity
8
Geo
100
AcDbLine
10
-42.3382133995036
20
9.20642285469852
30
0.000000000000000
11
-42.2382133995036
21
9.15896846012003
31
0.000000000000000
  0
LINE
  5
F10601
330
F10602
100
AcDbEntity
8
Geo
100
AcDbLine
10
-42.2382133995036
20
9.15896846012003
30
0.000000000000000
11
-42.1382133995036
21
9.11104438578769
31
0.000000000000000
  0
LINE
  5
F10603
330
F10604
100
AcDbEntity
8
Geo
100
AcDbLine
10
-42.1382133995036
20
9.11104438578769
30
0.000000000000000
11
-42.0382133995036
21
9.06266061571032
31
0.000000000000000
  0
LINE
  5
F10605
330
F10606
100
AcDbEntity
8
Geo
100
AcDbLine
10
-42.0382133995036
20
9.06266061571032
30
0.000000000000000
11
-41.9382133995036
21
9.01382722966501
31
0.000000000000000
  0
LINE
  5
F10607
330
F10608
100
AcDbEntity
8
Geo
100
AcDbLine
10
-41.9382133995036
20
9.01382722966501
30
0.000000000000000
11
-41.8382133995036
21
8.96455440109724
31
0.000000000000000
  0
LINE
  5
F10609
330
F1060A
100
AcDbEntity
8
Geo
100
AcDbLine
10
-41.8382133995036
20
8.96455440109724
30
0.000000000000000
11
-41.7382133995036
21
8.91485239500141
31
0.000000000000000
  0
LINE
  5
F1060B
330
F1060C
100
AcDbEntity
8
Geo
100
AcDbLine
10
-41.7382133995036
20
8.91485239500141
30
0.000000000000000
11
-41.6382133995036
21
8.86473156578236
31
0.000000000000000
  0
LINE
  5
F1060D
330
F1060E
100
AcDbEntity
8
Geo
100
AcDbLine
10
-41.6382133995036
20
8.86473156578236
30
0.000000000000000
11
-41.5382133995036
21
8.81420235509822
31
0.000000000000000
  0
LINE
  5
F1060F
330
F10610
100
AcDbEntity
8
Geo
100
AcDbLine
10
-41.5382133995036
20
8.81420235509822
30
0.000000000000000
11
-41.4382133995036
21
8.76327528968513
31
0.000000000000000
  0
LINE
  5
F10611
330
F10612
100
AcDbEntity
8
Geo
100
AcDbLine
10
-41.4382133995036
20
8.76327528968513
30
0.000000000000000
11
-41.3382133995036
21
8.71196097916419
31
0.000000000000000
  0
LINE
  5
F10613
330
F10614
100
AcDbEntity
8
Geo
100
AcDbLine
10
-41.3382133995036
20
8.71196097916419
30
0.000000000000000
11
-41.2382133995036
21
8.66027011383117
31
0.000000000000000
  0
LINE
  5
F10615
330
F10616
100
AcDbEntity
8
Geo
100
AcDbLine
10
-41.2382133995036
20
8.66027011383117
30
0.000000000000000
11
-41.1382133995036
21
8.60821346242937
31
0.000000000000000
  0
LINE
  5
F10617
330
F10618
100
AcDbEntity
8
Geo
100
AcDbLine
10
-41.1382133995036
20
8.60821346242937
30
0.000000000000000
11
-41.0382133995036
21
8.55580186990623
31
0.000000000000000
  0
LINE
  5
F10619
330
F1061A
100
AcDbEntity
8
Geo
100
AcDbLine
10
-41.0382133995036
20
8.55580186990623
30
0.000000000000000
11
-40.9382133995036
21
8.50304625515395
31
0.000000000000000
  0
LINE
  5
F1061B
330
F1061C
100
AcDbEntity
8
Geo
100
AcDbLine
10
-40.9382133995036
20
8.50304625515395
30
0.000000000000000
11
-40.8382133995036
21
8.44995760873481
31
0.000000000000000
  0
LINE
  5
F1061D
330
F1061E
100
AcDbEntity
8
Geo
100
AcDbLine
10
-40.8382133995036
20
8.44995760873481
30
0.000000000000000
11
-40.7382133995036
21
8.39654699059144
31
0.000000000000000
  0
LINE
  5
F1061F
330
F10620
100
AcDbEntity
8
Geo
100
AcDbLine
10
-40.7382133995036
20
8.39654699059144
30
0.000000000000000
11
-40.6382133995036
21
8.34282552774279
31
0.000000000000000
  0
LINE
  5
F10621
330
F10622
100
AcDbEntity
8
Geo
100
AcDbLine
10
-40.6382133995036
20
8.34282552774279
30
0.000000000000000
11
-40.5382133995036
21
8.28880441196599
31
0.000000000000000
  0
LINE
  5
F10623
330
F10624
100
AcDbEntity
8
Geo
100
AcDbLine
10
-40.5382133995036
20
8.28880441196599
30
0.000000000000000
11
-40.4382133995036
21
8.23449489746475
31
0.000000000000000
  0
LINE
  5
F10625
330
F10626
100
AcDbEntity
8
Geo
100
AcDbLine
10
-40.4382133995036
20
8.23449489746475
30
0.000000000000000
11
-40.3382133995036
21
8.17990829852485
31
0.000000000000000
  0
LINE
  5
F10627
330
F10628
100
AcDbEntity
8
Geo
100
AcDbLine
10
-40.3382133995036
20
8.17990829852485
30
0.000000000000000
11
-40.2382133995036
21
8.12505598715696
31
0.000000000000000
  0
LINE
  5
F10629
330
F1062A
100
AcDbEntity
8
Geo
100
AcDbLine
10
-40.2382133995036
20
8.12505598715696
30
0.000000000000000
11
-40.1382133995036
21
8.06994939072755
31
0.000000000000000
  0
LINE
  5
F1062B
330
F1062C
100
AcDbEntity
8
Geo
100
AcDbLine
10
-40.1382133995036
20
8.06994939072755
30
0.000000000000000
11
-40.0382133995036
21
8.01459998957823
31
0.000000000000000
  0
LINE
  5
F1062D
330
F1062E
100
AcDbEntity
8
Geo
100
AcDbLine
10
-40.0382133995036
20
8.01459998957823
30
0.000000000000000
11
-39.9382133995036
21
7.95901931463406
31
0.000000000000000
  0
LINE
  5
F1062F
330
F10630
100
AcDbEntity
8
Geo
100
AcDbLine
10
-39.9382133995036
20
7.95901931463406
30
0.000000000000000
11
-39.8382133995036
21
7.90321894500129
31
0.000000000000000
  0
LINE
  5
F10631
330
F10632
100
AcDbEntity
8
Geo
100
AcDbLine
10
-39.8382133995036
20
7.90321894500129
30
0.000000000000000
11
-39.7382133995036
21
7.84721050555508
31
0.000000000000000
  0
LINE
  5
F10633
330
F10634
100
AcDbEntity
8
Geo
100
AcDbLine
10
-39.7382133995036
20
7.84721050555508
30
0.000000000000000
11
-39.6382133995036
21
7.79100566451777
31
0.000000000000000
  0
LINE
  5
F10635
330
F10636
100
AcDbEntity
8
Geo
100
AcDbLine
10
-39.6382133995036
20
7.79100566451777
30
0.000000000000000
11
-39.5382133995036
21
7.73461613102794
31
0.000000000000000
  0
LINE
  5
F10637
330
F10638
100
AcDbEntity
8
Geo
100
AcDbLine
10
-39.5382133995036
20
7.73461613102794
30
0.000000000000000
11
-39.4382133995036
21
7.67805365270111
31
0.000000000000000
  0
LINE
  5
F10639
330
F1063A
100
AcDbEntity
8
Geo
100
AcDbLine
10
-39.4382133995036
20
7.67805365270111
30
0.000000000000000
11
-39.3382133995036
21
7.62133001318237
31
0.000000000000000
  0
LINE
  5
F1063B
330
F1063C
100
AcDbEntity
8
Geo
100
AcDbLine
10
-39.3382133995036
20
7.62133001318237
30
0.000000000000000
11
-39.2382133995036
21
7.56445702969144
31
0.000000000000000
  0
LINE
  5
F1063D
330
F1063E
100
AcDbEntity
8
Geo
100
AcDbLine
10
-39.2382133995036
20
7.56445702969144
30
0.000000000000000
11
-39.1382133995036
21
7.50744655056085
31
0.000000000000000
  0
LINE
  5
F1063F
330
F10640
100
AcDbEntity
8
Geo
100
AcDbLine
10
-39.1382133995036
20
7.50744655056085
30
0.000000000000000
11
-39.0382133995036
21
7.45031045276755
31
0.000000000000000
  0
LINE
  5
F10641
330
F10642
100
AcDbEntity
8
Geo
100
AcDbLine
10
-39.0382133995036
20
7.45031045276755
30
0.000000000000000
11
-38.9382133995036
21
7.39306063945861
31
0.000000000000000
  0
LINE
  5
F10643
330
F10644
100
AcDbEntity
8
Geo
100
AcDbLine
10
-38.9382133995036
20
7.39306063945861
30
0.000000000000000
11
-38.8382133995036
21
7.33570903747138
31
0.000000000000000
  0
LINE
  5
F10645
330
F10646
100
AcDbEntity
8
Geo
100
AcDbLine
10
-38.8382133995036
20
7.33570903747138
30
0.000000000000000
11
-38.7382133995036
21
7.27826759484885
31
0.000000000000000
  0
LINE
  5
F10647
330
F10648
100
AcDbEntity
8
Geo
100
AcDbLine
10
-38.7382133995036
20
7.27826759484885
30
0.000000000000000
11
-38.6382133995035
21
7.22074827835049
31
0.000000000000000
  0
LINE
  5
F10649
330
F1064A
100
AcDbEntity
8
Geo
100
AcDbLine
10
-38.6382133995035
20
7.22074827835049
30
0.000000000000000
11
-38.5382133995035
21
7.16316307095917
31
0.000000000000000
  0
LINE
  5
F1064B
330
F1064C
100
AcDbEntity
8
Geo
100
AcDbLine
10
-38.5382133995035
20
7.16316307095917
30
0.000000000000000
11
-38.4382133995035
21
7.10552396938483
31
0.000000000000000
  0
LINE
  5
F1064D
330
F1064E
100
AcDbEntity
8
Geo
100
AcDbLine
10
-38.4382133995035
20
7.10552396938483
30
0.000000000000000
11
-38.3382133995035
21
7.04784298156517
31
0.000000000000000
  0
LINE
  5
F1064F
330
F10650
100
AcDbEntity
8
Geo
100
AcDbLine
10
-38.3382133995035
20
7.04784298156517
30
0.000000000000000
11
-38.2382133995035
21
6.99013212416401
31
0.000000000000000
  0
LINE
  5
F10651
330
F10652
100
AcDbEntity
8
Geo
100
AcDbLine
10
-38.2382133995035
20
6.99013212416401
30
0.000000000000000
11
-38.1382133995035
21
6.93240342006792
31
0.000000000000000
  0
LINE
  5
F10653
330
F10654
100
AcDbEntity
8
Geo
100
AcDbLine
10
-38.1382133995035
20
6.93240342006792
30
0.000000000000000
11
-38.0382133995035
21
6.87466889588145
31
0.000000000000000
  0
LINE
  5
F10655
330
F10656
100
AcDbEntity
8
Geo
100
AcDbLine
10
-38.0382133995035
20
6.87466889588145
30
0.000000000000000
11
-37.9382133995035
21
6.81694057942165
31
0.000000000000000
  0
LINE
  5
F10657
330
F10658
100
AcDbEntity
8
Geo
100
AcDbLine
10
-37.9382133995035
20
6.81694057942165
30
0.000000000000000
11
-37.8382133995035
21
6.75923049721233
31
0.000000000000000
  0
LINE
  5
F10659
330
F1065A
100
AcDbEntity
8
Geo
100
AcDbLine
10
-37.8382133995035
20
6.75923049721233
30
0.000000000000000
11
-37.7382133995035
21
6.70155067197856
31
0.000000000000000
  0
LINE
  5
F1065B
330
F1065C
100
AcDbEntity
8
Geo
100
AcDbLine
10
-37.7382133995035
20
6.70155067197856
30
0.000000000000000
11
-37.6382133995035
21
6.64391312014195
31
0.000000000000000
  0
LINE
  5
F1065D
330
F1065E
100
AcDbEntity
8
Geo
100
AcDbLine
10
-37.6382133995035
20
6.64391312014195
30
0.000000000000000
11
-37.5382133995035
21
6.58632984931735
31
0.000000000000000
  0
LINE
  5
F1065F
330
F10660
100
AcDbEntity
8
Geo
100
AcDbLine
10
-37.5382133995035
20
6.58632984931735
30
0.000000000000000
11
-37.4382133995035
21
6.52881285581125
31
0.000000000000000
  0
LINE
  5
F10661
330
F10662
100
AcDbEntity
8
Geo
100
AcDbLine
10
-37.4382133995035
20
6.52881285581125
30
0.000000000000000
11
-37.3382133995035
21
6.47137412212258
31
0.000000000000000
  0
LINE
  5
F10663
330
F10664
100
AcDbEntity
8
Geo
100
AcDbLine
10
-37.3382133995035
20
6.47137412212258
30
0.000000000000000
11
-37.2382133995035
21
6.41402561444645
31
0.000000000000000
  0
LINE
  5
F10665
330
F10666
100
AcDbEntity
8
Geo
100
AcDbLine
10
-37.2382133995035
20
6.41402561444645
30
0.000000000000000
11
-37.1382133995035
21
6.35677928018122
31
0.000000000000000
  0
LINE
  5
F10667
330
F10668
100
AcDbEntity
8
Geo
100
AcDbLine
10
-37.1382133995035
20
6.35677928018122
30
0.000000000000000
11
-37.0382133995035
21
6.29964704543945
31
0.000000000000000
  0
LINE
  5
F10669
330
F1066A
100
AcDbEntity
8
Geo
100
AcDbLine
10
-37.0382133995035
20
6.29964704543945
30
0.000000000000000
11
-36.9382133995035
21
6.24264081256342
31
0.000000000000000
  0
LINE
  5
F1066B
330
F1066C
100
AcDbEntity
8
Geo
100
AcDbLine
10
-36.9382133995035
20
6.24264081256342
30
0.000000000000000
11
-36.8382133995035
21
6.18577245764546
31
0.000000000000000
  0
LINE
  5
F1066D
330
F1066E
100
AcDbEntity
8
Geo
100
AcDbLine
10
-36.8382133995035
20
6.18577245764546
30
0.000000000000000
11
-36.7382133995035
21
6.12905382805382
31
0.000000000000000
  0
LINE
  5
F1066F
330
F10670
100
AcDbEntity
8
Geo
100
AcDbLine
10
-36.7382133995035
20
6.12905382805382
30
0.000000000000000
11
-36.6382133995035
21
6.07249673996453
31
0.000000000000000
  0
LINE
  5
F10671
330
F10672
100
AcDbEntity
8
Geo
100
AcDbLine
10
-36.6382133995035
20
6.07249673996453
30
0.000000000000000
11
-36.5382133995035
21
6.01611297589971
31
0.000000000000000
  0
LINE
  5
F10673
330
F10674
100
AcDbEntity
8
Geo
100
AcDbLine
10
-36.5382133995035
20
6.01611297589971
30
0.000000000000000
11
-36.4382133995035
21
5.95991428227294
31
0.000000000000000
  0
LINE
  5
F10675
330
F10676
100
AcDbEntity
8
Geo
100
AcDbLine
10
-36.4382133995035
20
5.95991428227294
30
0.000000000000000
11
-36.3382133995035
21
5.90391236694213
31
0.000000000000000
  0
LINE
  5
F10677
330
F10678
100
AcDbEntity
8
Geo
100
AcDbLine
10
-36.3382133995035
20
5.90391236694213
30
0.000000000000000
11
-36.2382133995035
21
5.84811889677042
31
0.000000000000000
  0
LINE
  5
F10679
330
F1067A
100
AcDbEntity
8
Geo
100
AcDbLine
10
-36.2382133995035
20
5.84811889677042
30
0.000000000000000
11
-36.1382133995035
21
5.79254549519563
31
0.000000000000000
  0
LINE
  5
F1067B
330
F1067C
100
AcDbEntity
8
Geo
100
AcDbLine
10
-36.1382133995035
20
5.79254549519563
30
0.000000000000000
11
-36.0382133995035
21
5.73720373980876
31
0.000000000000000
  0
LINE
  5
F1067D
330
F1067E
100
AcDbEntity
8
Geo
100
AcDbLine
10
-36.0382133995035
20
5.73720373980876
30
0.000000000000000
11
-35.9382133995035
21
5.68210515994202
31
0.000000000000000
  0
LINE
  5
F1067F
330
F10680
100
AcDbEntity
8
Geo
100
AcDbLine
10
-35.9382133995035
20
5.68210515994202
30
0.000000000000000
11
-35.8382133995035
21
5.62726123426691
31
0.000000000000000
  0
LINE
  5
F10681
330
F10682
100
AcDbEntity
8
Geo
100
AcDbLine
10
-35.8382133995035
20
5.62726123426691
30
0.000000000000000
11
-35.7382133995035
21
5.57268338840294
31
0.000000000000000
  0
LINE
  5
F10683
330
F10684
100
AcDbEntity
8
Geo
100
AcDbLine
10
-35.7382133995035
20
5.57268338840294
30
0.000000000000000
11
-35.6382133995035
21
5.51838299253725
31
0.000000000000000
  0
LINE
  5
F10685
330
F10686
100
AcDbEntity
8
Geo
100
AcDbLine
10
-35.6382133995035
20
5.51838299253725
30
0.000000000000000
11
-35.5382133995035
21
5.46437135905592
31
0.000000000000000
  0
LINE
  5
F10687
330
F10688
100
AcDbEntity
8
Geo
100
AcDbLine
10
-35.5382133995035
20
5.46437135905592
30
0.000000000000000
11
-35.4382133995035
21
5.41065974018723
31
0.000000000000000
  0
LINE
  5
F10689
330
F1068A
100
AcDbEntity
8
Geo
100
AcDbLine
10
-35.4382133995035
20
5.41065974018723
30
0.000000000000000
11
-35.3382133995035
21
5.35725932565753
31
0.000000000000000
  0
LINE
  5
F1068B
330
F1068C
100
AcDbEntity
8
Geo
100
AcDbLine
10
-35.3382133995035
20
5.35725932565753
30
0.000000000000000
11
-35.2382133995035
21
5.30418124036002
31
0.000000000000000
  0
LINE
  5
F1068D
330
F1068E
100
AcDbEntity
8
Geo
100
AcDbLine
10
-35.2382133995035
20
5.30418124036002
30
0.000000000000000
11
-35.1382133995035
21
5.25143654203716
31
0.000000000000000
  0
LINE
  5
F1068F
330
F10690
100
AcDbEntity
8
Geo
100
AcDbLine
10
-35.1382133995035
20
5.25143654203716
30
0.000000000000000
11
-35.0382133995035
21
5.19903621897701
31
0.000000000000000
  0
LINE
  5
F10691
330
F10692
100
AcDbEntity
8
Geo
100
AcDbLine
10
-35.0382133995035
20
5.19903621897701
30
0.000000000000000
11
-34.9382133995035
21
5.14699118772400
31
0.000000000000000
  0
LINE
  5
F10693
330
F10694
100
AcDbEntity
8
Geo
100
AcDbLine
10
-34.9382133995035
20
5.14699118772400
30
0.000000000000000
11
-34.8382133995035
21
5.09531229080474
31
0.000000000000000
  0
LINE
  5
F10695
330
F10696
100
AcDbEntity
8
Geo
100
AcDbLine
10
-34.8382133995035
20
5.09531229080474
30
0.000000000000000
11
-34.7382133995035
21
5.04401029446918
31
0.000000000000000
  0
LINE
  5
F10697
330
F10698
100
AcDbEntity
8
Geo
100
AcDbLine
10
-34.7382133995035
20
5.04401029446918
30
0.000000000000000
11
-34.6382133995035
21
4.99309588644766
31
0.000000000000000
  0
LINE
  5
F10699
330
F1069A
100
AcDbEntity
8
Geo
100
AcDbLine
10
-34.6382133995035
20
4.99309588644766
30
0.000000000000000
11
-34.5382133995035
21
4.94257967372436
31
0.000000000000000
  0
LINE
  5
F1069B
330
F1069C
100
AcDbEntity
8
Geo
100
AcDbLine
10
-34.5382133995035
20
4.94257967372436
30
0.000000000000000
11
-34.4382133995035
21
4.89247218032758
31
0.000000000000000
  0
LINE
  5
F1069D
330
F1069E
100
AcDbEntity
8
Geo
100
AcDbLine
10
-34.4382133995035
20
4.89247218032758
30
0.000000000000000
11
-34.3382133995035
21
4.84278384513719
31
0.000000000000000
  0
LINE
  5
F1069F
330
F106A0
100
AcDbEntity
8
Geo
100
AcDbLine
10
-34.3382133995035
20
4.84278384513719
30
0.000000000000000
11
-34.2382133995035
21
4.79352501970997
31
0.000000000000000
  0
LINE
  5
F106A1
330
F106A2
100
AcDbEntity
8
Geo
100
AcDbLine
10
-34.2382133995035
20
4.79352501970997
30
0.000000000000000
11
-34.1382133995035
21
4.74470596612307
31
0.000000000000000
  0
LINE
  5
F106A3
330
F106A4
100
AcDbEntity
8
Geo
100
AcDbLine
10
-34.1382133995035
20
4.74470596612307
30
0.000000000000000
11
-34.0382133995035
21
4.69633685483607
31
0.000000000000000
  0
LINE
  5
F106A5
330
F106A6
100
AcDbEntity
8
Geo
100
AcDbLine
10
-34.0382133995035
20
4.69633685483607
30
0.000000000000000
11
-33.9382133995035
21
4.64842776257221
31
0.000000000000000
  0
LINE
  5
F106A7
330
F106A8
100
AcDbEntity
8
Geo
100
AcDbLine
10
-33.9382133995035
20
4.64842776257221
30
0.000000000000000
11
-33.8382133995035
21
4.60098867021911
31
0.000000000000000
  0
LINE
  5
F106A9
330
F106AA
100
AcDbEntity
8
Geo
100
AcDbLine
10
-33.8382133995035
20
4.60098867021911
30
0.000000000000000
11
-33.7382133995035
21
4.55402946074941
31
0.000000000000000
  0
LINE
  5
F106AB
330
F106AC
100
AcDbEntity
8
Geo
100
AcDbLine
10
-33.7382133995035
20
4.55402946074941
30
0.000000000000000
11
-33.6382133995035
21
4.50755991716192
31
0.000000000000000
  0
LINE
  5
F106AD
330
F106AE
100
AcDbEntity
8
Geo
100
AcDbLine
10
-33.6382133995035
20
4.50755991716192
30
0.000000000000000
11
-33.5382133995035
21
4.46158972044347
31
0.000000000000000
  0
LINE
  5
F106AF
330
F106B0
100
AcDbEntity
8
Geo
100
AcDbLine
10
-33.5382133995035
20
4.46158972044347
30
0.000000000000000
11
-33.4382133995035
21
4.41612844755211
31
0.000000000000000
  0
LINE
  5
F106B1
330
F106B2
100
AcDbEntity
8
Geo
100
AcDbLine
10
-33.4382133995035
20
4.41612844755211
30
0.000000000000000
11
-33.3382133995035
21
4.37118556942193
31
0.000000000000000
  0
LINE
  5
F106B3
330
F106B4
100
AcDbEntity
8
Geo
100
AcDbLine
10
-33.3382133995035
20
4.37118556942193
30
0.000000000000000
11
-33.2382133995035
21
4.32677044899000
31
0.000000000000000
  0
LINE
  5
F106B5
330
F106B6
100
AcDbEntity
8
Geo
100
AcDbLine
10
-33.2382133995035
20
4.32677044899000
30
0.000000000000000
11
-33.1382133995035
21
4.28289233924575
31
0.000000000000000
  0
LINE
  5
F106B7
330
F106B8
100
AcDbEntity
8
Geo
100
AcDbLine
10
-33.1382133995035
20
4.28289233924575
30
0.000000000000000
11
-33.0382133995035
21
4.23956038130334
31
0.000000000000000
  0
LINE
  5
F106B9
330
F106BA
100
AcDbEntity
8
Geo
100
AcDbLine
10
-33.0382133995035
20
4.23956038130334
30
0.000000000000000
11
-32.9382133995035
21
4.19678360249730
31
0.000000000000000
  0
LINE
  5
F106BB
330
F106BC
100
AcDbEntity
8
Geo
100
AcDbLine
10
-32.9382133995035
20
4.19678360249730
30
0.000000000000000
11
-32.8382133995035
21
4.15457091450182
31
0.000000000000000
  0
LINE
  5
F106BD
330
F106BE
100
AcDbEntity
8
Geo
100
AcDbLine
10
-32.8382133995035
20
4.15457091450182
30
0.000000000000000
11
-32.7382133995035
21
4.11293111147422
31
0.000000000000000
  0
LINE
  5
F106BF
330
F106C0
100
AcDbEntity
8
Geo
100
AcDbLine
10
-32.7382133995035
20
4.11293111147422
30
0.000000000000000
11
-32.6382133995035
21
4.07187286822285
31
0.000000000000000
  0
LINE
  5
F106C1
330
F106C2
100
AcDbEntity
8
Geo
100
AcDbLine
10
-32.6382133995035
20
4.07187286822285
30
0.000000000000000
11
-32.5382133995035
21
4.03140473839991
31
0.000000000000000
  0
LINE
  5
F106C3
330
F106C4
100
AcDbEntity
8
Geo
100
AcDbLine
10
-32.5382133995035
20
4.03140473839991
30
0.000000000000000
11
-32.4382133995035
21
3.99153515271938
31
0.000000000000000
  0
LINE
  5
F106C5
330
F106C6
100
AcDbEntity
8
Geo
100
AcDbLine
10
-32.4382133995035
20
3.99153515271938
30
0.000000000000000
11
-32.3382133995035
21
3.95227241720077
31
0.000000000000000
  0
LINE
  5
F106C7
330
F106C8
100
AcDbEntity
8
Geo
100
AcDbLine
10
-32.3382133995035
20
3.95227241720077
30
0.000000000000000
11
-32.2382133995035
21
3.91362471143861
31
0.000000000000000
  0
LINE
  5
F106C9
330
F106CA
100
AcDbEntity
8
Geo
100
AcDbLine
10
-32.2382133995035
20
3.91362471143861
30
0.000000000000000
11
-32.1382133995035
21
3.87560008689851
31
0.000000000000000
  0
LINE
  5
F106CB
330
F106CC
100
AcDbEntity
8
Geo
100
AcDbLine
10
-32.1382133995035
20
3.87560008689851
30
0.000000000000000
11
-32.0382133995035
21
3.83820646523969
31
0.000000000000000
  0
LINE
  5
F106CD
330
F106CE
100
AcDbEntity
8
Geo
100
AcDbLine
10
-32.0382133995035
20
3.83820646523969
30
0.000000000000000
11
-31.9382133995035
21
3.80145163666477
31
0.000000000000000
  0
LINE
  5
F106CF
330
F106D0
100
AcDbEntity
8
Geo
100
AcDbLine
10
-31.9382133995035
20
3.80145163666477
30
0.000000000000000
11
-31.8382133995035
21
3.76534325829677
31
0.000000000000000
  0
LINE
  5
F106D1
330
F106D2
100
AcDbEntity
8
Geo
100
AcDbLine
10
-31.8382133995035
20
3.76534325829677
30
0.000000000000000
11
-31.7382133995035
21
3.72988885258389
31
0.000000000000000
  0
LINE
  5
F106D3
330
F106D4
100
AcDbEntity
8
Geo
100
AcDbLine
10
-31.7382133995035
20
3.72988885258389
30
0.000000000000000
11
-31.6382133995034
21
3.69509580573245
31
0.000000000000000
  0
LINE
  5
F106D5
330
F106D6
100
AcDbEntity
8
Geo
100
AcDbLine
10
-31.6382133995034
20
3.69509580573245
30
0.000000000000000
11
-31.5382133995034
21
3.66097136616801
31
0.000000000000000
  0
LINE
  5
F106D7
330
F106D8
100
AcDbEntity
8
Geo
100
AcDbLine
10
-31.5382133995034
20
3.66097136616801
30
0.000000000000000
11
-31.4382133995034
21
3.62752264302541
31
0.000000000000000
  0
LINE
  5
F106D9
330
F106DA
100
AcDbEntity
8
Geo
100
AcDbLine
10
-31.4382133995034
20
3.62752264302541
30
0.000000000000000
11
-31.3382133995034
21
3.59475660466765
31
0.000000000000000
  0
LINE
  5
F106DB
330
F106DC
100
AcDbEntity
8
Geo
100
AcDbLine
10
-31.3382133995034
20
3.59475660466765
30
0.000000000000000
11
-31.2382133995034
21
3.56268007723420
31
0.000000000000000
  0
LINE
  5
F106DD
330
F106DE
100
AcDbEntity
8
Geo
100
AcDbLine
10
-31.2382133995034
20
3.56268007723420
30
0.000000000000000
11
-31.1382133995034
21
3.53129974321894
31
0.000000000000000
  0
LINE
  5
F106DF
330
F106E0
100
AcDbEntity
8
Geo
100
AcDbLine
10
-31.1382133995034
20
3.53129974321894
30
0.000000000000000
11
-31.0382133995034
21
3.50062214007795
31
0.000000000000000
  0
LINE
  5
F106E1
330
F106E2
100
AcDbEntity
8
Geo
100
AcDbLine
10
-31.0382133995034
20
3.50062214007795
30
0.000000000000000
11
-30.9382133995034
21
3.47065365886759
31
0.000000000000000
  0
LINE
  5
F106E3
330
F106E4
100
AcDbEntity
8
Geo
100
AcDbLine
10
-30.9382133995034
20
3.47065365886759
30
0.000000000000000
11
-30.8382133995034
21
3.44140054291306
31
0.000000000000000
  0
LINE
  5
F106E5
330
F106E6
100
AcDbEntity
8
Geo
100
AcDbLine
10
-30.8382133995034
20
3.44140054291306
30
0.000000000000000
11
-30.7382133995034
21
3.41286888650772
31
0.000000000000000
  0
LINE
  5
F106E7
330
F106E8
100
AcDbEntity
8
Geo
100
AcDbLine
10
-30.7382133995034
20
3.41286888650772
30
0.000000000000000
11
-30.6382133995034
21
3.38506463364345
31
0.000000000000000
  0
LINE
  5
F106E9
330
F106EA
100
AcDbEntity
8
Geo
100
AcDbLine
10
-30.6382133995034
20
3.38506463364345
30
0.000000000000000
11
-30.5382133995034
21
3.35799357677236
31
0.000000000000000
  0
LINE
  5
F106EB
330
F106EC
100
AcDbEntity
8
Geo
100
AcDbLine
10
-30.5382133995034
20
3.35799357677236
30
0.000000000000000
11
-30.4382133995034
21
3.33166135560006
31
0.000000000000000
  0
LINE
  5
F106ED
330
F106EE
100
AcDbEntity
8
Geo
100
AcDbLine
10
-30.4382133995034
20
3.33166135560006
30
0.000000000000000
11
-30.3382133995034
21
3.30607345591072
31
0.000000000000000
  0
LINE
  5
F106EF
330
F106F0
100
AcDbEntity
8
Geo
100
AcDbLine
10
-30.3382133995034
20
3.30607345591072
30
0.000000000000000
11
-30.2382133995034
21
3.28123520842423
31
0.000000000000000
  0
LINE
  5
F106F1
330
F106F2
100
AcDbEntity
8
Geo
100
AcDbLine
10
-30.2382133995034
20
3.28123520842423
30
0.000000000000000
11
-30.1382133995034
21
3.25715178768564
31
0.000000000000000
  0
LINE
  5
F106F3
330
F106F4
100
AcDbEntity
8
Geo
100
AcDbLine
10
-30.1382133995034
20
3.25715178768564
30
0.000000000000000
11
-30.0382133995034
21
3.23382821098717
31
0.000000000000000
  0
LINE
  5
F106F5
330
F106F6
100
AcDbEntity
8
Geo
100
AcDbLine
10
-30.0382133995034
20
3.23382821098717
30
0.000000000000000
11
-29.9382133995034
21
3.21126933732294
31
0.000000000000000
  0
LINE
  5
F106F7
330
F106F8
100
AcDbEntity
8
Geo
100
AcDbLine
10
-29.9382133995034
20
3.21126933732294
30
0.000000000000000
11
-29.8382133995034
21
3.18947986637669
31
0.000000000000000
  0
LINE
  5
F106F9
330
F106FA
100
AcDbEntity
8
Geo
100
AcDbLine
10
-29.8382133995034
20
3.18947986637669
30
0.000000000000000
11
-29.7382133995037
21
3.16846433754280
31
0.000000000000000
  0
LINE
  5
F106FB
330
F106FC
100
AcDbEntity
8
Geo
100
AcDbLine
10
-29.7382133995037
20
3.16846433754280
30
0.000000000000000
11
-29.6382133995037
21
3.17543863970397
31
0.000000000000000
  0
LINE
  5
F106FD
330
F106FE
100
AcDbEntity
8
Geo
100
AcDbLine
10
-29.6382133995037
20
3.17543863970397
30
0.000000000000000
11
-29.5382133995037
21
3.18347692925543
31
0.000000000000000
  0
LINE
  5
F106FF
330
F10700
100
AcDbEntity
8
Geo
100
AcDbLine
10
-29.5382133995037
20
3.18347692925543
30
0.000000000000000
11
-29.4382133995037
21
3.19310722072451
31
0.000000000000000
  0
LINE
  5
F10701
330
F10702
100
AcDbEntity
8
Geo
100
AcDbLine
10
-29.4382133995037
20
3.19310722072451
30
0.000000000000000
11
-29.3382133995037
21
3.20440121412970
31
0.000000000000000
  0
LINE
  5
F10703
330
F10704
100
AcDbEntity
8
Geo
100
AcDbLine
10
-29.3382133995037
20
3.20440121412970
30
0.000000000000000
11
-29.2382133995037
21
3.21744114210679
31
0.000000000000000
  0
LINE
  5
F10705
330
F10706
100
AcDbEntity
8
Geo
100
AcDbLine
10
-29.2382133995037
20
3.21744114210679
30
0.000000000000000
11
-29.1382133995037
21
3.23231958673027
31
0.000000000000000
  0
LINE
  5
F10707
330
F10708
100
AcDbEntity
8
Geo
100
AcDbLine
10
-29.1382133995037
20
3.23231958673027
30
0.000000000000000
11
-29.0382133995037
21
3.24913926350981
31
0.000000000000000
  0
LINE
  5
F10709
330
F1070A
100
AcDbEntity
8
Geo
100
AcDbLine
10
-29.0382133995037
20
3.24913926350981
30
0.000000000000000
11
-28.9382133995037
21
3.26801276943744
31
0.000000000000000
  0
LINE
  5
F1070B
330
F1070C
100
AcDbEntity
8
Geo
100
AcDbLine
10
-28.9382133995037
20
3.26801276943744
30
0.000000000000000
11
-28.8382133995037
21
3.28906229164135
31
0.000000000000000
  0
LINE
  5
F1070D
330
F1070E
100
AcDbEntity
8
Geo
100
AcDbLine
10
-28.8382133995037
20
3.28906229164135
30
0.000000000000000
11
-28.7382133995037
21
3.31241927290129
31
0.000000000000000
  0
LINE
  5
F1070F
330
F10710
100
AcDbEntity
8
Geo
100
AcDbLine
10
-28.7382133995037
20
3.31241927290129
30
0.000000000000000
11
-28.6382133995037
21
3.33822402999912
31
0.000000000000000
  0
LINE
  5
F10711
330
F10712
100
AcDbEntity
8
Geo
100
AcDbLine
10
-28.6382133995037
20
3.33822402999912
30
0.000000000000000
11
-28.5382133995037
21
3.36662532062191
31
0.000000000000000
  0
LINE
  5
F10713
330
F10714
100
AcDbEntity
8
Geo
100
AcDbLine
10
-28.5382133995037
20
3.36662532062191
30
0.000000000000000
11
-28.4382133995037
21
3.39777985430601
31
0.000000000000000
  0
LINE
  5
F10715
330
F10716
100
AcDbEntity
8
Geo
100
AcDbLine
10
-28.4382133995037
20
3.39777985430601
30
0.000000000000000
11
-28.3382133995037
21
3.43185174271417
31
0.000000000000000
  0
LINE
  5
F10717
330
F10718
100
AcDbEntity
8
Geo
100
AcDbLine
10
-28.3382133995037
20
3.43185174271417
30
0.000000000000000
11
-28.2382133995037
21
3.46901188437819
31
0.000000000000000
  0
LINE
  5
F10719
330
F1071A
100
AcDbEntity
8
Geo
100
AcDbLine
10
-28.2382133995037
20
3.46901188437819
30
0.000000000000000
11
-28.1382133995037
21
3.50943727892151
31
0.000000000000000
  0
LINE
  5
F1071B
330
F1071C
100
AcDbEntity
8
Geo
100
AcDbLine
10
-28.1382133995037
20
3.50943727892151
30
0.000000000000000
11
-28.0382133995037
21
3.55331026570574
31
0.000000000000000
  0
LINE
  5
F1071D
330
F1071E
100
AcDbEntity
8
Geo
100
AcDbLine
10
-28.0382133995037
20
3.55331026570574
30
0.000000000000000
11
-27.9382133995037
21
3.60081768182759
31
0.000000000000000
  0
LINE
  5
F1071F
330
F10720
100
AcDbEntity
8
Geo
100
AcDbLine
10
-27.9382133995037
20
3.60081768182759
30
0.000000000000000
11
-27.8382133995037
21
3.65214993443435
31
0.000000000000000
  0
LINE
  5
F10721
330
F10722
100
AcDbEntity
8
Geo
100
AcDbLine
10
-27.8382133995037
20
3.65214993443435
30
0.000000000000000
11
-27.7382133995037
21
3.70710031166013
31
0.000000000000000
  0
LINE
  5
F10723
330
F10724
100
AcDbEntity
8
Geo
100
AcDbLine
10
-70.7382133995037
20
10.3350072301739
30
0.000000000000000
11
-70.6382133995037
21
10.6289330461360
31
0.000000000000000
  0
LINE
  5
F10725
330
F10726
100
AcDbEntity
8
Geo
100
AcDbLine
10
-70.6382133995037
20
10.6289330461360
30
0.000000000000000
11
-70.5382133995037
21
10.7220412812655
31
0.000000000000000
  0
LINE
  5
F10727
330
F10728
100
AcDbEntity
8
Geo
100
AcDbLine
10
-70.5382133995037
20
10.7220412812655
30
0.000000000000000
11
-70.4382133995037
21
10.7725675801669
31
0.000000000000000
  0
LINE
  5
F10729
330
F1072A
100
AcDbEntity
8
Geo
100
AcDbLine
10
-70.4382133995037
20
10.7725675801669
30
0.000000000000000
11
-70.3382133995037
21
10.7956424012160
31
0.000000000000000
  0
LINE
  5
F1072B
330
F1072C
100
AcDbEntity
8
Geo
100
AcDbLine
10
-70.3382133995037
20
10.7956424012160
30
0.000000000000000
11
-70.2382133995037
21
10.7963716092868
31
0.000000000000000
  0
LINE
  5
F1072D
330
F1072E
100
AcDbEntity
8
Geo
100
AcDbLine
10
-70.2382133995037
20
10.7963716092868
30
0.000000000000000
11
-70.1382133995037
21
10.7862047985026
31
0.000000000000000
  0
LINE
  5
F1072F
330
F10730
100
AcDbEntity
8
Geo
100
AcDbLine
10
-70.1382133995037
20
10.7862047985026
30
0.000000000000000
11
-70.0382133995037
21
10.7752293062796
31
0.000000000000000
  0
LINE
  5
F10731
330
F10732
100
AcDbEntity
8
Geo
100
AcDbLine
10
-70.0382133995037
20
10.7752293062796
30
0.000000000000000
11
-69.9382133995037
21
10.7634474191389
31
0.000000000000000
  0
LINE
  5
F10733
330
F10734
100
AcDbEntity
8
Geo
100
AcDbLine
10
-69.9382133995037
20
10.7634474191389
30
0.000000000000000
11
-69.8382133995037
21
10.7508615915978
31
0.000000000000000
  0
LINE
  5
F10735
330
F10736
100
AcDbEntity
8
Geo
100
AcDbLine
10
-69.8382133995037
20
10.7508615915978
30
0.000000000000000
11
-69.7382133995037
21
10.7374744456581
31
0.000000000000000
  0
LINE
  5
F10737
330
F10738
100
AcDbEntity
8
Geo
100
AcDbLine
10
-69.7382133995037
20
10.7374744456581
30
0.000000000000000
11
-69.6382133995037
21
10.7232887702602
31
0.000000000000000
  0
LINE
  5
F10739
330
F1073A
100
AcDbEntity
8
Geo
100
AcDbLine
10
-69.6382133995037
20
10.7232887702602
30
0.000000000000000
11
-69.5382133995037
21
10.7083075207018
31
0.000000000000000
  0
LINE
  5
F1073B
330
F1073C
100
AcDbEntity
8
Geo
100
AcDbLine
10
-69.5382133995037
20
10.7083075207018
30
0.000000000000000
11
-69.4382133995037
21
10.6925338180223
31
0.000000000000000
  0
LINE
  5
F1073D
330
F1073E
100
AcDbEntity
8
Geo
100
AcDbLine
10
-69.4382133995037
20
10.6925338180223
30
0.000000000000000
11
-69.3382133995037
21
10.6759709483527
31
0.000000000000000
  0
LINE
  5
F1073F
330
F10740
100
AcDbEntity
8
Geo
100
AcDbLine
10
-69.3382133995037
20
10.6759709483527
30
0.000000000000000
11
-69.2382133995037
21
10.6586223622311
31
0.000000000000000
  0
LINE
  5
F10741
330
F10742
100
AcDbEntity
8
Geo
100
AcDbLine
10
-69.2382133995037
20
10.6586223622311
30
0.000000000000000
11
-69.1382133995037
21
10.6404916738834
31
0.000000000000000
  0
LINE
  5
F10743
330
F10744
100
AcDbEntity
8
Geo
100
AcDbLine
10
-69.1382133995037
20
10.6404916738834
30
0.000000000000000
11
-69.0382133995037
21
10.6215826604708
31
0.000000000000000
  0
LINE
  5
F10745
330
F10746
100
AcDbEntity
8
Geo
100
AcDbLine
10
-69.0382133995037
20
10.6215826604708
30
0.000000000000000
11
-68.9382133995037
21
10.6018992613027
31
0.000000000000000
  0
LINE
  5
F10747
330
F10748
100
AcDbEntity
8
Geo
100
AcDbLine
10
-68.9382133995037
20
10.6018992613027
30
0.000000000000000
11
-68.8382133995037
21
10.5814455770161
31
0.000000000000000
  0
LINE
  5
F10749
330
F1074A
100
AcDbEntity
8
Geo
100
AcDbLine
10
-68.8382133995037
20
10.5814455770161
30
0.000000000000000
11
-68.7382133995037
21
10.5602258687212
31
0.000000000000000
  0
LINE
  5
F1074B
330
F1074C
100
AcDbEntity
8
Geo
100
AcDbLine
10
-68.7382133995037
20
10.5602258687212
30
0.000000000000000
11
-68.6382133995037
21
10.5382445571138
31
0.000000000000000
  0
LINE
  5
F1074D
330
F1074E
100
AcDbEntity
8
Geo
100
AcDbLine
10
-68.6382133995037
20
10.5382445571138
30
0.000000000000000
11
-68.5382133995037
21
10.5155062215543
31
0.000000000000000
  0
LINE
  5
F1074F
330
F10750
100
AcDbEntity
8
Geo
100
AcDbLine
10
-68.5382133995037
20
10.5155062215543
30
0.000000000000000
11
-68.4382133995037
21
10.4920155991138
31
0.000000000000000
  0
LINE
  5
F10751
330
F10752
100
AcDbEntity
8
Geo
100
AcDbLine
10
-68.4382133995037
20
10.4920155991138
30
0.000000000000000
11
-68.3382133995037
21
10.4677775835869
31
0.000000000000000
  0
LINE
  5
F10753
330
F10754
100
AcDbEntity
8
Geo
100
AcDbLine
10
-68.3382133995037
20
10.4677775835869
30
0.000000000000000
11
-68.2382133995037
21
10.4427972244726
31
0.000000000000000
  0
LINE
  5
F10755
330
F10756
100
AcDbEntity
8
Geo
100
AcDbLine
10
-68.2382133995037
20
10.4427972244726
30
0.000000000000000
11
-68.1382133995037
21
10.4170797259220
31
0.000000000000000
  0
LINE
  5
F10757
330
F10758
100
AcDbEntity
8
Geo
100
AcDbLine
10
-68.1382133995037
20
10.4170797259220
30
0.000000000000000
11
-68.0382133995037
21
10.3906304456542
31
0.000000000000000
  0
LINE
  5
F10759
330
F1075A
100
AcDbEntity
8
Geo
100
AcDbLine
10
-68.0382133995037
20
10.3906304456542
30
0.000000000000000
11
-67.9382133995037
21
10.3634548938404
31
0.000000000000000
  0
LINE
  5
F1075B
330
F1075C
100
AcDbEntity
8
Geo
100
AcDbLine
10
-67.9382133995037
20
10.3634548938404
30
0.000000000000000
11
-67.8382133995037
21
10.3355587319555
31
0.000000000000000
  0
LINE
  5
F1075D
330
F1075E
100
AcDbEntity
8
Geo
100
AcDbLine
10
-67.8382133995037
20
10.3355587319555
30
0.000000000000000
11
-67.7382133995037
21
10.3069477715990
31
0.000000000000000
  0
LINE
  5
F1075F
330
F10760
100
AcDbEntity
8
Geo
100
AcDbLine
10
-67.7382133995037
20
10.3069477715990
30
0.000000000000000
11
-67.6382133995037
21
10.2776279732842
31
0.000000000000000
  0
LINE
  5
F10761
330
F10762
100
AcDbEntity
8
Geo
100
AcDbLine
10
-67.6382133995037
20
10.2776279732842
30
0.000000000000000
11
-67.5382133995037
21
10.2476054451964
31
0.000000000000000
  0
LINE
  5
F10763
330
F10764
100
AcDbEntity
8
Geo
100
AcDbLine
10
-67.5382133995037
20
10.2476054451964
30
0.000000000000000
11
-67.4382133995037
21
10.2168864419203
31
0.000000000000000
  0
LINE
  5
F10765
330
F10766
100
AcDbEntity
8
Geo
100
AcDbLine
10
-67.4382133995037
20
10.2168864419203
30
0.000000000000000
11
-67.3382133995037
21
10.1854773631371
31
0.000000000000000
  0
LINE
  5
F10767
330
F10768
100
AcDbEntity
8
Geo
100
AcDbLine
10
-67.3382133995037
20
10.1854773631371
30
0.000000000000000
11
-67.2382133995037
21
10.1533847522914
31
0.000000000000000
  0
LINE
  5
F10769
330
F1076A
100
AcDbEntity
8
Geo
100
AcDbLine
10
-67.2382133995037
20
10.1533847522914
30
0.000000000000000
11
-67.1382133995037
21
10.1206152952277
31
0.000000000000000
  0
LINE
  5
F1076B
330
F1076C
100
AcDbEntity
8
Geo
100
AcDbLine
10
-67.1382133995037
20
10.1206152952277
30
0.000000000000000
11
-67.0382133995037
21
10.0871758187975
31
0.000000000000000
  0
LINE
  5
F1076D
330
F1076E
100
AcDbEntity
8
Geo
100
AcDbLine
10
-67.0382133995037
20
10.0871758187975
30
0.000000000000000
11
-66.9382133995037
21
10.0530732894377
31
0.000000000000000
  0
LINE
  5
F1076F
330
F10770
100
AcDbEntity
8
Geo
100
AcDbLine
10
-66.9382133995037
20
10.0530732894377
30
0.000000000000000
11
-66.8382133995037
21
10.0183148117185
31
0.000000000000000
  0
LINE
  5
F10771
330
F10772
100
AcDbEntity
8
Geo
100
AcDbLine
10
-66.8382133995037
20
10.0183148117185
30
0.000000000000000
11
-66.7382133995037
21
9.98290762686364
31
0.000000000000000
  0
LINE
  5
F10773
330
F10774
100
AcDbEntity
8
Geo
100
AcDbLine
10
-66.7382133995037
20
9.98290762686364
30
0.000000000000000
11
-66.6382133995037
21
9.94685911124193
31
0.000000000000000
  0
LINE
  5
F10775
330
F10776
100
AcDbEntity
8
Geo
100
AcDbLine
10
-66.6382133995037
20
9.94685911124193
30
0.000000000000000
11
-66.5382133995037
21
9.91017677483043
31
0.000000000000000
  0
LINE
  5
F10777
330
F10778
100
AcDbEntity
8
Geo
100
AcDbLine
10
-66.5382133995037
20
9.91017677483043
30
0.000000000000000
11
-66.4382133995037
21
9.87286825964986
31
0.000000000000000
  0
LINE
  5
F10779
330
F1077A
100
AcDbEntity
8
Geo
100
AcDbLine
10
-66.4382133995037
20
9.87286825964986
30
0.000000000000000
11
-66.3382133995037
21
9.83494133817263
31
0.000000000000000
  0
LINE
  5
F1077B
330
F1077C
100
AcDbEntity
8
Geo
100
AcDbLine
10
-66.3382133995037
20
9.83494133817263
30
0.000000000000000
11
-66.2382133995037
21
9.79640391170353
31
0.000000000000000
  0
LINE
  5
F1077D
330
F1077E
100
AcDbEntity
8
Geo
100
AcDbLine
10
-66.2382133995037
20
9.79640391170353
30
0.000000000000000
11
-66.1382133995037
21
9.75726400873368
31
0.000000000000000
  0
LINE
  5
F1077F
330
F10780
100
AcDbEntity
8
Geo
100
AcDbLine
10
-66.1382133995037
20
9.75726400873368
30
0.000000000000000
11
-66.0382133995037
21
9.71752978326798
31
0.000000000000000
  0
LINE
  5
F10781
330
F10782
100
AcDbEntity
8
Geo
100
AcDbLine
10
-66.0382133995037
20
9.71752978326798
30
0.000000000000000
11
-65.9382133995037
21
9.67720951312635
31
0.000000000000000
  0
LINE
  5
F10783
330
F10784
100
AcDbEntity
8
Geo
100
AcDbLine
10
-65.9382133995037
20
9.67720951312635
30
0.000000000000000
11
-65.8382133995037
21
9.63631159821923
31
0.000000000000000
  0
LINE
  5
F10785
330
F10786
100
AcDbEntity
8
Geo
100
AcDbLine
10
-65.8382133995037
20
9.63631159821923
30
0.000000000000000
11
-65.7382133995037
21
9.59484455879765
31
0.000000000000000
  0
LINE
  5
F10787
330
F10788
100
AcDbEntity
8
Geo
100
AcDbLine
10
-65.7382133995037
20
9.59484455879765
30
0.000000000000000
11
-65.6382133995037
21
9.55281703367817
31
0.000000000000000
  0
LINE
  5
F10789
330
F1078A
100
AcDbEntity
8
Geo
100
AcDbLine
10
-65.6382133995037
20
9.55281703367817
30
0.000000000000000
11
-65.5382133995037
21
9.51023777844317
31
0.000000000000000
  0
LINE
  5
F1078B
330
F1078C
100
AcDbEntity
8
Geo
100
AcDbLine
10
-65.5382133995037
20
9.51023777844317
30
0.000000000000000
11
-65.4382133995037
21
9.46711566361684
31
0.000000000000000
  0
LINE
  5
F1078D
330
F1078E
100
AcDbEntity
8
Geo
100
AcDbLine
10
-65.4382133995037
20
9.46711566361684
30
0.000000000000000
11
-65.3382133995037
21
9.42345967281712
31
0.000000000000000
  0
LINE
  5
F1078F
330
F10790
100
AcDbEntity
8
Geo
100
AcDbLine
10
-65.3382133995037
20
9.42345967281712
30
0.000000000000000
11
-65.2382133995037
21
9.37927890088420
31
0.000000000000000
  0
LINE
  5
F10791
330
F10792
100
AcDbEntity
8
Geo
100
AcDbLine
10
-65.2382133995037
20
9.37927890088420
30
0.000000000000000
11
-65.1382133995037
21
9.33458255198577
31
0.000000000000000
  0
LINE
  5
F10793
330
F10794
100
AcDbEntity
8
Geo
100
AcDbLine
10
-65.1382133995037
20
9.33458255198577
30
0.000000000000000
11
-65.0382133995037
21
9.28937993769952
31
0.000000000000000
  0
LINE
  5
F10795
330
F10796
100
AcDbEntity
8
Geo
100
AcDbLine
10
-65.0382133995037
20
9.28937993769952
30
0.000000000000000
11
-64.9382133995037
21
9.24368047507328
31
0.000000000000000
  0
LINE
  5
F10797
330
F10798
100
AcDbEntity
8
Geo
100
AcDbLine
10
-64.9382133995037
20
9.24368047507328
30
0.000000000000000
11
-64.8382133995037
21
9.19749368466312
31
0.000000000000000
  0
LINE
  5
F10799
330
F1079A
100
AcDbEntity
8
Geo
100
AcDbLine
10
-64.8382133995037
20
9.19749368466312
30
0.000000000000000
11
-64.7382133995037
21
9.15082918855001
31
0.000000000000000
  0
LINE
  5
F1079B
330
F1079C
100
AcDbEntity
8
Geo
100
AcDbLine
10
-64.7382133995037
20
9.15082918855001
30
0.000000000000000
11
-64.6382133995037
21
9.10369670833518
31
0.000000000000000
  0
LINE
  5
F1079D
330
F1079E
100
AcDbEntity
8
Geo
100
AcDbLine
10
-64.6382133995037
20
9.10369670833518
30
0.000000000000000
11
-64.5382133995037
21
9.05610606311488
31
0.000000000000000
  0
LINE
  5
F1079F
330
F107A0
100
AcDbEntity
8
Geo
100
AcDbLine
10
-64.5382133995037
20
9.05610606311488
30
0.000000000000000
11
-64.4382133995037
21
9.00806716743472
31
0.000000000000000
  0
LINE
  5
F107A1
330
F107A2
100
AcDbEntity
8
Geo
100
AcDbLine
10
-64.4382133995037
20
9.00806716743472
30
0.000000000000000
11
-64.3382133995037
21
8.95959002922424
31
0.000000000000000
  0
LINE
  5
F107A3
330
F107A4
100
AcDbEntity
8
Geo
100
AcDbLine
10
-64.3382133995037
20
8.95959002922424
30
0.000000000000000
11
-64.2382133995037
21
8.91068474771188
31
0.000000000000000
  0
LINE
  5
F107A5
330
F107A6
100
AcDbEntity
8
Geo
100
AcDbLine
10
-64.2382133995037
20
8.91068474771188
30
0.000000000000000
11
-64.1382133995037
21
8.86136151132107
31
0.000000000000000
  0
LINE
  5
F107A7
330
F107A8
100
AcDbEntity
8
Geo
100
AcDbLine
10
-64.1382133995037
20
8.86136151132107
30
0.000000000000000
11
-64.0382133995037
21
8.81163059554767
31
0.000000000000000
  0
LINE
  5
F107A9
330
F107AA
100
AcDbEntity
8
Geo
100
AcDbLine
10
-64.0382133995037
20
8.81163059554767
30
0.000000000000000
11
-63.9382133995037
21
8.76150236081926
31
0.000000000000000
  0
LINE
  5
F107AB
330
F107AC
100
AcDbEntity
8
Geo
100
AcDbLine
10
-63.9382133995037
20
8.76150236081926
30
0.000000000000000
11
-63.8382133995037
21
8.71098725033677
31
0.000000000000000
  0
LINE
  5
F107AD
330
F107AE
100
AcDbEntity
8
Geo
100
AcDbLine
10
-63.8382133995037
20
8.71098725033677
30
0.000000000000000
11
-63.7382133995037
21
8.66009578789884
31
0.000000000000000
  0
LINE
  5
F107AF
330
F107B0
100
AcDbEntity
8
Geo
100
AcDbLine
10
-63.7382133995037
20
8.66009578789884
30
0.000000000000000
11
-63.6382133995037
21
8.60883857570941
31
0.000000000000000
  0
LINE
  5
F107B1
330
F107B2
100
AcDbEntity
8
Geo
100
AcDbLine
10
-63.6382133995037
20
8.60883857570941
30
0.000000000000000
11
-63.5382133995037
21
8.55722629216896
31
0.000000000000000
  0
LINE
  5
F107B3
330
F107B4
100
AcDbEntity
8
Geo
100
AcDbLine
10
-63.5382133995037
20
8.55722629216896
30
0.000000000000000
11
-63.4382133995037
21
8.50526968964989
31
0.000000000000000
  0
LINE
  5
F107B5
330
F107B6
100
AcDbEntity
8
Geo
100
AcDbLine
10
-63.4382133995037
20
8.50526968964989
30
0.000000000000000
11
-63.3382133995037
21
8.45297959225648
31
0.000000000000000
  0
LINE
  5
F107B7
330
F107B8
100
AcDbEntity
8
Geo
100
AcDbLine
10
-63.3382133995037
20
8.45297959225648
30
0.000000000000000
11
-63.2382133995037
21
8.40036689356987
31
0.000000000000000
  0
LINE
  5
F107B9
330
F107BA
100
AcDbEntity
8
Geo
100
AcDbLine
10
-63.2382133995037
20
8.40036689356987
30
0.000000000000000
11
-63.1382133995037
21
8.34744255437868
31
0.000000000000000
  0
LINE
  5
F107BB
330
F107BC
100
AcDbEntity
8
Geo
100
AcDbLine
10
-63.1382133995037
20
8.34744255437868
30
0.000000000000000
11
-63.0382133995037
21
8.29421760039548
31
0.000000000000000
  0
LINE
  5
F107BD
330
F107BE
100
AcDbEntity
8
Geo
100
AcDbLine
10
-63.0382133995037
20
8.29421760039548
30
0.000000000000000
11
-62.9382133995037
21
8.24070311995984
31
0.000000000000000
  0
LINE
  5
F107BF
330
F107C0
100
AcDbEntity
8
Geo
100
AcDbLine
10
-62.9382133995037
20
8.24070311995984
30
0.000000000000000
11
-62.8382133995037
21
8.18691026172830
31
0.000000000000000
  0
LINE
  5
F107C1
330
F107C2
100
AcDbEntity
8
Geo
100
AcDbLine
10
-62.8382133995037
20
8.18691026172830
30
0.000000000000000
11
-62.7382133995037
21
8.13285023235177
31
0.000000000000000
  0
LINE
  5
F107C3
330
F107C4
100
AcDbEntity
8
Geo
100
AcDbLine
10
-62.7382133995037
20
8.13285023235177
30
0.000000000000000
11
-62.6382133995037
21
8.07853429414082
31
0.000000000000000
  0
LINE
  5
F107C5
330
F107C6
100
AcDbEntity
8
Geo
100
AcDbLine
10
-62.6382133995037
20
8.07853429414082
30
0.000000000000000
11
-62.5382133995037
21
8.02397376271948
31
0.000000000000000
  0
LINE
  5
F107C7
330
F107C8
100
AcDbEntity
8
Geo
100
AcDbLine
10
-62.5382133995037
20
8.02397376271948
30
0.000000000000000
11
-62.4382133995038
21
7.96918000466777
31
0.000000000000000
  0
LINE
  5
F107C9
330
F107CA
100
AcDbEntity
8
Geo
100
AcDbLine
10
-62.4382133995038
20
7.96918000466777
30
0.000000000000000
11
-62.3382133995038
21
7.91416443515379
31
0.000000000000000
  0
LINE
  5
F107CB
330
F107CC
100
AcDbEntity
8
Geo
100
AcDbLine
10
-62.3382133995038
20
7.91416443515379
30
0.000000000000000
11
-62.2382133995037
21
7.85893851555552
31
0.000000000000000
  0
LINE
  5
F107CD
330
F107CE
100
AcDbEntity
8
Geo
100
AcDbLine
10
-62.2382133995037
20
7.85893851555552
30
0.000000000000000
11
-62.1382133995037
21
7.80351375107314
31
0.000000000000000
  0
LINE
  5
F107CF
330
F107D0
100
AcDbEntity
8
Geo
100
AcDbLine
10
-62.1382133995037
20
7.80351375107314
30
0.000000000000000
11
-62.0382133995037
21
7.74790168833212
31
0.000000000000000
  0
LINE
  5
F107D1
330
F107D2
100
AcDbEntity
8
Geo
100
AcDbLine
10
-62.0382133995037
20
7.74790168833212
30
0.000000000000000
11
-61.9382133995038
21
7.69211391297772
31
0.000000000000000
  0
LINE
  5
F107D3
330
F107D4
100
AcDbEntity
8
Geo
100
AcDbLine
10
-61.9382133995038
20
7.69211391297772
30
0.000000000000000
11
-61.8382133995038
21
7.63616204726136
31
0.000000000000000
  0
LINE
  5
F107D5
330
F107D6
100
AcDbEntity
8
Geo
100
AcDbLine
10
-61.8382133995038
20
7.63616204726136
30
0.000000000000000
11
-61.7382133995037
21
7.58005774761937
31
0.000000000000000
  0
LINE
  5
F107D7
330
F107D8
100
AcDbEntity
8
Geo
100
AcDbLine
10
-61.7382133995037
20
7.58005774761937
30
0.000000000000000
11
-61.6382133995038
21
7.52381270224457
31
0.000000000000000
  0
LINE
  5
F107D9
330
F107DA
100
AcDbEntity
8
Geo
100
AcDbLine
10
-61.6382133995038
20
7.52381270224457
30
0.000000000000000
11
-61.5382133995038
21
7.46743862865133
31
0.000000000000000
  0
LINE
  5
F107DB
330
F107DC
100
AcDbEntity
8
Geo
100
AcDbLine
10
-61.5382133995038
20
7.46743862865133
30
0.000000000000000
11
-61.4382133995038
21
7.41094727123441
31
0.000000000000000
  0
LINE
  5
F107DD
330
F107DE
100
AcDbEntity
8
Geo
100
AcDbLine
10
-61.4382133995038
20
7.41094727123441
30
0.000000000000000
11
-61.3382133995038
21
7.35435039882228
31
0.000000000000000
  0
LINE
  5
F107DF
330
F107E0
100
AcDbEntity
8
Geo
100
AcDbLine
10
-61.3382133995038
20
7.35435039882228
30
0.000000000000000
11
-61.2382133995037
21
7.29765980222533
31
0.000000000000000
  0
LINE
  5
F107E1
330
F107E2
100
AcDbEntity
8
Geo
100
AcDbLine
10
-61.2382133995037
20
7.29765980222533
30
0.000000000000000
11
-61.1382133995038
21
7.24088729177948
31
0.000000000000000
  0
LINE
  5
F107E3
330
F107E4
100
AcDbEntity
8
Geo
100
AcDbLine
10
-61.1382133995038
20
7.24088729177948
30
0.000000000000000
11
-61.0382133995038
21
7.18404469488571
31
0.000000000000000
  0
LINE
  5
F107E5
330
F107E6
100
AcDbEntity
8
Geo
100
AcDbLine
10
-61.0382133995038
20
7.18404469488571
30
0.000000000000000
11
-60.9382133995038
21
7.12714385354614
31
0.000000000000000
  0
LINE
  5
F107E7
330
F107E8
100
AcDbEntity
8
Geo
100
AcDbLine
10
-60.9382133995038
20
7.12714385354614
30
0.000000000000000
11
-60.8382133995038
21
7.07019662189690
31
0.000000000000000
  0
LINE
  5
F107E9
330
F107EA
100
AcDbEntity
8
Geo
100
AcDbLine
10
-60.8382133995038
20
7.07019662189690
30
0.000000000000000
11
-60.7382133995038
21
7.01321486373861
31
0.000000000000000
  0
LINE
  5
F107EB
330
F107EC
100
AcDbEntity
8
Geo
100
AcDbLine
10
-60.7382133995038
20
7.01321486373861
30
0.000000000000000
11
-60.6382133995038
21
6.95621045006480
31
0.000000000000000
  0
LINE
  5
F107ED
330
F107EE
100
AcDbEntity
8
Geo
100
AcDbLine
10
-60.6382133995038
20
6.95621045006480
30
0.000000000000000
11
-60.5382133995038
21
6.89919525658881
31
0.000000000000000
  0
LINE
  5
F107EF
330
F107F0
100
AcDbEntity
8
Geo
100
AcDbLine
10
-60.5382133995038
20
6.89919525658881
30
0.000000000000000
11
-60.4382133995038
21
6.84218116126971
31
0.000000000000000
  0
LINE
  5
F107F1
330
F107F2
100
AcDbEntity
8
Geo
100
AcDbLine
10
-60.4382133995038
20
6.84218116126971
30
0.000000000000000
11
-60.3382133995038
21
6.78518004183783
31
0.000000000000000
  0
LINE
  5
F107F3
330
F107F4
100
AcDbEntity
8
Geo
100
AcDbLine
10
-60.3382133995038
20
6.78518004183783
30
0.000000000000000
11
-60.2382133995038
21
6.72820377332022
31
0.000000000000000
  0
LINE
  5
F107F5
330
F107F6
100
AcDbEntity
8
Geo
100
AcDbLine
10
-60.2382133995038
20
6.72820377332022
30
0.000000000000000
11
-60.1382133995038
21
6.67126422556674
31
0.000000000000000
  0
LINE
  5
F107F7
330
F107F8
100
AcDbEntity
8
Geo
100
AcDbLine
10
-60.1382133995038
20
6.67126422556674
30
0.000000000000000
11
-60.0382133995038
21
6.61437326077722
31
0.000000000000000
  0
LINE
  5
F107F9
330
F107FA
100
AcDbEntity
8
Geo
100
AcDbLine
10
-60.0382133995038
20
6.61437326077722
30
0.000000000000000
11
-59.9382133995038
21
6.55754273103024
31
0.000000000000000
  0
LINE
  5
F107FB
330
F107FC
100
AcDbEntity
8
Geo
100
AcDbLine
10
-59.9382133995038
20
6.55754273103024
30
0.000000000000000
11
-59.8382133995038
21
6.50078447581394
31
0.000000000000000
  0
LINE
  5
F107FD
330
F107FE
100
AcDbEntity
8
Geo
100
AcDbLine
10
-59.8382133995038
20
6.50078447581394
30
0.000000000000000
11
-59.7382133995038
21
6.44411031955954
31
0.000000000000000
  0
LINE
  5
F107FF
330
F10800
100
AcDbEntity
8
Geo
100
AcDbLine
10
-59.7382133995038
20
6.44411031955954
30
0.000000000000000
11
-59.6382133995038
21
6.38753206917794
31
0.000000000000000
  0
LINE
  5
F10801
330
F10802
100
AcDbEntity
8
Geo
100
AcDbLine
10
-59.6382133995038
20
6.38753206917794
30
0.000000000000000
11
-59.5382133995038
21
6.33106151160000
31
0.000000000000000
  0
LINE
  5
F10803
330
F10804
100
AcDbEntity
8
Geo
100
AcDbLine
10
-59.5382133995038
20
6.33106151160000
30
0.000000000000000
11
-59.4382133995038
21
6.27471041132096
31
0.000000000000000
  0
LINE
  5
F10805
330
F10806
100
AcDbEntity
8
Geo
100
AcDbLine
10
-59.4382133995038
20
6.27471041132096
30
0.000000000000000
11
-59.3382133995038
21
6.21849050794958
31
0.000000000000000
  0
LINE
  5
F10807
330
F10808
100
AcDbEntity
8
Geo
100
AcDbLine
10
-59.3382133995038
20
6.21849050794958
30
0.000000000000000
11
-59.2382133995038
21
6.16241351376238
31
0.000000000000000
  0
LINE
  5
F10809
330
F1080A
100
AcDbEntity
8
Geo
100
AcDbLine
10
-59.2382133995038
20
6.16241351376238
30
0.000000000000000
11
-59.1382133995038
21
6.10649111126366
31
0.000000000000000
  0
LINE
  5
F1080B
330
F1080C
100
AcDbEntity
8
Geo
100
AcDbLine
10
-59.1382133995038
20
6.10649111126366
30
0.000000000000000
11
-59.0382133995038
21
6.05073495075168
31
0.000000000000000
  0
LINE
  5
F1080D
330
F1080E
100
AcDbEntity
8
Geo
100
AcDbLine
10
-59.0382133995038
20
6.05073495075168
30
0.000000000000000
11
-58.9382133995038
21
5.99515664789154
31
0.000000000000000
  0
LINE
  5
F1080F
330
F10810
100
AcDbEntity
8
Geo
100
AcDbLine
10
-58.9382133995038
20
5.99515664789154
30
0.000000000000000
11
-58.8382133995038
21
5.93976778129532
31
0.000000000000000
  0
LINE
  5
F10811
330
F10812
100
AcDbEntity
8
Geo
100
AcDbLine
10
-58.8382133995038
20
5.93976778129532
30
0.000000000000000
11
-58.7382133995038
21
5.88457989010991
31
0.000000000000000
  0
LINE
  5
F10813
330
F10814
100
AcDbEntity
8
Geo
100
AcDbLine
10
-58.7382133995038
20
5.88457989010991
30
0.000000000000000
11
-58.6382133995038
21
5.82960447161301
31
0.000000000000000
  0
LINE
  5
F10815
330
F10816
100
AcDbEntity
8
Geo
100
AcDbLine
10
-58.6382133995038
20
5.82960447161301
30
0.000000000000000
11
-58.5382133995038
21
5.77485297881797
31
0.000000000000000
  0
LINE
  5
F10817
330
F10818
100
AcDbEntity
8
Geo
100
AcDbLine
10
-58.5382133995038
20
5.77485297881797
30
0.000000000000000
11
-58.4382133995038
21
5.72033681808777
31
0.000000000000000
  0
LINE
  5
F10819
330
F1081A
100
AcDbEntity
8
Geo
100
AcDbLine
10
-58.4382133995038
20
5.72033681808777
30
0.000000000000000
11
-58.3382133995038
21
5.66606734675872
31
0.000000000000000
  0
LINE
  5
F1081B
330
F1081C
100
AcDbEntity
8
Geo
100
AcDbLine
10
-58.3382133995038
20
5.66606734675872
30
0.000000000000000
11
-58.2382133995038
21
5.61205587077438
31
0.000000000000000
  0
LINE
  5
F1081D
330
F1081E
100
AcDbEntity
8
Geo
100
AcDbLine
10
-58.2382133995038
20
5.61205587077438
30
0.000000000000000
11
-58.1382133995038
21
5.55831364233024
31
0.000000000000000
  0
LINE
  5
F1081F
330
F10820
100
AcDbEntity
8
Geo
100
AcDbLine
10
-58.1382133995038
20
5.55831364233024
30
0.000000000000000
11
-58.0382133995038
21
5.50485185752951
31
0.000000000000000
  0
LINE
  5
F10821
330
F10822
100
AcDbEntity
8
Geo
100
AcDbLine
10
-58.0382133995038
20
5.50485185752951
30
0.000000000000000
11
-57.9382133995038
21
5.45168165405065
31
0.000000000000000
  0
LINE
  5
F10823
330
F10824
100
AcDbEntity
8
Geo
100
AcDbLine
10
-57.9382133995038
20
5.45168165405065
30
0.000000000000000
11
-57.8382133995038
21
5.39881410882709
31
0.000000000000000
  0
LINE
  5
F10825
330
F10826
100
AcDbEntity
8
Geo
100
AcDbLine
10
-57.8382133995038
20
5.39881410882709
30
0.000000000000000
11
-57.7382133995038
21
5.34626023573953
31
0.000000000000000
  0
LINE
  5
F10827
330
F10828
100
AcDbEntity
8
Geo
100
AcDbLine
10
-57.7382133995038
20
5.34626023573953
30
0.000000000000000
11
-57.6382133995038
21
5.29403098332145
31
0.000000000000000
  0
LINE
  5
F10829
330
F1082A
100
AcDbEntity
8
Geo
100
AcDbLine
10
-57.6382133995038
20
5.29403098332145
30
0.000000000000000
11
-57.5382133995038
21
5.24213723247819
31
0.000000000000000
  0
LINE
  5
F1082B
330
F1082C
100
AcDbEntity
8
Geo
100
AcDbLine
10
-57.5382133995038
20
5.24213723247819
30
0.000000000000000
11
-57.4382133995038
21
5.19058979422016
31
0.000000000000000
  0
LINE
  5
F1082D
330
F1082E
100
AcDbEntity
8
Geo
100
AcDbLine
10
-57.4382133995038
20
5.19058979422016
30
0.000000000000000
11
-57.3382133995038
21
5.13939940741055
31
0.000000000000000
  0
LINE
  5
F1082F
330
F10830
100
AcDbEntity
8
Geo
100
AcDbLine
10
-57.3382133995038
20
5.13939940741055
30
0.000000000000000
11
-57.2382133995038
21
5.08857673652813
31
0.000000000000000
  0
LINE
  5
F10831
330
F10832
100
AcDbEntity
8
Geo
100
AcDbLine
10
-57.2382133995038
20
5.08857673652813
30
0.000000000000000
11
-57.1382133995038
21
5.03813236944551
31
0.000000000000000
  0
LINE
  5
F10833
330
F10834
100
AcDbEntity
8
Geo
100
AcDbLine
10
-57.1382133995038
20
5.03813236944551
30
0.000000000000000
11
-57.0382133995038
21
4.98807681522339
31
0.000000000000000
  0
LINE
  5
F10835
330
F10836
100
AcDbEntity
8
Geo
100
AcDbLine
10
-57.0382133995038
20
4.98807681522339
30
0.000000000000000
11
-56.9382133995038
21
4.93842050192119
31
0.000000000000000
  0
LINE
  5
F10837
330
F10838
100
AcDbEntity
8
Geo
100
AcDbLine
10
-56.9382133995038
20
4.93842050192119
30
0.000000000000000
11
-56.8382133995038
21
4.88917377442458
31
0.000000000000000
  0
LINE
  5
F10839
330
F1083A
100
AcDbEntity
8
Geo
100
AcDbLine
10
-56.8382133995038
20
4.88917377442458
30
0.000000000000000
11
-56.7382133995038
21
4.84034689229032
31
0.000000000000000
  0
LINE
  5
F1083B
330
F1083C
100
AcDbEntity
8
Geo
100
AcDbLine
10
-56.7382133995038
20
4.84034689229032
30
0.000000000000000
11
-56.6382133995038
21
4.79195002760894
31
0.000000000000000
  0
LINE
  5
F1083D
330
F1083E
100
AcDbEntity
8
Geo
100
AcDbLine
10
-56.6382133995038
20
4.79195002760894
30
0.000000000000000
11
-56.5382133995038
21
4.74399326288553
31
0.000000000000000
  0
LINE
  5
F1083F
330
F10840
100
AcDbEntity
8
Geo
100
AcDbLine
10
-56.5382133995038
20
4.74399326288553
30
0.000000000000000
11
-56.4382133995038
21
4.69648658893929
31
0.000000000000000
  0
LINE
  5
F10841
330
F10842
100
AcDbEntity
8
Geo
100
AcDbLine
10
-56.4382133995038
20
4.69648658893929
30
0.000000000000000
11
-56.3382133995038
21
4.64943990282212
31
0.000000000000000
  0
LINE
  5
F10843
330
F10844
100
AcDbEntity
8
Geo
100
AcDbLine
10
-56.3382133995038
20
4.64943990282212
30
0.000000000000000
11
-56.2382133995038
21
4.60286300575681
31
0.000000000000000
  0
LINE
  5
F10845
330
F10846
100
AcDbEntity
8
Geo
100
AcDbLine
10
-56.2382133995038
20
4.60286300575681
30
0.000000000000000
11
-56.1382133995038
21
4.55676560109513
31
0.000000000000000
  0
LINE
  5
F10847
330
F10848
100
AcDbEntity
8
Geo
100
AcDbLine
10
-56.1382133995038
20
4.55676560109513
30
0.000000000000000
11
-56.0382133995038
21
4.51115729229630
31
0.000000000000000
  0
LINE
  5
F10849
330
F1084A
100
AcDbEntity
8
Geo
100
AcDbLine
10
-56.0382133995038
20
4.51115729229630
30
0.000000000000000
11
-55.9382133995038
21
4.46604758092637
31
0.000000000000000
  0
LINE
  5
F1084B
330
F1084C
100
AcDbEntity
8
Geo
100
AcDbLine
10
-55.9382133995038
20
4.46604758092637
30
0.000000000000000
11
-55.8382133995038
21
4.42144586467873
31
0.000000000000000
  0
LINE
  5
F1084D
330
F1084E
100
AcDbEntity
8
Geo
100
AcDbLine
10
-55.8382133995038
20
4.42144586467873
30
0.000000000000000
11
-55.7382133995038
21
4.37736143541626
31
0.000000000000000
  0
LINE
  5
F1084F
330
F10850
100
AcDbEntity
8
Geo
100
AcDbLine
10
-55.7382133995038
20
4.37736143541626
30
0.000000000000000
11
-55.6382133995038
21
4.33380347723563
31
0.000000000000000
  0
LINE
  5
F10851
330
F10852
100
AcDbEntity
8
Geo
100
AcDbLine
10
-55.6382133995038
20
4.33380347723563
30
0.000000000000000
11
-55.5382133995038
21
4.29078106455390
31
0.000000000000000
  0
LINE
  5
F10853
330
F10854
100
AcDbEntity
8
Geo
100
AcDbLine
10
-55.5382133995038
20
4.29078106455390
30
0.000000000000000
11
-55.4382133995038
21
4.24830316021811
31
0.000000000000000
  0
LINE
  5
F10855
330
F10856
100
AcDbEntity
8
Geo
100
AcDbLine
10
-55.4382133995038
20
4.24830316021811
30
0.000000000000000
11
-55.3382133995038
21
4.20637861363802
31
0.000000000000000
  0
LINE
  5
F10857
330
F10858
100
AcDbEntity
8
Geo
100
AcDbLine
10
-55.3382133995038
20
4.20637861363802
30
0.000000000000000
11
-55.2382133995038
21
4.16501615894255
31
0.000000000000000
  0
LINE
  5
F10859
330
F1085A
100
AcDbEntity
8
Geo
100
AcDbLine
10
-55.2382133995038
20
4.16501615894255
30
0.000000000000000
11
-55.1382133995038
21
4.12422441316015
31
0.000000000000000
  0
LINE
  5
F1085B
330
F1085C
100
AcDbEntity
8
Geo
100
AcDbLine
10
-55.1382133995038
20
4.12422441316015
30
0.000000000000000
11
-55.0382133995038
21
4.08401187442364
31
0.000000000000000
  0
LINE
  5
F1085D
330
F1085E
100
AcDbEntity
8
Geo
100
AcDbLine
10
-55.0382133995038
20
4.08401187442364
30
0.000000000000000
11
-54.9382133995038
21
4.04438692019983
31
0.000000000000000
  0
LINE
  5
F1085F
330
F10860
100
AcDbEntity
8
Geo
100
AcDbLine
10
-54.9382133995038
20
4.04438692019983
30
0.000000000000000
11
-54.8382133995038
21
4.00535780554420
31
0.000000000000000
  0
LINE
  5
F10861
330
F10862
100
AcDbEntity
8
Geo
100
AcDbLine
10
-54.8382133995038
20
4.00535780554420
30
0.000000000000000
11
-54.7382133995038
21
3.96693266138112
31
0.000000000000000
  0
LINE
  5
F10863
330
F10864
100
AcDbEntity
8
Geo
100
AcDbLine
10
-54.7382133995038
20
3.96693266138112
30
0.000000000000000
11
-54.6382133995038
21
3.92911949281000
31
0.000000000000000
  0
LINE
  5
F10865
330
F10866
100
AcDbEntity
8
Geo
100
AcDbLine
10
-54.6382133995038
20
3.92911949281000
30
0.000000000000000
11
-54.5382133995038
21
3.89192617743751
31
0.000000000000000
  0
LINE
  5
F10867
330
F10868
100
AcDbEntity
8
Geo
100
AcDbLine
10
-54.5382133995038
20
3.89192617743751
30
0.000000000000000
11
-54.4382133995038
21
3.85536046373650
31
0.000000000000000
  0
LINE
  5
F10869
330
F1086A
100
AcDbEntity
8
Geo
100
AcDbLine
10
-54.4382133995038
20
3.85536046373650
30
0.000000000000000
11
-54.3382133995038
21
3.81942996943175
31
0.000000000000000
  0
LINE
  5
F1086B
330
F1086C
100
AcDbEntity
8
Geo
100
AcDbLine
10
-54.3382133995038
20
3.81942996943175
30
0.000000000000000
11
-54.2382133995038
21
3.78414217991293
31
0.000000000000000
  0
LINE
  5
F1086D
330
F1086E
100
AcDbEntity
8
Geo
100
AcDbLine
10
-54.2382133995038
20
3.78414217991293
30
0.000000000000000
11
-54.1382133995038
21
3.74950444667525
31
0.000000000000000
  0
LINE
  5
F1086F
330
F10870
100
AcDbEntity
8
Geo
100
AcDbLine
10
-54.1382133995038
20
3.74950444667525
30
0.000000000000000
11
-54.0382133995038
21
3.71552398578783
31
0.000000000000000
  0
LINE
  5
F10871
330
F10872
100
AcDbEntity
8
Geo
100
AcDbLine
10
-54.0382133995038
20
3.71552398578783
30
0.000000000000000
11
-53.9382133995038
21
3.68220787639047
31
0.000000000000000
  0
LINE
  5
F10873
330
F10874
100
AcDbEntity
8
Geo
100
AcDbLine
10
-53.9382133995038
20
3.68220787639047
30
0.000000000000000
11
-53.8382133995038
21
3.64956305921878
31
0.000000000000000
  0
LINE
  5
F10875
330
F10876
100
AcDbEntity
8
Geo
100
AcDbLine
10
-53.8382133995038
20
3.64956305921878
30
0.000000000000000
11
-53.7382133995038
21
3.61759633515828
31
0.000000000000000
  0
LINE
  5
F10877
330
F10878
100
AcDbEntity
8
Geo
100
AcDbLine
10
-53.7382133995038
20
3.61759633515828
30
0.000000000000000
11
-53.6382133995038
21
3.58631436382751
31
0.000000000000000
  0
LINE
  5
F10879
330
F1087A
100
AcDbEntity
8
Geo
100
AcDbLine
10
-53.6382133995038
20
3.58631436382751
30
0.000000000000000
11
-53.5382133995038
21
3.55572366219071
31
0.000000000000000
  0
LINE
  5
F1087B
330
F1087C
100
AcDbEntity
8
Geo
100
AcDbLine
10
-53.5382133995038
20
3.55572366219071
30
0.000000000000000
11
-53.4382133995038
21
3.52583060320007
31
0.000000000000000
  0
LINE
  5
F1087D
330
F1087E
100
AcDbEntity
8
Geo
100
AcDbLine
10
-53.4382133995038
20
3.52583060320007
30
0.000000000000000
11
-53.3382133995038
21
3.49664141446808
31
0.000000000000000
  0
LINE
  5
F1087F
330
F10880
100
AcDbEntity
8
Geo
100
AcDbLine
10
-53.3382133995038
20
3.49664141446808
30
0.000000000000000
11
-53.2382133995038
21
3.46816217697017
31
0.000000000000000
  0
LINE
  5
F10881
330
F10882
100
AcDbEntity
8
Geo
100
AcDbLine
10
-53.2382133995038
20
3.46816217697017
30
0.000000000000000
11
-53.1382133995038
21
3.44039882377781
31
0.000000000000000
  0
LINE
  5
F10883
330
F10884
100
AcDbEntity
8
Geo
100
AcDbLine
10
-53.1382133995038
20
3.44039882377781
30
0.000000000000000
11
-53.0382133995038
21
3.41335713882249
31
0.000000000000000
  0
LINE
  5
F10885
330
F10886
100
AcDbEntity
8
Geo
100
AcDbLine
10
-53.0382133995038
20
3.41335713882249
30
0.000000000000000
11
-52.9382133995038
21
3.38704275569077
31
0.000000000000000
  0
LINE
  5
F10887
330
F10888
100
AcDbEntity
8
Geo
100
AcDbLine
10
-52.9382133995038
20
3.38704275569077
30
0.000000000000000
11
-52.8382133995038
21
3.36146115645064
31
0.000000000000000
  0
LINE
  5
F10889
330
F1088A
100
AcDbEntity
8
Geo
100
AcDbLine
10
-52.8382133995038
20
3.36146115645064
30
0.000000000000000
11
-52.7382133995037
21
3.33661767050941
31
0.000000000000000
  0
LINE
  5
F1088B
330
F1088C
100
AcDbEntity
8
Geo
100
AcDbLine
10
-52.7382133995037
20
3.33661767050941
30
0.000000000000000
11
-52.6382133995037
21
3.31251747350345
31
0.000000000000000
  0
LINE
  5
F1088D
330
F1088E
100
AcDbEntity
8
Geo
100
AcDbLine
10
-52.6382133995037
20
3.31251747350345
30
0.000000000000000
11
-52.5382133995037
21
3.28916558621998
31
0.000000000000000
  0
LINE
  5
F1088F
330
F10890
100
AcDbEntity
8
Geo
100
AcDbLine
10
-52.5382133995037
20
3.28916558621998
30
0.000000000000000
11
-52.4382133995037
21
3.26656687355106
31
0.000000000000000
  0
LINE
  5
F10891
330
F10892
100
AcDbEntity
8
Geo
100
AcDbLine
10
-52.4382133995037
20
3.26656687355106
30
0.000000000000000
11
-52.3382133995037
21
3.24472604348008
31
0.000000000000000
  0
LINE
  5
F10893
330
F10894
100
AcDbEntity
8
Geo
100
AcDbLine
10
-52.3382133995037
20
3.24472604348008
30
0.000000000000000
11
-52.2382133995037
21
3.22364764610099
31
0.000000000000000
  0
LINE
  5
F10895
330
F10896
100
AcDbEntity
8
Geo
100
AcDbLine
10
-52.2382133995037
20
3.22364764610099
30
0.000000000000000
11
-52.1382133995037
21
3.20333607267034
31
0.000000000000000
  0
LINE
  5
F10897
330
F10898
100
AcDbEntity
8
Geo
100
AcDbLine
10
-52.1382133995037
20
3.20333607267034
30
0.000000000000000
11
-52.0382133995037
21
3.18379555469244
31
0.000000000000000
  0
LINE
  5
F10899
330
F1089A
100
AcDbEntity
8
Geo
100
AcDbLine
10
-52.0382133995037
20
3.18379555469244
30
0.000000000000000
11
-51.9382133995037
21
3.16503016303789
31
0.000000000000000
  0
LINE
  5
F1089B
330
F1089C
100
AcDbEntity
8
Geo
100
AcDbLine
10
-51.9382133995037
20
3.16503016303789
30
0.000000000000000
11
-51.8382133995037
21
3.14704380709539
31
0.000000000000000
  0
LINE
  5
F1089D
330
F1089E
100
AcDbEntity
8
Geo
100
AcDbLine
10
-51.8382133995037
20
3.14704380709539
30
0.000000000000000
11
-51.7382133995037
21
3.12984023395739
31
0.000000000000000
  0
LINE
  5
F1089F
330
F108A0
100
AcDbEntity
8
Geo
100
AcDbLine
10
-51.7382133995037
20
3.12984023395739
30
0.000000000000000
11
-51.6382133995037
21
3.11342302763939
31
0.000000000000000
  0
LINE
  5
F108A1
330
F108A2
100
AcDbEntity
8
Geo
100
AcDbLine
10
-51.6382133995037
20
3.11342302763939
30
0.000000000000000
11
-51.5382133995037
21
3.09779560833334
31
0.000000000000000
  0
LINE
  5
F108A3
330
F108A4
100
AcDbEntity
8
Geo
100
AcDbLine
10
-51.5382133995037
20
3.09779560833334
30
0.000000000000000
11
-51.4382133995037
21
3.08296123169506
31
0.000000000000000
  0
LINE
  5
F108A5
330
F108A6
100
AcDbEntity
8
Geo
100
AcDbLine
10
-51.4382133995037
20
3.08296123169506
30
0.000000000000000
11
-51.3382133995037
21
3.06892298816605
31
0.000000000000000
  0
LINE
  5
F108A7
330
F108A8
100
AcDbEntity
8
Geo
100
AcDbLine
10
-51.3382133995037
20
3.06892298816605
30
0.000000000000000
11
-51.2382133995037
21
3.05568380232958
31
0.000000000000000
  0
LINE
  5
F108A9
330
F108AA
100
AcDbEntity
8
Geo
100
AcDbLine
10
-51.2382133995037
20
3.05568380232958
30
0.000000000000000
11
-51.1382133995037
21
3.04324643230149
31
0.000000000000000
  0
LINE
  5
F108AB
330
F108AC
100
AcDbEntity
8
Geo
100
AcDbLine
10
-51.1382133995037
20
3.04324643230149
30
0.000000000000000
11
-51.0382133995037
21
3.03161346915555
31
0.000000000000000
  0
LINE
  5
F108AD
330
F108AE
100
AcDbEntity
8
Geo
100
AcDbLine
10
-51.0382133995037
20
3.03161346915555
30
0.000000000000000
11
-50.9382133995037
21
3.02078733638369
31
0.000000000000000
  0
LINE
  5
F108AF
330
F108B0
100
AcDbEntity
8
Geo
100
AcDbLine
10
-50.9382133995037
20
3.02078733638369
30
0.000000000000000
11
-50.8382133995037
21
3.01077028939106
31
0.000000000000000
  0
LINE
  5
F108B1
330
F108B2
100
AcDbEntity
8
Geo
100
AcDbLine
10
-50.8382133995037
20
3.01077028939106
30
0.000000000000000
11
-50.7382133995037
21
3.00156441502622
31
0.000000000000000
  0
LINE
  5
F108B3
330
F108B4
100
AcDbEntity
8
Geo
100
AcDbLine
10
-50.7382133995037
20
3.00156441502622
30
0.000000000000000
11
-50.6382133995037
21
2.99317163114638
31
0.000000000000000
  0
LINE
  5
F108B5
330
F108B6
100
AcDbEntity
8
Geo
100
AcDbLine
10
-50.6382133995037
20
2.99317163114638
30
0.000000000000000
11
-50.5382133995037
21
2.98559368621782
31
0.000000000000000
  0
LINE
  5
F108B7
330
F108B8
100
AcDbEntity
8
Geo
100
AcDbLine
10
-50.5382133995037
20
2.98559368621782
30
0.000000000000000
11
-50.4382133995037
21
2.97883215895166
31
0.000000000000000
  0
LINE
  5
F108B9
330
F108BA
100
AcDbEntity
8
Geo
100
AcDbLine
10
-50.4382133995037
20
2.97883215895166
30
0.000000000000000
11
-50.3382133995037
21
2.97288845797495
31
0.000000000000000
  0
LINE
  5
F108BB
330
F108BC
100
AcDbEntity
8
Geo
100
AcDbLine
10
-50.3382133995037
20
2.97288845797495
30
0.000000000000000
11
-50.2382133995037
21
2.96776382153724
31
0.000000000000000
  0
LINE
  5
F108BD
330
F108BE
100
AcDbEntity
8
Geo
100
AcDbLine
10
-50.2382133995037
20
2.96776382153724
30
0.000000000000000
11
-50.1382133995037
21
2.96345931725258
31
0.000000000000000
  0
LINE
  5
F108BF
330
F108C0
100
AcDbEntity
8
Geo
100
AcDbLine
10
-50.1382133995037
20
2.96345931725258
30
0.000000000000000
11
-50.0382133995037
21
2.95997584187713
31
0.000000000000000
  0
LINE
  5
F108C1
330
F108C2
100
AcDbEntity
8
Geo
100
AcDbLine
10
-50.0382133995037
20
2.95997584187713
30
0.000000000000000
11
-49.9382133995037
21
2.95731412112232
31
0.000000000000000
  0
LINE
  5
F108C3
330
F108C4
100
AcDbEntity
8
Geo
100
AcDbLine
10
-49.9382133995037
20
2.95731412112232
30
0.000000000000000
11
-49.8382133995037
21
2.95547470950369
31
0.000000000000000
  0
LINE
  5
F108C5
330
F108C6
100
AcDbEntity
8
Geo
100
AcDbLine
10
-49.8382133995037
20
2.95547470950369
30
0.000000000000000
11
-49.7382133995037
21
2.95445799022533
31
0.000000000000000
  0
LINE
  5
F108C7
330
F108C8
100
AcDbEntity
8
Geo
100
AcDbLine
10
-49.6382133995037
20
10.8546688273813
30
0.000000000000000
11
-49.5382133995037
21
10.8540396979760
31
0.000000000000000
  0
LINE
  5
F108C9
330
F108CA
100
AcDbEntity
8
Geo
100
AcDbLine
10
-49.5382133995037
20
10.8540396979760
30
0.000000000000000
11
-49.4382133995037
21
10.8525877551064
31
0.000000000000000
  0
LINE
  5
F108CB
330
F108CC
100
AcDbEntity
8
Geo
100
AcDbLine
10
-49.4382133995037
20
10.8525877551064
30
0.000000000000000
11
-49.3382133995037
21
10.8503133012555
31
0.000000000000000
  0
LINE
  5
F108CD
330
F108CE
100
AcDbEntity
8
Geo
100
AcDbLine
10
-49.3382133995037
20
10.8503133012555
30
0.000000000000000
11
-49.2382133995037
21
10.8472168102596
31
0.000000000000000
  0
LINE
  5
F108CF
330
F108D0
100
AcDbEntity
8
Geo
100
AcDbLine
10
-49.2382133995037
20
10.8472168102596
30
0.000000000000000
11
-49.1382133995037
21
10.8432989272097
31
0.000000000000000
  0
LINE
  5
F108D1
330
F108D2
100
AcDbEntity
8
Geo
100
AcDbLine
10
-49.1382133995037
20
10.8432989272097
30
0.000000000000000
11
-49.0382133995037
21
10.8385604683173
31
0.000000000000000
  0
LINE
  5
F108D3
330
F108D4
100
AcDbEntity
8
Geo
100
AcDbLine
10
-49.0382133995037
20
10.8385604683173
30
0.000000000000000
11
-48.9382133995037
21
10.8330024207442
31
0.000000000000000
  0
LINE
  5
F108D5
330
F108D6
100
AcDbEntity
8
Geo
100
AcDbLine
10
-48.9382133995037
20
10.8330024207442
30
0.000000000000000
11
-48.8382133995037
21
10.8266259423969
31
0.000000000000000
  0
LINE
  5
F108D7
330
F108D8
100
AcDbEntity
8
Geo
100
AcDbLine
10
-48.8382133995037
20
10.8266259423969
30
0.000000000000000
11
-48.7382133995037
21
10.8194323616853
31
0.000000000000000
  0
LINE
  5
F108D9
330
F108DA
100
AcDbEntity
8
Geo
100
AcDbLine
10
-48.7382133995037
20
10.8194323616853
30
0.000000000000000
11
-48.6382133995037
21
10.8114231772461
31
0.000000000000000
  0
LINE
  5
F108DB
330
F108DC
100
AcDbEntity
8
Geo
100
AcDbLine
10
-48.6382133995037
20
10.8114231772461
30
0.000000000000000
11
-48.5382133995037
21
10.8026000576303
31
0.000000000000000
  0
LINE
  5
F108DD
330
F108DE
100
AcDbEntity
8
Geo
100
AcDbLine
10
-48.5382133995037
20
10.8026000576303
30
0.000000000000000
11
-48.4382133995037
21
10.7929648409560
31
0.000000000000000
  0
LINE
  5
F108DF
330
F108E0
100
AcDbEntity
8
Geo
100
AcDbLine
10
-48.4382133995037
20
10.7929648409560
30
0.000000000000000
11
-48.3382133995037
21
10.7825195345251
31
0.000000000000000
  0
LINE
  5
F108E1
330
F108E2
100
AcDbEntity
8
Geo
100
AcDbLine
10
-48.3382133995037
20
10.7825195345251
30
0.000000000000000
11
-48.2382133995037
21
10.7712663144054
31
0.000000000000000
  0
LINE
  5
F108E3
330
F108E4
100
AcDbEntity
8
Geo
100
AcDbLine
10
-48.2382133995037
20
10.7712663144054
30
0.000000000000000
11
-48.1382133995037
21
10.7592075249770
31
0.000000000000000
  0
LINE
  5
F108E5
330
F108E6
100
AcDbEntity
8
Geo
100
AcDbLine
10
-48.1382133995037
20
10.7592075249770
30
0.000000000000000
11
-48.0382133995037
21
10.7463456784441
31
0.000000000000000
  0
LINE
  5
F108E7
330
F108E8
100
AcDbEntity
8
Geo
100
AcDbLine
10
-48.0382133995037
20
10.7463456784441
30
0.000000000000000
11
-47.9382133995037
21
10.7326834543115
31
0.000000000000000
  0
LINE
  5
F108E9
330
F108EA
100
AcDbEntity
8
Geo
100
AcDbLine
10
-47.9382133995037
20
10.7326834543115
30
0.000000000000000
11
-47.8382133995037
21
10.7182236988266
31
0.000000000000000
  0
LINE
  5
F108EB
330
F108EC
100
AcDbEntity
8
Geo
100
AcDbLine
10
-47.8382133995037
20
10.7182236988266
30
0.000000000000000
11
-47.7382133995037
21
10.7029694243860
31
0.000000000000000
  0
LINE
  5
F108ED
330
F108EE
100
AcDbEntity
8
Geo
100
AcDbLine
10
-47.7382133995037
20
10.7029694243860
30
0.000000000000000
11
-47.6382133995037
21
10.6869238089085
31
0.000000000000000
  0
LINE
  5
F108EF
330
F108F0
100
AcDbEntity
8
Geo
100
AcDbLine
10
-47.6382133995037
20
10.6869238089085
30
0.000000000000000
11
-47.5382133995037
21
10.6700901951726
31
0.000000000000000
  0
LINE
  5
F108F1
330
F108F2
100
AcDbEntity
8
Geo
100
AcDbLine
10
-47.5382133995037
20
10.6700901951726
30
0.000000000000000
11
-47.4382133995037
21
10.6524720901202
31
0.000000000000000
  0
LINE
  5
F108F3
330
F108F4
100
AcDbEntity
8
Geo
100
AcDbLine
10
-47.4382133995037
20
10.6524720901202
30
0.000000000000000
11
-47.3382133995037
21
10.6340731641261
31
0.000000000000000
  0
LINE
  5
F108F5
330
F108F6
100
AcDbEntity
8
Geo
100
AcDbLine
10
-47.3382133995037
20
10.6340731641261
30
0.000000000000000
11
-47.2382133995037
21
10.6148972502335
31
0.000000000000000
  0
LINE
  5
F108F7
330
F108F8
100
AcDbEntity
8
Geo
100
AcDbLine
10
-47.2382133995037
20
10.6148972502335
30
0.000000000000000
11
-47.1382133995037
21
10.5949483433550
31
0.000000000000000
  0
LINE
  5
F108F9
330
F108FA
100
AcDbEntity
8
Geo
100
AcDbLine
10
-47.1382133995037
20
10.5949483433550
30
0.000000000000000
11
-47.0382133995037
21
10.5742305994407
31
0.000000000000000
  0
LINE
  5
F108FB
330
F108FC
100
AcDbEntity
8
Geo
100
AcDbLine
10
-47.0382133995037
20
10.5742305994407
30
0.000000000000000
11
-46.9382133995037
21
10.5527483346124
31
0.000000000000000
  0
LINE
  5
F108FD
330
F108FE
100
AcDbEntity
8
Geo
100
AcDbLine
10
-46.9382133995037
20
10.5527483346124
30
0.000000000000000
11
-46.8382133995037
21
10.5305060242642
31
0.000000000000000
  0
LINE
  5
F108FF
330
F10900
100
AcDbEntity
8
Geo
100
AcDbLine
10
-46.8382133995037
20
10.5305060242642
30
0.000000000000000
11
-46.7382133995037
21
10.5075083021303
31
0.000000000000000
  0
LINE
  5
F10901
330
F10902
100
AcDbEntity
8
Geo
100
AcDbLine
10
-46.7382133995037
20
10.5075083021303
30
0.000000000000000
11
-46.6382133995037
21
10.4837599593195
31
0.000000000000000
  0
LINE
  5
F10903
330
F10904
100
AcDbEntity
8
Geo
100
AcDbLine
10
-46.6382133995037
20
10.4837599593195
30
0.000000000000000
11
-46.5382133995037
21
10.4592659433176
31
0.000000000000000
  0
LINE
  5
F10905
330
F10906
100
AcDbEntity
8
Geo
100
AcDbLine
10
-46.5382133995037
20
10.4592659433176
30
0.000000000000000
11
-46.4382133995037
21
10.4340313569558
31
0.000000000000000
  0
LINE
  5
F10907
330
F10908
100
AcDbEntity
8
Geo
100
AcDbLine
10
-46.4382133995037
20
10.4340313569558
30
0.000000000000000
11
-46.3382133995037
21
10.4080614573483
31
0.000000000000000
  0
LINE
  5
F10909
330
F1090A
100
AcDbEntity
8
Geo
100
AcDbLine
10
-46.3382133995037
20
10.4080614573483
30
0.000000000000000
11
-46.2382133995037
21
10.3813616547971
31
0.000000000000000
  0
LINE
  5
F1090B
330
F1090C
100
AcDbEntity
8
Geo
100
AcDbLine
10
-46.2382133995037
20
10.3813616547971
30
0.000000000000000
11
-46.1382133995037
21
10.3539375116644
31
0.000000000000000
  0
LINE
  5
F1090D
330
F1090E
100
AcDbEntity
8
Geo
100
AcDbLine
10
-46.1382133995037
20
10.3539375116644
30
0.000000000000000
11
-46.0382133995037
21
10.3257947412141
31
0.000000000000000
  0
LINE
  5
F1090F
330
F10910
100
AcDbEntity
8
Geo
100
AcDbLine
10
-46.0382133995037
20
10.3257947412141
30
0.000000000000000
11
-45.9382133995037
21
10.2969392064217
31
0.000000000000000
  0
LINE
  5
F10911
330
F10912
100
AcDbEntity
8
Geo
100
AcDbLine
10
-45.9382133995037
20
10.2969392064217
30
0.000000000000000
11
-45.8382133995037
21
10.2673769187525
31
0.000000000000000
  0
LINE
  5
F10913
330
F10914
100
AcDbEntity
8
Geo
100
AcDbLine
10
-45.8382133995037
20
10.2673769187525
30
0.000000000000000
11
-45.7382133995037
21
10.2371140369096
31
0.000000000000000
  0
LINE
  5
F10915
330
F10916
100
AcDbEntity
8
Geo
100
AcDbLine
10
-45.7382133995037
20
10.2371140369096
30
0.000000000000000
11
-45.6382133995036
21
10.2061568655505
31
0.000000000000000
  0
LINE
  5
F10917
330
F10918
100
AcDbEntity
8
Geo
100
AcDbLine
10
-45.6382133995036
20
10.2061568655505
30
0.000000000000000
11
-45.5382133995036
21
10.1745118539739
31
0.000000000000000
  0
LINE
  5
F10919
330
F1091A
100
AcDbEntity
8
Geo
100
AcDbLine
10
-45.5382133995036
20
10.1745118539739
30
0.000000000000000
11
-45.4382133995036
21
10.1421855947762
31
0.000000000000000
  0
LINE
  5
F1091B
330
F1091C
100
AcDbEntity
8
Geo
100
AcDbLine
10
-45.4382133995036
20
10.1421855947762
30
0.000000000000000
11
-45.3382133995036
21
10.1091848224778
31
0.000000000000000
  0
LINE
  5
F1091D
330
F1091E
100
AcDbEntity
8
Geo
100
AcDbLine
10
-45.3382133995036
20
10.1091848224778
30
0.000000000000000
11
-45.2382133995036
21
10.0755164121202
31
0.000000000000000
  0
LINE
  5
F1091F
330
F10920
100
AcDbEntity
8
Geo
100
AcDbLine
10
-45.2382133995036
20
10.0755164121202
30
0.000000000000000
11
-45.1382133995036
21
10.0411873778337
31
0.000000000000000
  0
LINE
  5
F10921
330
F10922
100
AcDbEntity
8
Geo
100
AcDbLine
10
-45.1382133995036
20
10.0411873778337
30
0.000000000000000
11
-45.0382133995036
21
10.0062048713764
31
0.000000000000000
  0
LINE
  5
F10923
330
F10924
100
AcDbEntity
8
Geo
100
AcDbLine
10
-45.0382133995036
20
10.0062048713764
30
0.000000000000000
11
-44.9382133995036
21
9.97057618064396
31
0.000000000000000
  0
LINE
  5
F10925
330
F10926
100
AcDbEntity
8
Geo
100
AcDbLine
10
-44.9382133995036
20
9.97057618064396
30
0.000000000000000
11
-44.8382133995036
21
9.93430872815135
31
0.000000000000000
  0
LINE
  5
F10927
330
F10928
100
AcDbEntity
8
Geo
100
AcDbLine
10
-44.8382133995036
20
9.93430872815135
30
0.000000000000000
11
-44.7382133995036
21
9.89741006948668
31
0.000000000000000
  0
LINE
  5
F10929
330
F1092A
100
AcDbEntity
8
Geo
100
AcDbLine
10
-44.7382133995036
20
9.89741006948668
30
0.000000000000000
11
-44.6382133995036
21
9.85988789173706
31
0.000000000000000
  0
LINE
  5
F1092B
330
F1092C
100
AcDbEntity
8
Geo
100
AcDbLine
10
-44.6382133995036
20
9.85988789173706
30
0.000000000000000
11
-44.5382133995036
21
9.82175001188714
31
0.000000000000000
  0
LINE
  5
F1092D
330
F1092E
100
AcDbEntity
8
Geo
100
AcDbLine
10
-44.5382133995036
20
9.82175001188714
30
0.000000000000000
11
-44.4382133995036
21
9.78300437519061
31
0.000000000000000
  0
LINE
  5
F1092F
330
F10930
100
AcDbEntity
8
Geo
100
AcDbLine
10
-44.4382133995036
20
9.78300437519061
30
0.000000000000000
11
-44.3382133995036
21
9.74365905351498
31
0.000000000000000
  0
LINE
  5
F10931
330
F10932
100
AcDbEntity
8
Geo
100
AcDbLine
10
-44.3382133995036
20
9.74365905351498
30
0.000000000000000
11
-44.2382133995036
21
9.70372224365996
31
0.000000000000000
  0
LINE
  5
F10933
330
F10934
100
AcDbEntity
8
Geo
100
AcDbLine
10
-44.2382133995036
20
9.70372224365996
30
0.000000000000000
11
-44.1382133995036
21
9.66320226564982
31
0.000000000000000
  0
LINE
  5
F10935
330
F10936
100
AcDbEntity
8
Geo
100
AcDbLine
10
-44.1382133995036
20
9.66320226564982
30
0.000000000000000
11
-44.0382133995036
21
9.62210756100009
31
0.000000000000000
  0
LINE
  5
F10937
330
F10938
100
AcDbEntity
8
Geo
100
AcDbLine
10
-44.0382133995036
20
9.62210756100009
30
0.000000000000000
11
-43.9382133995036
21
9.58044669095894
31
0.000000000000000
  0
LINE
  5
F10939
330
F1093A
100
AcDbEntity
8
Geo
100
AcDbLine
10
-43.9382133995036
20
9.58044669095894
30
0.000000000000000
11
-43.8382133995036
21
9.53822833472362
31
0.000000000000000
  0
LINE
  5
F1093B
330
F1093C
100
AcDbEntity
8
Geo
100
AcDbLine
10
-43.8382133995036
20
9.53822833472362
30
0.000000000000000
11
-43.7382133995036
21
9.49546128763230
31
0.000000000000000
  0
LINE
  5
F1093D
330
F1093E
100
AcDbEntity
8
Geo
100
AcDbLine
10
-43.7382133995036
20
9.49546128763230
30
0.000000000000000
11
-43.6382133995036
21
9.45215445933178
31
0.000000000000000
  0
LINE
  5
F1093F
330
F10940
100
AcDbEntity
8
Geo
100
AcDbLine
10
-43.6382133995036
20
9.45215445933178
30
0.000000000000000
11
-43.5382133995036
21
9.40831687192133
31
0.000000000000000
  0
LINE
  5
F10941
330
F10942
100
AcDbEntity
8
Geo
100
AcDbLine
10
-43.5382133995036
20
9.40831687192133
30
0.000000000000000
11
-43.4382133995036
21
9.36395765807308
31
0.000000000000000
  0
LINE
  5
F10943
330
F10944
100
AcDbEntity
8
Geo
100
AcDbLine
10
-43.4382133995036
20
9.36395765807308
30
0.000000000000000
11
-43.3382133995036
21
9.31908605912951
31
0.000000000000000
  0
LINE
  5
F10945
330
F10946
100
AcDbEntity
8
Geo
100
AcDbLine
10
-43.3382133995036
20
9.31908605912951
30
0.000000000000000
11
-43.2382133995036
21
9.27371142317807
31
0.000000000000000
  0
LINE
  5
F10947
330
F10948
100
AcDbEntity
8
Geo
100
AcDbLine
10
-43.2382133995036
20
9.27371142317807
30
0.000000000000000
11
-43.1382133995036
21
9.22784320310383
31
0.000000000000000
  0
LINE
  5
F10949
330
F1094A
100
AcDbEntity
8
Geo
100
AcDbLine
10
-43.1382133995036
20
9.22784320310383
30
0.000000000000000
11
-43.0382133995036
21
9.18149095462005
31
0.000000000000000
  0
LINE
  5
F1094B
330
F1094C
100
AcDbEntity
8
Geo
100
AcDbLine
10
-43.0382133995036
20
9.18149095462005
30
0.000000000000000
11
-42.9382133995036
21
9.13466433427753
31
0.000000000000000
  0
LINE
  5
F1094D
330
F1094E
100
AcDbEntity
8
Geo
100
AcDbLine
10
-42.9382133995036
20
9.13466433427753
30
0.000000000000000
11
-42.8382133995036
21
9.08737309745280
31
0.000000000000000
  0
LINE
  5
F1094F
330
F10950
100
AcDbEntity
8
Geo
100
AcDbLine
10
-42.8382133995036
20
9.08737309745280
30
0.000000000000000
11
-42.7382133995036
21
9.03962709631583
31
0.000000000000000
  0
LINE
  5
F10951
330
F10952
100
AcDbEntity
8
Geo
100
AcDbLine
10
-42.7382133995036
20
9.03962709631583
30
0.000000000000000
11
-42.6382133995036
21
8.99143627777748
31
0.000000000000000
  0
LINE
  5
F10953
330
F10954
100
AcDbEntity
8
Geo
100
AcDbLine
10
-42.6382133995036
20
8.99143627777748
30
0.000000000000000
11
-42.5382133995036
21
8.94281068141733
31
0.000000000000000
  0
LINE
  5
F10955
330
F10956
100
AcDbEntity
8
Geo
100
AcDbLine
10
-42.5382133995036
20
8.94281068141733
30
0.000000000000000
11
-42.4382133995036
21
8.89376043739207
31
0.000000000000000
  0
LINE
  5
F10957
330
F10958
100
AcDbEntity
8
Geo
100
AcDbLine
10
-42.4382133995036
20
8.89376043739207
30
0.000000000000000
11
-42.3382133995036
21
8.84429576432514
31
0.000000000000000
  0
LINE
  5
F10959
330
F1095A
100
AcDbEntity
8
Geo
100
AcDbLine
10
-42.3382133995036
20
8.84429576432514
30
0.000000000000000
11
-42.2382133995036
21
8.79442696717785
31
0.000000000000000
  0
LINE
  5
F1095B
330
F1095C
100
AcDbEntity
8
Geo
100
AcDbLine
10
-42.2382133995036
20
8.79442696717785
30
0.000000000000000
11
-42.1382133995036
21
8.74416443510257
31
0.000000000000000
  0
LINE
  5
F1095D
330
F1095E
100
AcDbEntity
8
Geo
100
AcDbLine
10
-42.1382133995036
20
8.74416443510257
30
0.000000000000000
11
-42.0382133995036
21
8.69351863927835
31
0.000000000000000
  0
LINE
  5
F1095F
330
F10960
100
AcDbEntity
8
Geo
100
AcDbLine
10
-42.0382133995036
20
8.69351863927835
30
0.000000000000000
11
-41.9382133995036
21
8.64250013072949
31
0.000000000000000
  0
LINE
  5
F10961
330
F10962
100
AcDbEntity
8
Geo
100
AcDbLine
10
-41.9382133995036
20
8.64250013072949
30
0.000000000000000
11
-41.8382133995036
21
8.59111953812739
31
0.000000000000000
  0
LINE
  5
F10963
330
F10964
100
AcDbEntity
8
Geo
100
AcDbLine
10
-41.8382133995036
20
8.59111953812739
30
0.000000000000000
11
-41.7382133995036
21
8.53938756557636
31
0.000000000000000
  0
LINE
  5
F10965
330
F10966
100
AcDbEntity
8
Geo
100
AcDbLine
10
-41.7382133995036
20
8.53938756557636
30
0.000000000000000
11
-41.6382133995036
21
8.48731499038355
31
0.000000000000000
  0
LINE
  5
F10967
330
F10968
100
AcDbEntity
8
Geo
100
AcDbLine
10
-41.6382133995036
20
8.48731499038355
30
0.000000000000000
11
-41.5382133995036
21
8.43491266081380
31
0.000000000000000
  0
LINE
  5
F10969
330
F1096A
100
AcDbEntity
8
Geo
100
AcDbLine
10
-41.5382133995036
20
8.43491266081380
30
0.000000000000000
11
-41.4382133995036
21
8.38219149382957
31
0.000000000000000
  0
LINE
  5
F1096B
330
F1096C
100
AcDbEntity
8
Geo
100
AcDbLine
10
-41.4382133995036
20
8.38219149382957
30
0.000000000000000
11
-41.3382133995036
21
8.32916247281663
31
0.000000000000000
  0
LINE
  5
F1096D
330
F1096E
100
AcDbEntity
8
Geo
100
AcDbLine
10
-41.3382133995036
20
8.32916247281663
30
0.000000000000000
11
-41.2382133995036
21
8.27583664529589
31
0.000000000000000
  0
LINE
  5
F1096F
330
F10970
100
AcDbEntity
8
Geo
100
AcDbLine
10
-41.2382133995036
20
8.27583664529589
30
0.000000000000000
11
-41.1382133995036
21
8.22222512062187
31
0.000000000000000
  0
LINE
  5
F10971
330
F10972
100
AcDbEntity
8
Geo
100
AcDbLine
10
-41.1382133995036
20
8.22222512062187
30
0.000000000000000
11
-41.0382133995036
21
8.16833906766831
31
0.000000000000000
  0
LINE
  5
F10973
330
F10974
100
AcDbEntity
8
Geo
100
AcDbLine
10
-41.0382133995036
20
8.16833906766831
30
0.000000000000000
11
-40.9382133995036
21
8.11418971250135
31
0.000000000000000
  0
LINE
  5
F10975
330
F10976
100
AcDbEntity
8
Geo
100
AcDbLine
10
-40.9382133995036
20
8.11418971250135
30
0.000000000000000
11
-40.8382133995036
21
8.05978833604080
31
0.000000000000000
  0
LINE
  5
F10977
330
F10978
100
AcDbEntity
8
Geo
100
AcDbLine
10
-40.8382133995036
20
8.05978833604080
30
0.000000000000000
11
-40.7382133995036
21
8.00514627170998
31
0.000000000000000
  0
LINE
  5
F10979
330
F1097A
100
AcDbEntity
8
Geo
100
AcDbLine
10
-40.7382133995036
20
8.00514627170998
30
0.000000000000000
11
-40.6382133995036
21
7.95027490307466
31
0.000000000000000
  0
LINE
  5
F1097B
330
F1097C
100
AcDbEntity
8
Geo
100
AcDbLine
10
-40.6382133995036
20
7.95027490307466
30
0.000000000000000
11
-40.5382133995036
21
7.89518566147152
31
0.000000000000000
  0
LINE
  5
F1097D
330
F1097E
100
AcDbEntity
8
Geo
100
AcDbLine
10
-40.5382133995036
20
7.89518566147152
30
0.000000000000000
11
-40.4382133995036
21
7.83989002362663
31
0.000000000000000
  0
LINE
  5
F1097F
330
F10980
100
AcDbEntity
8
Geo
100
AcDbLine
10
-40.4382133995036
20
7.83989002362663
30
0.000000000000000
11
-40.3382133995036
21
7.78439950926455
31
0.000000000000000
  0
LINE
  5
F10981
330
F10982
100
AcDbEntity
8
Geo
100
AcDbLine
10
-40.3382133995036
20
7.78439950926455
30
0.000000000000000
11
-40.2382133995036
21
7.72872567870841
31
0.000000000000000
  0
LINE
  5
F10983
330
F10984
100
AcDbEntity
8
Geo
100
AcDbLine
10
-40.2382133995036
20
7.72872567870841
30
0.000000000000000
11
-40.1382133995036
21
7.67288013047154
31
0.000000000000000
  0
LINE
  5
F10985
330
F10986
100
AcDbEntity
8
Geo
100
AcDbLine
10
-40.1382133995036
20
7.67288013047154
30
0.000000000000000
11
-40.0382133995036
21
7.61687449884117
31
0.000000000000000
  0
LINE
  5
F10987
330
F10988
100
AcDbEntity
8
Geo
100
AcDbLine
10
-40.0382133995036
20
7.61687449884117
30
0.000000000000000
11
-39.9382133995036
21
7.56072045145465
31
0.000000000000000
  0
LINE
  5
F10989
330
F1098A
100
AcDbEntity
8
Geo
100
AcDbLine
10
-39.9382133995036
20
7.56072045145465
30
0.000000000000000
11
-39.8382133995036
21
7.50442968686876
31
0.000000000000000
  0
LINE
  5
F1098B
330
F1098C
100
AcDbEntity
8
Geo
100
AcDbLine
10
-39.8382133995036
20
7.50442968686876
30
0.000000000000000
11
-39.7382133995036
21
7.44801393212251
31
0.000000000000000
  0
LINE
  5
F1098D
330
F1098E
100
AcDbEntity
8
Geo
100
AcDbLine
10
-39.7382133995036
20
7.44801393212251
30
0.000000000000000
11
-39.6382133995036
21
7.39148494029412
31
0.000000000000000
  0
LINE
  5
F1098F
330
F10990
100
AcDbEntity
8
Geo
100
AcDbLine
10
-39.6382133995036
20
7.39148494029412
30
0.000000000000000
11
-39.5382133995036
21
7.33485448805240
31
0.000000000000000
  0
LINE
  5
F10991
330
F10992
100
AcDbEntity
8
Geo
100
AcDbLine
10
-39.5382133995036
20
7.33485448805240
30
0.000000000000000
11
-39.4382133995036
21
7.27813437320342
31
0.000000000000000
  0
LINE
  5
F10993
330
F10994
100
AcDbEntity
8
Geo
100
AcDbLine
10
-39.4382133995036
20
7.27813437320342
30
0.000000000000000
11
-39.3382133995036
21
7.22133641223263
31
0.000000000000000
  0
LINE
  5
F10995
330
F10996
100
AcDbEntity
8
Geo
100
AcDbLine
10
-39.3382133995036
20
7.22133641223263
30
0.000000000000000
11
-39.2382133995036
21
7.16447243784312
31
0.000000000000000
  0
LINE
  5
F10997
330
F10998
100
AcDbEntity
8
Geo
100
AcDbLine
10
-39.2382133995036
20
7.16447243784312
30
0.000000000000000
11
-39.1382133995036
21
7.10755429649056
31
0.000000000000000
  0
LINE
  5
F10999
330
F1099A
100
AcDbEntity
8
Geo
100
AcDbLine
10
-39.1382133995036
20
7.10755429649056
30
0.000000000000000
11
-39.0382133995036
21
7.05059384591520
31
0.000000000000000
  0
LINE
  5
F1099B
330
F1099C
100
AcDbEntity
8
Geo
100
AcDbLine
10
-39.0382133995036
20
7.05059384591520
30
0.000000000000000
11
-38.9382133995036
21
6.99360295267156
31
0.000000000000000
  0
LINE
  5
F1099D
330
F1099E
100
AcDbEntity
8
Geo
100
AcDbLine
10
-38.9382133995036
20
6.99360295267156
30
0.000000000000000
11
-38.8382133995036
21
6.93659348965627
31
0.000000000000000
  0
LINE
  5
F1099F
330
F109A0
100
AcDbEntity
8
Geo
100
AcDbLine
10
-38.8382133995036
20
6.93659348965627
30
0.000000000000000
11
-38.7382133995036
21
6.87957733363459
31
0.000000000000000
  0
LINE
  5
F109A1
330
F109A2
100
AcDbEntity
8
Geo
100
AcDbLine
10
-38.7382133995036
20
6.87957733363459
30
0.000000000000000
11
-38.6382133995035
21
6.82256636276614
31
0.000000000000000
  0
LINE
  5
F109A3
330
F109A4
100
AcDbEntity
8
Geo
100
AcDbLine
10
-38.6382133995035
20
6.82256636276614
30
0.000000000000000
11
-38.5382133995035
21
6.76557245413031
31
0.000000000000000
  0
LINE
  5
F109A5
330
F109A6
100
AcDbEntity
8
Geo
100
AcDbLine
10
-38.5382133995035
20
6.76557245413031
30
0.000000000000000
11
-38.4382133995035
21
6.70860748125194
31
0.000000000000000
  0
LINE
  5
F109A7
330
F109A8
100
AcDbEntity
8
Geo
100
AcDbLine
10
-38.4382133995035
20
6.70860748125194
30
0.000000000000000
11
-38.3382133995035
21
6.65168331162767
31
0.000000000000000
  0
LINE
  5
F109A9
330
F109AA
100
AcDbEntity
8
Geo
100
AcDbLine
10
-38.3382133995035
20
6.65168331162767
30
0.000000000000000
11
-38.2382133995035
21
6.59481180425362
31
0.000000000000000
  0
LINE
  5
F109AB
330
F109AC
100
AcDbEntity
8
Geo
100
AcDbLine
10
-38.2382133995035
20
6.59481180425362
30
0.000000000000000
11
-38.1382133995035
21
6.53800480715479
31
0.000000000000000
  0
LINE
  5
F109AD
330
F109AE
100
AcDbEntity
8
Geo
100
AcDbLine
10
-38.1382133995035
20
6.53800480715479
30
0.000000000000000
11
-38.0382133995035
21
6.48127415491678
31
0.000000000000000
  0
LINE
  5
F109AF
330
F109B0
100
AcDbEntity
8
Geo
100
AcDbLine
10
-38.0382133995035
20
6.48127415491678
30
0.000000000000000
11
-37.9382133995035
21
6.42463166622029
31
0.000000000000000
  0
LINE
  5
F109B1
330
F109B2
100
AcDbEntity
8
Geo
100
AcDbLine
10
-37.9382133995035
20
6.42463166622029
30
0.000000000000000
11
-37.8382133995035
21
6.36808914137893
31
0.000000000000000
  0
LINE
  5
F109B3
330
F109B4
100
AcDbEntity
8
Geo
100
AcDbLine
10
-37.8382133995035
20
6.36808914137893
30
0.000000000000000
11
-37.7382133995035
21
6.31165835988086
31
0.000000000000000
  0
LINE
  5
F109B5
330
F109B6
100
AcDbEntity
8
Geo
100
AcDbLine
10
-37.7382133995035
20
6.31165835988086
30
0.000000000000000
11
-37.6382133995035
21
6.25535107793480
31
0.000000000000000
  0
LINE
  5
F109B7
330
F109B8
100
AcDbEntity
8
Geo
100
AcDbLine
10
-37.6382133995035
20
6.25535107793480
30
0.000000000000000
11
-37.5382133995035
21
6.19917902602083
31
0.000000000000000
  0
LINE
  5
F109B9
330
F109BA
100
AcDbEntity
8
Geo
100
AcDbLine
10
-37.5382133995035
20
6.19917902602083
30
0.000000000000000
11
-37.4382133995035
21
6.14315390644659
31
0.000000000000000
  0
LINE
  5
F109BB
330
F109BC
100
AcDbEntity
8
Geo
100
AcDbLine
10
-37.4382133995035
20
6.14315390644659
30
0.000000000000000
11
-37.3382133995035
21
6.08728739090936
31
0.000000000000000
  0
LINE
  5
F109BD
330
F109BE
100
AcDbEntity
8
Geo
100
AcDbLine
10
-37.3382133995035
20
6.08728739090936
30
0.000000000000000
11
-37.2382133995035
21
6.03159111806449
31
0.000000000000000
  0
LINE
  5
F109BF
330
F109C0
100
AcDbEntity
8
Geo
100
AcDbLine
10
-37.2382133995035
20
6.03159111806449
30
0.000000000000000
11
-37.1382133995035
21
5.97607669110070
31
0.000000000000000
  0
LINE
  5
F109C1
330
F109C2
100
AcDbEntity
8
Geo
100
AcDbLine
10
-37.1382133995035
20
5.97607669110070
30
0.000000000000000
11
-37.0382133995035
21
5.92075567532282
31
0.000000000000000
  0
LINE
  5
F109C3
330
F109C4
100
AcDbEntity
8
Geo
100
AcDbLine
10
-37.0382133995035
20
5.92075567532282
30
0.000000000000000
11
-36.9382133995035
21
5.86563959574238
31
0.000000000000000
  0
LINE
  5
F109C5
330
F109C6
100
AcDbEntity
8
Geo
100
AcDbLine
10
-36.9382133995035
20
5.86563959574238
30
0.000000000000000
11
-36.8382133995035
21
5.81073993467662
31
0.000000000000000
  0
LINE
  5
F109C7
330
F109C8
100
AcDbEntity
8
Geo
100
AcDbLine
10
-36.8382133995035
20
5.81073993467662
30
0.000000000000000
11
-36.7382133995035
21
5.75606812935634
31
0.000000000000000
  0
LINE
  5
F109C9
330
F109CA
100
AcDbEntity
8
Geo
100
AcDbLine
10
-36.7382133995035
20
5.75606812935634
30
0.000000000000000
11
-36.6382133995035
21
5.70163556954328
31
0.000000000000000
  0
LINE
  5
F109CB
330
F109CC
100
AcDbEntity
8
Geo
100
AcDbLine
10
-36.6382133995035
20
5.70163556954328
30
0.000000000000000
11
-36.5382133995035
21
5.64745359515716
31
0.000000000000000
  0
LINE
  5
F109CD
330
F109CE
100
AcDbEntity
8
Geo
100
AcDbLine
10
-36.5382133995035
20
5.64745359515716
30
0.000000000000000
11
-36.4382133995035
21
5.59353349391335
31
0.000000000000000
  0
LINE
  5
F109CF
330
F109D0
100
AcDbEntity
8
Geo
100
AcDbLine
10
-36.4382133995035
20
5.59353349391335
30
0.000000000000000
11
-36.3382133995035
21
5.53988649897126
31
0.000000000000000
  0
LINE
  5
F109D1
330
F109D2
100
AcDbEntity
8
Geo
100
AcDbLine
10
-36.3382133995035
20
5.53988649897126
30
0.000000000000000
11
-36.2382133995035
21
5.48652378659413
31
0.000000000000000
  0
LINE
  5
F109D3
330
F109D4
100
AcDbEntity
8
Geo
100
AcDbLine
10
-36.2382133995035
20
5.48652378659413
30
0.000000000000000
11
-36.1382133995035
21
5.43345647382070
31
0.000000000000000
  0
LINE
  5
F109D5
330
F109D6
100
AcDbEntity
8
Geo
100
AcDbLine
10
-36.1382133995035
20
5.43345647382070
30
0.000000000000000
11
-36.0382133995035
21
5.38069561614918
31
0.000000000000000
  0
LINE
  5
F109D7
330
F109D8
100
AcDbEntity
8
Geo
100
AcDbLine
10
-36.0382133995035
20
5.38069561614918
30
0.000000000000000
11
-35.9382133995035
21
5.32825220523411
31
0.000000000000000
  0
LINE
  5
F109D9
330
F109DA
100
AcDbEntity
8
Geo
100
AcDbLine
10
-35.9382133995035
20
5.32825220523411
30
0.000000000000000
11
-35.8382133995035
21
5.27613716659641
31
0.000000000000000
  0
LINE
  5
F109DB
330
F109DC
100
AcDbEntity
8
Geo
100
AcDbLine
10
-35.8382133995035
20
5.27613716659641
30
0.000000000000000
11
-35.7382133995035
21
5.22436135734730
31
0.000000000000000
  0
LINE
  5
F109DD
330
F109DE
100
AcDbEntity
8
Geo
100
AcDbLine
10
-35.7382133995035
20
5.22436135734730
30
0.000000000000000
11
-35.6382133995035
21
5.17293556392644
31
0.000000000000000
  0
LINE
  5
F109DF
330
F109E0
100
AcDbEntity
8
Geo
100
AcDbLine
10
-35.6382133995035
20
5.17293556392644
30
0.000000000000000
11
-35.5382133995035
21
5.12187049985480
31
0.000000000000000
  0
LINE
  5
F109E1
330
F109E2
100
AcDbEntity
8
Geo
100
AcDbLine
10
-35.5382133995035
20
5.12187049985480
30
0.000000000000000
11
-35.4382133995035
21
5.07117680350268
31
0.000000000000000
  0
LINE
  5
F109E3
330
F109E4
100
AcDbEntity
8
Geo
100
AcDbLine
10
-35.4382133995035
20
5.07117680350268
30
0.000000000000000
11
-35.3382133995035
21
5.02086503587348
31
0.000000000000000
  0
LINE
  5
F109E5
330
F109E6
100
AcDbEntity
8
Geo
100
AcDbLine
10
-35.3382133995035
20
5.02086503587348
30
0.000000000000000
11
-35.2382133995035
21
4.97094567840349
31
0.000000000000000
  0
LINE
  5
F109E7
330
F109E8
100
AcDbEntity
8
Geo
100
AcDbLine
10
-35.2382133995035
20
4.97094567840349
30
0.000000000000000
11
-35.1382133995035
21
4.92142913077829
31
0.000000000000000
  0
LINE
  5
F109E9
330
F109EA
100
AcDbEntity
8
Geo
100
AcDbLine
10
-35.1382133995035
20
4.92142913077829
30
0.000000000000000
11
-35.0382133995035
21
4.87232570876621
31
0.000000000000000
  0
LINE
  5
F109EB
330
F109EC
100
AcDbEntity
8
Geo
100
AcDbLine
10
-35.0382133995035
20
4.87232570876621
30
0.000000000000000
11
-34.9382133995035
21
4.82364564206924
31
0.000000000000000
  0
LINE
  5
F109ED
330
F109EE
100
AcDbEntity
8
Geo
100
AcDbLine
10
-34.9382133995035
20
4.82364564206924
30
0.000000000000000
11
-34.8382133995035
21
4.77539907219185
31
0.000000000000000
  0
LINE
  5
F109EF
330
F109F0
100
AcDbEntity
8
Geo
100
AcDbLine
10
-34.8382133995035
20
4.77539907219185
30
0.000000000000000
11
-34.7382133995035
21
4.72759605032829
31
0.000000000000000
  0
LINE
  5
F109F1
330
F109F2
100
AcDbEntity
8
Geo
100
AcDbLine
10
-34.7382133995035
20
4.72759605032829
30
0.000000000000000
11
-34.6382133995035
21
4.68024653526854
31
0.000000000000000
  0
LINE
  5
F109F3
330
F109F4
100
AcDbEntity
8
Geo
100
AcDbLine
10
-34.6382133995035
20
4.68024653526854
30
0.000000000000000
11
-34.5382133995035
21
4.63336039132364
31
0.000000000000000
  0
LINE
  5
F109F5
330
F109F6
100
AcDbEntity
8
Geo
100
AcDbLine
10
-34.5382133995035
20
4.63336039132364
30
0.000000000000000
11
-34.4382133995035
21
4.58694738627067
31
0.000000000000000
  0
LINE
  5
F109F7
330
F109F8
100
AcDbEntity
8
Geo
100
AcDbLine
10
-34.4382133995035
20
4.58694738627067
30
0.000000000000000
11
-34.3382133995035
21
4.54101718931782
31
0.000000000000000
  0
LINE
  5
F109F9
330
F109FA
100
AcDbEntity
8
Geo
100
AcDbLine
10
-34.3382133995035
20
4.54101718931782
30
0.000000000000000
11
-34.2382133995035
21
4.49557936908998
31
0.000000000000000
  0
LINE
  5
F109FB
330
F109FC
100
AcDbEntity
8
Geo
100
AcDbLine
10
-34.2382133995035
20
4.49557936908998
30
0.000000000000000
11
-34.1382133995035
21
4.45064339163538
31
0.000000000000000
  0
LINE
  5
F109FD
330
F109FE
100
AcDbEntity
8
Geo
100
AcDbLine
10
-34.1382133995035
20
4.45064339163538
30
0.000000000000000
11
-34.0382133995035
21
4.40621861845344
31
0.000000000000000
  0
LINE
  5
F109FF
330
F10A00
100
AcDbEntity
8
Geo
100
AcDbLine
10
-34.0382133995035
20
4.40621861845344
30
0.000000000000000
11
-33.9382133995035
21
4.36231430454457
31
0.000000000000000
  0
LINE
  5
F10A01
330
F10A02
100
AcDbEntity
8
Geo
100
AcDbLine
10
-33.9382133995035
20
4.36231430454457
30
0.000000000000000
11
-33.8382133995035
21
4.31893959648204
31
0.000000000000000
  0
LINE
  5
F10A03
330
F10A04
100
AcDbEntity
8
Geo
100
AcDbLine
10
-33.8382133995035
20
4.31893959648204
30
0.000000000000000
11
-33.7382133995035
21
4.27610353050647
31
0.000000000000000
  0
LINE
  5
F10A05
330
F10A06
100
AcDbEntity
8
Geo
100
AcDbLine
10
-33.7382133995035
20
4.27610353050647
30
0.000000000000000
11
-33.6382133995035
21
4.23381503064335
31
0.000000000000000
  0
LINE
  5
F10A07
330
F10A08
100
AcDbEntity
8
Geo
100
AcDbLine
10
-33.6382133995035
20
4.23381503064335
30
0.000000000000000
11
-33.5382133995035
21
4.19208290684387
31
0.000000000000000
  0
LINE
  5
F10A09
330
F10A0A
100
AcDbEntity
8
Geo
100
AcDbLine
10
-33.5382133995035
20
4.19208290684387
30
0.000000000000000
11
-33.4382133995035
21
4.15091585314954
31
0.000000000000000
  0
LINE
  5
F10A0B
330
F10A0C
100
AcDbEntity
8
Geo
100
AcDbLine
10
-33.4382133995035
20
4.15091585314954
30
0.000000000000000
11
-33.3382133995035
21
4.11032244588098
31
0.000000000000000
  0
LINE
  5
F10A0D
330
F10A0E
100
AcDbEntity
8
Geo
100
AcDbLine
10
-33.3382133995035
20
4.11032244588098
30
0.000000000000000
11
-33.2382133995035
21
4.07031114185123
31
0.000000000000000
  0
LINE
  5
F10A0F
330
F10A10
100
AcDbEntity
8
Geo
100
AcDbLine
10
-33.2382133995035
20
4.07031114185123
30
0.000000000000000
11
-33.1382133995035
21
4.03089027660391
31
0.000000000000000
  0
LINE
  5
F10A11
330
F10A12
100
AcDbEntity
8
Geo
100
AcDbLine
10
-33.1382133995035
20
4.03089027660391
30
0.000000000000000
11
-33.0382133995035
21
3.99206806267668
31
0.000000000000000
  0
LINE
  5
F10A13
330
F10A14
100
AcDbEntity
8
Geo
100
AcDbLine
10
-33.0382133995035
20
3.99206806267668
30
0.000000000000000
11
-32.9382133995035
21
3.95385258789039
31
0.000000000000000
  0
LINE
  5
F10A15
330
F10A16
100
AcDbEntity
8
Geo
100
AcDbLine
10
-32.9382133995035
20
3.95385258789039
30
0.000000000000000
11
-32.8382133995035
21
3.91625181366405
31
0.000000000000000
  0
LINE
  5
F10A17
330
F10A18
100
AcDbEntity
8
Geo
100
AcDbLine
10
-32.8382133995035
20
3.91625181366405
30
0.000000000000000
11
-32.7382133995035
21
3.87927357335629
31
0.000000000000000
  0
LINE
  5
F10A19
330
F10A1A
100
AcDbEntity
8
Geo
100
AcDbLine
10
-32.7382133995035
20
3.87927357335629
30
0.000000000000000
11
-32.6382133995035
21
3.84292557063344
31
0.000000000000000
  0
LINE
  5
F10A1B
330
F10A1C
100
AcDbEntity
8
Geo
100
AcDbLine
10
-32.6382133995035
20
3.84292557063344
30
0.000000000000000
11
-32.5382133995035
21
3.80721537786459
31
0.000000000000000
  0
LINE
  5
F10A1D
330
F10A1E
100
AcDbEntity
8
Geo
100
AcDbLine
10
-32.5382133995035
20
3.80721537786459
30
0.000000000000000
11
-32.4382133995035
21
3.77215043454408
31
0.000000000000000
  0
LINE
  5
F10A1F
330
F10A20
100
AcDbEntity
8
Geo
100
AcDbLine
10
-32.4382133995035
20
3.77215043454408
30
0.000000000000000
11
-32.3382133995035
21
3.73773804574160
31
0.000000000000000
  0
LINE
  5
F10A21
330
F10A22
100
AcDbEntity
8
Geo
100
AcDbLine
10
-32.3382133995035
20
3.73773804574160
30
0.000000000000000
11
-32.2382133995035
21
3.70398538058038
31
0.000000000000000
  0
LINE
  5
F10A23
330
F10A24
100
AcDbEntity
8
Geo
100
AcDbLine
10
-32.2382133995035
20
3.70398538058038
30
0.000000000000000
11
-32.1382133995035
21
3.67089947074355
31
0.000000000000000
  0
LINE
  5
F10A25
330
F10A26
100
AcDbEntity
8
Geo
100
AcDbLine
10
-32.1382133995035
20
3.67089947074355
30
0.000000000000000
11
-32.0382133995035
21
3.63848720900935
31
0.000000000000000
  0
LINE
  5
F10A27
330
F10A28
100
AcDbEntity
8
Geo
100
AcDbLine
10
-32.0382133995035
20
3.63848720900935
30
0.000000000000000
11
-31.9382133995035
21
3.60675534781505
31
0.000000000000000
  0
LINE
  5
F10A29
330
F10A2A
100
AcDbEntity
8
Geo
100
AcDbLine
10
-31.9382133995035
20
3.60675534781505
30
0.000000000000000
11
-31.8382133995035
21
3.57571049785032
31
0.000000000000000
  0
LINE
  5
F10A2B
330
F10A2C
100
AcDbEntity
8
Geo
100
AcDbLine
10
-31.8382133995035
20
3.57571049785032
30
0.000000000000000
11
-31.7382133995035
21
3.54535912667994
31
0.000000000000000
  0
LINE
  5
F10A2D
330
F10A2E
100
AcDbEntity
8
Geo
100
AcDbLine
10
-31.7382133995035
20
3.54535912667994
30
0.000000000000000
11
-31.6382133995034
21
3.51570755739647
31
0.000000000000000
  0
LINE
  5
F10A2F
330
F10A30
100
AcDbEntity
8
Geo
100
AcDbLine
10
-31.6382133995034
20
3.51570755739647
30
0.000000000000000
11
-31.5382133995034
21
3.48676196730291
31
0.000000000000000
  0
LINE
  5
F10A31
330
F10A32
100
AcDbEntity
8
Geo
100
AcDbLine
10
-31.5382133995034
20
3.48676196730291
30
0.000000000000000
11
-31.4382133995034
21
3.45852838662586
31
0.000000000000000
  0
LINE
  5
F10A33
330
F10A34
100
AcDbEntity
8
Geo
100
AcDbLine
10
-31.4382133995034
20
3.45852838662586
30
0.000000000000000
11
-31.3382133995034
21
3.43101269725917
31
0.000000000000000
  0
LINE
  5
F10A35
330
F10A36
100
AcDbEntity
8
Geo
100
AcDbLine
10
-31.3382133995034
20
3.43101269725917
30
0.000000000000000
11
-31.2382133995034
21
3.40422063153860
31
0.000000000000000
  0
LINE
  5
F10A37
330
F10A38
100
AcDbEntity
8
Geo
100
AcDbLine
10
-31.2382133995034
20
3.40422063153860
30
0.000000000000000
11
-31.1382133995034
21
3.37815777104760
31
0.000000000000000
  0
LINE
  5
F10A39
330
F10A3A
100
AcDbEntity
8
Geo
100
AcDbLine
10
-31.1382133995034
20
3.37815777104760
30
0.000000000000000
11
-31.0382133995034
21
3.35282954545451
31
0.000000000000000
  0
LINE
  5
F10A3B
330
F10A3C
100
AcDbEntity
8
Geo
100
AcDbLine
10
-31.0382133995034
20
3.35282954545451
30
0.000000000000000
11
-30.9382133995034
21
3.32824123138140
31
0.000000000000000
  0
LINE
  5
F10A3D
330
F10A3E
100
AcDbEntity
8
Geo
100
AcDbLine
10
-30.9382133995034
20
3.32824123138140
30
0.000000000000000
11
-30.8382133995034
21
3.30439795130475
31
0.000000000000000
  0
LINE
  5
F10A3F
330
F10A40
100
AcDbEntity
8
Geo
100
AcDbLine
10
-30.8382133995034
20
3.30439795130475
30
0.000000000000000
11
-30.7382133995034
21
3.28130467248835
31
0.000000000000000
  0
LINE
  5
F10A41
330
F10A42
100
AcDbEntity
8
Geo
100
AcDbLine
10
-30.7382133995034
20
3.28130467248835
30
0.000000000000000
11
-30.6382133995034
21
3.25896620594842
31
0.000000000000000
  0
LINE
  5
F10A43
330
F10A44
100
AcDbEntity
8
Geo
100
AcDbLine
10
-30.6382133995034
20
3.25896620594842
30
0.000000000000000
11
-30.5382133995034
21
3.23738720545136
31
0.000000000000000
  0
LINE
  5
F10A45
330
F10A46
100
AcDbEntity
8
Geo
100
AcDbLine
10
-30.5382133995034
20
3.23738720545136
30
0.000000000000000
11
-30.4382133995034
21
3.21657216654424
31
0.000000000000000
  0
LINE
  5
F10A47
330
F10A48
100
AcDbEntity
8
Geo
100
AcDbLine
10
-30.4382133995034
20
3.21657216654424
30
0.000000000000000
11
-30.3382133995034
21
3.19652542561820
31
0.000000000000000
  0
LINE
  5
F10A49
330
F10A4A
100
AcDbEntity
8
Geo
100
AcDbLine
10
-30.3382133995034
20
3.19652542561820
30
0.000000000000000
11
-30.2382133995034
21
3.17725115900509
31
0.000000000000000
  0
LINE
  5
F10A4B
330
F10A4C
100
AcDbEntity
8
Geo
100
AcDbLine
10
-30.2382133995034
20
3.17725115900509
30
0.000000000000000
11
-30.1382133995034
21
3.15875338210742
31
0.000000000000000
  0
LINE
  5
F10A4D
330
F10A4E
100
AcDbEntity
8
Geo
100
AcDbLine
10
-30.1382133995034
20
3.15875338210742
30
0.000000000000000
11
-30.0382133995034
21
3.14103594856180
31
0.000000000000000
  0
LINE
  5
F10A4F
330
F10A50
100
AcDbEntity
8
Geo
100
AcDbLine
10
-30.0382133995034
20
3.14103594856180
30
0.000000000000000
11
-29.9382133995034
21
3.12410254943614
31
0.000000000000000
  0
LINE
  5
F10A51
330
F10A52
100
AcDbEntity
8
Geo
100
AcDbLine
10
-29.9382133995034
20
3.12410254943614
30
0.000000000000000
11
-29.8382133995034
21
3.10795671246067
31
0.000000000000000
  0
LINE
  5
F10A53
330
F10A54
100
AcDbEntity
8
Geo
100
AcDbLine
10
-70.7382133995037
20
6.90446650124071
30
0.000000000000000
11
-70.7382133995037
21
6.90446650124071
31
0.000000000000000
  0
LINE
  5
F10A55
330
F10A56
100
AcDbEntity
8
Geo
100
AcDbLine
10
-70.7382133995037
20
6.90446650124071
30
0.000000000000000
11
-70.7382133995037
21
6.90446650124071
31
0.000000000000000
  0
LINE
  5
F10A57
330
F10A58
100
AcDbEntity
8
Geo
100
AcDbLine
10
79.2617866004963
20
10.3044665012407
30
0.000000000000000
11
79.2617866004963
21
6.90446650124071
31
0.000000000000000
  0
LINE
  5
F10A59
330
F10A5A
100
AcDbEntity
8
Geo
100
AcDbLine
10
-70.7382133995037
20
6.90446650124071
30
0.000000000000000
11
-70.7382133995037
21
3.40446650124071
31
0.000000000000000
  0
ARC
  5
F10A5B
330
F10A5C
100
AcDbEntity
8
Geo
100
AcDbCircle
10
-70.2382133995037
20
3.40446650124071
30
0.000000000000000
 40
0.500000000000000
100
AcDbArc
 50
180.000000000000
 51
270.000000000000
  0
LINE
  5
F10A5D
330
F10A5E
100
AcDbEntity
8
Geo
100
AcDbLine
10
-70.2382133995037
20
2.90446650124071
30
0.000000000000000
11
-29.7382133995037
21
2.90446650124071
31
0.000000000000000
  0
LINE
  5
F10A5F
330
F10A60
100
AcDbEntity
8
Geo
100
AcDbLine
10
-29.7382133995037
20
2.90446650124071
30
0.000000000000000
11
-29.7382133995037
21
2.90496650124071
31
0.000000000000000
  0
LINE
  5
F10A61
330
F10A62
100
AcDbEntity
8
Geo
100
AcDbLine
10
-29.7382133995037
20
2.90496650124071
30
0.000000000000000
11
-27.7382133995037
21
2.90496650124071
31
0.000000000000000
  0
LINE
  5
F10A63
330
F10A64
100
AcDbEntity
8
Geo
100
AcDbLine
10
-27.7382133995037
20
2.90496650124071
30
0.000000000000000
11
-27.7382133995037
21
2.90446650124071
31
0.000000000000000
  0
LINE
  5
F10A65
330
F10A66
100
AcDbEntity
8
Geo
100
AcDbLine
10
-27.7382133995037
20
2.90446650124071
30
0.000000000000000
11
78.6617866004963
21
2.90446650124071
31
0.000000000000000
  0
LINE
  5
F10A67
330
F10A68
100
AcDbEntity
8
Geo
100
AcDbLine
10
78.6617866004963
20
2.90446650124071
30
0.000000000000000
11
79.2617866004963
21
3.50446650124070
31
0.000000000000000
  0
LINE
  5
F10A69
330
F10A6A
100
AcDbEntity
8
Geo
100
AcDbLine
10
-70.2382133995037
20
10.9044665012407
30
0.000000000000000
11
-70.2382133995037
21
2.90446650124071
31
0.000000000000000
  0
LINE
  5
F10A6B
330
F10A6C
100
AcDbEntity
8
Geo
100
AcDbLine
10
-70.2382133995037
20
10.9044665012407
30
0.000000000000000
11
-70.2382133995037
21
2.90446650124071
31
0.000000000000000
  0
LINE
  5
F10A6D
330
F10A6E
100
AcDbEntity
8
Geo
100
AcDbLine
10
-29.7382133995037
20
10.9044665012407
30
0.000000000000000
11
-29.7382133995037
21
2.90446650124071
31
0.000000000000000
  0
LINE
  5
F10A6F
330
F10A70
100
AcDbEntity
8
Geo
100
AcDbLine
10
-29.7382133995037
20
10.9039665012407
30
0.000000000000000
11
-29.7382133995037
21
2.90496650124071
31
0.000000000000000
  0
LINE
  5
F10A71
330
F10A72
100
AcDbEntity
8
Geo
100
AcDbLine
10
-27.7382133995037
20
10.9039665012407
30
0.000000000000000
11
-27.7382133995037
21
2.90496650124071
31
0.000000000000000
  0
LINE
  5
F10A73
330
F10A74
100
AcDbEntity
8
Geo
100
AcDbLine
10
-27.7382133995037
20
10.9039665012407
30
0.000000000000000
11
-27.7382133995037
21
2.90496650124071
31
0.000000000000000
  0
LINE
  5
F10A75
330
F10A76
100
AcDbEntity
8
Geo
100
AcDbLine
10
78.6617866004963
20
10.9044665012407
30
0.000000000000000
11
78.6617866004963
21
2.90446650124071
31
0.000000000000000
  0
LINE
  5
F10A77
330
F10A78
100
AcDbEntity
8
Geo
100
AcDbLine
10
79.2617866004963
20
10.3044665012407
30
0.000000000000000
11
79.2617866004963
21
3.50446650124070
31
0.000000000000000
  0
LWPOLYLINE
  5
F10A79
330
F10A7A
100
AcDbEntity
8
Rahmen
100
AcDbPolyline
90
   4
70
   1
43
   0.0
 10
-134.702233250620
 20
99.7890818858561
 10
143.300248138958
 20
99.7890818858561
 10
143.300248138958
 20
-100.049627791563
 10
-134.702233250620
 20
-100.049627791563
  0
TEXT
  5
F10A7B
330
F10A7C
 100
AcDbEntity
8
Text
100
AcDbText
10
-133.660049627792
20
-99.5496277915633
30
0.000000000000000
40
1.00000000000000
1
ISBESketcher - ©ISBE GmbH      Licensed for: Van Hoorn Hardmetaal BV
100
AcDbText
  0
LWPOLYLINE
  5
F10A7D
330
F10A7E
100
AcDbEntity
8
Rahmen
100
AcDbPolyline
90
   4
70
   1
43
   0.0
 10
103.436724565757
 20
-97.1836228287841
 10
143.300248138958
 20
-97.1836228287841
 10
143.300248138958
 20
-100.049627791563
 10
103.436724565757
 20
-100.049627791563
  0
TEXT
  5
F10A7F
330
F10A80
 100
AcDbEntity
8
Text
100
AcDbText
10
104.478908188586
20
-98.1836228287841
30
0.000000000000000
40
0.750000000000000
1
Created by:
100
AcDbText
  0
TEXT
  5
F10A81
330
F10A82
 100
AcDbEntity
8
Text
100
AcDbText
10
131.315136476427
20
-99.4863523573201
30
0.000000000000000
40
0.750000000000000
1

100
AcDbText
  0
LWPOLYLINE
  5
F10A83
330
F10A84
100
AcDbEntity
8
Rahmen
100
AcDbPolyline
90
   4
70
   1
43
   0.0
 10
63.3126550868486
 20
-97.1836228287841
 10
103.436724565757
 20
-97.1836228287841
 10
103.436724565757
 20
-100.049627791563
 10
63.3126550868486
 20
-100.049627791563
  0
TEXT
  5
F10A85
330
F10A86
 100
AcDbEntity
8
Text
100
AcDbText
10
64.3548387096774
20
-98.1836228287841
30
0.000000000000000
40
0.750000000000000
1
Created for:
100
AcDbText
  0
TEXT
  5
F10A87
330
F10A88
 100
AcDbEntity
8
Text
100
AcDbText
10
91.4516129032258
20
-99.4863523573201
30
0.000000000000000
40
0.750000000000000
1

100
AcDbText
  0
LWPOLYLINE
  5
F10A89
330
F10A8A
100
AcDbEntity
8
Rahmen
100
AcDbPolyline
90
   4
70
   1
43
   0.0
 10
130.012406947891
 20
-94.0570719602978
 10
143.300248138958
 20
-94.0570719602978
 10
143.300248138958
 20
-97.1836228287841
 10
130.012406947891
 20
-97.1836228287841
  0
TEXT
  5
F10A8B
330
F10A8C
 100
AcDbEntity
8
Text
100
AcDbText
10
131.054590570720
20
-95.0570719602978
30
0.000000000000000
40
0.750000000000000
1
Pages
100
AcDbText
  0
TEXT
  5
F10A8D
330
F10A8E
 100
AcDbEntity
8
Text
100
AcDbText
10
141.215880893300
20
-96.3598014888337
30
0.000000000000000
40
0.750000000000000
1

100
AcDbText
  0
LWPOLYLINE
  5
F10A8F
330
F10A90
100
AcDbEntity
8
Rahmen
100
AcDbPolyline
90
   4
70
   1
43
   0.0
 10
130.012406947891
 20
-91.1910669975186
 10
143.300248138958
 20
-91.1910669975186
 10
143.300248138958
 20
-94.0570719602978
 10
130.012406947891
 20
-94.0570719602978
  0
TEXT
  5
F10A91
330
F10A92
 100
AcDbEntity
8
Text
100
AcDbText
10
131.054590570720
20
-92.1910669975186
30
0.000000000000000
40
0.750000000000000
1
Page
100
AcDbText
  0
TEXT
  5
F10A93
330
F10A94
 100
AcDbEntity
8
Text
100
AcDbText
10
141.215880893300
20
-93.4937965260546
30
0.000000000000000
40
0.750000000000000
1

100
AcDbText
  0
LWPOLYLINE
  5
F10A95
330
F10A96
100
AcDbEntity
8
Rahmen
100
AcDbPolyline
90
   4
70
   1
43
   0.0
 10
63.3126550868486
 20
-91.1910669975186
 10
130.012406947891
 20
-91.1910669975186
 10
130.012406947891
 20
-97.1836228287841
 10
63.3126550868486
 20
-97.1836228287841
  0
TEXT
  5
F10A97
330
F10A98
 100
AcDbEntity
8
Text
100
AcDbText
10
64.3548387096774
20
-92.1910669975186
30
0.000000000000000
40
0.750000000000000
1
Date:
100
AcDbText
  0
TEXT
  5
F10A99
330
F10A9A
 100
AcDbEntity
8
Text
100
AcDbText
10
90.4094292803970
20
-95.0570719602978
30
0.000000000000000
40
0.750000000000000
1
21.09.2016
100
AcDbText
  0
LWPOLYLINE
  5
F10A9B
330
F10A9C
100
AcDbEntity
8
Rahmen
100
AcDbPolyline
90
   4
70
   1
43
   0.0
 10
63.3126550868486
 20
-85.1985111662531
 10
143.300248138958
 20
-85.1985111662531
 10
143.300248138958
 20
-91.1910669975186
 10
63.3126550868486
 20
-91.1910669975186
  0
TEXT
  5
F10A9D
330
F10A9E
 100
AcDbEntity
8
Text
100
AcDbText
10
-166.228287841191
20
103.260545905707
30
0.000000000000000
40
1.50000000000000
1

100
AcDbText
  0
TEXT
  5
F10A9F
330
F10AA0
 100
AcDbEntity
8
Text
100
AcDbText
10
83.3746898263027
20
-89.0529363110008
30
0.000000000000000
40
2.50000000000000
1
VHGTF20801500802
100
AcDbText
  0
LWPOLYLINE
  5
F10AA1
330
F10AA2
100
AcDbEntity
8
Rahmen
100
AcDbPolyline
90
   4
70
   1
43
   0.0
 10
103.436724565757
 20
-79.2059553349876
 10
143.300248138958
 20
-79.2059553349876
 10
143.300248138958
 20
-85.1985111662531
 10
103.436724565757
 20
-85.1985111662531
  0
TEXT
  5
F10AA3
330
F10AA4
 100
AcDbEntity
8
Text
100
AcDbText
10
104.478908188586
20
-80.2059553349876
30
0.000000000000000
40
0.750000000000000
1
Work piece material:
100
AcDbText
  0
TEXT
  5
F10AA5
330
F10AA6
 100
AcDbEntity
8
Text
100
AcDbText
10
123.238213399504
20
-84.3746898263027
30
0.000000000000000
40
0.750000000000000
1

100
AcDbText
  0
LWPOLYLINE
  5
F10AA7
330
F10AA8
100
AcDbEntity
8
Rahmen
100
AcDbPolyline
90
   4
70
   1
43
   0.0
 10
63.3126550868486
 20
-79.2059553349876
 10
103.436724565757
 20
-79.2059553349876
 10
103.436724565757
 20
-85.1985111662531
 10
63.3126550868486
 20
-85.1985111662531
  0
TEXT
  5
F10AA9
330
F10AAA
 100
AcDbEntity
8
Text
100
AcDbText
10
64.3548387096774
20
-80.2059553349876
30
0.000000000000000
40
0.750000000000000
1
Tool material:
100
AcDbText
  0
TEXT
  5
F10AAB
330
F10AAC
 100
AcDbEntity
8
Text
100
AcDbText
10
83.1141439205955
20
-84.3746898263027
30
0.000000000000000
40
0.750000000000000
1

100
AcDbText
  0
LWPOLYLINE
  5
F10AAD
330
F10AAE
100
AcDbEntity
8
Rahmen
100
AcDbPolyline
90
   4
70
   1
43
   0.0
 10
103.436724565757
 20
-76.0794044665012
 10
143.300248138958
 20
-76.0794044665012
 10
143.300248138958
 20
-79.2059553349876
 10
103.436724565757
 20
-79.2059553349876
  0
TEXT
  5
F10AAF
330
F10AB0
 100
AcDbEntity
8
Text
100
AcDbText
10
-166.228287841191
20
103.260545905707
30
0.000000000000000
40
1.50000000000000
1

100
AcDbText
  0
TEXT
  5
F10AB1
330
F10AB2
 100
AcDbEntity
8
Text
100
AcDbText
10
123.238213399504
20
-78.3821339950372
30
0.000000000000000
40
0.750000000000000
1

100
AcDbText
  0
LWPOLYLINE
  5
F10AB3
330
F10AB4
100
AcDbEntity
8
Rahmen
100
AcDbPolyline
90
   4
70
   1
43
   0.0
 10
63.3126550868486
 20
-76.0794044665012
 10
103.436724565757
 20
-76.0794044665012
 10
103.436724565757
 20
-79.2059553349876
 10
63.3126550868486
 20
-79.2059553349876
  0
TEXT
  5
F10AB5
330
F10AB6
 100
AcDbEntity
8
Text
100
AcDbText
10
64.3548387096774
20
-77.0794044665012
30
0.000000000000000
40
0.750000000000000
1
Scale:
100
AcDbText
  0
TEXT
  5
F10AB7
330
F10AB8
 100
AcDbEntity
8
Text
100
AcDbText
10
88.8461538461538
20
-77.0794044665012
30
0.000000000000000
40
0.750000000000000
1
1 : 1
100
AcDbText
0
VIEWPORT
5
294
102
{ACAD_XDICTIONARY
360
58A
102
}
330
25D
100
AcDbEntity
67
1
8
0
60
1
100
AcDbViewport
10
0.0
20
0.0
30
0.0
40
10.0
41
10.0
68
-1
69
1
12
0.0
22
0.0
13
0.0
23
0.0
14
1.0
24
1.0
15
0.0
25
0.0
16
0.0
26
0.0
36
1.0
17
0.0
27
0.0
37
0.0
42
0.0
43
0.0
44
0.0
45
10.0
50
0.0
51
0.0000000000007958
72
100
90
32800
1

281
0
71
0
74
0
110
0.0
120
0.0
130
0.0
111
1.0
121
0.0
131
0.0
112
0.0
122
1.0
132
0.0
79
0
146
0.0
1001
VD_INVISIBLE_NOT_FOR_READ
1000
VD_INVISIBLE_NOT_FOR_READ
0
VIEWPORT
5
295
102
{ACAD_XDICTIONARY
360
58C
102
}
330
25D
100
AcDbEntity
67
1
8
0
60
1
100
AcDbViewport
10
0.0
20
0.0
30
0.0
40
10.0
41
10.0
68
0
69
2
12
0.0
22
0.0
13
0.0
23
0.0
14
1.0
24
1.0
15
0.0
25
0.0
16
0.0
26
0.0
36
1.0
17
0.0
27
0.0
37
0.0
42
0.0
43
0.0
44
0.0
45
10.0
50
0.0
51
0.0000000000007958
72
100
90
163872
1

281
0
71
0
74
0
110
0.0
120
0.0
130
0.0
111
1.0
121
0.0
131
0.0
112
0.0
122
1.0
132
0.0
79
0
146
0.0
1001
VD_INVISIBLE_NOT_FOR_READ
1000
VD_INVISIBLE_NOT_FOR_READ
0
ENDSEC
0
SECTION
2
OBJECTS
0
DICTIONARY
5
13
330
0
100
AcDbDictionary
281
1
3
ACAD_COLOR
350
FA7
3
ACAD_GROUP
350
14
3
ACAD_LAYOUT
350
FCF
3
ACAD_MATERIAL
350
F7A
3
ACAD_MLEADERSTYLE
350
FCD
3
ACAD_MLINESTYLE
350
16
3
ACAD_PLOTSETTINGS
350
17
3
ACAD_PLOTSTYLENAME
350
18
3
ACAD_SCALELIST
350
FAB
3
ACAD_TABLESTYLE
350
FA8
3
ACAD_VISUALSTYLE
350
F93
3
ACDB_RECOMPOSE_DATA
350
107E
3
AcDbVariableDictionary
350
FF0
3
DWGPROPS
350
107F
0
DICTIONARY
5
F1000F
330
F1000E
100
AcDbDictionary
280
1
281
1
3
ACAD_MTEXT_2008_RT
360
F10010
0
DICTIONARY
5
F10019
330
F10018
100
AcDbDictionary
280
1
281
1
3
ACAD_MTEXT_2008_RT
360
F1001A
0
DICTIONARY
5
F1001E
330
F1001D
100
AcDbDictionary
280
1
281
1
3
ACAD_MTEXT_2008_RT
360
F1001F
0
DICTIONARY
5
F1000A
330
F10009
100
AcDbDictionary
280
1
281
1
3
ACAD_MTEXT_2008_RT
360
F1000B
0
DICTIONARY
5
F10005
330
F10004
100
AcDbDictionary
280
1
281
1
3
ACAD_MTEXT_2008_RT
360
F10006
0
DICTIONARY
5
F10014
330
F10013
100
AcDbDictionary
280
1
281
1
3
ACAD_MTEXT_2008_RT
360
F10015
0
DICTIONARY
5
FA7
102
{ACAD_REACTORS
330
13
102
}
330
13
100
AcDbDictionary
281
1
0
DICTIONARY
5
14
330
13
100
AcDbDictionary
281
1
0
DICTIONARY
5
FCF
102
{ACAD_REACTORS
330
13
102
}
330
13
100
AcDbDictionary
281
1
3
Layout1
350
FD1
3
Model
350
FD0
0
DICTIONARY
5
F7A
102
{ACAD_REACTORS
330
13
102
}
330
13
100
AcDbDictionary
281
1
3
ByBlock
350
F83
3
ByLayer
350
F7B
3
Global
350
F8B
0
DICTIONARY
5
FCD
102
{ACAD_REACTORS
330
13
102
}
330
13
100
AcDbDictionary
281
1
3
Standard
350
FCE
0
DICTIONARY
5
16
330
13
100
AcDbDictionary
281
1
3
Standard
350
FAA
0
DICTIONARY
5
17
102
{ACAD_REACTORS
330
13
102
}
330
13
100
AcDbDictionary
281
1
0
ACDBDICTIONARYWDFLT
5
18
102
{ACAD_REACTORS
330
13
102
}
330
13
100
AcDbDictionary
281
1
3
Normal
350
19
100
AcDbDictionaryWithDefault
340
19
0
DICTIONARY
5
FAB
102
{ACAD_REACTORS
330
13
102
}
330
13
100
AcDbDictionary
281
1
3
A0
350
FAC
3
A1
350
FAD
3
A2
350
FAE
3
A3
350
FAF
3
A4
350
FB0
3
A5
350
FB1
3
A6
350
FB2
3
A7
350
FB3
3
A8
350
FB4
3
A9
350
FB5
3
B0
350
FB6
3
B1
350
FB7
3
B2
350
FB8
3
B3
350
FB9
3
B4
350
FBA
3
B5
350
FBB
3
B6
350
FBC
3
B7
350
FBD
3
B8
350
FBE
3
B9
350
FBF
3
C0
350
FC0
3
C1
350
FC1
3
C2
350
FC2
3
C3
350
FC3
3
C4
350
FC4
3
C5
350
FC5
3
C6
350
FC6
3
C7
350
FC7
3
C8
350
FC8
3
C9
350
FC9
3
D0
350
FCA
3
D1
350
FCB
3
D2
350
FCC
0
DICTIONARY
5
FA8
102
{ACAD_REACTORS
330
13
102
}
330
13
100
AcDbDictionary
281
1
3
Standard
350
FA9
0
DICTIONARY
5
F93
102
{ACAD_REACTORS
330
13
102
}
330
13
100
AcDbDictionary
281
1
3
2dWireframe
350
F99
3
3D Hidden
350
F9B
3
3dWireframe
350
F9A
3
Basic
350
F98
3
Brighten
350
F9F
3
ColorChange
350
FA3
3
Conceptual
350
F9C
3
Dim
350
F9E
3
EdgeColorOff
350
FA6
3
Facepattern
350
FA2
3
Flat
350
F94
3
FlatWithEdges
350
F95
3
Gouraud
350
F96
3
GouraudWithEdges
350
F97
3
JitterOff
350
FA4
3
Linepattern
350
FA1
3
OverhangOff
350
FA5
3
Realistic
350
F9D
3
Thicken
350
FA0
0
XRECORD
5
107E
102
{ACAD_REACTORS
330
13
102
}
330
13
100
AcDbXrecord
280
1
90
1
330
FA9
330
F1000E
330
F10018
330
F1001D
330
F10009
330
F10004
330
F10013
0
DICTIONARY
5
FF0
102
{ACAD_REACTORS
330
13
102
}
330
13
100
AcDbDictionary
281
1
3
CANNOSCALE
350
FF3
3
CMLEADERSTYLE
350
FF2
3
CTABLESTYLE
350
FF1
3
DIMASSOC
350
FF6
3
INDEXCTL
350
FF5
3
SORTENTS
350
FF4
3
XCLIPFRAME
350
1078
0
XRECORD
5
107F
102
{ACAD_REACTORS
330
13
102
}
330
13
100
AcDbXrecord
280
1
1
DWGPROPS COOKIE
2

3

4

6

7

8

9

300
=
301
=
302
=
303
=
304
=
305
=
306
=
307
=
308
=
309
=
40
0.0
41
0.0
42
0.0
1

90
0
0
XRECORD
5
F10010
102
{ACAD_REACTORS
330
F1000F
102
}
330
F1000F
100
AcDbXrecord
280
1
40
48458.0
1
\A1;107
0
XRECORD
5
F1001A
102
{ACAD_REACTORS
330
F10019
102
}
330
F10019
100
AcDbXrecord
280
1
40
48458.0
1
\A1;41
0
XRECORD
5
F1001F
102
{ACAD_REACTORS
330
F1001E
102
}
330
F1001E
100
AcDbXrecord
280
1
40
48458.0
1
\A1;150
0
XRECORD
5
F1000B
102
{ACAD_REACTORS
330
F1000A
102
}
330
F1000A
100
AcDbXrecord
280
1
40
48458.0
1
\A1;R0.5
0
XRECORD
5
F10006
102
{ACAD_REACTORS
330
F10005
102
}
330
F10005
100
AcDbXrecord
280
1
40
48458.0
1
\A1;8
0
LAYOUT
5
FD1
102
{ACAD_XDICTIONARY
360
10A9
102
}
102
{ACAD_REACTORS
330
FCF
102
}
330
FCF
100
AcDbPlotSettings
1

2
Microsoft XPS Document Writer
4

6

40
0.0
41
0.0
42
0.0
43
0.0
44
0.0
45
0.0
46
0.0
47
0.0
48
0.0
49
0.0
140
0.0
141
0.0
142
1.0
143
1.0
70
688
72
0
73
0
74
5
7

75
16
147
1.0
148
0.0
149
0.0
100
AcDbLayout
1
Layout1
70
1
71
1
10
0.0
20
0.0
11
12.0
21
9.0
12
0.0
22
0.0
32
0.0
14
1.000000000000000E+20
24
1.000000000000000E+20
34
1.000000000000000E+20
15
-1.000000000000000E+20
25
-1.000000000000000E+20
35
-1.000000000000000E+20
146
0.0
13
0.0
23
0.0
33
0.0
16
1.0
26
0.0
36
0.0
17
0.0
27
1.0
37
0.0
76
0
330
25D
0
LAYOUT
5
FD0
102
{ACAD_XDICTIONARY
360
10A7
102
}
102
{ACAD_REACTORS
330
FCF
102
}
330
FCF
100
AcDbPlotSettings
1

2
Microsoft XPS Document Writer
4

6

40
0.0
41
0.0
42
0.0
43
0.0
44
0.0
45
0.0
46
0.0
47
0.0
48
0.0
49
0.0
140
0.0
141
0.0
142
1.0
143
1.0
70
1712
72
0
73
0
74
0
7

75
0
147
1.0
148
0.0
149
0.0
100
AcDbLayout
1
Model
70
1
71
0
10
0.0
20
0.0
11
12.0
21
9.0
12
0.0
22
0.0
32
0.0
14
0.0
24
0.0
34
0.0
15
0.0
25
0.0
35
0.0
146
0.0
13
0.0
23
0.0
33
0.0
16
1.0
26
0.0
36
0.0
17
0.0
27
1.0
37
0.0
76
0
330
261
331
26B
0
MATERIAL
5
F83
102
{ACAD_XDICTIONARY
360
F84
102
}
102
{ACAD_REACTORS
330
F7A
102
}
330
F7A
100
AcDbMaterial
1
ByBlock
72
0
43
0.0208333333333333
43
0.0
43
0.0
43
0.0
43
0.0
43
0.0208333333333333
43
0.0
43
0.0
43
0.0
43
0.0
43
1.0
43
0.0
43
0.0
43
0.0
43
0.0
43
1.0
77
0
47
0.0208333333333333
47
0.0
47
0.0
47
0.0
47
0.0
47
0.0208333333333333
47
0.0
47
0.0
47
0.0
47
0.0
47
1.0
47
0.0
47
0.0
47
0.0
47
0.0
47
1.0
171
0
49
0.0208333333333333
49
0.0
49
0.0
49
0.0
49
0.0
49
0.0208333333333333
49
0.0
49
0.0
49
0.0
49
0.0
49
1.0
49
0.0
49
0.0
49
0.0
49
0.0
49
1.0
175
0
142
0.0208333333333333
142
0.0
142
0.0
142
0.0
142
0.0
142
0.0208333333333333
142
0.0
142
0.0
142
0.0
142
0.0
142
1.0
142
0.0
142
0.0
142
0.0
142
0.0
142
1.0
179
0
144
0.0208333333333333
144
0.0
144
0.0
144
0.0
144
0.0
144
0.0208333333333333
144
0.0
144
0.0
144
0.0
144
0.0
144
1.0
144
0.0
144
0.0
144
0.0
144
0.0
144
1.0
147
0.0208333333333333
147
0.0
147
0.0
147
0.0
147
0.0
147
0.0208333333333333
147
0.0
147
0.0
147
0.0
147
0.0
147
1.0
147
0.0
147
0.0
147
0.0
147
0.0
147
1.0
0
MATERIAL
5
F7B
102
{ACAD_XDICTIONARY
360
F7C
102
}
102
{ACAD_REACTORS
330
F7A
102
}
330
F7A
100
AcDbMaterial
1
ByLayer
72
0
43
0.0208333333333333
43
0.0
43
0.0
43
0.0
43
0.0
43
0.0208333333333333
43
0.0
43
0.0
43
0.0
43
0.0
43
1.0
43
0.0
43
0.0
43
0.0
43
0.0
43
1.0
77
0
47
0.0208333333333333
47
0.0
47
0.0
47
0.0
47
0.0
47
0.0208333333333333
47
0.0
47
0.0
47
0.0
47
0.0
47
1.0
47
0.0
47
0.0
47
0.0
47
0.0
47
1.0
171
0
49
0.0208333333333333
49
0.0
49
0.0
49
0.0
49
0.0
49
0.0208333333333333
49
0.0
49
0.0
49
0.0
49
0.0
49
1.0
49
0.0
49
0.0
49
0.0
49
0.0
49
1.0
175
0
142
0.0208333333333333
142
0.0
142
0.0
142
0.0
142
0.0
142
0.0208333333333333
142
0.0
142
0.0
142
0.0
142
0.0
142
1.0
142
0.0
142
0.0
142
0.0
142
0.0
142
1.0
179
0
144
0.0208333333333333
144
0.0
144
0.0
144
0.0
144
0.0
144
0.0208333333333333
144
0.0
144
0.0
144
0.0
144
0.0
144
1.0
144
0.0
144
0.0
144
0.0
144
0.0
144
1.0
147
0.0208333333333333
147
0.0
147
0.0
147
0.0
147
0.0
147
0.0208333333333333
147
0.0
147
0.0
147
0.0
147
0.0
147
1.0
147
0.0
147
0.0
147
0.0
147
0.0
147
1.0
0
MATERIAL
5
F8B
102
{ACAD_XDICTIONARY
360
F8C
102
}
102
{ACAD_REACTORS
330
F7A
102
}
330
F7A
100
AcDbMaterial
1
Global
72
0
43
0.0208333333333333
43
0.0
43
0.0
43
0.0
43
0.0
43
0.0208333333333333
43
0.0
43
0.0
43
0.0
43
0.0
43
1.0
43
0.0
43
0.0
43
0.0
43
0.0
43
1.0
77
0
47
0.0208333333333333
47
0.0
47
0.0
47
0.0
47
0.0
47
0.0208333333333333
47
0.0
47
0.0
47
0.0
47
0.0
47
1.0
47
0.0
47
0.0
47
0.0
47
0.0
47
1.0
171
0
49
0.0208333333333333
49
0.0
49
0.0
49
0.0
49
0.0
49
0.0208333333333333
49
0.0
49
0.0
49
0.0
49
0.0
49
1.0
49
0.0
49
0.0
49
0.0
49
0.0
49
1.0
175
0
142
0.0208333333333333
142
0.0
142
0.0
142
0.0
142
0.0
142
0.0208333333333333
142
0.0
142
0.0
142
0.0
142
0.0
142
1.0
142
0.0
142
0.0
142
0.0
142
0.0
142
1.0
179
0
144
0.0208333333333333
144
0.0
144
0.0
144
0.0
144
0.0
144
0.0208333333333333
144
0.0
144
0.0
144
0.0
144
0.0
144
1.0
144
0.0
144
0.0
144
0.0
144
0.0
144
1.0
147
0.0208333333333333
147
0.0
147
0.0
147
0.0
147
0.0
147
0.0208333333333333
147
0.0
147
0.0
147
0.0
147
0.0
147
1.0
147
0.0
147
0.0
147
0.0
147
0.0
147
1.0
0
MLEADERSTYLE
5
FCE
102
{ACAD_REACTORS
330
FCD
102
}
330
FCD
100
AcDbMLeaderStyle
170
2
171
1
172
0
90
2
40
0.0
41
0.0
173
1
91
-1056964608
340
256
92
-2
290
1
42
0.09
291
1
43
0.36
3
Standard
44
0.18
300

342
253
174
1
178
6
175
1
176
0
93
-1056964608
45
0.18
292
0
297
0
46
0.18
94
-1056964608
47
1.0
49
1.0
140
1.0
293
1
141
0.0
294
1
177
0
142
1.0
295
0
296
0
143
0.125
1001
ACAD_MLEADERVER
1070
2
0
MLINESTYLE
5
FAA
102
{ACAD_REACTORS
330
16
102
}
330
16
100
AcDbMlineStyle
2
STANDARD
70
0
3

62
256
51
90.0
52
90.0
71
2
49
0.5
62
256
6
BYLAYER
49
-0.5
62
256
6
BYLAYER
0
ACDBPLACEHOLDER
5
19
102
{ACAD_REACTORS
330
18
102
}
330
18
0
SCALE
5
FAC
102
{ACAD_REACTORS
330
FAB
102
}
330
FAB
100
AcDbScale
70
0
300
1:1
140
1.0
141
1.0
290
1
0
SCALE
5
FAD
102
{ACAD_REACTORS
330
FAB
102
}
330
FAB
100
AcDbScale
70
0
300
1:2
140
1.0
141
2.0
290
0
0
SCALE
5
FAE
102
{ACAD_REACTORS
330
FAB
102
}
330
FAB
100
AcDbScale
70
0
300
1:4
140
1.0
141
4.0
290
0
0
SCALE
5
FAF
102
{ACAD_REACTORS
330
FAB
102
}
330
FAB
100
AcDbScale
70
0
300
1:5
140
1.0
141
5.0
290
0
0
SCALE
5
FB0
102
{ACAD_REACTORS
330
FAB
102
}
330
FAB
100
AcDbScale
70
0
300
1:8
140
1.0
141
8.0
290
0
0
SCALE
5
FB1
102
{ACAD_REACTORS
330
FAB
102
}
330
FAB
100
AcDbScale
70
0
300
1:10
140
1.0
141
10.0
290
0
0
SCALE
5
FB2
102
{ACAD_REACTORS
330
FAB
102
}
330
FAB
100
AcDbScale
70
0
300
1:16
140
1.0
141
16.0
290
0
0
SCALE
5
FB3
102
{ACAD_REACTORS
330
FAB
102
}
330
FAB
100
AcDbScale
70
0
300
1:20
140
1.0
141
20.0
290
0
0
SCALE
5
FB4
102
{ACAD_REACTORS
330
FAB
102
}
330
FAB
100
AcDbScale
70
0
300
1:30
140
1.0
141
30.0
290
0
0
SCALE
5
FB5
102
{ACAD_REACTORS
330
FAB
102
}
330
FAB
100
AcDbScale
70
0
300
1:40
140
1.0
141
40.0
290
0
0
SCALE
5
FB6
102
{ACAD_REACTORS
330
FAB
102
}
330
FAB
100
AcDbScale
70
0
300
1:50
140
1.0
141
50.0
290
0
0
SCALE
5
FB7
102
{ACAD_REACTORS
330
FAB
102
}
330
FAB
100
AcDbScale
70
0
300
1:100
140
1.0
141
100.0
290
0
0
SCALE
5
FB8
102
{ACAD_REACTORS
330
FAB
102
}
330
FAB
100
AcDbScale
70
0
300
2:1
140
2.0
141
1.0
290
0
0
SCALE
5
FB9
102
{ACAD_REACTORS
330
FAB
102
}
330
FAB
100
AcDbScale
70
0
300
4:1
140
4.0
141
1.0
290
0
0
SCALE
5
FBA
102
{ACAD_REACTORS
330
FAB
102
}
330
FAB
100
AcDbScale
70
0
300
8:1
140
8.0
141
1.0
290
0
0
SCALE
5
FBB
102
{ACAD_REACTORS
330
FAB
102
}
330
FAB
100
AcDbScale
70
0
300
10:1
140
10.0
141
1.0
290
0
0
SCALE
5
FBC
102
{ACAD_REACTORS
330
FAB
102
}
330
FAB
100
AcDbScale
70
0
300
100:1
140
100.0
141
1.0
290
0
0
SCALE
5
FBD
102
{ACAD_REACTORS
330
FAB
102
}
330
FAB
100
AcDbScale
70
0
300
1/128" = 1'-0"
140
0.0078125
141
12.0
290
0
0
SCALE
5
FBE
102
{ACAD_REACTORS
330
FAB
102
}
330
FAB
100
AcDbScale
70
0
300
1/64" = 1'-0"
140
0.015625
141
12.0
290
0
0
SCALE
5
FBF
102
{ACAD_REACTORS
330
FAB
102
}
330
FAB
100
AcDbScale
70
0
300
1/32" = 1'-0"
140
0.03125
141
12.0
290
0
0
SCALE
5
FC0
102
{ACAD_REACTORS
330
FAB
102
}
330
FAB
100
AcDbScale
70
0
300
1/16" = 1'-0"
140
0.0625
141
12.0
290
0
0
SCALE
5
FC1
102
{ACAD_REACTORS
330
FAB
102
}
330
FAB
100
AcDbScale
70
0
300
3/32" = 1'-0"
140
0.09375
141
12.0
290
0
0
SCALE
5
FC2
102
{ACAD_REACTORS
330
FAB
102
}
330
FAB
100
AcDbScale
70
0
300
1/8" = 1'-0"
140
0.125
141
12.0
290
0
0
SCALE
5
FC3
102
{ACAD_REACTORS
330
FAB
102
}
330
FAB
100
AcDbScale
70
0
300
3/16" = 1'-0"
140
0.1875
141
12.0
290
0
0
SCALE
5
FC4
102
{ACAD_REACTORS
330
FAB
102
}
330
FAB
100
AcDbScale
70
0
300
1/4" = 1'-0"
140
0.25
141
12.0
290
0
0
SCALE
5
FC5
102
{ACAD_REACTORS
330
FAB
102
}
330
FAB
100
AcDbScale
70
0
300
3/8" = 1'-0"
140
0.375
141
12.0
290
0
0
SCALE
5
FC6
102
{ACAD_REACTORS
330
FAB
102
}
330
FAB
100
AcDbScale
70
0
300
1/2" = 1'-0"
140
0.5
141
12.0
290
0
0
SCALE
5
FC7
102
{ACAD_REACTORS
330
FAB
102
}
330
FAB
100
AcDbScale
70
0
300
3/4" = 1'-0"
140
0.75
141
12.0
290
0
0
SCALE
5
FC8
102
{ACAD_REACTORS
330
FAB
102
}
330
FAB
100
AcDbScale
70
0
300
1" = 1'-0"
140
1.0
141
12.0
290
0
0
SCALE
5
FC9
102
{ACAD_REACTORS
330
FAB
102
}
330
FAB
100
AcDbScale
70
0
300
1-1/2" = 1'-0"
140
1.5
141
12.0
290
0
0
SCALE
5
FCA
102
{ACAD_REACTORS
330
FAB
102
}
330
FAB
100
AcDbScale
70
0
300
3" = 1'-0"
140
3.0
141
12.0
290
0
0
SCALE
5
FCB
102
{ACAD_REACTORS
330
FAB
102
}
330
FAB
100
AcDbScale
70
0
300
6" = 1'-0"
140
6.0
141
12.0
290
0
0
SCALE
5
FCC
102
{ACAD_REACTORS
330
FAB
102
}
330
FAB
100
AcDbScale
70
0
300
1'-0" = 1'-0"
140
12.0
141
12.0
290
0
0
TABLESTYLE
5
FA9
102
{ACAD_XDICTIONARY
360
FF8
102
}
102
{ACAD_REACTORS
330
FA8
102
}
330
FA8
100
AcDbTableStyle
3
Standard
70
0
71
0
40
0.06
41
0.06
280
0
281
0
7
Standard
140
0.18
170
2
62
0
63
7
283
0
274
-2
284
1
64
0
275
-2
285
1
65
0
276
-2
286
1
66
0
277
-2
287
1
67
0
278
-2
288
1
68
0
279
-2
289
1
69
0
7
Standard
140
0.25
170
5
62
0
63
7
283
0
274
-2
284
1
64
0
275
-2
285
1
65
0
276
-2
286
1
66
0
277
-2
287
1
67
0
278
-2
288
1
68
0
279
-2
289
1
69
0
7
Standard
140
0.18
170
5
62
0
63
7
283
0
274
-2
284
1
64
0
275
-2
285
1
65
0
276
-2
286
1
66
0
277
-2
287
1
67
0
278
-2
288
1
68
0
279
-2
289
1
69
0
0
VISUALSTYLE
5
F99
102
{ACAD_XDICTIONARY
360
108A
102
}
102
{ACAD_REACTORS
330
F93
102
}
330
F93
100
AcDbVisualStyle
2

70
4
71
0
72
2
73
0
90
0
40
-0.6
41
-30.0
62
5
63
7
74
1
91
4
64
7
65
257
75
1
175
1
42
1.0
92
0
66
257
43
1.0
76
1
77
6
78
2
67
7
79
5
170
0
171
0
290
0
174
0
93
1
44
0.0
173
0
291
0
45
0.0
1001
ACAD
1000
AcDbSavedByObjectVersion
1070
0
0
VISUALSTYLE
5
F9B
102
{ACAD_XDICTIONARY
360
108E
102
}
102
{ACAD_REACTORS
330
F93
102
}
330
F93
100
AcDbVisualStyle
2

70
6
71
1
72
2
73
2
90
0
40
-0.6
41
-30.0
62
5
63
7
74
2
91
2
64
7
65
257
75
2
175
1
42
179.0
92
0
66
257
43
1.0
76
1
77
6
78
2
67
7
79
3
170
0
171
0
290
0
174
0
93
1
44
0.0
173
0
291
0
45
0.0
1001
ACAD
1000
AcDbSavedByObjectVersion
1070
0
0
VISUALSTYLE
5
F9A
102
{ACAD_XDICTIONARY
360
108C
102
}
102
{ACAD_REACTORS
330
F93
102
}
330
F93
100
AcDbVisualStyle
2

70
5
71
0
72
2
73
0
90
0
40
-0.6
41
-30.0
62
5
63
7
74
1
91
4
64
7
65
257
75
1
175
1
42
1.0
92
0
66
257
43
1.0
76
1
77
6
78
2
67
7
79
5
170
0
171
0
290
0
174
0
93
1
44
0.0
173
0
291
0
45
0.0
1001
ACAD
1000
AcDbSavedByObjectVersion
1070
0
0
VISUALSTYLE
5
F98
102
{ACAD_XDICTIONARY
360
1088
102
}
102
{ACAD_REACTORS
330
F93
102
}
330
F93
100
AcDbVisualStyle
2

70
7
71
1
72
0
73
1
90
0
40
-0.6
41
-30.0
62
5
63
7
74
0
91
4
64
7
65
257
75
1
175
1
42
1.0
92
8
66
7
43
1.0
76
1
77
6
78
2
67
7
79
5
170
0
171
0
290
0
174
0
93
1
44
0.0
173
0
291
1
45
0.0
1001
ACAD
1000
AcDbSavedByObjectVersion
1070
0
0
VISUALSTYLE
5
F9F
102
{ACAD_XDICTIONARY
360
1096
102
}
102
{ACAD_REACTORS
330
F93
102
}
330
F93
100
AcDbVisualStyle
2

70
12
71
2
72
2
73
0
90
0
40
-0.6
41
-30.0
62
5
63
7
74
1
91
4
64
7
65
257
75
1
175
1
42
1.0
92
8
66
7
43
1.0
76
1
77
6
78
2
67
7
79
5
170
0
171
0
290
0
174
0
93
1
44
50.0
173
0
291
1
45
0.0
1001
ACAD
1000
AcDbSavedByObjectVersion
1070
0
0
VISUALSTYLE
5
FA3
102
{ACAD_XDICTIONARY
360
109E
102
}
102
{ACAD_REACTORS
330
F93
102
}
330
F93
100
AcDbVisualStyle
2

70
16
71
2
72
2
73
3
90
0
40
-0.6
41
-30.0
62
5
63
8
74
1
91
4
64
7
65
257
75
1
175
1
42
1.0
92
8
66
8
43
1.0
76
1
77
6
78
2
67
7
79
5
170
0
171
0
290
0
174
0
93
1
44
0.0
173
0
291
1
45
0.0
1001
ACAD
1000
AcDbSavedByObjectVersion
1070
0
0
VISUALSTYLE
5
F9C
102
{ACAD_XDICTIONARY
360
1090
102
}
102
{ACAD_REACTORS
330
F93
102
}
330
F93
100
AcDbVisualStyle
2

70
9
71
3
72
2
73
0
90
0
40
-0.6
41
-30.0
62
5
63
7
74
2
91
2
64
7
65
257
75
1
175
1
42
179.0
92
8
66
7
43
1.0
76
1
77
6
78
2
67
7
79
3
170
0
171
0
290
0
174
0
93
1
44
0.0
173
0
291
0
45
0.0
1001
ACAD
1000
AcDbSavedByObjectVersion
1070
0
0
VISUALSTYLE
5
F9E
102
{ACAD_XDICTIONARY
360
1094
102
}
102
{ACAD_REACTORS
330
F93
102
}
330
F93
100
AcDbVisualStyle
2

70
11
71
2
72
2
73
0
90
0
40
-0.6
41
-30.0
62
5
63
7
74
1
91
4
64
7
65
257
75
1
175
1
42
1.0
92
8
66
7
43
1.0
76
1
77
6
78
2
67
7
79
5
170
0
171
0
290
0
174
0
93
1
44
-50.0
173
0
291
1
45
0.0
1001
ACAD
1000
AcDbSavedByObjectVersion
1070
0
0
VISUALSTYLE
5
FA6
102
{ACAD_XDICTIONARY
360
10A4
102
}
102
{ACAD_REACTORS
330
F93
102
}
330
F93
100
AcDbVisualStyle
2

70
22
71
2
72
2
73
0
90
0
40
-0.6
41
-30.0
62
5
63
7
74
1
91
4
64
7
65
257
75
1
175
1
42
1.0
92
8
66
7
43
1.0
76
1
77
6
78
2
67
7
79
5
170
0
171
0
290
0
174
0
93
1
44
0.0
173
0
291
1
45
0.0
1001
ACAD
1000
AcDbSavedByObjectVersion
1070
0
0
VISUALSTYLE
5
FA2
102
{ACAD_XDICTIONARY
360
109C
102
}
102
{ACAD_REACTORS
330
F93
102
}
330
F93
100
AcDbVisualStyle
2

70
15
71
2
72
2
73
0
90
0
40
-0.6
41
-30.0
62
5
63
7
74
1
91
4
64
7
65
257
75
1
175
1
42
1.0
92
8
66
7
43
1.0
76
1
77
6
78
2
67
7
79
5
170
0
171
0
290
0
174
0
93
1
44
0.0
173
0
291
1
45
0.0
1001
ACAD
1000
AcDbSavedByObjectVersion
1070
0
0
VISUALSTYLE
5
F94
102
{ACAD_XDICTIONARY
360
1080
102
}
102
{ACAD_REACTORS
330
F93
102
}
330
F93
100
AcDbVisualStyle
2

70
0
71
2
72
1
73
1
90
2
40
-0.6
41
30.0
62
5
63
7
74
0
91
4
64
7
65
257
75
1
175
1
42
1.0
92
8
66
7
43
1.0
76
1
77
6
78
2
67
7
79
5
170
0
171
0
290
0
174
0
93
13
44
0.0
173
0
291
1
45
0.0
1001
ACAD
1000
AcDbSavedByObjectVersion
1070
0
0
VISUALSTYLE
5
F95
102
{ACAD_XDICTIONARY
360
1082
102
}
102
{ACAD_REACTORS
330
F93
102
}
330
F93
100
AcDbVisualStyle
2

70
1
71
2
72
1
73
1
90
2
40
-0.6
41
30.0
62
5
63
7
74
1
91
4
64
7
65
257
75
1
175
1
42
1.0
92
0
66
257
43
1.0
76
1
77
6
78
2
67
7
79
5
170
0
171
0
290
0
174
0
93
13
44
0.0
173
0
291
1
45
0.0
1001
ACAD
1000
AcDbSavedByObjectVersion
1070
0
0
VISUALSTYLE
5
F96
102
{ACAD_XDICTIONARY
360
1084
102
}
102
{ACAD_REACTORS
330
F93
102
}
330
F93
100
AcDbVisualStyle
2

70
2
71
2
72
2
73
1
90
2
40
-0.6
41
30.0
62
5
63
7
74
0
91
4
64
7
65
257
75
1
175
1
42
1.0
92
0
66
7
43
1.0
76
1
77
6
78
2
67
7
79
5
170
0
171
0
290
0
174
0
93
13
44
0.0
173
0
291
1
45
0.0
1001
ACAD
1000
AcDbSavedByObjectVersion
1070
0
0
VISUALSTYLE
5
F97
102
{ACAD_XDICTIONARY
360
1086
102
}
102
{ACAD_REACTORS
330
F93
102
}
330
F93
100
AcDbVisualStyle
2

70
3
71
2
72
2
73
1
90
2
40
-0.6
41
30.0
62
5
63
7
74
1
91
4
64
7
65
257
75
1
175
1
42
1.0
92
0
66
257
43
1.0
76
1
77
6
78
2
67
7
79
5
170
0
171
0
290
0
174
0
93
13
44
0.0
173
0
291
1
45
0.0
1001
ACAD
1000
AcDbSavedByObjectVersion
1070
0
0
VISUALSTYLE
5
FA4
102
{ACAD_XDICTIONARY
360
10A0
102
}
102
{ACAD_REACTORS
330
F93
102
}
330
F93
100
AcDbVisualStyle
2

70
20
71
2
72
2
73
0
90
0
40
-0.6
41
-30.0
62
5
63
7
74
1
91
4
64
7
65
257
75
1
175
1
42
1.0
92
10
66
7
43
1.0
76
1
77
6
78
2
67
7
79
5
170
0
171
0
290
0
174
0
93
1
44
0.0
173
0
291
1
45
0.0
1001
ACAD
1000
AcDbSavedByObjectVersion
1070
0
0
VISUALSTYLE
5
FA1
102
{ACAD_XDICTIONARY
360
109A
102
}
102
{ACAD_REACTORS
330
F93
102
}
330
F93
100
AcDbVisualStyle
2

70
14
71
2
72
2
73
0
90
0
40
-0.6
41
-30.0
62
5
63
7
74
1
91
4
64
7
65
257
75
7
175
7
42
1.0
92
8
66
7
43
1.0
76
1
77
6
78
2
67
7
79
5
170
0
171
0
290
0
174
0
93
1
44
0.0
173
0
291
1
45
0.0
1001
ACAD
1000
AcDbSavedByObjectVersion
1070
0
0
VISUALSTYLE
5
FA5
102
{ACAD_XDICTIONARY
360
10A2
102
}
102
{ACAD_REACTORS
330
F93
102
}
330
F93
100
AcDbVisualStyle
2

70
21
71
2
72
2
73
0
90
0
40
-0.6
41
-30.0
62
5
63
7
74
1
91
4
64
7
65
257
75
1
175
1
42
1.0
92
9
66
7
43
1.0
76
1
77
6
78
2
67
7
79
5
170
0
171
0
290
0
174
0
93
1
44
0.0
173
0
291
1
45
0.0
1001
ACAD
1000
AcDbSavedByObjectVersion
1070
0
0
VISUALSTYLE
5
F9D
102
{ACAD_XDICTIONARY
360
1092
102
}
102
{ACAD_REACTORS
330
F93
102
}
330
F93
100
AcDbVisualStyle
2

70
8
71
2
72
2
73
0
90
0
40
-0.6
41
-30.0
62
5
63
7
74
1
91
0
64
7
65
257
75
1
175
1
42
1.0
92
8
66
8
43
1.0
76
1
77
6
78
2
67
7
79
5
170
0
171
0
290
0
174
0
93
13
44
0.0
173
0
291
0
45
0.0
1001
ACAD
1000
AcDbSavedByObjectVersion
1070
0
0
VISUALSTYLE
5
FA0
102
{ACAD_XDICTIONARY
360
1098
102
}
102
{ACAD_REACTORS
330
F93
102
}
330
F93
100
AcDbVisualStyle
2

70
13
71
2
72
2
73
0
90
0
40
-0.6
41
-30.0
62
5
63
7
74
1
91
4
64
7
65
257
75
1
175
1
42
1.0
92
12
66
7
43
1.0
76
1
77
6
78
2
67
7
79
5
170
0
171
0
290
0
174
0
93
1
44
0.0
173
0
291
1
45
0.0
1001
ACAD
1000
AcDbSavedByObjectVersion
1070
0
0
DICTIONARYVAR
5
FF3
102
{ACAD_REACTORS
330
FF0
102
}
330
FF0
100
DictionaryVariables
280
0
1
1:1
0
DICTIONARYVAR
5
FF2
102
{ACAD_REACTORS
330
FF0
102
}
330
FF0
100
DictionaryVariables
280
0
1
STANDARD
0
DICTIONARYVAR
5
FF1
102
{ACAD_REACTORS
330
FF0
102
}
330
FF0
100
DictionaryVariables
280
0
1
STANDARD
0
DICTIONARYVAR
5
FF6
102
{ACAD_REACTORS
330
FF0
102
}
330
FF0
100
DictionaryVariables
280
0
1
1
0
DICTIONARYVAR
5
FF5
102
{ACAD_REACTORS
330
FF0
102
}
330
FF0
100
DictionaryVariables
280
0
1
0
0
DICTIONARYVAR
5
FF4
102
{ACAD_REACTORS
330
FF0
102
}
330
FF0
100
DictionaryVariables
280
0
1
127
0
DICTIONARYVAR
5
1078
102
{ACAD_REACTORS
330
FF0
102
}
330
FF0
100
DictionaryVariables
280
0
1
2
0
DICTIONARY
5
10A9
330
FD1
100
AcDbDictionary
280
1
281
1
3
ACAD_XREC_ROUNDTRIP
360
10AA
0
DICTIONARY
5
10A7
330
FD0
100
AcDbDictionary
280
1
281
1
3
ACAD_XREC_ROUNDTRIP
360
10A8
0
DICTIONARY
5
F84
330
F83
100
AcDbDictionary
280
1
281
1
3
ACAD_XREC_ROUNDTRIP
360
FFF
3
BUMPTILE
360
F86
3
DIFFUSETILE
360
F85
3
OPACITYTILE
360
F89
3
REFLECTIONTILE
360
F88
3
REFRACTIONTILE
360
F8A
3
SPECULARTILE
360
F87
0
DICTIONARY
5
F7C
330
F7B
100
AcDbDictionary
280
1
281
1
3
ACAD_XREC_ROUNDTRIP
360
FFE
3
BUMPTILE
360
F7E
3
DIFFUSETILE
360
F7D
3
OPACITYTILE
360
F81
3
REFLECTIONTILE
360
F80
3
REFRACTIONTILE
360
F82
3
SPECULARTILE
360
F7F
0
DICTIONARY
5
F8C
330
F8B
100
AcDbDictionary
280
1
281
1
3
ACAD_XREC_ROUNDTRIP
360
1000
3
BUMPTILE
360
F8E
3
DIFFUSETILE
360
F8D
3
OPACITYTILE
360
F91
3
REFLECTIONTILE
360
F90
3
REFRACTIONTILE
360
F92
3
SPECULARTILE
360
F8F
0
DICTIONARY
5
FF8
330
FA9
100
AcDbDictionary
280
1
281
1
3
ACAD_ROUNDTRIP_2008_TABLESTYLE_CELLSTYLEMAP
360
1079
3
ACAD_XREC_ROUNDTRIP
360
10A6
0
DICTIONARY
5
108A
330
F99
100
AcDbDictionary
280
1
281
1
3
ACAD_XREC_ROUNDTRIP
360
108B
0
DICTIONARY
5
108E
330
F9B
100
AcDbDictionary
280
1
281
1
3
ACAD_XREC_ROUNDTRIP
360
108F
0
DICTIONARY
5
108C
330
F9A
100
AcDbDictionary
280
1
281
1
3
ACAD_XREC_ROUNDTRIP
360
108D
0
DICTIONARY
5
1088
330
F98
100
AcDbDictionary
280
1
281
1
3
ACAD_XREC_ROUNDTRIP
360
1089
0
DICTIONARY
5
1096
330
F9F
100
AcDbDictionary
280
1
281
1
3
ACAD_XREC_ROUNDTRIP
360
1097
0
DICTIONARY
5
109E
330
FA3
100
AcDbDictionary
280
1
281
1
3
ACAD_XREC_ROUNDTRIP
360
109F
0
DICTIONARY
5
1090
330
F9C
100
AcDbDictionary
280
1
281
1
3
ACAD_XREC_ROUNDTRIP
360
1091
0
DICTIONARY
5
1094
330
F9E
100
AcDbDictionary
280
1
281
1
3
ACAD_XREC_ROUNDTRIP
360
1095
0
DICTIONARY
5
10A4
330
FA6
100
AcDbDictionary
280
1
281
1
3
ACAD_XREC_ROUNDTRIP
360
10A5
0
DICTIONARY
5
109C
330
FA2
100
AcDbDictionary
280
1
281
1
3
ACAD_XREC_ROUNDTRIP
360
109D
0
DICTIONARY
5
1080
330
F94
100
AcDbDictionary
280
1
281
1
3
ACAD_XREC_ROUNDTRIP
360
1081
0
DICTIONARY
5
1082
330
F95
100
AcDbDictionary
280
1
281
1
3
ACAD_XREC_ROUNDTRIP
360
1083
0
DICTIONARY
5
1084
330
F96
100
AcDbDictionary
280
1
281
1
3
ACAD_XREC_ROUNDTRIP
360
1085
0
DICTIONARY
5
1086
330
F97
100
AcDbDictionary
280
1
281
1
3
ACAD_XREC_ROUNDTRIP
360
1087
0
DICTIONARY
5
10A0
330
FA4
100
AcDbDictionary
280
1
281
1
3
ACAD_XREC_ROUNDTRIP
360
10A1
0
DICTIONARY
5
109A
330
FA1
100
AcDbDictionary
280
1
281
1
3
ACAD_XREC_ROUNDTRIP
360
109B
0
DICTIONARY
5
10A2
330
FA5
100
AcDbDictionary
280
1
281
1
3
ACAD_XREC_ROUNDTRIP
360
10A3
0
DICTIONARY
5
1092
330
F9D
100
AcDbDictionary
280
1
281
1
3
ACAD_XREC_ROUNDTRIP
360
1093
0
DICTIONARY
5
1098
330
FA0
100
AcDbDictionary
280
1
281
1
3
ACAD_XREC_ROUNDTRIP
360
1099
0
XRECORD
5
10AA
102
{ACAD_REACTORS
330
10A9
102
}
330
10A9
100
AcDbXrecord
280
1
102
SHADEPLOT
70
0
102
SHADEPLOTRESLEVEL
70
2
102
SHADEPLOTCUSTOMDPI
70
300
0
XRECORD
5
10A8
102
{ACAD_REACTORS
330
10A7
102
}
330
10A7
100
AcDbXrecord
280
1
102
SHADEPLOT
70
0
102
SHADEPLOTRESLEVEL
70
2
102
SHADEPLOTCUSTOMDPI
70
300
0
XRECORD
5
FFF
102
{ACAD_REACTORS
330
F84
102
}
330
F84
100
AcDbXrecord
280
1
102
MATERIAL
148
0.0
149
0.0
149
0.0
93
0
94
127
282
0
72
0
77
0
171
0
175
0
179
0
273
0
0
XRECORD
5
F86
102
{ACAD_REACTORS
330
F84
102
}
330
F84
100
AcDbXrecord
280
1
270
1
271
1
0
XRECORD
5
F85
102
{ACAD_REACTORS
330
F84
102
}
330
F84
100
AcDbXrecord
280
1
270
1
271
1
0
XRECORD
5
F89
102
{ACAD_REACTORS
330
F84
102
}
330
F84
100
AcDbXrecord
280
1
270
1
271
1
0
XRECORD
5
F88
102
{ACAD_REACTORS
330
F84
102
}
330
F84
100
AcDbXrecord
280
1
270
1
271
1
0
XRECORD
5
F8A
102
{ACAD_REACTORS
330
F84
102
}
330
F84
100
AcDbXrecord
280
1
270
1
271
1
0
XRECORD
5
F87
102
{ACAD_REACTORS
330
F84
102
}
330
F84
100
AcDbXrecord
280
1
270
1
271
1
0
XRECORD
5
FFE
102
{ACAD_REACTORS
330
F7C
102
}
330
F7C
100
AcDbXrecord
280
1
102
MATERIAL
148
0.0
149
0.0
149
0.0
93
0
94
127
282
0
72
0
77
0
171
0
175
0
179
0
273
0
0
XRECORD
5
F7E
102
{ACAD_REACTORS
330
F7C
102
}
330
F7C
100
AcDbXrecord
280
1
270
1
271
1
0
XRECORD
5
F7D
102
{ACAD_REACTORS
330
F7C
102
}
330
F7C
100
AcDbXrecord
280
1
270
1
271
1
0
XRECORD
5
F81
102
{ACAD_REACTORS
330
F7C
102
}
330
F7C
100
AcDbXrecord
280
1
270
1
271
1
0
XRECORD
5
F80
102
{ACAD_REACTORS
330
F7C
102
}
330
F7C
100
AcDbXrecord
280
1
270
1
271
1
0
XRECORD
5
F82
102
{ACAD_REACTORS
330
F7C
102
}
330
F7C
100
AcDbXrecord
280
1
270
1
271
1
0
XRECORD
5
F7F
102
{ACAD_REACTORS
330
F7C
102
}
330
F7C
100
AcDbXrecord
280
1
270
1
271
1
0
XRECORD
5
1000
102
{ACAD_REACTORS
330
F8C
102
}
330
F8C
100
AcDbXrecord
280
1
102
MATERIAL
148
0.0
149
0.0
149
0.0
93
0
94
127
282
0
72
0
77
0
171
0
175
0
179
0
273
0
0
XRECORD
5
F8E
102
{ACAD_REACTORS
330
F8C
102
}
330
F8C
100
AcDbXrecord
280
1
270
1
271
1
0
XRECORD
5
F8D
102
{ACAD_REACTORS
330
F8C
102
}
330
F8C
100
AcDbXrecord
280
1
270
1
271
1
0
XRECORD
5
F91
102
{ACAD_REACTORS
330
F8C
102
}
330
F8C
100
AcDbXrecord
280
1
270
1
271
1
0
XRECORD
5
F90
102
{ACAD_REACTORS
330
F8C
102
}
330
F8C
100
AcDbXrecord
280
1
270
1
271
1
0
XRECORD
5
F92
102
{ACAD_REACTORS
330
F8C
102
}
330
F8C
100
AcDbXrecord
280
1
270
1
271
1
0
XRECORD
5
F8F
102
{ACAD_REACTORS
330
F8C
102
}
330
F8C
100
AcDbXrecord
280
1
270
1
271
1
0
CELLSTYLEMAP
5
1079
102
{ACAD_REACTORS
330
FF8
102
}
330
FF8
100
AcDbCellStyleMap
90
3
300
CELLSTYLE
1
TABLEFORMAT_BEGIN
90
5
170
1
91
0
92
32768
62
257
93
1
300
CONTENTFORMAT
1
CONTENTFORMAT_BEGIN
90
0
91
0
92
512
93
0
300

40
0.0
140
1.0
94
5
62
0
340
253
144
0.25
309
CONTENTFORMAT_END
171
1
301
MARGIN
1
CELLMARGIN_BEGIN
40
0.06
40
0.06
40
0.06
40
0.06
40
0.18
40
0.18
309
CELLMARGIN_END
94
6
95
1
302
GRIDFORMAT
1
GRIDFORMAT_BEGIN
90
0
91
1
62
0
92
-2
340
0
93
0
40
0.045
309
GRIDFORMAT_END
95
2
302
GRIDFORMAT
1
GRIDFORMAT_BEGIN
90
0
91
1
62
0
92
-2
340
0
93
0
40
0.045
309
GRIDFORMAT_END
95
4
302
GRIDFORMAT
1
GRIDFORMAT_BEGIN
90
0
91
1
62
0
92
-2
340
0
93
0
40
0.045
309
GRIDFORMAT_END
95
8
302
GRIDFORMAT
1
GRIDFORMAT_BEGIN
90
0
91
1
62
0
92
-2
340
0
93
0
40
0.045
309
GRIDFORMAT_END
95
16
302
GRIDFORMAT
1
GRIDFORMAT_BEGIN
90
0
91
1
62
0
92
-2
340
0
93
0
40
0.045
309
GRIDFORMAT_END
95
32
302
GRIDFORMAT
1
GRIDFORMAT_BEGIN
90
0
91
1
62
0
92
-2
340
0
93
0
40
0.045
309
GRIDFORMAT_END
309
TABLEFORMAT_END
1
CELLSTYLE_BEGIN
90
1
91
1
300
_TITLE
309
CELLSTYLE_END
300
CELLSTYLE
1
TABLEFORMAT_BEGIN
90
5
170
1
91
0
92
0
62
257
93
1
300
CONTENTFORMAT
1
CONTENTFORMAT_BEGIN
90
0
91
0
92
512
93
0
300

40
0.0
140
1.0
94
5
62
0
340
253
144
0.18
309
CONTENTFORMAT_END
171
1
301
MARGIN
1
CELLMARGIN_BEGIN
40
0.06
40
0.06
40
0.06
40
0.06
40
0.18
40
0.18
309
CELLMARGIN_END
94
6
95
1
302
GRIDFORMAT
1
GRIDFORMAT_BEGIN
90
0
91
1
62
0
92
-2
340
0
93
0
40
0.045
309
GRIDFORMAT_END
95
2
302
GRIDFORMAT
1
GRIDFORMAT_BEGIN
90
0
91
1
62
0
92
-2
340
0
93
0
40
0.045
309
GRIDFORMAT_END
95
4
302
GRIDFORMAT
1
GRIDFORMAT_BEGIN
90
0
91
1
62
0
92
-2
340
0
93
0
40
0.045
309
GRIDFORMAT_END
95
8
302
GRIDFORMAT
1
GRIDFORMAT_BEGIN
90
0
91
1
62
0
92
-2
340
0
93
0
40
0.045
309
GRIDFORMAT_END
95
16
302
GRIDFORMAT
1
GRIDFORMAT_BEGIN
90
0
91
1
62
0
92
-2
340
0
93
0
40
0.045
309
GRIDFORMAT_END
95
32
302
GRIDFORMAT
1
GRIDFORMAT_BEGIN
90
0
91
1
62
0
92
-2
340
0
93
0
40
0.045
309
GRIDFORMAT_END
309
TABLEFORMAT_END
1
CELLSTYLE_BEGIN
90
2
91
1
300
_HEADER
309
CELLSTYLE_END
300
CELLSTYLE
1
TABLEFORMAT_BEGIN
90
5
170
1
91
0
92
0
62
257
93
1
300
CONTENTFORMAT
1
CONTENTFORMAT_BEGIN
90
0
91
0
92
512
93
0
300

40
0.0
140
1.0
94
2
62
0
340
253
144
0.18
309
CONTENTFORMAT_END
171
1
301
MARGIN
1
CELLMARGIN_BEGIN
40
0.06
40
0.06
40
0.06
40
0.06
40
0.18
40
0.18
309
CELLMARGIN_END
94
6
95
1
302
GRIDFORMAT
1
GRIDFORMAT_BEGIN
90
0
91
1
62
0
92
-2
340
0
93
0
40
0.045
309
GRIDFORMAT_END
95
2
302
GRIDFORMAT
1
GRIDFORMAT_BEGIN
90
0
91
1
62
0
92
-2
340
0
93
0
40
0.045
309
GRIDFORMAT_END
95
4
302
GRIDFORMAT
1
GRIDFORMAT_BEGIN
90
0
91
1
62
0
92
-2
340
0
93
0
40
0.045
309
GRIDFORMAT_END
95
8
302
GRIDFORMAT
1
GRIDFORMAT_BEGIN
90
0
91
1
62
0
92
-2
340
0
93
0
40
0.045
309
GRIDFORMAT_END
95
16
302
GRIDFORMAT
1
GRIDFORMAT_BEGIN
90
0
91
1
62
0
92
-2
340
0
93
0
40
0.045
309
GRIDFORMAT_END
95
32
302
GRIDFORMAT
1
GRIDFORMAT_BEGIN
90
0
91
1
62
0
92
-2
340
0
93
0
40
0.045
309
GRIDFORMAT_END
309
TABLEFORMAT_END
1
CELLSTYLE_BEGIN
90
3
91
2
300
_DATA
309
CELLSTYLE_END
0
XRECORD
5
10A6
102
{ACAD_REACTORS
330
FF8
102
}
330
FF8
100
AcDbXrecord
280
1
102
ACAD_ROUNDTRIP_PRE2007_TABLESTYLE
90
512
91
0
1

92
512
93
0
2

94
512
95
0
3

0
XRECORD
5
108B
102
{ACAD_REACTORS
330
108A
102
}
330
108A
100
AcDbXrecord
280
1
102
RTVSPropertyOp0
70
1
102
RTVSPropertyOp1
70
1
102
RTVSPropertyOp2
70
1
102
RTVSPropertyOp3
70
1
102
RTVSPropertyOp4
70
1
102
RTVSPropertyOp5
70
1
102
RTVSPropertyOp6
70
1
102
RTVSPropertyOp7
70
1
102
RTVSPropertyOp8
70
1
102
RTVSPropertyOp9
70
1
102
RTVSPropertyOp10
70
1
102
RTVSPropertyOp11
70
1
102
RTVSPropertyOp12
70
1
102
RTVSPropertyOp13
70
1
102
RTVSPropertyOp14
70
1
102
RTVSPropertyOp15
70
1
102
RTVSPropertyOp16
70
1
102
RTVSPropertyOp17
70
1
102
RTVSPropertyOp18
70
1
102
RTVSPropertyOp19
70
1
102
RTVSPropertyOp20
70
1
102
RTVSPropertyOp21
70
1
102
RTVSPropertyOp22
70
1
102
RTVSPropertyOp23
70
1
102
RTVSPropertyOp24
70
1
102
RTVSPropertyOp25
70
1
102
RTVSPropertyOp26
70
1
102
RTVSPropertyOp27
70
1
0
XRECORD
5
108F
102
{ACAD_REACTORS
330
108E
102
}
330
108E
100
AcDbXrecord
280
1
102
RTVSPropertyOp0
70
1
102
RTVSPropertyOp1
70
1
102
RTVSPropertyOp2
70
1
102
RTVSPropertyOp3
70
1
102
RTVSPropertyOp4
70
1
102
RTVSPropertyOp5
70
1
102
RTVSPropertyOp6
70
1
102
RTVSPropertyOp7
70
1
102
RTVSPropertyOp8
70
1
102
RTVSPropertyOp9
70
1
102
RTVSPropertyOp10
70
1
102
RTVSPropertyOp11
70
1
102
RTVSPropertyOp12
70
1
102
RTVSPropertyOp13
70
1
102
RTVSPropertyOp14
70
1
102
RTVSPropertyOp15
70
1
102
RTVSPropertyOp16
70
1
102
RTVSPropertyOp17
70
1
102
RTVSPropertyOp18
70
1
102
RTVSPropertyOp19
70
1
102
RTVSPropertyOp20
70
1
102
RTVSPropertyOp21
70
1
102
RTVSPropertyOp22
70
1
102
RTVSPropertyOp23
70
1
102
RTVSPropertyOp24
70
1
102
RTVSPropertyOp25
70
1
102
RTVSPropertyOp26
70
1
102
RTVSPropertyOp27
70
1
0
XRECORD
5
108D
102
{ACAD_REACTORS
330
108C
102
}
330
108C
100
AcDbXrecord
280
1
102
RTVSPropertyOp0
70
1
102
RTVSPropertyOp1
70
1
102
RTVSPropertyOp2
70
1
102
RTVSPropertyOp3
70
1
102
RTVSPropertyOp4
70
1
102
RTVSPropertyOp5
70
1
102
RTVSPropertyOp6
70
1
102
RTVSPropertyOp7
70
1
102
RTVSPropertyOp8
70
1
102
RTVSPropertyOp9
70
1
102
RTVSPropertyOp10
70
1
102
RTVSPropertyOp11
70
1
102
RTVSPropertyOp12
70
1
102
RTVSPropertyOp13
70
1
102
RTVSPropertyOp14
70
1
102
RTVSPropertyOp15
70
1
102
RTVSPropertyOp16
70
1
102
RTVSPropertyOp17
70
1
102
RTVSPropertyOp18
70
1
102
RTVSPropertyOp19
70
1
102
RTVSPropertyOp20
70
1
102
RTVSPropertyOp21
70
1
102
RTVSPropertyOp22
70
1
102
RTVSPropertyOp23
70
1
102
RTVSPropertyOp24
70
1
102
RTVSPropertyOp25
70
1
102
RTVSPropertyOp26
70
1
102
RTVSPropertyOp27
70
1
0
XRECORD
5
1089
102
{ACAD_REACTORS
330
1088
102
}
330
1088
100
AcDbXrecord
280
1
102
RTVSPropertyOp0
70
1
102
RTVSPropertyOp1
70
1
102
RTVSPropertyOp2
70
1
102
RTVSPropertyOp3
70
1
102
RTVSPropertyOp4
70
1
102
RTVSPropertyOp5
70
1
102
RTVSPropertyOp6
70
1
102
RTVSPropertyOp7
70
1
102
RTVSPropertyOp8
70
1
102
RTVSPropertyOp9
70
1
102
RTVSPropertyOp10
70
1
102
RTVSPropertyOp11
70
1
102
RTVSPropertyOp12
70
1
102
RTVSPropertyOp13
70
1
102
RTVSPropertyOp14
70
1
102
RTVSPropertyOp15
70
1
102
RTVSPropertyOp16
70
1
102
RTVSPropertyOp17
70
1
102
RTVSPropertyOp18
70
1
102
RTVSPropertyOp19
70
1
102
RTVSPropertyOp20
70
1
102
RTVSPropertyOp21
70
1
102
RTVSPropertyOp22
70
1
102
RTVSPropertyOp23
70
1
102
RTVSPropertyOp24
70
1
102
RTVSPropertyOp25
70
1
102
RTVSPropertyOp26
70
1
102
RTVSPropertyOp27
70
1
0
XRECORD
5
1097
102
{ACAD_REACTORS
330
1096
102
}
330
1096
100
AcDbXrecord
280
1
102
RTVSPropertyOp0
70
1
102
RTVSPropertyOp1
70
1
102
RTVSPropertyOp2
70
1
102
RTVSPropertyOp3
70
1
102
RTVSPropertyOp4
70
1
102
RTVSPropertyOp5
70
1
102
RTVSPropertyOp6
70
1
102
RTVSPropertyOp7
70
1
102
RTVSPropertyOp8
70
1
102
RTVSPropertyOp9
70
1
102
RTVSPropertyOp10
70
1
102
RTVSPropertyOp11
70
1
102
RTVSPropertyOp12
70
1
102
RTVSPropertyOp13
70
1
102
RTVSPropertyOp14
70
1
102
RTVSPropertyOp15
70
1
102
RTVSPropertyOp16
70
1
102
RTVSPropertyOp17
70
1
102
RTVSPropertyOp18
70
1
102
RTVSPropertyOp19
70
1
102
RTVSPropertyOp20
70
1
102
RTVSPropertyOp21
70
1
102
RTVSPropertyOp22
70
1
102
RTVSPropertyOp23
70
1
102
RTVSPropertyOp24
70
1
102
RTVSPropertyOp25
70
1
102
RTVSPropertyOp26
70
1
102
RTVSPropertyOp27
70
1
0
XRECORD
5
109F
102
{ACAD_REACTORS
330
109E
102
}
330
109E
100
AcDbXrecord
280
1
102
RTVSPropertyOp0
70
1
102
RTVSPropertyOp1
70
1
102
RTVSPropertyOp2
70
1
102
RTVSPropertyOp3
70
1
102
RTVSPropertyOp4
70
1
102
RTVSPropertyOp5
70
1
102
RTVSPropertyOp6
70
1
102
RTVSPropertyOp7
70
1
102
RTVSPropertyOp8
70
1
102
RTVSPropertyOp9
70
1
102
RTVSPropertyOp10
70
1
102
RTVSPropertyOp11
70
1
102
RTVSPropertyOp12
70
1
102
RTVSPropertyOp13
70
1
102
RTVSPropertyOp14
70
1
102
RTVSPropertyOp15
70
1
102
RTVSPropertyOp16
70
1
102
RTVSPropertyOp17
70
1
102
RTVSPropertyOp18
70
1
102
RTVSPropertyOp19
70
1
102
RTVSPropertyOp20
70
1
102
RTVSPropertyOp21
70
1
102
RTVSPropertyOp22
70
1
102
RTVSPropertyOp23
70
1
102
RTVSPropertyOp24
70
1
102
RTVSPropertyOp25
70
1
102
RTVSPropertyOp26
70
1
102
RTVSPropertyOp27
70
1
0
XRECORD
5
1091
102
{ACAD_REACTORS
330
1090
102
}
330
1090
100
AcDbXrecord
280
1
102
RTVSPropertyOp0
70
1
102
RTVSPropertyOp1
70
1
102
RTVSPropertyOp2
70
1
102
RTVSPropertyOp3
70
1
102
RTVSPropertyOp4
70
1
102
RTVSPropertyOp5
70
1
102
RTVSPropertyOp6
70
1
102
RTVSPropertyOp7
70
1
102
RTVSPropertyOp8
70
1
102
RTVSPropertyOp9
70
1
102
RTVSPropertyOp10
70
1
102
RTVSPropertyOp11
70
1
102
RTVSPropertyOp12
70
1
102
RTVSPropertyOp13
70
1
102
RTVSPropertyOp14
70
1
102
RTVSPropertyOp15
70
1
102
RTVSPropertyOp16
70
1
102
RTVSPropertyOp17
70
1
102
RTVSPropertyOp18
70
1
102
RTVSPropertyOp19
70
1
102
RTVSPropertyOp20
70
1
102
RTVSPropertyOp21
70
1
102
RTVSPropertyOp22
70
1
102
RTVSPropertyOp23
70
1
102
RTVSPropertyOp24
70
1
102
RTVSPropertyOp25
70
1
102
RTVSPropertyOp26
70
1
102
RTVSPropertyOp27
70
1
0
XRECORD
5
1095
102
{ACAD_REACTORS
330
1094
102
}
330
1094
100
AcDbXrecord
280
1
102
RTVSPropertyOp0
70
1
102
RTVSPropertyOp1
70
1
102
RTVSPropertyOp2
70
1
102
RTVSPropertyOp3
70
1
102
RTVSPropertyOp4
70
1
102
RTVSPropertyOp5
70
1
102
RTVSPropertyOp6
70
1
102
RTVSPropertyOp7
70
1
102
RTVSPropertyOp8
70
1
102
RTVSPropertyOp9
70
1
102
RTVSPropertyOp10
70
1
102
RTVSPropertyOp11
70
1
102
RTVSPropertyOp12
70
1
102
RTVSPropertyOp13
70
1
102
RTVSPropertyOp14
70
1
102
RTVSPropertyOp15
70
1
102
RTVSPropertyOp16
70
1
102
RTVSPropertyOp17
70
1
102
RTVSPropertyOp18
70
1
102
RTVSPropertyOp19
70
1
102
RTVSPropertyOp20
70
1
102
RTVSPropertyOp21
70
1
102
RTVSPropertyOp22
70
1
102
RTVSPropertyOp23
70
1
102
RTVSPropertyOp24
70
1
102
RTVSPropertyOp25
70
1
102
RTVSPropertyOp26
70
1
102
RTVSPropertyOp27
70
1
0
XRECORD
5
10A5
102
{ACAD_REACTORS
330
10A4
102
}
330
10A4
100
AcDbXrecord
280
1
102
RTVSPropertyOp0
70
0
102
RTVSPropertyOp1
70
0
102
RTVSPropertyOp2
70
0
102
RTVSPropertyOp3
70
0
102
RTVSPropertyOp4
70
0
102
RTVSPropertyOp5
70
0
102
RTVSPropertyOp6
70
0
102
RTVSPropertyOp7
70
0
102
RTVSPropertyOp8
70
0
102
RTVSPropertyOp9
70
0
102
RTVSPropertyOp10
70
0
102
RTVSPropertyOp11
70
0
102
RTVSPropertyOp12
70
0
102
RTVSPropertyOp13
70
0
102
RTVSPropertyOp14
70
2
102
RTVSPropertyOp15
70
0
102
RTVSPropertyOp16
70
0
102
RTVSPropertyOp17
70
0
102
RTVSPropertyOp18
70
0
102
RTVSPropertyOp19
70
0
102
RTVSPropertyOp20
70
0
102
RTVSPropertyOp21
70
0
102
RTVSPropertyOp22
70
0
102
RTVSPropertyOp23
70
0
102
RTVSPropertyOp24
70
0
102
RTVSPropertyOp25
70
0
102
RTVSPropertyOp26
70
0
102
RTVSPropertyOp27
70
0
0
XRECORD
5
109D
102
{ACAD_REACTORS
330
109C
102
}
330
109C
100
AcDbXrecord
280
1
102
RTVSPropertyOp0
70
1
102
RTVSPropertyOp1
70
1
102
RTVSPropertyOp2
70
1
102
RTVSPropertyOp3
70
1
102
RTVSPropertyOp4
70
1
102
RTVSPropertyOp5
70
1
102
RTVSPropertyOp6
70
1
102
RTVSPropertyOp7
70
1
102
RTVSPropertyOp8
70
1
102
RTVSPropertyOp9
70
1
102
RTVSPropertyOp10
70
1
102
RTVSPropertyOp11
70
1
102
RTVSPropertyOp12
70
1
102
RTVSPropertyOp13
70
1
102
RTVSPropertyOp14
70
1
102
RTVSPropertyOp15
70
1
102
RTVSPropertyOp16
70
1
102
RTVSPropertyOp17
70
1
102
RTVSPropertyOp18
70
1
102
RTVSPropertyOp19
70
1
102
RTVSPropertyOp20
70
1
102
RTVSPropertyOp21
70
1
102
RTVSPropertyOp22
70
1
102
RTVSPropertyOp23
70
1
102
RTVSPropertyOp24
70
1
102
RTVSPropertyOp25
70
1
102
RTVSPropertyOp26
70
1
102
RTVSPropertyOp27
70
1
0
XRECORD
5
1081
102
{ACAD_REACTORS
330
1080
102
}
330
1080
100
AcDbXrecord
280
1
102
RTVSPropertyOp0
70
1
102
RTVSPropertyOp1
70
1
102
RTVSPropertyOp2
70
1
102
RTVSPropertyOp3
70
1
102
RTVSPropertyOp4
70
1
102
RTVSPropertyOp5
70
1
102
RTVSPropertyOp6
70
1
102
RTVSPropertyOp7
70
1
102
RTVSPropertyOp8
70
1
102
RTVSPropertyOp9
70
1
102
RTVSPropertyOp10
70
1
102
RTVSPropertyOp11
70
1
102
RTVSPropertyOp12
70
1
102
RTVSPropertyOp13
70
1
102
RTVSPropertyOp14
70
1
102
RTVSPropertyOp15
70
1
102
RTVSPropertyOp16
70
1
102
RTVSPropertyOp17
70
1
102
RTVSPropertyOp18
70
1
102
RTVSPropertyOp19
70
1
102
RTVSPropertyOp20
70
1
102
RTVSPropertyOp21
70
1
102
RTVSPropertyOp22
70
1
102
RTVSPropertyOp23
70
1
102
RTVSPropertyOp24
70
1
102
RTVSPropertyOp25
70
1
102
RTVSPropertyOp26
70
1
102
RTVSPropertyOp27
70
1
0
XRECORD
5
1083
102
{ACAD_REACTORS
330
1082
102
}
330
1082
100
AcDbXrecord
280
1
102
RTVSPropertyOp0
70
1
102
RTVSPropertyOp1
70
1
102
RTVSPropertyOp2
70
1
102
RTVSPropertyOp3
70
1
102
RTVSPropertyOp4
70
1
102
RTVSPropertyOp5
70
1
102
RTVSPropertyOp6
70
1
102
RTVSPropertyOp7
70
1
102
RTVSPropertyOp8
70
1
102
RTVSPropertyOp9
70
1
102
RTVSPropertyOp10
70
1
102
RTVSPropertyOp11
70
1
102
RTVSPropertyOp12
70
1
102
RTVSPropertyOp13
70
1
102
RTVSPropertyOp14
70
1
102
RTVSPropertyOp15
70
1
102
RTVSPropertyOp16
70
1
102
RTVSPropertyOp17
70
1
102
RTVSPropertyOp18
70
1
102
RTVSPropertyOp19
70
1
102
RTVSPropertyOp20
70
1
102
RTVSPropertyOp21
70
1
102
RTVSPropertyOp22
70
1
102
RTVSPropertyOp23
70
1
102
RTVSPropertyOp24
70
1
102
RTVSPropertyOp25
70
1
102
RTVSPropertyOp26
70
1
102
RTVSPropertyOp27
70
1
0
XRECORD
5
1085
102
{ACAD_REACTORS
330
1084
102
}
330
1084
100
AcDbXrecord
280
1
102
RTVSPropertyOp0
70
1
102
RTVSPropertyOp1
70
1
102
RTVSPropertyOp2
70
1
102
RTVSPropertyOp3
70
1
102
RTVSPropertyOp4
70
1
102
RTVSPropertyOp5
70
1
102
RTVSPropertyOp6
70
1
102
RTVSPropertyOp7
70
1
102
RTVSPropertyOp8
70
1
102
RTVSPropertyOp9
70
1
102
RTVSPropertyOp10
70
1
102
RTVSPropertyOp11
70
1
102
RTVSPropertyOp12
70
1
102
RTVSPropertyOp13
70
1
102
RTVSPropertyOp14
70
1
102
RTVSPropertyOp15
70
1
102
RTVSPropertyOp16
70
1
102
RTVSPropertyOp17
70
1
102
RTVSPropertyOp18
70
1
102
RTVSPropertyOp19
70
1
102
RTVSPropertyOp20
70
1
102
RTVSPropertyOp21
70
1
102
RTVSPropertyOp22
70
1
102
RTVSPropertyOp23
70
1
102
RTVSPropertyOp24
70
1
102
RTVSPropertyOp25
70
1
102
RTVSPropertyOp26
70
1
102
RTVSPropertyOp27
70
1
0
XRECORD
5
1087
102
{ACAD_REACTORS
330
1086
102
}
330
1086
100
AcDbXrecord
280
1
102
RTVSPropertyOp0
70
1
102
RTVSPropertyOp1
70
1
102
RTVSPropertyOp2
70
1
102
RTVSPropertyOp3
70
1
102
RTVSPropertyOp4
70
1
102
RTVSPropertyOp5
70
1
102
RTVSPropertyOp6
70
1
102
RTVSPropertyOp7
70
1
102
RTVSPropertyOp8
70
1
102
RTVSPropertyOp9
70
1
102
RTVSPropertyOp10
70
1
102
RTVSPropertyOp11
70
1
102
RTVSPropertyOp12
70
1
102
RTVSPropertyOp13
70
1
102
RTVSPropertyOp14
70
1
102
RTVSPropertyOp15
70
1
102
RTVSPropertyOp16
70
1
102
RTVSPropertyOp17
70
1
102
RTVSPropertyOp18
70
1
102
RTVSPropertyOp19
70
1
102
RTVSPropertyOp20
70
1
102
RTVSPropertyOp21
70
1
102
RTVSPropertyOp22
70
1
102
RTVSPropertyOp23
70
1
102
RTVSPropertyOp24
70
1
102
RTVSPropertyOp25
70
1
102
RTVSPropertyOp26
70
1
102
RTVSPropertyOp27
70
1
0
XRECORD
5
10A1
102
{ACAD_REACTORS
330
10A0
102
}
330
10A0
100
AcDbXrecord
280
1
102
RTVSPropertyOp0
70
0
102
RTVSPropertyOp1
70
0
102
RTVSPropertyOp2
70
0
102
RTVSPropertyOp3
70
0
102
RTVSPropertyOp4
70
0
102
RTVSPropertyOp5
70
0
102
RTVSPropertyOp6
70
0
102
RTVSPropertyOp7
70
0
102
RTVSPropertyOp8
70
0
102
RTVSPropertyOp9
70
0
102
RTVSPropertyOp10
70
0
102
RTVSPropertyOp11
70
0
102
RTVSPropertyOp12
70
0
102
RTVSPropertyOp13
70
0
102
RTVSPropertyOp14
70
2
102
RTVSPropertyOp15
70
0
102
RTVSPropertyOp16
70
0
102
RTVSPropertyOp17
70
0
102
RTVSPropertyOp18
70
0
102
RTVSPropertyOp19
70
0
102
RTVSPropertyOp20
70
0
102
RTVSPropertyOp21
70
0
102
RTVSPropertyOp22
70
0
102
RTVSPropertyOp23
70
0
102
RTVSPropertyOp24
70
0
102
RTVSPropertyOp25
70
0
102
RTVSPropertyOp26
70
0
102
RTVSPropertyOp27
70
0
0
XRECORD
5
109B
102
{ACAD_REACTORS
330
109A
102
}
330
109A
100
AcDbXrecord
280
1
102
RTVSPropertyOp0
70
1
102
RTVSPropertyOp1
70
1
102
RTVSPropertyOp2
70
1
102
RTVSPropertyOp3
70
1
102
RTVSPropertyOp4
70
1
102
RTVSPropertyOp5
70
1
102
RTVSPropertyOp6
70
1
102
RTVSPropertyOp7
70
1
102
RTVSPropertyOp8
70
1
102
RTVSPropertyOp9
70
1
102
RTVSPropertyOp10
70
1
102
RTVSPropertyOp11
70
1
102
RTVSPropertyOp12
70
1
102
RTVSPropertyOp13
70
1
102
RTVSPropertyOp14
70
1
102
RTVSPropertyOp15
70
1
102
RTVSPropertyOp16
70
1
102
RTVSPropertyOp17
70
1
102
RTVSPropertyOp18
70
1
102
RTVSPropertyOp19
70
1
102
RTVSPropertyOp20
70
1
102
RTVSPropertyOp21
70
1
102
RTVSPropertyOp22
70
1
102
RTVSPropertyOp23
70
1
102
RTVSPropertyOp24
70
1
102
RTVSPropertyOp25
70
1
102
RTVSPropertyOp26
70
1
102
RTVSPropertyOp27
70
1
0
XRECORD
5
10A3
102
{ACAD_REACTORS
330
10A2
102
}
330
10A2
100
AcDbXrecord
280
1
102
RTVSPropertyOp0
70
0
102
RTVSPropertyOp1
70
0
102
RTVSPropertyOp2
70
0
102
RTVSPropertyOp3
70
0
102
RTVSPropertyOp4
70
0
102
RTVSPropertyOp5
70
0
102
RTVSPropertyOp6
70
0
102
RTVSPropertyOp7
70
0
102
RTVSPropertyOp8
70
0
102
RTVSPropertyOp9
70
0
102
RTVSPropertyOp10
70
0
102
RTVSPropertyOp11
70
0
102
RTVSPropertyOp12
70
0
102
RTVSPropertyOp13
70
0
102
RTVSPropertyOp14
70
2
102
RTVSPropertyOp15
70
0
102
RTVSPropertyOp16
70
0
102
RTVSPropertyOp17
70
0
102
RTVSPropertyOp18
70
0
102
RTVSPropertyOp19
70
0
102
RTVSPropertyOp20
70
0
102
RTVSPropertyOp21
70
0
102
RTVSPropertyOp22
70
0
102
RTVSPropertyOp23
70
0
102
RTVSPropertyOp24
70
0
102
RTVSPropertyOp25
70
0
102
RTVSPropertyOp26
70
0
102
RTVSPropertyOp27
70
0
0
XRECORD
5
1093
102
{ACAD_REACTORS
330
1092
102
}
330
1092
100
AcDbXrecord
280
1
102
RTVSPropertyOp0
70
1
102
RTVSPropertyOp1
70
1
102
RTVSPropertyOp2
70
1
102
RTVSPropertyOp3
70
1
102
RTVSPropertyOp4
70
1
102
RTVSPropertyOp5
70
1
102
RTVSPropertyOp6
70
1
102
RTVSPropertyOp7
70
1
102
RTVSPropertyOp8
70
1
102
RTVSPropertyOp9
70
1
102
RTVSPropertyOp10
70
1
102
RTVSPropertyOp11
70
1
102
RTVSPropertyOp12
70
1
102
RTVSPropertyOp13
70
1
102
RTVSPropertyOp14
70
1
102
RTVSPropertyOp15
70
1
102
RTVSPropertyOp16
70
1
102
RTVSPropertyOp17
70
1
102
RTVSPropertyOp18
70
1
102
RTVSPropertyOp19
70
1
102
RTVSPropertyOp20
70
1
102
RTVSPropertyOp21
70
1
102
RTVSPropertyOp22
70
1
102
RTVSPropertyOp23
70
1
102
RTVSPropertyOp24
70
1
102
RTVSPropertyOp25
70
1
102
RTVSPropertyOp26
70
1
102
RTVSPropertyOp27
70
1
0
XRECORD
5
1099
102
{ACAD_REACTORS
330
1098
102
}
330
1098
100
AcDbXrecord
280
1
102
RTVSPropertyOp0
70
1
102
RTVSPropertyOp1
70
1
102
RTVSPropertyOp2
70
1
102
RTVSPropertyOp3
70
1
102
RTVSPropertyOp4
70
1
102
RTVSPropertyOp5
70
1
102
RTVSPropertyOp6
70
1
102
RTVSPropertyOp7
70
1
102
RTVSPropertyOp8
70
1
102
RTVSPropertyOp9
70
1
102
RTVSPropertyOp10
70
1
102
RTVSPropertyOp11
70
1
102
RTVSPropertyOp12
70
1
102
RTVSPropertyOp13
70
1
102
RTVSPropertyOp14
70
1
102
RTVSPropertyOp15
70
1
102
RTVSPropertyOp16
70
1
102
RTVSPropertyOp17
70
1
102
RTVSPropertyOp18
70
1
102
RTVSPropertyOp19
70
1
102
RTVSPropertyOp20
70
1
102
RTVSPropertyOp21
70
1
102
RTVSPropertyOp22
70
1
102
RTVSPropertyOp23
70
1
102
RTVSPropertyOp24
70
1
102
RTVSPropertyOp25
70
1
102
RTVSPropertyOp26
70
1
102
RTVSPropertyOp27
70
1
0
ENDSEC
0
EOF
