0
SECTION
2
HEADER
9
$ACADVER
1
AC1015
9
$ACADMAINTVER
70
20
9
$DWGCODEPAGE
3
ANSI_1252
9
$INSBASE
10
0.0
20
0.0
30
0.0
9
$EXTMIN
10
-150.000000000000
20
-105.000000000000
30
0.0
9
$EXTMAX
10
150.000000000000
20
105.000000000000
30
0.0
9
$LIMMIN
10
0.0
20
0.0
9
$LIMMAX
10
12.0
20
9.0
9
$ORTHOMODE
70
0
9
$REGENMODE
70
1
9
$FILLMODE
70
1
9
$QTEXTMODE
70
0
9
$MIRRTEXT
70
1
9
$LTSCALE
40
1.0
9
$ATTMODE
70
1
9
$TEXTSIZE
40
0.2
9
$TRACEWID
40
0.05
9
$TEXTSTYLE
7
Standard
9
$CLAYER
8
0
9
$CELTYPE
6
ByLayer
9
$CECOLOR
62
256
9
$CELTSCALE
40
1.0
9
$DISPSILH
70
0
9
$DIMSCALE
40
1.0
9
$DIMASZ
40
2.5
9
$DIMEXO
40
0.625
9
$DIMDLI
40
0.38
9
$DIMRND
40
0.0
9
$DIMDLE
40
0.0
9
$DIMEXE
40
1.25
9
$DIMTP
40
0.0
9
$DIMTM
40
0.000000001
9
$DIMTXT
40
2.5
9
$DIMCEN
40
0.09
9
$DIMTSZ
40
0.0
9
$DIMTOL
70
1
9
$DIMLIM
70
0
9
$DIMTIH
70
0
9
$DIMTOH
70
0
9
$DIMSE1
70
0
9
$DIMSE2
70
0
9
$DIMTAD
70
1
9
$DIMZIN
70
0
9
$DIMBLK
1
VDDIM_DEFAULT
9
$DIMASO
70
1
9
$DIMSHO
70
1
9
$DIMPOST
1

9
$DIMAPOST
1

9
$DIMALT
70
0
9
$DIMALTD
70
2
9
$DIMALTF
40
25.4
9
$DIMLFAC
40
1.00000000000000
9
$DIMTOFL
70
0
9
$DIMTVP
40
0.0
9
$DIMTIX
70
0
9
$DIMSOXD
70
0
9
$DIMSAH
70
0
9
$DIMBLK1
1

9
$DIMBLK2
1

9
$DIMSTYLE
2
BEM-ISBE
9
$DIMCLRD
70
0
9
$DIMCLRE
70
0
9
$DIMCLRT
70
0
9
$DIMTFAC
40
0.5
9
$DIMGAP
40
0.625
9
$DIMJUST
70
0
9
$DIMSD1
70
0
9
$DIMSD2
70
0
9
$DIMTOLJ
70
1
9
$DIMTZIN
70
0
9
$DIMALTZ
70
0
9
$DIMALTTZ
70
0
9
$DIMUPT
70
0
9
$DIMDEC
70
3
9
$DIMTDEC
70
3
9
$DIMALTU
70
2
9
$DIMALTTD
70
2
9
$DIMTXSTY
7
Standard
9
$DIMAUNIT
70
0
9
$DIMADEC
70
3
9
$DIMALTRND
40
0.0
9
$DIMAZIN
70
0
9
$DIMDSEP
70
46
9
$DIMATFIT
70
3
9
$DIMFRAC
70
0
9
$DIMLDRBLK
1

9
$DIMLUNIT
70
2
9
$DIMLWD
70
-2
9
$DIMLWE
70
-2
9
$DIMTMOVE
70
0
9
$LUNITS
70
2
9
$LUPREC
70
4
9
$SKETCHINC
40
0.1
9
$FILLETRAD
40
0.5
9
$AUNITS
70
0
9
$AUPREC
70
0
9
$MENU
1
.
9
$ELEVATION
40
0.0
9
$PELEVATION
40
0.0
9
$THICKNESS
40
0.0
9
$LIMCHECK
70
0
9
$CHAMFERA
40
0.5
9
$CHAMFERB
40
0.5
9
$CHAMFERC
40
1.0
9
$CHAMFERD
40
0.0
9
$SKPOLY
70
0
9
$TDCREATE
40
0.0
9
$TDUCREATE
40
0.0
9
$TDUPDATE
40
0.0
9
$TDUUPDATE
40
0.0
9
$TDINDWG
40
0.0
9
$TDUSRTIMER
40
0.0
9
$USRTIMER
70
1
9
$ANGBASE
50
0.0
9
$ANGDIR
70
0
9
$PDMODE
70
0
9
$PDSIZE
40
0.0
9
$PLINEWID
40
0.0
9
$SPLFRAME
70
0
9
$SPLINETYPE
70
6
9
$SPLINESEGS
70
8
9
$HANDSEED
5
10AB
9
$SURFTAB1
70
6
9
$SURFTAB2
70
6
9
$SURFTYPE
70
6
9
$SURFU
70
6
9
$SURFV
70
6
9
$UCSBASE
2

9
$UCSNAME
2

9
$UCSORG
10
0.0
20
0.0
30
0.0
9
$UCSXDIR
10
1.0
20
0.0
30
0.0
9
$UCSYDIR
10
0.0
20
1.0
30
0.0
9
$UCSORTHOREF
2

9
$UCSORTHOVIEW
70
0
9
$UCSORGTOP
10
0.0
20
0.0
30
0.0
9
$UCSORGBOTTOM
10
0.0
20
0.0
30
0.0
9
$UCSORGLEFT
10
0.0
20
0.0
30
0.0
9
$UCSORGRIGHT
10
0.0
20
0.0
30
0.0
9
$UCSORGFRONT
10
0.0
20
0.0
30
0.0
9
$UCSORGBACK
10
0.0
20
0.0
30
0.0
9
$PUCSBASE
2

9
$PUCSNAME
2

9
$PUCSORG
10
0.0
20
0.0
30
0.0
9
$PUCSXDIR
10
1.0
20
0.0
30
0.0
9
$PUCSYDIR
10
0.0
20
1.0
30
0.0
9
$PUCSORTHOREF
2

9
$PUCSORTHOVIEW
70
0
9
$PUCSORGTOP
10
0.0
20
0.0
30
0.0
9
$PUCSORGBOTTOM
10
0.0
20
0.0
30
0.0
9
$PUCSORGLEFT
10
0.0
20
0.0
30
0.0
9
$PUCSORGRIGHT
10
0.0
20
0.0
30
0.0
9
$PUCSORGFRONT
10
0.0
20
0.0
30
0.0
9
$PUCSORGBACK
10
0.0
20
0.0
30
0.0
9
$USERI1
70
0
9
$USERI2
70
0
9
$USERI3
70
0
9
$USERI4
70
0
9
$USERI5
70
0
9
$USERR1
40
0.0
9
$USERR2
40
0.0
9
$USERR3
40
0.0
9
$USERR4
40
0.0
9
$USERR5
40
0.0
9
$WORLDVIEW
70
1
9
$SHADEDGE
70
3
9
$SHADEDIF
70
70
9
$TILEMODE
70
1
9
$MAXACTVP
70
64
9
$PINSBASE
10
0.0
20
0.0
30
0.0
9
$PLIMCHECK
70
0
9
$PEXTMIN
10
1.000000000000000E+20
20
1.000000000000000E+20
30
1.000000000000000E+20
9
$PEXTMAX
10
-1.000000000000000E+20
20
-1.000000000000000E+20
30
-1.000000000000000E+20
9
$PLIMMIN
10
0.0
20
0.0
9
$PLIMMAX
10
12.0
20
9.0
9
$UNITMODE
70
0
9
$VISRETAIN
70
1
9
$PLINEGEN
70
0
9
$PSLTSCALE
70
1
9
$TREEDEPTH
70
3020
9
$CMLSTYLE
2
Standard
9
$CMLJUST
70
0
9
$CMLSCALE
40
1.0
9
$PROXYGRAPHICS
70
1
9
$MEASUREMENT
70
0
9
$CELWEIGHT
370
-1
9
$ENDCAPS
280
0
9
$JOINSTYLE
280
0
9
$LWDISPLAY
290
0
9
$INSUNITS
70
4
9
$HYPERLINKBASE
1

9
$STYLESHEET
1

9
$XEDIT
290
1
9
$CEPSNTYPE
380
0
9
$PSTYLEMODE
290
0
9
$FINGERPRINTGUID
2
{FAEB1C30-E019-11D5-929B-00C0DF256EC4}
9
$VERSIONGUID
2
{04C5C4E4-4947-4D90-8812-D401569E61F7}
9
$EXTNAMES
290
1
9
$PSVPSCALE
40
0.0
9
$OLESTARTUP
290
0
0
ENDSEC
0
SECTION
2
TABLES
0
TABLE
2
VPORT
5
24A
330
0
100
AcDbSymbolTable
70
1
0
VPORT
5
26B
330
24A
100
AcDbSymbolTableRecord
100
AcDbViewportTableRecord
2
*Active
70
0
10
0.0
20
0.0
11
1.0
21
1.0
12
0.000000000000000
22
0.000000000000000
13
0.0
23
0.0
14
10.0
24
10.0
15
10.0
25
10.0
16
0.0
26
0.0
36
1.0
17
0.0
27
0.0
37
0.0
40
210.000000000000
41
1.42857142857143
42
1.0
43
0.0
44
0.0
50
0.0
51
0.0000000000007958
71
0
72
100
73
1
74
3
75
0
76
0
77
0
78
1
281
0
65
1
110
0.0
120
0.0
130
0.0
111
1.0
121
0.0
131
0.0
112
0.0
122
1.0
132
0.0
79
0
146
0.0
0
ENDTAB
0
TABLE
2
LTYPE
5
247
330
0
100
AcDbSymbolTable
70
25
0
LTYPE
5
256
330
247
100
AcDbSymbolTableRecord
100
AcDbLinetypeTableRecord
2
ByBlock
70
0
3

72
65
73
0
40
0.0
0
LTYPE
5
257
330
247
100
AcDbSymbolTableRecord
100
AcDbLinetypeTableRecord
2
ByLayer
70
0
3

72
65
73
0
40
0.0
0
LTYPE
5
258
330
247
100
AcDbSymbolTableRecord
100
AcDbLinetypeTableRecord
2
Continuous
70
0
3
Solid line
72
65
73
0
40
0.0
0
LTYPE
5
273
330
247
100
AcDbSymbolTableRecord
100
AcDbLinetypeTableRecord
2
CENTER
70
0
3
Center ____ _ ____ _ ____ _ ____ _ ____ _ ____
72
65
73
4
40
2.0
49
1.25
74
0
49
-0.25
74
0
49
0.25
74
0
49
-0.25
74
0
0
LTYPE
5
274
330
247
100
AcDbSymbolTableRecord
100
AcDbLinetypeTableRecord
2
DASHDOT
70
0
3
Dashdot __ . __ . __ . __ . __ . __ . __ . __
72
65
73
4
40
1.0
49
0.5
74
0
49
-0.25
74
0
49
0.0
74
0
49
-0.25
74
0
0
LTYPE
5
275
330
247
100
AcDbSymbolTableRecord
100
AcDbLinetypeTableRecord
2
DASHED
70
0
3
Dashed __ __ __ __ __ __ __ __ __ __ __ __ __ _
72
65
73
2
40
0.75
49
0.5
74
0
49
-0.25
74
0
0
LTYPE
5
276
330
247
100
AcDbSymbolTableRecord
100
AcDbLinetypeTableRecord
2
HIDDEN
70
0
3
Hidden __ __ __ __ __ __ __ __ __ __ __ __ __ __
72
65
73
2
40
0.375
49
0.25
74
0
49
-0.125
74
0
0
LTYPE
5
277
330
247
100
AcDbSymbolTableRecord
100
AcDbLinetypeTableRecord
2
HIDDEN2
70
0
3
Hidden2 _ _ _ _ _ _ _ _ _ _ _ _ _ _ _ _ _
72
65
73
2
40
0.1875
49
0.125
74
0
49
-0.0625
74
0
0
LTYPE
5
278
330
247
100
AcDbSymbolTableRecord
100
AcDbLinetypeTableRecord
2
BORDER
70
0
3
Border __ __ . __ __ . __ __ . __ __ . __ __ .
72
65
73
6
40
1.75
49
0.5
74
0
49
-0.25
74
0
49
0.5
74
0
49
-0.25
74
0
49
0.0
74
0
49
-0.25
74
0
0
LTYPE
5
279
330
247
100
AcDbSymbolTableRecord
100
AcDbLinetypeTableRecord
2
BORDER2
70
0
3
Border2 __.__.__.__.__.__.__.__.__.__.__.
72
65
73
6
40
0.875
49
0.25
74
0
49
-0.125
74
0
49
0.25
74
0
49
-0.125
74
0
49
0.0
74
0
49
-0.125
74
0
0
LTYPE
5
27A
330
247
100
AcDbSymbolTableRecord
100
AcDbLinetypeTableRecord
2
BORDERX2
70
0
3
Borderx2  ____  ____  .  ____  ____  .  ___
72
65
73
6
40
3.5
49
1.0
74
0
49
-0.5
74
0
49
1.0
74
0
49
-0.5
74
0
49
0.0
74
0
49
-0.5
74
0
0
LTYPE
5
27B
330
247
100
AcDbSymbolTableRecord
100
AcDbLinetypeTableRecord
2
CENTER2
70
0
3
Center2  ___ _ ___ _ ___ _ ___ _ ___ _ ___
72
65
73
4
40
1.125
49
0.75
74
0
49
-0.125
74
0
49
0.125
74
0
49
-0.125
74
0
0
LTYPE
5
27C
330
247
100
AcDbSymbolTableRecord
100
AcDbLinetypeTableRecord
2
CENTERX2
70
0
3
Centerx2  ________  __  ________  __  _____
72
65
73
4
40
4.0
49
2.5
74
0
49
-0.5
74
0
49
0.5
74
0
49
-0.5
74
0
0
LTYPE
5
27D
330
247
100
AcDbSymbolTableRecord
100
AcDbLinetypeTableRecord
2
DASHDOT2
70
0
3
Dashdot2  _._._._._._._._._._._._._._._.
72
65
73
4
40
0.5
49
0.25
74
0
49
-0.125
74
0
49
0.0
74
0
49
-0.125
74
0
0
LTYPE
5
27E
330
247
100
AcDbSymbolTableRecord
100
AcDbLinetypeTableRecord
2
DASHDOTX2
70
0
3
Dashdotx2 ____  .  ____  .  ____  .  ___
72
65
73
4
40
2.0
49
1.0
74
0
49
-0.5
74
0
49
0.0
74
0
49
-0.5
74
0
0
LTYPE
5
27F
330
247
100
AcDbSymbolTableRecord
100
AcDbLinetypeTableRecord
2
DASHED2
70
0
3
Dashed2 _ _ _ _ _ _ _ _ _ _ _ _ _ _ _ _ _
72
65
73
2
40
0.375
49
0.25
74
0
49
-0.125
74
0
0
LTYPE
5
280
330
247
100
AcDbSymbolTableRecord
100
AcDbLinetypeTableRecord
2
DASHEDX2
70
0
3
Dashedx2 ____  ____  ____  ____  ____  ___
72
65
73
2
40
1.5
49
1.0
74
0
49
-0.5
74
0
0
LTYPE
5
281
330
247
100
AcDbSymbolTableRecord
100
AcDbLinetypeTableRecord
2
DIVIDE
70
0
3
Divide ____ . . ____ . . ____ . . ____ . . ____
72
65
73
6
40
1.25
49
0.5
74
0
49
-0.25
74
0
49
0.0
74
0
49
-0.25
74
0
49
0.0
74
0
49
-0.25
74
0
0
LTYPE
5
282
330
247
100
AcDbSymbolTableRecord
100
AcDbLinetypeTableRecord
2
DIVIDE2
70
0
3
Divide2 __..__..__..__..__..__..__..__.._
72
65
73
6
40
0.625
49
0.25
74
0
49
-0.125
74
0
49
0.0
74
0
49
-0.125
74
0
49
0.0
74
0
49
-0.125
74
0
0
LTYPE
5
283
330
247
100
AcDbSymbolTableRecord
100
AcDbLinetypeTableRecord
2
DIVIDEX2
70
0
3
Dividex2 ________  .  .  ________  .  .  _
72
65
73
6
40
2.5
49
1.0
74
0
49
-0.5
74
0
49
0.0
74
0
49
-0.5
74
0
49
0.0
74
0
49
-0.5
74
0
0
LTYPE
5
284
330
247
100
AcDbSymbolTableRecord
100
AcDbLinetypeTableRecord
2
DOT
70
0
3
Dot . . . . . . . . . . . . . . . . . . . . . . . .
72
65
73
2
40
0.25
49
0.0
74
0
49
-0.25
74
0
0
LTYPE
5
285
330
247
100
AcDbSymbolTableRecord
100
AcDbLinetypeTableRecord
2
DOT2
70
0
3
Dot2 ........................................
72
65
73
2
40
0.125
49
0.0
74
0
49
-0.125
74
0
0
LTYPE
5
286
330
247
100
AcDbSymbolTableRecord
100
AcDbLinetypeTableRecord
2
DOTX2
70
0
3
Dotx2 .  .  .  .  .  .  .  .  .  .  .  .  .  .
72
65
73
2
40
0.5
49
0.0
74
0
49
-0.5
74
0
0
LTYPE
5
287
330
247
100
AcDbSymbolTableRecord
100
AcDbLinetypeTableRecord
2
HIDDENX2
70
0
3
Hiddenx2 ____ ____ ____ ____ ____ ____ ____
72
65
73
2
40
0.75
49
0.5
74
0
49
-0.25
74
0
0
LTYPE
5
288
330
247
100
AcDbSymbolTableRecord
100
AcDbLinetypeTableRecord
2
PHANTOM
70
0
3
Phantom ______  __  __  ______  __  __  ______
72
65
73
6
40
2.5
49
1.25
74
0
49
-0.25
74
0
49
0.25
74
0
49
-0.25
74
0
49
0.25
74
0
49
-0.25
74
0
0
LTYPE
5
289
330
247
100
AcDbSymbolTableRecord
100
AcDbLinetypeTableRecord
2
PHANTOM2
70
0
3
Phantom2 ___ _ _ ___ _ _ ___ _ _ ___ _ _
72
65
73
6
40
1.25
49
0.625
74
0
49
-0.125
74
0
49
0.125
74
0
49
-0.125
74
0
49
0.125
74
0
49
-0.125
74
0
0
LTYPE
5
28A
330
247
100
AcDbSymbolTableRecord
100
AcDbLinetypeTableRecord
2
PHANTOMX2
70
0
3
Phantomx2 ____________    ____    ____   _
72
65
73
6
40
5.0
49
2.5
74
0
49
-0.5
74
0
49
0.5
74
0
49
-0.5
74
0
49
0.5
74
0
49
-0.5
74
0
0
ENDTAB
0
TABLE
2
LAYER
5
244
330
0
100
AcDbSymbolTable
70
6
0
LAYER
5
252
330
244
100
AcDbSymbolTableRecord
100
AcDbLayerTableRecord
2
0
70
0
62
7
6
Continuous
370
0
390
251
0
LAYER
5
23F
330
244
100
AcDbSymbolTableRecord
100
AcDbLayerTableRecord
2
Bemassung
70
0
 62
   7
6
Continuous
370
0
390
251
0
LAYER
5
240
330
244
100
AcDbSymbolTableRecord
100
AcDbLayerTableRecord
2
Rahmen
70
0
 62
   7
6
Continuous
370
0
390
251
0
LAYER
5
241
330
244
100
AcDbSymbolTableRecord
100
AcDbLayerTableRecord
2
Geo
70
0
 62
   7
6
Continuous
370
0
390
251
0
LAYER
5
33A
330
244
100
AcDbSymbolTableRecord
100
AcDbLayerTableRecord
2
Defpoints
70
0
62
7
6
Continuous
290
0
370
-3
390
251
0
LAYER
5
57E
330
244
100
AcDbSymbolTableRecord
100
AcDbLayerTableRecord
2
Text
70
0
 62
   7
6
Continuous
370
0
390
251
1001
AcAecLayerStandard
1000

1000

0
ENDTAB
0
TABLE
2
STYLE
5
245
330
0
100
AcDbSymbolTable
70
2
0
STYLE
5
253
330
245
100
AcDbSymbolTableRecord
100
AcDbTextStyleTableRecord
2
Standard
70
0
40
0.0
41
1.0
50
0.0
71
0
42
0.2
3
Arial
4

1001
ACAD
1000
Arial
1071
0
0
STYLE
5
132
330
245
100
AcDbSymbolTableRecord
100
AcDbTextStyleTableRecord
2
Beschriftung
70
0
40
0.0
41
1.0
50
0.0
71
0
42
0.2
3
Arial
4

1001
ACAD
1000
Arial
1071
0
1001
AcadAnnotative
1000
AnnotativeData
1070
1
1070
1
0
ENDTAB
0
TABLE
2
VIEW
5
248
330
0
100
AcDbSymbolTable
70
0
0
ENDTAB
0
TABLE
2
UCS
5
249
330
0
100
AcDbSymbolTable
70
0
0
ENDTAB
0
TABLE
2
APPID
5
24B
330
0
100
AcDbSymbolTable
70
13
0
APPID
5
254
330
24B
100
AcDbSymbolTableRecord
100
AcDbRegAppTableRecord
2
ACAD
70
0
0
APPID
5
26C
330
24B
100
AcDbSymbolTableRecord
100
AcDbRegAppTableRecord
2
VD_INVISIBLE_NOT_FOR_READ
70
0
0
APPID
5
26D
330
24B
100
AcDbSymbolTableRecord
100
AcDbRegAppTableRecord
2
VD_TEMPHATCH
70
0
0
APPID
5
26E
330
24B
100
AcDbSymbolTableRecord
100
AcDbRegAppTableRecord
2
VDEXTRAPARAM
70
0
0
APPID
5
26F
330
24B
100
AcDbSymbolTableRecord
100
AcDbRegAppTableRecord
2
PE_URL
70
0
0
APPID
5
270
330
24B
100
AcDbSymbolTableRecord
100
AcDbRegAppTableRecord
2
VD_UNKNOWN
70
0
0
APPID
5
28F
330
24B
100
AcDbSymbolTableRecord
100
AcDbRegAppTableRecord
2
AcadAnnotative
70
0
0
APPID
5
290
330
24B
100
AcDbSymbolTableRecord
100
AcDbRegAppTableRecord
2
ACAD_DSTYLE_DIMJAG
70
0
0
APPID
5
291
330
24B
100
AcDbSymbolTableRecord
100
AcDbRegAppTableRecord
2
ACAD_DSTYLE_DIMTALN
70
0
0
APPID
5
293
330
24B
100
AcDbSymbolTableRecord
100
AcDbRegAppTableRecord
2
ACAD_PSEXT
70
0
0
APPID
5
42A
330
24B
100
AcDbSymbolTableRecord
100
AcDbRegAppTableRecord
2
ACAD_MLEADERVER
70
0
0
APPID
5
532
330
24B
100
AcDbSymbolTableRecord
100
AcDbRegAppTableRecord
2
ACAD_EXEMPT_FROM_CAD_STANDARDS
70
0
0
APPID
5
57F
330
24B
100
AcDbSymbolTableRecord
100
AcDbRegAppTableRecord
2
AcAecLayerStandard
70
0
0
ENDTAB
0
TABLE
2
DIMSTYLE
5
24C
330
0
100
AcDbSymbolTable
70
3
100
AcDbDimStyleTable
71
2
340
27
340
269
0
DIMSTYLE
105
269
330
24C
100
AcDbSymbolTableRecord
100
AcDbDimStyleTableRecord
2
Standard
70
0
172
1
174
1
288
1
340
253
342
23C
0
DIMSTYLE
105
137
330
24C
100
AcDbSymbolTableRecord
100
AcDbDimStyleTableRecord
2
Beschriftung
70
0
41
2.5
42
0.625
44
1.25
73
0
74
0
77
1
140
2.5
147
0.625
172
1
174
1
271
2
288
1
340
253
342
23C
1001
AcadAnnotative
1000
AnnotativeData
1070
1
1070
1
1001
ACAD_DSTYLE_DIMJAG
1070
388
1040
1.5
1001
ACAD_DSTYLE_DIMTALN
1070
392
1070
0
0
DIMSTYLE
105
27
102
{ACAD_REACTORS
330
F10008
330
F10012
330
F1001C
330
F10021
330
F10026
330
F10003
330
F1000D
330
F10017
102
}
330
24C
100
AcDbSymbolTableRecord
100
AcDbDimStyleTableRecord
2
BEM-ISBE
70
0
41
2.5
42
0.625
44
1.25
48
0.000000001
71
1
73
0
74
0
77
1
140
2.5
144
1.00000000000000
146
0.5
147
0.625
171
 3
172
 1
179
 3
271
 3
272
 3
274
 3
340
253
342
23C
1001
ACAD_DSTYLE_DIMJAG
1070
388
1040
1.5
1001
ACAD_DSTYLE_DIMTALN
1070
392
1070
1
0
ENDTAB
0
TABLE
2
BLOCK_RECORD
5
243
330
0
100
AcDbSymbolTable
70
5
0
BLOCK_RECORD
5
261
330
243
100
AcDbSymbolTableRecord
100
AcDbBlockTableRecord
2
*Model_Space
340
FD0
0
BLOCK_RECORD
5
25D
330
243
100
AcDbSymbolTableRecord
100
AcDbBlockTableRecord
2
*Paper_Space
340
FD1
0
BLOCK_RECORD
5
265
330
243
100
AcDbSymbolTableRecord
100
AcDbBlockTableRecord
2
*Paper_Space0
340
0
0
BLOCK_RECORD
5
23C
330
243
100
AcDbSymbolTableRecord
100
AcDbBlockTableRecord
2
VDDIM_DEFAULT
340
0
102
{BLKREFS
102
}
0
BLOCK_RECORD
5
23E
330
243
100
AcDbSymbolTableRecord
100
AcDbBlockTableRecord
2
VDDIM_NONE
340
0
0
BLOCK_RECORD
5
F10007
330
243
100
AcDbSymbolTableRecord
100
AcDbBlockTableRecord
2
*D4
340
0
0
BLOCK_RECORD
5
F10011
330
243
100
AcDbSymbolTableRecord
100
AcDbBlockTableRecord
2
*D6
340
0
0
BLOCK_RECORD
5
F1001B
330
243
100
AcDbSymbolTableRecord
100
AcDbBlockTableRecord
2
*D8
340
0
0
BLOCK_RECORD
5
F10020
330
243
100
AcDbSymbolTableRecord
100
AcDbBlockTableRecord
2
*D9
340
0
0
BLOCK_RECORD
5
F10025
330
243
100
AcDbSymbolTableRecord
100
AcDbBlockTableRecord
2
*D10
340
0
0
BLOCK_RECORD
5
F10002
330
243
100
AcDbSymbolTableRecord
100
AcDbBlockTableRecord
2
*D3
340
0
0
BLOCK_RECORD
5
F1000C
330
243
100
AcDbSymbolTableRecord
100
AcDbBlockTableRecord
2
*D5
340
0
0
BLOCK_RECORD
5
F10016
330
243
100
AcDbSymbolTableRecord
100
AcDbBlockTableRecord
2
*D7
340
0
0
ENDTAB
0
ENDSEC
0
SECTION
2
BLOCKS
0
BLOCK
5
262
330
261
100
AcDbEntity
8
0
100
AcDbBlockBegin
2
*Model_Space
70
0
10
0.0
20
0.0
30
0.0
3
*Model_Space
1

0
ENDBLK
5
263
330
261
100
AcDbEntity
8
0
100
AcDbBlockEnd
0
BLOCK
5
25E
330
25D
100
AcDbEntity
67
1
8
0
100
AcDbBlockBegin
2
*Paper_Space
70
0
10
0.0
20
0.0
30
0.0
3
*Paper_Space
1

0
ENDBLK
5
25F
330
25D
100
AcDbEntity
67
1
8
0
100
AcDbBlockEnd
0
BLOCK
5
266
330
265
100
AcDbEntity
8
0
100
AcDbBlockBegin
2
*Paper_Space0
70
0
10
0.0
20
0.0
30
0.0
3
*Paper_Space0
1

0
VIEWPORT
5
296
102
{ACAD_XDICTIONARY
360
58E
102
}
330
265
100
AcDbEntity
8
0
60
1
100
AcDbViewport
10
0.0
20
0.0
30
0.0
40
10.0
41
10.0
69
0
12
0.0
22
0.0
13
0.0
23
0.0
14
1.0
24
1.0
15
0.0
25
0.0
16
0.0
26
0.0
36
1.0
17
0.0
27
0.0
37
0.0
42
0.0
43
0.0
44
0.0
45
10.0
50
0.0
51
0.0000000000007958
72
100
90
163872
1

281
0
71
0
74
0
110
0.0
120
0.0
130
0.0
111
1.0
121
0.0
131
0.0
112
0.0
122
1.0
132
0.0
79
0
146
0.0
1001
VD_INVISIBLE_NOT_FOR_READ
1000
VD_INVISIBLE_NOT_FOR_READ
0
VIEWPORT
5
297
102
{ACAD_XDICTIONARY
360
590
102
}
330
265
100
AcDbEntity
8
0
60
1
100
AcDbViewport
10
0.0
20
0.0
30
0.0
40
10.0
41
10.0
69
0
12
0.0
22
0.0
13
0.0
23
0.0
14
1.0
24
1.0
15
0.0
25
0.0
16
0.0
26
0.0
36
1.0
17
0.0
27
0.0
37
0.0
42
0.0
43
0.0
44
0.0
45
10.0
50
0.0
51
0.0000000000007958
72
100
90
163872
1

281
0
71
0
74
0
110
0.0
120
0.0
130
0.0
111
1.0
121
0.0
131
0.0
112
0.0
122
1.0
132
0.0
79
0
146
0.0
1001
VD_INVISIBLE_NOT_FOR_READ
1000
VD_INVISIBLE_NOT_FOR_READ
0
ENDBLK
5
267
330
265
100
AcDbEntity
8
0
100
AcDbBlockEnd
0
BLOCK
5
28B
330
23C
100
AcDbEntity
8
0
100
AcDbBlockBegin
2
VDDIM_DEFAULT
70
0
10
0.0
20
0.0
30
0.0
3
VDDIM_DEFAULT
1

0
LWPOLYLINE
5
23D
330
23C
100
AcDbEntity
8
0
6
Continuous
62
0
100
AcDbPolyline
90
4
70
0
43
0.0
10
0.0
20
0.0
10
-1.0
20
-0.1665
10
-1.0
20
0.1665
10
0.0
20
0.0
1001
VDEXTRAPARAM
1071
1
1071
0
1071
0
1040
1.0
1000

1000

1040
0.0
1040
0.0
0
HATCH
5
292
330
23C
100
AcDbEntity
8
0
6
Continuous
62
0
100
AcDbHatch
10
0.0
20
0.0
30
0.0
210
0.0
220
0.0
230
1.0
2
SOLID
70
1
71
0
91
1
92
2
72
0
73
1
93
3
10
0.0
20
0.0
10
-1.0
20
-0.1665
10
-1.0
20
0.1665
97
0
75
0
76
1
98
1
10
0.0
20
0.0
1001
VDEXTRAPARAM
1071
1
1071
0
1071
0
1040
1.0
1000

1000

1040
0.0
1040
0.0
1001
VD_TEMPHATCH
1000
VD_TEMPHATCH
0
ENDBLK
5
28C
330
23C
100
AcDbEntity
8
0
100
AcDbBlockEnd
0
BLOCK
5
28D
330
23E
100
AcDbEntity
8
0
100
AcDbBlockBegin
2
VDDIM_NONE
70
0
10
0.0
20
0.0
30
0.0
3
VDDIM_NONE
1

0
ENDBLK
5
28E
330
23E
100
AcDbEntity
8
0
100
AcDbBlockEnd
  0
BLOCK
  5
F1002A
330
F10007
100
AcDbEntity
  8
0
100
AcDbBlockBegin
  2
*D4
 70
     1
 10
0.0
 20
0.0
 30
0.0
  3
*D4
  1

  0
LINE
  5
F1002B
330
F10007
100
AcDbEntity
  8
Bemassung
 62
     0
370
    -2
100
AcDbLine
10
-69.8387470997678
20
-7.72157772621800
30
0.000000000000000
11
-69.8387470997678
21
37.2784222737820
31
0.000000000000000
  0
LINE
  5
F1002C
330
F10007
100
AcDbEntity
  8
Bemassung
 62
     0
370
    -2
100
AcDbLine
10
-69.5887470997678
20
15.2784222737820
30
0.000000000000000
11
-69.5887470997678
21
24.2784222737820
31
0.000000000000000
  0
LINE
  5
F1002D
330
F10007
100
AcDbEntity
  8
Bemassung
 62
     0
370
    -2
100
AcDbLine
10
-93.9675174013921
20
22.2784222737820
30
0.000000000000000
11
-69.5887470997678
21
22.2784222737820
31
0.000000000000000
  0
INSERT
  5
F1002E
330
F10007
100
AcDbEntity
  8
Bemassung
 62
     0
370
    -2
100
AcDbBlockReference
  2
VDDIM_DEFAULT
10
-69.8387470997678
20
22.2784222737820
30
0.000000000000000
 41
2.50000000000000
 42
2.50000000000000
 43
2.50000000000000
  0
INSERT
  5
F1002F
330
F10007
100
AcDbEntity
  8
Bemassung
 62
     0
370
    -2
100
AcDbBlockReference
  2
VDDIM_DEFAULT
10
-69.5887470997678
20
22.2784222737820
30
0.000000000000000
 41
2.50000000000000
 42
2.50000000000000
 43
2.50000000000000
 50
180.000000000000
  0
MTEXT
  5
F10030
330
F10007
100
AcDbEntity
  8
Bemassung
 62
     0
100
AcDbMText
10
-74.5031562694040
20
22.9450889404487
30
0.000000000000000
 40
2.50000000000000
 41
0.0
 71
     8
 72
     1
  1
0.25 x 45°
 11
1.00000000000000
 21
0.000000000000000
 31
0.0
 73
     1
 44
1.0
1001
ACAD
1000
MTEXTBEGIN
1070
73
1070
1
1070
44
1040
1.0
1070
74
1070
0
1000
MTEXTEND
  0
POINT
  5
F10031
330
F10007
100
AcDbEntity
  8
Bemassung
 62
     0
100
AcDbPoint
10
-69.8387470997678
20
-7.72157772621800
30
0.000000000000000
  0
POINT
  5
F10032
330
F10007
100
AcDbEntity
  8
Bemassung
 62
     0
100
AcDbPoint
10
-69.5887470997678
20
15.2784222737820
30
0.000000000000000
  0
ENDBLK
  5
F10033
330
F10007
100
AcDbEntity
  8
0
100
AcDbBlockEnd
  0
BLOCK
  5
F10034
330
F10011
100
AcDbEntity
  8
0
100
AcDbBlockBegin
  2
*D6
 70
     1
 10
0.0
 20
0.0
 30
0.0
  3
*D6
  1

  0
LINE
  5
F10035
330
F10011
100
AcDbEntity
  8
Bemassung
 62
     0
370
    -2
100
AcDbLine
10
-53.8387470997678
20
15.2784222737820
30
0.000000000000000
11
-53.8387470997678
21
32.2784222737820
31
0.000000000000000
  0
LINE
  5
F10036
330
F10011
100
AcDbEntity
  8
Bemassung
 62
     0
370
    -2
100
AcDbLine
10
-5.83874709976780
20
14.2784222737820
30
0.000000000000000
11
-5.83874709976780
21
37.2784222737820
31
0.000000000000000
  0
LINE
  5
F10037
330
F10011
100
AcDbEntity
  8
Bemassung
 62
     0
370
    -2
100
AcDbLine
10
-53.8387470997678
20
30.2784222737820
30
0.000000000000000
11
11.7772621809745
21
30.2784222737820
31
0.000000000000000
  0
INSERT
  5
F10038
330
F10011
100
AcDbEntity
  8
Bemassung
 62
     0
370
    -2
100
AcDbBlockReference
  2
VDDIM_DEFAULT
10
-53.8387470997678
20
30.2784222737820
30
0.000000000000000
 41
2.50000000000000
 42
2.50000000000000
 43
2.50000000000000
 50
180.000000000000
  0
INSERT
  5
F10039
330
F10011
100
AcDbEntity
  8
Bemassung
 62
     0
370
    -2
100
AcDbBlockReference
  2
VDDIM_DEFAULT
10
-5.83874709976780
20
30.2784222737820
30
0.000000000000000
 41
2.50000000000000
 42
2.50000000000000
 43
2.50000000000000
  0
MTEXT
  5
F1003A
330
F10011
100
AcDbEntity
  8
Bemassung
 62
     0
100
AcDbMText
10
-29.8387470997678
20
30.9450889404487
30
0.000000000000000
 40
2.50000000000000
 41
0.0
 71
     8
 72
     1
  1
48
 11
1.00000000000000
 21
0.000000000000000
 31
0.0
 73
     1
 44
1.0
1001
ACAD
1000
MTEXTBEGIN
1070
73
1070
1
1070
44
1040
1.0
1070
74
1070
0
1000
MTEXTEND
  0
POINT
  5
F1003B
330
F10011
100
AcDbEntity
  8
Bemassung
 62
     0
100
AcDbPoint
10
-53.8387470997678
20
15.2784222737820
30
0.000000000000000
  0
POINT
  5
F1003C
330
F10011
100
AcDbEntity
  8
Bemassung
 62
     0
100
AcDbPoint
10
-5.83874709976780
20
14.2784222737820
30
0.000000000000000
  0
ENDBLK
  5
F1003D
330
F10011
100
AcDbEntity
  8
0
100
AcDbBlockEnd
  0
BLOCK
  5
F1003E
330
F1001B
100
AcDbEntity
  8
0
100
AcDbBlockBegin
  2
*D8
 70
     1
 10
0.0
 20
0.0
 30
0.0
  3
*D8
  1

  0
LINE
  5
F1003F
330
F1001B
100
AcDbEntity
  8
Bemassung
 62
     0
370
    -2
100
AcDbLine
10
-53.8387470997678
20
9.27842227378200
30
0.000000000000000
11
-53.8387470997678
21
-2.72157772621800
31
0.000000000000000
  0
LINE
  5
F10040
330
F1001B
100
AcDbEntity
  8
Bemassung
 62
     0
370
    -2
100
AcDbLine
10
-69.8387470997678
20
-7.72157772621800
30
0.000000000000000
11
-69.8387470997678
21
37.2784222737820
31
0.000000000000000
  0
LINE
  5
F10041
330
F1001B
100
AcDbEntity
  8
Bemassung
 62
     0
370
    -2
100
AcDbLine
10
-52.1206496519722
20
-0.721577726218001
30
0.000000000000000
11
-69.8387470997678
21
-0.721577726218001
31
0.000000000000000
  0
INSERT
  5
F10042
330
F1001B
100
AcDbEntity
  8
Bemassung
 62
     0
370
    -2
100
AcDbBlockReference
  2
VDDIM_DEFAULT
10
-53.8387470997678
20
-0.721577726218001
30
0.000000000000000
 41
2.50000000000000
 42
2.50000000000000
 43
2.50000000000000
  0
INSERT
  5
F10043
330
F1001B
100
AcDbEntity
  8
Bemassung
 62
     0
370
    -2
100
AcDbBlockReference
  2
VDDIM_DEFAULT
10
-69.8387470997678
20
-0.721577726218001
30
0.000000000000000
 41
2.50000000000000
 42
2.50000000000000
 43
2.50000000000000
 50
180.000000000000
  0
MTEXT
  5
F10044
330
F1001B
100
AcDbEntity
  8
Bemassung
 62
     0
100
AcDbMText
10
-61.8387470997678
20
-0.0549110595513346
30
0.000000000000000
 40
2.50000000000000
 41
0.0
 71
     8
 72
     1
  1
16
 11
1.00000000000000
 21
0.000000000000000
 31
0.0
 73
     1
 44
1.0
1001
ACAD
1000
MTEXTBEGIN
1070
73
1070
1
1070
44
1040
1.0
1070
74
1070
0
1000
MTEXTEND
  0
POINT
  5
F10045
330
F1001B
100
AcDbEntity
  8
Bemassung
 62
     0
100
AcDbPoint
10
-53.8387470997678
20
9.27842227378200
30
0.000000000000000
  0
POINT
  5
F10046
330
F1001B
100
AcDbEntity
  8
Bemassung
 62
     0
100
AcDbPoint
10
-69.8387470997678
20
-7.72157772621800
30
0.000000000000000
  0
ENDBLK
  5
F10047
330
F1001B
100
AcDbEntity
  8
0
100
AcDbBlockEnd
  0
BLOCK
  5
F10048
330
F10020
100
AcDbEntity
  8
0
100
AcDbBlockBegin
  2
*D9
 70
     1
 10
0.0
 20
0.0
 30
0.0
  3
*D9
  1

  0
LINE
  5
F10049
330
F10020
100
AcDbEntity
  8
Bemassung
 62
     0
370
    -2
100
AcDbLine
10
-52.8387470997678
20
9.27842227378200
30
0.000000000000000
11
-52.8387470997678
21
-7.72157772621800
31
0.000000000000000
  0
LINE
  5
F1004A
330
F10020
100
AcDbEntity
  8
Bemassung
 62
     0
370
    -2
100
AcDbLine
10
-69.8387470997678
20
-7.72157772621800
30
0.000000000000000
11
-69.8387470997678
21
37.2784222737820
31
0.000000000000000
  0
LINE
  5
F1004B
330
F10020
100
AcDbEntity
  8
Bemassung
 62
     0
370
    -2
100
AcDbLine
10
-51.1183294663573
20
-5.72157772621800
30
0.000000000000000
11
-69.8387470997678
21
-5.72157772621800
31
0.000000000000000
  0
INSERT
  5
F1004C
330
F10020
100
AcDbEntity
  8
Bemassung
 62
     0
370
    -2
100
AcDbBlockReference
  2
VDDIM_DEFAULT
10
-52.8387470997678
20
-5.72157772621800
30
0.000000000000000
 41
2.50000000000000
 42
2.50000000000000
 43
2.50000000000000
  0
INSERT
  5
F1004D
330
F10020
100
AcDbEntity
  8
Bemassung
 62
     0
370
    -2
100
AcDbBlockReference
  2
VDDIM_DEFAULT
10
-69.8387470997678
20
-5.72157772621800
30
0.000000000000000
 41
2.50000000000000
 42
2.50000000000000
 43
2.50000000000000
 50
180.000000000000
  0
MTEXT
  5
F1004E
330
F10020
100
AcDbEntity
  8
Bemassung
 62
     0
100
AcDbMText
10
-61.3387470997678
20
-5.05491105955133
30
0.000000000000000
 40
2.50000000000000
 41
0.0
 71
     8
 72
     1
  1
17
 11
1.00000000000000
 21
0.000000000000000
 31
0.0
 73
     1
 44
1.0
1001
ACAD
1000
MTEXTBEGIN
1070
73
1070
1
1070
44
1040
1.0
1070
74
1070
0
1000
MTEXTEND
  0
POINT
  5
F1004F
330
F10020
100
AcDbEntity
  8
Bemassung
 62
     0
100
AcDbPoint
10
-52.8387470997678
20
9.27842227378200
30
0.000000000000000
  0
POINT
  5
F10050
330
F10020
100
AcDbEntity
  8
Bemassung
 62
     0
100
AcDbPoint
10
-69.8387470997678
20
-7.72157772621800
30
0.000000000000000
  0
ENDBLK
  5
F10051
330
F10020
100
AcDbEntity
  8
0
100
AcDbBlockEnd
  0
BLOCK
  5
F10052
330
F10025
100
AcDbEntity
  8
0
100
AcDbBlockBegin
  2
*D10
 70
     1
 10
0.0
 20
0.0
 30
0.0
  3
*D10
  1

  0
LINE
  5
F10053
330
F10025
100
AcDbEntity
  8
Bemassung
 62
     0
370
    -2
100
AcDbLine
10
-5.83874709976780
20
14.2784222737820
30
0.000000000000000
11
-5.83874709976780
21
37.2784222737820
31
0.000000000000000
  0
LINE
  5
F10054
330
F10025
100
AcDbEntity
  8
Bemassung
 62
     0
370
    -2
100
AcDbLine
10
-69.8387470997678
20
-7.72157772621800
30
0.000000000000000
11
-69.8387470997678
21
37.2784222737820
31
0.000000000000000
  0
LINE
  5
F10055
330
F10025
100
AcDbEntity
  8
Bemassung
 62
     0
370
    -2
100
AcDbLine
10
-4.25986078886311
20
35.2784222737820
30
0.000000000000000
11
-69.8387470997678
21
35.2784222737820
31
0.000000000000000
  0
INSERT
  5
F10056
330
F10025
100
AcDbEntity
  8
Bemassung
 62
     0
370
    -2
100
AcDbBlockReference
  2
VDDIM_DEFAULT
10
-5.83874709976780
20
35.2784222737820
30
0.000000000000000
 41
2.50000000000000
 42
2.50000000000000
 43
2.50000000000000
  0
INSERT
  5
F10057
330
F10025
100
AcDbEntity
  8
Bemassung
 62
     0
370
    -2
100
AcDbBlockReference
  2
VDDIM_DEFAULT
10
-69.8387470997678
20
35.2784222737820
30
0.000000000000000
 41
2.50000000000000
 42
2.50000000000000
 43
2.50000000000000
 50
180.000000000000
  0
MTEXT
  5
F10058
330
F10025
100
AcDbEntity
  8
Bemassung
 62
     0
100
AcDbMText
10
-37.8387470997678
20
35.9450889404487
30
0.000000000000000
 40
2.50000000000000
 41
0.0
 71
     8
 72
     1
  1
64
 11
1.00000000000000
 21
0.000000000000000
 31
0.0
 73
     1
 44
1.0
1001
ACAD
1000
MTEXTBEGIN
1070
73
1070
1
1070
44
1040
1.0
1070
74
1070
0
1000
MTEXTEND
  0
POINT
  5
F10059
330
F10025
100
AcDbEntity
  8
Bemassung
 62
     0
100
AcDbPoint
10
-5.83874709976780
20
14.2784222737820
30
0.000000000000000
  0
POINT
  5
F1005A
330
F10025
100
AcDbEntity
  8
Bemassung
 62
     0
100
AcDbPoint
10
-69.8387470997678
20
-7.72157772621800
30
0.000000000000000
  0
ENDBLK
  5
F1005B
330
F10025
100
AcDbEntity
  8
0
100
AcDbBlockEnd
  0
BLOCK
  5
F1005C
330
F10002
100
AcDbEntity
  8
0
100
AcDbBlockBegin
  2
*D3
 70
     1
 10
0.0
 20
0.0
 30
0.0
  3
*D3
  1

 0
ARC
  5
F1005D
330
F10002
100
AcDbEntity
  8
Bemassung
 62
     0
370
   -2
100
AcDbCircle
10
-69.8387470997678
20
15.0284222737820
30
0.000000000000000
 40
15.0566551361940
100
AcDbArc
 50
90.0000000000000
 51
112.582337446125
  0
LINE
  5
F1005E
330
F10002
100
AcDbEntity
  8
Bemassung
 62
     0
370
    -2
100
AcDbLine
10
-69.8387470997678
20
15.0284222737820
30
0.000000000000000
11
-69.8387470997678
21
32.0850774099760
31
0.000000000000000
  0
LINE
  5
F1005F
330
F10002
100
AcDbEntity
  8
Bemassung
 62
     0
370
    -2
100
AcDbLine
10
-69.8387470997678
20
15.0284222737820
30
0.000000000000000
11
-70.4340157794491
21
32.0746869565223
31
0.000000000000000
  0
INSERT
  5
F10060
330
F10002
100
AcDbEntity
  8
Bemassung
 62
     0
370
    -2
100
AcDbBlockReference
  2
VDDIM_DEFAULT
10
-69.8387470997678
20
30.0850774099760
30
0.000000000000000
 41
2.50000000000000
 42
2.50000000000000
 43
2.50000000000000
 50
179.809732359871
  0
INSERT
  5
F10061
330
F10002
100
AcDbEntity
  8
Bemassung
 62
     0
370
    -2
100
AcDbBlockReference
  2
VDDIM_DEFAULT
10
-70.3642167860441
20
30.0759053024841
30
0.000000000000000
 41
2.50000000000000
 42
2.50000000000000
 43
2.50000000000000
 50
2.19026764007020
  0
MTEXT
  5
F10062
330
F10002
100
AcDbEntity
  8
Bemassung
 62
     0
100
AcDbMText
10
-75.0314144261521
20
29.1613296154360
30
0.000000000000000
 40
2.50000000000000
 41
0.0
 71
     8
 72
     1
  1
2°
 11
0.938343116817110
 21
0.345705358827356
 31
0.0
 73
     1
 44
1.0
1001
ACAD
1000
MTEXTBEGIN
1070
73
1070
1
1070
44
1040
1.0
1070
74
1070
0
1000
MTEXTEND
  0
POINT
  5
F10063
330
F10002
100
AcDbEntity
  8
Bemassung
 62
     0
100
AcDbPoint
10
-69.8387470997678
20
15.0284222737820
30
0.000000000000000
  0
POINT
  5
F10064
330
F10002
100
AcDbEntity
  8
Bemassung
 62
     0
100
AcDbPoint
10
-69.8387470997678
20
30.0850774099760
30
0.000000000000000
  0
POINT
  5
F10065
330
F10002
100
AcDbEntity
  8
Bemassung
 62
     0
100
AcDbPoint
10
-70.3642167860441
20
30.0759053024841
30
0.000000000000000
  0
POINT
  5
F10066
330
F10002
100
AcDbEntity
  8
Bemassung
 62
     0
100
AcDbPoint
10
-70.1015219647907
20
30.0827842084702
30
0.000000000000000
  0
ENDBLK
  5
F10067
330
F10002
100
AcDbEntity
  8
0
100
AcDbBlockEnd
  0
BLOCK
  5
F10068
330
F1000C
100
AcDbEntity
  8
0
100
AcDbBlockBegin
  2
*D5
 70
     1
 10
0.0
 20
0.0
 30
0.0
  3
*D5
  1

  0
LINE
  5
F10069
330
F1000C
100
AcDbEntity
  8
Bemassung
 62
     0
370
    -2
100
AcDbLine
10
-69.5887470997678
20
9.27842227378200
30
0.000000000000000
11
-81.8387470997678
21
9.27842227378200
31
0.000000000000000
  0
LINE
  5
F1006A
330
F1000C
100
AcDbEntity
  8
Bemassung
 62
     0
370
    -2
100
AcDbLine
10
-69.5887470997678
20
15.2784222737820
30
0.000000000000000
11
-81.8387470997678
21
15.2784222737820
31
0.000000000000000
  0
LINE
  5
F1006B
330
F1000C
100
AcDbEntity
  8
Bemassung
 62
     0
370
    -2
100
AcDbLine
10
-79.8387470997678
20
9.27842227378200
30
0.000000000000000
11
-79.8387470997678
21
15.2784222737820
31
0.000000000000000
  0
INSERT
  5
F1006C
330
F1000C
100
AcDbEntity
  8
Bemassung
 62
     0
370
    -2
100
AcDbBlockReference
  2
VDDIM_DEFAULT
10
-79.8387470997678
20
9.27842227378200
30
0.000000000000000
 41
2.50000000000000
 42
2.50000000000000
 43
2.50000000000000
 50
270.000000000000
  0
INSERT
  5
F1006D
330
F1000C
100
AcDbEntity
  8
Bemassung
 62
     0
370
    -2
100
AcDbBlockReference
  2
VDDIM_DEFAULT
10
-79.8387470997678
20
15.2784222737820
30
0.000000000000000
 41
2.50000000000000
 42
2.50000000000000
 43
2.50000000000000
 50
90.0000000000000
  0
MTEXT
  5
F1006E
330
F1000C
100
AcDbEntity
  8
Bemassung
 62
     0
100
AcDbMText
10
-79.1720804331011
20
12.2784222737820
30
0.000000000000000
 40
2.50000000000000
 41
0.0
 71
     8
 72
     1
  1
6
 11
6.12323399573677e-017
 21
1.00000000000000
 31
0.0
 73
     1
 44
1.0
1001
ACAD
1000
MTEXTBEGIN
1070
73
1070
1
1070
44
1040
1.0
1070
74
1070
0
1000
MTEXTEND
  0
POINT
  5
F1006F
330
F1000C
100
AcDbEntity
  8
Bemassung
 62
     0
100
AcDbPoint
10
-69.5887470997678
20
9.27842227378200
30
0.000000000000000
  0
POINT
  5
F10070
330
F1000C
100
AcDbEntity
  8
Bemassung
 62
     0
100
AcDbPoint
10
-69.5887470997678
20
15.2784222737820
30
0.000000000000000
  0
ENDBLK
  5
F10071
330
F1000C
100
AcDbEntity
  8
0
100
AcDbBlockEnd
  0
BLOCK
  5
F10072
330
F10016
100
AcDbEntity
  8
0
100
AcDbBlockBegin
  2
*D7
 70
     1
 10
0.0
 20
0.0
 30
0.0
  3
*D7
  1

  0
LINE
  5
F10073
330
F10016
100
AcDbEntity
  8
Bemassung
 62
     0
370
    -2
100
AcDbLine
10
-6.83874709976780
20
9.27842227378200
30
0.000000000000000
11
6.16125290023220
21
9.27842227378200
31
0.000000000000000
  0
LINE
  5
F10074
330
F10016
100
AcDbEntity
  8
Bemassung
 62
     0
370
    -2
100
AcDbLine
10
-6.83874709976780
20
15.2784222737820
30
0.000000000000000
11
6.16125290023220
21
15.2784222737820
31
0.000000000000000
  0
LINE
  5
F10075
330
F10016
100
AcDbEntity
  8
Bemassung
 62
     0
370
    -2
100
AcDbLine
10
4.16125290023220
20
9.27146171693735
30
0.000000000000000
11
4.16125290023220
21
15.5359628770302
31
0.000000000000000
  0
INSERT
  5
F10076
330
F10016
100
AcDbEntity
  8
Bemassung
 62
     0
370
    -2
100
AcDbBlockReference
  2
VDDIM_DEFAULT
10
4.16125290023220
20
9.27842227378200
30
0.000000000000000
 41
2.50000000000000
 42
2.50000000000000
 43
2.50000000000000
 50
270.000000000000
  0
INSERT
  5
F10077
330
F10016
100
AcDbEntity
  8
Bemassung
 62
     0
370
    -2
100
AcDbBlockReference
  2
VDDIM_DEFAULT
10
4.16125290023220
20
15.2784222737820
30
0.000000000000000
 41
2.50000000000000
 42
2.50000000000000
 43
2.50000000000000
 50
90.0000000000000
  0
MTEXT
  5
F10078
330
F10016
100
AcDbEntity
  8
Bemassung
 62
     0
100
AcDbMText
10
4.82791956689887
20
12.2784222737820
30
0.000000000000000
 40
2.50000000000000
 41
0.0
 71
     8
 72
     1
  1
6h5
 11
6.12323399573677e-017
 21
1.00000000000000
 31
0.0
 73
     1
 44
1.0
  0
POINT
  5
F10079
330
F10016
100
AcDbEntity
  8
Bemassung
 62
     0
100
AcDbPoint
10
-6.83874709976780
20
9.27842227378200
30
0.000000000000000
  0
POINT
  5
F1007A
330
F10016
100
AcDbEntity
  8
Bemassung
 62
     0
100
AcDbPoint
10
-6.83874709976780
20
15.2784222737820
30
0.000000000000000
  0
ENDBLK
  5
F1007B
330
F10016
100
AcDbEntity
  8
0
100
AcDbBlockEnd
0
ENDSEC
0
SECTION
2
ENTITIES
  0
DIMENSION
  5
F10008
330
261
100
AcDbEntity
  8
Bemassung
100
AcDbDimension
  2
*D4
10
-69.5887470997678
20
22.2784222737820
30
0.000000000000000
11
-74.5031562694040
21
22.9450889404487
31
0.000000000000000
 70
32
 1
0.25 x 45°
 71
     8
  3
BEM-ISBE
100
AcDbAlignedDimension
13
-69.8387470997678
23
-7.72157772621800
33
0.000000000000000
14
-69.5887470997678
24
15.2784222737820
34
0.000000000000000
100
AcDbRotatedDimension
1001
ACAD
1000
DSTYLE
1002
{
1070
284
1070
8
1070
78
1070
8
1070
144
1040
1.00000000000000
1070
147
1040
0.625
1070
 72
1070
 0
1070
 71
1070
 0
1002
}
  0
DIMENSION
  5
F10012
330
261
100
AcDbEntity
  8
Bemassung
100
AcDbDimension
  2
*D6
10
-5.83874709976780
20
30.2784222737820
30
0.000000000000000
11
-29.8387470997678
21
30.9450889404487
31
0.000000000000000
 70
32
 1
48
 71
     8
  3
BEM-ISBE
100
AcDbAlignedDimension
13
-53.8387470997678
23
15.2784222737820
33
0.000000000000000
14
-5.83874709976780
24
14.2784222737820
34
0.000000000000000
100
AcDbRotatedDimension
1001
ACAD
1000
DSTYLE
1002
{
1070
284
1070
8
1070
78
1070
8
1070
144
1040
1.00000000000000
1070
147
1040
0.625
1070
 72
1070
 0
1070
 71
1070
 0
1002
}
  0
DIMENSION
  5
F1001C
330
261
100
AcDbEntity
  8
Bemassung
100
AcDbDimension
  2
*D8
10
-69.8387470997678
20
-0.721577726218001
30
0.000000000000000
11
-61.8387470997678
21
-0.0549110595513346
31
0.000000000000000
 70
32
 1
16
 71
     8
  3
BEM-ISBE
100
AcDbAlignedDimension
13
-53.8387470997678
23
9.27842227378200
33
0.000000000000000
14
-69.8387470997678
24
-7.72157772621800
34
0.000000000000000
100
AcDbRotatedDimension
1001
ACAD
1000
DSTYLE
1002
{
1070
284
1070
8
1070
78
1070
8
1070
144
1040
1.00000000000000
1070
147
1040
0.625
1070
 72
1070
 0
1070
 71
1070
 0
1002
}
  0
DIMENSION
  5
F10021
330
261
100
AcDbEntity
  8
Bemassung
100
AcDbDimension
  2
*D9
10
-69.8387470997678
20
-5.72157772621800
30
0.000000000000000
11
-61.3387470997678
21
-5.05491105955133
31
0.000000000000000
 70
32
 1
17
 71
     8
  3
BEM-ISBE
100
AcDbAlignedDimension
13
-52.8387470997678
23
9.27842227378200
33
0.000000000000000
14
-69.8387470997678
24
-7.72157772621800
34
0.000000000000000
100
AcDbRotatedDimension
1001
ACAD
1000
DSTYLE
1002
{
1070
284
1070
8
1070
78
1070
8
1070
144
1040
1.00000000000000
1070
147
1040
0.625
1070
 72
1070
 0
1070
 71
1070
 0
1002
}
  0
DIMENSION
  5
F10026
330
261
100
AcDbEntity
  8
Bemassung
100
AcDbDimension
  2
*D10
10
-69.8387470997678
20
35.2784222737820
30
0.000000000000000
11
-37.8387470997678
21
35.9450889404487
31
0.000000000000000
 70
32
 1
64
 71
     8
  3
BEM-ISBE
100
AcDbAlignedDimension
13
-5.83874709976780
23
14.2784222737820
33
0.000000000000000
14
-69.8387470997678
24
-7.72157772621800
34
0.000000000000000
100
AcDbRotatedDimension
1001
ACAD
1000
DSTYLE
1002
{
1070
284
1070
8
1070
78
1070
8
1070
144
1040
1.00000000000000
1070
147
1040
0.625
1070
 72
1070
 0
1070
 71
1070
 0
1002
}
  0
DIMENSION
  5
F10003
330
261
100
AcDbEntity
  8
Bemassung
100
AcDbDimension
  2
*D3
10
-69.8387470997678
20
15.0284222737820
30
0.000000000000000
11
-75.0314144261521
21
29.1613296154360
31
0.000000000000000
 70
34
 1
2°
 71
     8
  3
BEM-ISBE
100
AcDb2LineAngularDimension
13
-69.8387470997678
23
15.0284222737820
33
0.000000000000000
14
-75.6206638784012
24
28.9306631814643
34
0.000000000000000
15
-69.8387470997678
25
30.0850774099760
35
0.000000000000000
16
-70.1015219647907
26
30.0827842084702
36
0.000000000000000
1001
ACAD
1000
DSTYLE
1002
{
1070
284
1070
8
1070
79
1070
2
1070
147
1040
0.625
1070
 72
1070
 0
1070
 71
1070
 0
1002
}
  0
DIMENSION
  5
F1000D
330
261
100
AcDbEntity
  8
Bemassung
100
AcDbDimension
  2
*D5
10
-79.8387470997678
20
15.2784222737820
30
0.000000000000000
11
-79.1720804331011
21
12.2784222737820
31
0.000000000000000
 70
32
 1
6
 71
     8
  3
BEM-ISBE
100
AcDbAlignedDimension
13
-69.5887470997678
23
9.27842227378200
33
0.000000000000000
14
-69.5887470997678
24
15.2784222737820
34
0.000000000000000
50
90.0000000000000
100
AcDbRotatedDimension
1001
ACAD
1000
DSTYLE
1002
{
1070
284
1070
8
1070
78
1070
8
1070
144
1040
1.00000000000000
1070
147
1040
0.625
1070
 72
1070
 0
1070
 71
1070
 0
1002
}
  0
DIMENSION
  5
F10017
330
261
100
AcDbEntity
  8
Bemassung
100
AcDbDimension
  2
*D7
10
4.16125290023220
20
15.2784222737820
30
0.000000000000000
11
4.82791956689887
21
12.2784222737820
31
0.000000000000000
 70
32
 1
6h5
 71
     8
  3
BEM-ISBE
100
AcDbAlignedDimension
13
-6.83874709976780
23
9.27842227378200
33
0.000000000000000
14
-6.83874709976780
24
15.2784222737820
34
0.000000000000000
50
90.0000000000000
100
AcDbRotatedDimension
1001
ACAD
1000
DSTYLE
1002
{
1070
284
1070
8
1070
78
1070
8
1070
144
1040
1.00000000000000
1070
147
1040
0.625
1070
 72
1070
 0
1070
 71
1070
 0
1002
}
  0
LINE
  5
F1007C
330
F1007D
100
AcDbEntity
8
Geo
100
AcDbLine
10
-69.7427149836655
20
12.2784222737820
30
0.000000000000000
11
-69.8387470997678
21
15.0284222737820
31
0.000000000000000
  0
LINE
  5
F1007E
330
F1007F
100
AcDbEntity
8
Geo
100
AcDbLine
10
-69.8387470997678
20
15.0284222737820
30
0.000000000000000
11
-69.5887470997678
21
15.2784222737820
31
0.000000000000000
  0
LINE
  5
F10080
330
F10081
100
AcDbEntity
8
Geo
100
AcDbLine
10
-69.5887470997678
20
15.2784222737820
30
0.000000000000000
11
-53.8387470997678
21
15.2784222737820
31
0.000000000000000
  0
LINE
  5
F10082
330
F10083
100
AcDbEntity
8
Geo
100
AcDbLine
10
-53.8387470997678
20
15.2784222737820
30
0.000000000000000
11
-26.8387470997678
21
15.2784222737820
31
0.000000000000000
  0
LINE
  5
F10084
330
F10085
100
AcDbEntity
8
Geo
100
AcDbLine
10
-26.8387470997678
20
15.2784222737820
30
0.000000000000000
11
-25.9387470997678
21
14.3784222737820
31
0.000000000000000
  0
LINE
  5
F10086
330
F10087
100
AcDbEntity
8
Geo
100
AcDbLine
10
-25.9387470997678
20
14.3784222737820
30
0.000000000000000
11
-21.7387470997678
21
14.3784222737820
31
0.000000000000000
  0
LINE
  5
F10088
330
F10089
100
AcDbEntity
8
Geo
100
AcDbLine
10
-21.7387470997678
20
14.3784222737820
30
0.000000000000000
11
-20.8387470997678
21
15.2784222737820
31
0.000000000000000
  0
LINE
  5
F1008A
330
F1008B
100
AcDbEntity
8
Geo
100
AcDbLine
10
-20.8387470997678
20
15.2784222737820
30
0.000000000000000
11
-6.83874709976780
21
15.2784222737820
31
0.000000000000000
  0
LINE
  5
F1008C
330
F1008D
100
AcDbEntity
8
Geo
100
AcDbLine
10
-6.83874709976780
20
15.2784222737820
30
0.000000000000000
11
-5.83874709976780
21
14.2784222737820
31
0.000000000000000
  0
LINE
  5
F1008E
330
F1008F
100
AcDbEntity
8
Geo
100
AcDbLine
10
-66.6387470997678
20
15.2774880828927
30
0.000000000000000
11
-66.5387470997678
21
15.2781475432921
31
0.000000000000000
  0
LINE
  5
F10090
330
F10091
100
AcDbEntity
8
Geo
100
AcDbLine
10
-66.5387470997678
20
15.2781475432921
30
0.000000000000000
11
-66.4387470997678
21
15.2743635148748
31
0.000000000000000
  0
LINE
  5
F10092
330
F10093
100
AcDbEntity
8
Geo
100
AcDbLine
10
-66.4387470997678
20
15.2743635148748
30
0.000000000000000
11
-66.3387470997678
21
15.2661416029167
31
0.000000000000000
  0
LINE
  5
F10094
330
F10095
100
AcDbEntity
8
Geo
100
AcDbLine
10
-66.3387470997678
20
15.2661416029167
30
0.000000000000000
11
-66.2387470997678
21
15.2534939865243
31
0.000000000000000
  0
LINE
  5
F10096
330
F10097
100
AcDbEntity
8
Geo
100
AcDbLine
10
-66.2387470997678
20
15.2534939865243
30
0.000000000000000
11
-66.1387470997678
21
15.2364394005940
31
0.000000000000000
  0
LINE
  5
F10098
330
F10099
100
AcDbEntity
8
Geo
100
AcDbLine
10
-66.1387470997678
20
15.2364394005940
30
0.000000000000000
11
-66.0387470997678
21
15.2150031080599
31
0.000000000000000
  0
LINE
  5
F1009A
330
F1009B
100
AcDbEntity
8
Geo
100
AcDbLine
10
-66.0387470997678
20
15.2150031080599
30
0.000000000000000
11
-65.9387470997678
21
15.1892168624720
31
0.000000000000000
  0
LINE
  5
F1009C
330
F1009D
100
AcDbEntity
8
Geo
100
AcDbLine
10
-65.9387470997678
20
15.1892168624720
30
0.000000000000000
11
-65.8387470997678
21
15.1591188609596
31
0.000000000000000
  0
LINE
  5
F1009E
330
F1009F
100
AcDbEntity
8
Geo
100
AcDbLine
10
-65.8387470997678
20
15.1591188609596
30
0.000000000000000
11
-65.7387470997678
21
15.1247536876498
31
0.000000000000000
  0
LINE
  5
F100A0
330
F100A1
100
AcDbEntity
8
Geo
100
AcDbLine
10
-65.7387470997678
20
15.1247536876498
30
0.000000000000000
11
-65.6387470997678
21
15.0861722476256
31
0.000000000000000
  0
LINE
  5
F100A2
330
F100A3
100
AcDbEntity
8
Geo
100
AcDbLine
10
-65.6387470997678
20
15.0861722476256
30
0.000000000000000
11
-65.5387470997678
21
15.0434316915196
31
0.000000000000000
  0
LINE
  5
F100A4
330
F100A5
100
AcDbEntity
8
Geo
100
AcDbLine
10
-65.5387470997678
20
15.0434316915196
30
0.000000000000000
11
-65.4387470997678
21
14.9965953308575
31
0.000000000000000
  0
LINE
  5
F100A6
330
F100A7
100
AcDbEntity
8
Geo
100
AcDbLine
10
-65.4387470997678
20
14.9965953308575
30
0.000000000000000
11
-65.3387470997678
21
14.9457325442743
31
0.000000000000000
  0
LINE
  5
F100A8
330
F100A9
100
AcDbEntity
8
Geo
100
AcDbLine
10
-65.3387470997678
20
14.9457325442743
30
0.000000000000000
11
-65.2387470997678
21
14.8909186747441
31
0.000000000000000
  0
LINE
  5
F100AA
330
F100AB
100
AcDbEntity
8
Geo
100
AcDbLine
10
-65.2387470997678
20
14.8909186747441
30
0.000000000000000
11
-65.1387470997678
21
14.8322349179747
31
0.000000000000000
  0
LINE
  5
F100AC
330
F100AD
100
AcDbEntity
8
Geo
100
AcDbLine
10
-65.1387470997678
20
14.8322349179747
30
0.000000000000000
11
-65.0387470997678
21
14.7697682021324
31
0.000000000000000
  0
LINE
  5
F100AE
330
F100AF
100
AcDbEntity
8
Geo
100
AcDbLine
10
-65.0387470997678
20
14.7697682021324
30
0.000000000000000
11
-64.9387470997678
21
14.7036110590753
31
0.000000000000000
  0
LINE
  5
F100B0
330
F100B1
100
AcDbEntity
8
Geo
100
AcDbLine
10
-64.9387470997678
20
14.7036110590753
30
0.000000000000000
11
-64.8387470997678
21
14.6338614872863
31
0.000000000000000
  0
LINE
  5
F100B2
330
F100B3
100
AcDbEntity
8
Geo
100
AcDbLine
10
-64.8387470997678
20
14.6338614872863
30
0.000000000000000
11
-64.7387470997678
21
14.5606228067078
31
0.000000000000000
  0
LINE
  5
F100B4
330
F100B5
100
AcDbEntity
8
Geo
100
AcDbLine
10
-64.7387470997678
20
14.5606228067078
30
0.000000000000000
11
-64.6387470997678
21
14.4840035056942
31
0.000000000000000
  0
LINE
  5
F100B6
330
F100B7
100
AcDbEntity
8
Geo
100
AcDbLine
10
-64.6387470997678
20
14.4840035056942
30
0.000000000000000
11
-64.5387470997678
21
14.4041170803081
31
0.000000000000000
  0
LINE
  5
F100B8
330
F100B9
100
AcDbEntity
8
Geo
100
AcDbLine
10
-64.5387470997678
20
14.4041170803081
30
0.000000000000000
11
-64.4387470997678
21
14.3210818661991
31
0.000000000000000
  0
LINE
  5
F100BA
330
F100BB
100
AcDbEntity
8
Geo
100
AcDbLine
10
-64.4387470997678
20
14.3210818661991
30
0.000000000000000
11
-64.3387470997678
21
14.2350208633128
31
0.000000000000000
  0
LINE
  5
F100BC
330
F100BD
100
AcDbEntity
8
Geo
100
AcDbLine
10
-64.3387470997678
20
14.2350208633128
30
0.000000000000000
11
-64.2387470997678
21
14.1460615536916
31
0.000000000000000
  0
LINE
  5
F100BE
330
F100BF
100
AcDbEntity
8
Geo
100
AcDbLine
10
-64.2387470997678
20
14.1460615536916
30
0.000000000000000
11
-64.1387470997678
21
14.0543357126354
31
0.000000000000000
  0
LINE
  5
F100C0
330
F100C1
100
AcDbEntity
8
Geo
100
AcDbLine
10
-64.1387470997678
20
14.0543357126354
30
0.000000000000000
11
-64.0387470997678
21
13.9599792135036
31
0.000000000000000
  0
LINE
  5
F100C2
330
F100C3
100
AcDbEntity
8
Geo
100
AcDbLine
10
-64.0387470997678
20
13.9599792135036
30
0.000000000000000
11
-63.9387470997678
21
13.8631318264453
31
0.000000000000000
  0
LINE
  5
F100C4
330
F100C5
100
AcDbEntity
8
Geo
100
AcDbLine
10
-63.9387470997678
20
13.8631318264453
30
0.000000000000000
11
-63.8387470997678
21
13.7639370113586
31
0.000000000000000
  0
LINE
  5
F100C6
330
F100C7
100
AcDbEntity
8
Geo
100
AcDbLine
10
-63.8387470997678
20
13.7639370113586
30
0.000000000000000
11
-63.7387470997678
21
13.6625417053834
31
0.000000000000000
  0
LINE
  5
F100C8
330
F100C9
100
AcDbEntity
8
Geo
100
AcDbLine
10
-63.7387470997678
20
13.6625417053834
30
0.000000000000000
11
-63.6387470997678
21
13.5590961052436
31
0.000000000000000
  0
LINE
  5
F100CA
330
F100CB
100
AcDbEntity
8
Geo
100
AcDbLine
10
-63.6387470997678
20
13.5590961052436
30
0.000000000000000
11
-63.5387470997678
21
13.4537534447610
31
0.000000000000000
  0
LINE
  5
F100CC
330
F100CD
100
AcDbEntity
8
Geo
100
AcDbLine
10
-63.5387470997678
20
13.4537534447610
30
0.000000000000000
11
-63.4387470997678
21
13.3466697678702
31
0.000000000000000
  0
LINE
  5
F100CE
330
F100CF
100
AcDbEntity
8
Geo
100
AcDbLine
10
-63.4387470997678
20
13.3466697678702
30
0.000000000000000
11
-63.3387470997678
21
13.2380036974710
31
0.000000000000000
  0
LINE
  5
F100D0
330
F100D1
100
AcDbEntity
8
Geo
100
AcDbLine
10
-63.3387470997678
20
13.2380036974710
30
0.000000000000000
11
-63.2387470997678
21
13.1279162004604
31
0.000000000000000
  0
LINE
  5
F100D2
330
F100D3
100
AcDbEntity
8
Geo
100
AcDbLine
10
-63.2387470997678
20
13.1279162004604
30
0.000000000000000
11
-63.1387470997678
21
13.0165703492926
31
0.000000000000000
  0
LINE
  5
F100D4
330
F100D5
100
AcDbEntity
8
Geo
100
AcDbLine
10
-63.1387470997678
20
13.0165703492926
30
0.000000000000000
11
-63.0387470997678
21
12.9041310804202
31
0.000000000000000
  0
LINE
  5
F100D6
330
F100D7
100
AcDbEntity
8
Geo
100
AcDbLine
10
-63.0387470997678
20
12.9041310804202
30
0.000000000000000
11
-62.9387470997678
21
12.7907649499738
31
0.000000000000000
  0
LINE
  5
F100D8
330
F100D9
100
AcDbEntity
8
Geo
100
AcDbLine
10
-62.9387470997678
20
12.7907649499738
30
0.000000000000000
11
-62.8387470997678
21
12.6766398870428
31
0.000000000000000
  0
LINE
  5
F100DA
330
F100DB
100
AcDbEntity
8
Geo
100
AcDbLine
10
-62.8387470997678
20
12.6766398870428
30
0.000000000000000
11
-62.7387470997678
21
12.5619249449221
31
0.000000000000000
  0
LINE
  5
F100DC
330
F100DD
100
AcDbEntity
8
Geo
100
AcDbLine
10
-62.7387470997678
20
12.5619249449221
30
0.000000000000000
11
-62.6387470997678
21
12.4467900506940
31
0.000000000000000
  0
LINE
  5
F100DE
330
F100DF
100
AcDbEntity
8
Geo
100
AcDbLine
10
-62.6387470997678
20
12.4467900506940
30
0.000000000000000
11
-62.5387470997678
21
12.3314057535150
31
0.000000000000000
  0
LINE
  5
F100E0
330
F100E1
100
AcDbEntity
8
Geo
100
AcDbLine
10
-62.5387470997678
20
12.3314057535150
30
0.000000000000000
11
-62.4387470997678
21
12.2159429719822
31
0.000000000000000
  0
LINE
  5
F100E2
330
F100E3
100
AcDbEntity
8
Geo
100
AcDbLine
10
-62.4387470997678
20
12.2159429719822
30
0.000000000000000
11
-62.3387470997678
21
12.1005727409511
31
0.000000000000000
  0
LINE
  5
F100E4
330
F100E5
100
AcDbEntity
8
Geo
100
AcDbLine
10
-62.3387470997678
20
12.1005727409511
30
0.000000000000000
11
-62.2387470997678
21
11.9854659581825
31
0.000000000000000
  0
LINE
  5
F100E6
330
F100E7
100
AcDbEntity
8
Geo
100
AcDbLine
10
-62.2387470997678
20
11.9854659581825
30
0.000000000000000
11
-62.1387470997678
21
11.8707931311915
31
0.000000000000000
  0
LINE
  5
F100E8
330
F100E9
100
AcDbEntity
8
Geo
100
AcDbLine
10
-62.1387470997678
20
11.8707931311915
30
0.000000000000000
11
-62.0387470997678
21
11.7567241246754
31
0.000000000000000
  0
LINE
  5
F100EA
330
F100EB
100
AcDbEntity
8
Geo
100
AcDbLine
10
-62.0387470997678
20
11.7567241246754
30
0.000000000000000
11
-61.9387470997678
21
11.6434279088928
31
0.000000000000000
  0
LINE
  5
F100EC
330
F100ED
100
AcDbEntity
8
Geo
100
AcDbLine
10
-61.9387470997678
20
11.6434279088928
30
0.000000000000000
11
-61.8387470997678
21
11.5310723093685
31
0.000000000000000
  0
LINE
  5
F100EE
330
F100EF
100
AcDbEntity
8
Geo
100
AcDbLine
10
-61.8387470997678
20
11.5310723093685
30
0.000000000000000
11
-61.7387470997678
21
11.4198237582940
31
0.000000000000000
  0
LINE
  5
F100F0
330
F100F1
100
AcDbEntity
8
Geo
100
AcDbLine
10
-61.7387470997678
20
11.4198237582940
30
0.000000000000000
11
-61.6387470997678
21
11.3098470479911
31
0.000000000000000
  0
LINE
  5
F100F2
330
F100F3
100
AcDbEntity
8
Geo
100
AcDbLine
10
-61.6387470997678
20
11.3098470479911
30
0.000000000000000
11
-61.5387470997678
21
11.2013050868060
31
0.000000000000000
  0
LINE
  5
F100F4
330
F100F5
100
AcDbEntity
8
Geo
100
AcDbLine
10
-61.5387470997678
20
11.2013050868060
30
0.000000000000000
11
-61.4387470997678
21
11.0943586577930
31
0.000000000000000
  0
LINE
  5
F100F6
330
F100F7
100
AcDbEntity
8
Geo
100
AcDbLine
10
-61.4387470997678
20
11.0943586577930
30
0.000000000000000
11
-61.3387470997678
21
10.9891661805466
31
0.000000000000000
  0
LINE
  5
F100F8
330
F100F9
100
AcDbEntity
8
Geo
100
AcDbLine
10
-61.3387470997678
20
10.9891661805466
30
0.000000000000000
11
-61.2387470997678
21
10.8858834765353
31
0.000000000000000
  0
LINE
  5
F100FA
330
F100FB
100
AcDbEntity
8
Geo
100
AcDbLine
10
-61.2387470997678
20
10.8858834765353
30
0.000000000000000
11
-61.1387470997678
21
10.7846635382831
31
0.000000000000000
  0
LINE
  5
F100FC
330
F100FD
100
AcDbEntity
8
Geo
100
AcDbLine
10
-61.1387470997678
20
10.7846635382831
30
0.000000000000000
11
-61.0387470997678
21
10.6856563027419
31
0.000000000000000
  0
LINE
  5
F100FE
330
F100FF
100
AcDbEntity
8
Geo
100
AcDbLine
10
-61.0387470997678
20
10.6856563027419
30
0.000000000000000
11
-60.9387470997678
21
10.5890084291903
31
0.000000000000000
  0
LINE
  5
F10100
330
F10101
100
AcDbEntity
8
Geo
100
AcDbLine
10
-60.9387470997678
20
10.5890084291903
30
0.000000000000000
11
-60.8387470997678
21
10.4948630819872
31
0.000000000000000
  0
LINE
  5
F10102
330
F10103
100
AcDbEntity
8
Geo
100
AcDbLine
10
-60.8387470997678
20
10.4948630819872
30
0.000000000000000
11
-60.7387470997678
21
10.4033597185030
31
0.000000000000000
  0
LINE
  5
F10104
330
F10105
100
AcDbEntity
8
Geo
100
AcDbLine
10
-60.7387470997678
20
10.4033597185030
30
0.000000000000000
11
-60.6387470997678
21
10.3146338825410
31
0.000000000000000
  0
LINE
  5
F10106
330
F10107
100
AcDbEntity
8
Geo
100
AcDbLine
10
-60.6387470997678
20
10.3146338825410
30
0.000000000000000
11
-60.5387470997678
21
10.2288170035570
31
0.000000000000000
  0
LINE
  5
F10108
330
F10109
100
AcDbEntity
8
Geo
100
AcDbLine
10
-60.5387470997678
20
10.2288170035570
30
0.000000000000000
11
-60.4387470997678
21
10.1460362019731
31
0.000000000000000
  0
LINE
  5
F1010A
330
F1010B
100
AcDbEntity
8
Geo
100
AcDbLine
10
-60.4387470997678
20
10.1460362019731
30
0.000000000000000
11
-60.3387470997678
21
10.0664141008740
31
0.000000000000000
  0
LINE
  5
F1010C
330
F1010D
100
AcDbEntity
8
Geo
100
AcDbLine
10
-60.3387470997678
20
10.0664141008740
30
0.000000000000000
11
-60.2387470997678
21
9.99006864436604
31
0.000000000000000
  0
LINE
  5
F1010E
330
F1010F
100
AcDbEntity
8
Geo
100
AcDbLine
10
-60.2387470997678
20
9.99006864436604
30
0.000000000000000
11
-60.1387470997678
21
9.91711292286630
31
0.000000000000000
  0
LINE
  5
F10110
330
F10111
100
AcDbEntity
8
Geo
100
AcDbLine
10
-60.1387470997678
20
9.91711292286630
30
0.000000000000000
11
-60.0387470997678
21
9.84765500558231
31
0.000000000000000
  0
LINE
  5
F10112
330
F10113
100
AcDbEntity
8
Geo
100
AcDbLine
10
-60.0387470997678
20
9.84765500558231
30
0.000000000000000
11
-59.9387470997678
21
9.78179778042914
31
0.000000000000000
  0
LINE
  5
F10114
330
F10115
100
AcDbEntity
8
Geo
100
AcDbLine
10
-59.9387470997678
20
9.78179778042914
30
0.000000000000000
11
-59.8387470997678
21
9.71963880162163
31
0.000000000000000
  0
LINE
  5
F10116
330
F10117
100
AcDbEntity
8
Geo
100
AcDbLine
10
-59.8387470997678
20
9.71963880162163
30
0.000000000000000
11
-59.7387470997678
21
9.66127014516755
31
0.000000000000000
  0
LINE
  5
F10118
330
F10119
100
AcDbEntity
8
Geo
100
AcDbLine
10
-59.7387470997678
20
9.66127014516755
30
0.000000000000000
11
-59.6387470997678
21
9.60677827247550
31
0.000000000000000
  0
LINE
  5
F1011A
330
F1011B
100
AcDbEntity
8
Geo
100
AcDbLine
10
-59.6387470997678
20
9.60677827247550
30
0.000000000000000
11
-59.5387470997678
21
9.55624390227975
31
0.000000000000000
  0
LINE
  5
F1011C
330
F1011D
100
AcDbEntity
8
Geo
100
AcDbLine
10
-59.5387470997678
20
9.55624390227975
30
0.000000000000000
11
-59.4387470997678
21
9.50974189107169
31
0.000000000000000
  0
LINE
  5
F1011E
330
F1011F
100
AcDbEntity
8
Geo
100
AcDbLine
10
-59.4387470997678
20
9.50974189107169
30
0.000000000000000
11
-59.3387470997678
21
9.46734112221504
31
0.000000000000000
  0
LINE
  5
F10120
330
F10121
100
AcDbEntity
8
Geo
100
AcDbLine
10
-59.3387470997678
20
9.46734112221504
30
0.000000000000000
11
-59.2387470997678
21
9.42910440390898
31
0.000000000000000
  0
LINE
  5
F10122
330
F10123
100
AcDbEntity
8
Geo
100
AcDbLine
10
-59.2387470997678
20
9.42910440390898
30
0.000000000000000
11
-59.1387470997678
21
9.39508837615048
31
0.000000000000000
  0
LINE
  5
F10124
330
F10125
100
AcDbEntity
8
Geo
100
AcDbLine
10
-59.1387470997678
20
9.39508837615048
30
0.000000000000000
11
-59.0387470997678
21
9.36534342683355
31
0.000000000000000
  0
LINE
  5
F10126
330
F10127
100
AcDbEntity
8
Geo
100
AcDbLine
10
-59.0387470997678
20
9.36534342683355
30
0.000000000000000
11
-58.9387470997678
21
9.33991361710973
31
0.000000000000000
  0
LINE
  5
F10128
330
F10129
100
AcDbEntity
8
Geo
100
AcDbLine
10
-58.9387470997678
20
9.33991361710973
30
0.000000000000000
11
-58.8387470997678
21
9.31883661612034
31
0.000000000000000
  0
LINE
  5
F1012A
330
F1012B
100
AcDbEntity
8
Geo
100
AcDbLine
10
-58.8387470997678
20
9.31883661612034
30
0.000000000000000
11
-58.7387470997678
21
9.30214364519725
31
0.000000000000000
  0
LINE
  5
F1012C
330
F1012D
100
AcDbEntity
8
Geo
100
AcDbLine
10
-58.7387470997678
20
9.30214364519725
30
0.000000000000000
11
-58.6387470997678
21
9.28985943161480
31
0.000000000000000
  0
LINE
  5
F1012E
330
F1012F
100
AcDbEntity
8
Geo
100
AcDbLine
10
-58.6387470997678
20
9.28985943161480
30
0.000000000000000
11
-58.5387470997678
21
9.28200217196125
31
0.000000000000000
  0
LINE
  5
F10130
330
F10131
100
AcDbEntity
8
Geo
100
AcDbLine
10
-58.5387470997678
20
9.28200217196125
30
0.000000000000000
11
-58.4387470997678
21
9.27858350518426
31
0.000000000000000
  0
LINE
  5
F10132
330
F10133
100
AcDbEntity
8
Geo
100
AcDbLine
10
-69.8387470997678
20
15.0284222737820
30
0.000000000000000
11
-69.7387470997678
21
15.1263114232890
31
0.000000000000000
  0
LINE
  5
F10134
330
F10135
100
AcDbEntity
8
Geo
100
AcDbLine
10
-69.7387470997678
20
15.1263114232890
30
0.000000000000000
11
-69.6387470997678
21
15.2196858486039
31
0.000000000000000
  0
LINE
  5
F10136
330
F10137
100
AcDbEntity
8
Geo
100
AcDbLine
10
-69.6387470997678
20
15.2196858486039
30
0.000000000000000
11
-69.5387470997678
21
15.2584444861300
31
0.000000000000000
  0
LINE
  5
F10138
330
F10139
100
AcDbEntity
8
Geo
100
AcDbLine
10
-69.5387470997678
20
15.2584444861300
30
0.000000000000000
11
-69.4387470997678
21
15.2429368959532
31
0.000000000000000
  0
LINE
  5
F1013A
330
F1013B
100
AcDbEntity
8
Geo
100
AcDbLine
10
-69.4387470997678
20
15.2429368959532
30
0.000000000000000
11
-69.3387470997678
21
15.2230379744419
31
0.000000000000000
  0
LINE
  5
F1013C
330
F1013D
100
AcDbEntity
8
Geo
100
AcDbLine
10
-69.3387470997678
20
15.2230379744419
30
0.000000000000000
11
-69.2387470997678
21
15.1987771978404
31
0.000000000000000
  0
LINE
  5
F1013E
330
F1013F
100
AcDbEntity
8
Geo
100
AcDbLine
10
-69.2387470997678
20
15.1987771978404
30
0.000000000000000
11
-69.1387470997678
21
15.1701905036031
31
0.000000000000000
  0
LINE
  5
F10140
330
F10141
100
AcDbEntity
8
Geo
100
AcDbLine
10
-69.1387470997678
20
15.1701905036031
30
0.000000000000000
11
-69.0387470997678
21
15.1373202371599
31
0.000000000000000
  0
LINE
  5
F10142
330
F10143
100
AcDbEntity
8
Geo
100
AcDbLine
10
-69.0387470997678
20
15.1373202371599
30
0.000000000000000
11
-68.9387470997678
21
15.1002150891900
31
0.000000000000000
  0
LINE
  5
F10144
330
F10145
100
AcDbEntity
8
Geo
100
AcDbLine
10
-68.9387470997678
20
15.1002150891900
30
0.000000000000000
11
-68.8387470997678
21
15.0589300234970
31
0.000000000000000
  0
LINE
  5
F10146
330
F10147
100
AcDbEntity
8
Geo
100
AcDbLine
10
-68.8387470997678
20
15.0589300234970
30
0.000000000000000
11
-68.7387470997678
21
15.0135261955905
31
0.000000000000000
  0
LINE
  5
F10148
330
F10149
100
AcDbEntity
8
Geo
100
AcDbLine
10
-68.7387470997678
20
15.0135261955905
30
0.000000000000000
11
-68.6387470997678
21
14.9640708620969
31
0.000000000000000
  0
LINE
  5
F1014A
330
F1014B
100
AcDbEntity
8
Geo
100
AcDbLine
10
-68.6387470997678
20
14.9640708620969
30
0.000000000000000
11
-68.5387470997678
21
14.9106372811319
31
0.000000000000000
  0
LINE
  5
F1014C
330
F1014D
100
AcDbEntity
8
Geo
100
AcDbLine
10
-68.5387470997678
20
14.9106372811319
30
0.000000000000000
11
-68.4387470997678
21
14.8533046037839
31
0.000000000000000
  0
LINE
  5
F1014E
330
F1014F
100
AcDbEntity
8
Geo
100
AcDbLine
10
-68.4387470997678
20
14.8533046037839
30
0.000000000000000
11
-68.3387470997678
21
14.7921577568670
31
0.000000000000000
  0
LINE
  5
F10150
330
F10151
100
AcDbEntity
8
Geo
100
AcDbLine
10
-68.3387470997678
20
14.7921577568670
30
0.000000000000000
11
-68.2387470997678
21
14.7272873171194
31
0.000000000000000
  0
LINE
  5
F10152
330
F10153
100
AcDbEntity
8
Geo
100
AcDbLine
10
-68.2387470997678
20
14.7272873171194
30
0.000000000000000
11
-68.1387470997678
21
14.6587893770322
31
0.000000000000000
  0
LINE
  5
F10154
330
F10155
100
AcDbEntity
8
Geo
100
AcDbLine
10
-68.1387470997678
20
14.6587893770322
30
0.000000000000000
11
-68.0387470997678
21
14.5867654025075
31
0.000000000000000
  0
LINE
  5
F10156
330
F10157
100
AcDbEntity
8
Geo
100
AcDbLine
10
-68.0387470997678
20
14.5867654025075
30
0.000000000000000
11
-67.9387470997678
21
14.5113220825575
31
0.000000000000000
  0
LINE
  5
F10158
330
F10159
100
AcDbEntity
8
Geo
100
AcDbLine
10
-67.9387470997678
20
14.5113220825575
30
0.000000000000000
11
-67.8387470997678
21
14.4325711712655
31
0.000000000000000
  0
LINE
  5
F1015A
330
F1015B
100
AcDbEntity
8
Geo
100
AcDbLine
10
-67.8387470997678
20
14.4325711712655
30
0.000000000000000
11
-67.7387470997678
21
14.3506293222457
31
0.000000000000000
  0
LINE
  5
F1015C
330
F1015D
100
AcDbEntity
8
Geo
100
AcDbLine
10
-67.7387470997678
20
14.3506293222457
30
0.000000000000000
11
-67.6387470997678
21
14.2656179158436
31
0.000000000000000
  0
LINE
  5
F1015E
330
F1015F
100
AcDbEntity
8
Geo
100
AcDbLine
10
-67.6387470997678
20
14.2656179158436
30
0.000000000000000
11
-67.5387470997678
21
14.1776628793357
31
0.000000000000000
  0
LINE
  5
F10160
330
F10161
100
AcDbEntity
8
Geo
100
AcDbLine
10
-67.5387470997678
20
14.1776628793357
30
0.000000000000000
11
-67.4387470997678
21
14.0868945003938
31
0.000000000000000
  0
LINE
  5
F10162
330
F10163
100
AcDbEntity
8
Geo
100
AcDbLine
10
-67.4387470997678
20
14.0868945003938
30
0.000000000000000
11
-67.3387470997678
21
13.9934472340898
31
0.000000000000000
  0
LINE
  5
F10164
330
F10165
100
AcDbEntity
8
Geo
100
AcDbLine
10
-67.3387470997678
20
13.9934472340898
30
0.000000000000000
11
-67.2387470997678
21
13.8974595037275
31
0.000000000000000
  0
LINE
  5
F10166
330
F10167
100
AcDbEntity
8
Geo
100
AcDbLine
10
-67.2387470997678
20
13.8974595037275
30
0.000000000000000
11
-67.1387470997678
21
13.7990734957968
31
0.000000000000000
  0
LINE
  5
F10168
330
F10169
100
AcDbEntity
8
Geo
100
AcDbLine
10
-67.1387470997678
20
13.7990734957968
30
0.000000000000000
11
-67.0387470997678
21
13.6984349493527
31
0.000000000000000
  0
LINE
  5
F1016A
330
F1016B
100
AcDbEntity
8
Geo
100
AcDbLine
10
-67.0387470997678
20
13.6984349493527
30
0.000000000000000
11
-66.9387470997678
21
13.5956929401322
31
0.000000000000000
  0
LINE
  5
F1016C
330
F1016D
100
AcDbEntity
8
Geo
100
AcDbLine
10
-66.9387470997678
20
13.5956929401322
30
0.000000000000000
11
-66.8387470997678
21
13.4909996597290
31
0.000000000000000
  0
LINE
  5
F1016E
330
F1016F
100
AcDbEntity
8
Geo
100
AcDbLine
10
-66.8387470997678
20
13.4909996597290
30
0.000000000000000
11
-66.7387470997678
21
13.3845101901518
31
0.000000000000000
  0
LINE
  5
F10170
330
F10171
100
AcDbEntity
8
Geo
100
AcDbLine
10
-66.7387470997678
20
13.3845101901518
30
0.000000000000000
11
-66.6387470997678
21
13.2763822741019
31
0.000000000000000
  0
LINE
  5
F10172
330
F10173
100
AcDbEntity
8
Geo
100
AcDbLine
10
-66.6387470997678
20
13.2763822741019
30
0.000000000000000
11
-66.5387470997678
21
13.1667760813092
31
0.000000000000000
  0
LINE
  5
F10174
330
F10175
100
AcDbEntity
8
Geo
100
AcDbLine
10
-66.5387470997678
20
13.1667760813092
30
0.000000000000000
11
-66.4387470997678
21
13.0558539712725
31
0.000000000000000
  0
LINE
  5
F10176
330
F10177
100
AcDbEntity
8
Geo
100
AcDbLine
10
-66.4387470997678
20
13.0558539712725
30
0.000000000000000
11
-66.3387470997678
21
12.9437802527573
31
0.000000000000000
  0
LINE
  5
F10178
330
F10179
100
AcDbEntity
8
Geo
100
AcDbLine
10
-66.3387470997678
20
12.9437802527573
30
0.000000000000000
11
-66.2387470997678
21
12.8307209404049
31
0.000000000000000
  0
LINE
  5
F1017A
330
F1017B
100
AcDbEntity
8
Geo
100
AcDbLine
10
-66.2387470997678
20
12.8307209404049
30
0.000000000000000
11
-66.1387470997678
21
12.7168435088156
31
0.000000000000000
  0
LINE
  5
F1017C
330
F1017D
100
AcDbEntity
8
Geo
100
AcDbLine
10
-66.1387470997678
20
12.7168435088156
30
0.000000000000000
11
-66.0387470997678
21
12.6023166444683
31
0.000000000000000
  0
LINE
  5
F1017E
330
F1017F
100
AcDbEntity
8
Geo
100
AcDbLine
10
-66.0387470997678
20
12.6023166444683
30
0.000000000000000
11
-65.9387470997678
21
12.4873099958459
31
0.000000000000000
  0
LINE
  5
F10180
330
F10181
100
AcDbEntity
8
Geo
100
AcDbLine
10
-65.9387470997678
20
12.4873099958459
30
0.000000000000000
11
-65.8387470997678
21
12.3719939221350
31
0.000000000000000
  0
LINE
  5
F10182
330
F10183
100
AcDbEntity
8
Geo
100
AcDbLine
10
-65.8387470997678
20
12.3719939221350
30
0.000000000000000
11
-65.7387470997678
21
12.2565392408732
31
0.000000000000000
  0
LINE
  5
F10184
330
F10185
100
AcDbEntity
8
Geo
100
AcDbLine
10
-65.7387470997678
20
12.2565392408732
30
0.000000000000000
11
-65.6387470997678
21
12.1411169749172
31
0.000000000000000
  0
LINE
  5
F10186
330
F10187
100
AcDbEntity
8
Geo
100
AcDbLine
10
-65.6387470997678
20
12.1411169749172
30
0.000000000000000
11
-65.5387470997678
21
12.0258980991070
31
0.000000000000000
  0
LINE
  5
F10188
330
F10189
100
AcDbEntity
8
Geo
100
AcDbLine
10
-65.5387470997678
20
12.0258980991070
30
0.000000000000000
11
-65.4387470997678
21
11.9110532870011
31
0.000000000000000
  0
LINE
  5
F1018A
330
F1018B
100
AcDbEntity
8
Geo
100
AcDbLine
10
-65.4387470997678
20
11.9110532870011
30
0.000000000000000
11
-65.3387470997678
21
11.7967526580579
31
0.000000000000000
  0
LINE
  5
F1018C
330
F1018D
100
AcDbEntity
8
Geo
100
AcDbLine
10
-65.3387470997678
20
11.7967526580579
30
0.000000000000000
11
-65.2387470997678
21
11.6831655256381
31
0.000000000000000
  0
LINE
  5
F1018E
330
F1018F
100
AcDbEntity
8
Geo
100
AcDbLine
10
-65.2387470997678
20
11.6831655256381
30
0.000000000000000
11
-65.1387470997678
21
11.5704601462009
31
0.000000000000000
  0
LINE
  5
F10190
330
F10191
100
AcDbEntity
8
Geo
100
AcDbLine
10
-65.1387470997678
20
11.5704601462009
30
0.000000000000000
11
-65.0387470997678
21
11.4588034700662
31
0.000000000000000
  0
LINE
  5
F10192
330
F10193
100
AcDbEntity
8
Geo
100
AcDbLine
10
-65.0387470997678
20
11.4588034700662
30
0.000000000000000
11
-64.9387470997678
21
11.3483608941111
31
0.000000000000000
  0
LINE
  5
F10194
330
F10195
100
AcDbEntity
8
Geo
100
AcDbLine
10
-64.9387470997678
20
11.3483608941111
30
0.000000000000000
11
-64.8387470997678
21
11.2392960167677
31
0.000000000000000
  0
LINE
  5
F10196
330
F10197
100
AcDbEntity
8
Geo
100
AcDbLine
10
-64.8387470997678
20
11.2392960167677
30
0.000000000000000
11
-64.7387470997678
21
11.1317703956854
31
0.000000000000000
  0
LINE
  5
F10198
330
F10199
100
AcDbEntity
8
Geo
100
AcDbLine
10
-64.7387470997678
20
11.1317703956854
30
0.000000000000000
11
-64.6387470997678
21
11.0259433084150
31
0.000000000000000
  0
LINE
  5
F1019A
330
F1019B
100
AcDbEntity
8
Geo
100
AcDbLine
10
-64.6387470997678
20
11.0259433084150
30
0.000000000000000
11
-64.5387470997678
21
10.9219715164720
31
0.000000000000000
  0
LINE
  5
F1019C
330
F1019D
100
AcDbEntity
8
Geo
100
AcDbLine
10
-64.5387470997678
20
10.9219715164720
30
0.000000000000000
11
-64.4387470997678
21
10.8200090331254
31
0.000000000000000
  0
LINE
  5
F1019E
330
F1019F
100
AcDbEntity
8
Geo
100
AcDbLine
10
-64.4387470997678
20
10.8200090331254
30
0.000000000000000
11
-64.3387470997678
21
10.7202068952580
31
0.000000000000000
  0
LINE
  5
F101A0
330
F101A1
100
AcDbEntity
8
Geo
100
AcDbLine
10
-64.3387470997678
20
10.7202068952580
30
0.000000000000000
11
-64.2387470997678
21
10.6227129396362
31
0.000000000000000
  0
LINE
  5
F101A2
330
F101A3
100
AcDbEntity
8
Geo
100
AcDbLine
10
-64.2387470997678
20
10.6227129396362
30
0.000000000000000
11
-64.1387470997678
21
10.5276715839191
31
0.000000000000000
  0
LINE
  5
F101A4
330
F101A5
100
AcDbEntity
8
Geo
100
AcDbLine
10
-64.1387470997678
20
10.5276715839191
30
0.000000000000000
11
-64.0387470997678
21
10.4352236127331
31
0.000000000000000
  0
LINE
  5
F101A6
330
F101A7
100
AcDbEntity
8
Geo
100
AcDbLine
10
-64.0387470997678
20
10.4352236127331
30
0.000000000000000
11
-63.9387470997678
21
10.3455059691277
31
0.000000000000000
  0
LINE
  5
F101A8
330
F101A9
100
AcDbEntity
8
Geo
100
AcDbLine
10
-63.9387470997678
20
10.3455059691277
30
0.000000000000000
11
-63.8387470997678
21
10.2586515517220
31
0.000000000000000
  0
LINE
  5
F101AA
330
F101AB
100
AcDbEntity
8
Geo
100
AcDbLine
10
-63.8387470997678
20
10.2586515517220
30
0.000000000000000
11
-63.7387470997678
21
10.1747890178422
31
0.000000000000000
  0
LINE
  5
F101AC
330
F101AD
100
AcDbEntity
8
Geo
100
AcDbLine
10
-63.7387470997678
20
10.1747890178422
30
0.000000000000000
11
-63.6387470997678
21
10.0940425929415
31
0.000000000000000
  0
LINE
  5
F101AE
330
F101AF
100
AcDbEntity
8
Geo
100
AcDbLine
10
-63.6387470997678
20
10.0940425929415
30
0.000000000000000
11
-63.5387470997678
21
10.0165318865855
31
0.000000000000000
  0
LINE
  5
F101B0
330
F101B1
100
AcDbEntity
8
Geo
100
AcDbLine
10
-63.5387470997678
20
10.0165318865855
30
0.000000000000000
11
-63.4387470997678
21
9.94237171527438
31
0.000000000000000
  0
LINE
  5
F101B2
330
F101B3
100
AcDbEntity
8
Geo
100
AcDbLine
10
-63.4387470997678
20
9.94237171527438
30
0.000000000000000
11
-63.3387470997678
21
9.87167193236536
31
0.000000000000000
  0
LINE
  5
F101B4
330
F101B5
100
AcDbEntity
8
Geo
100
AcDbLine
10
-63.3387470997678
20
9.87167193236536
30
0.000000000000000
11
-63.2387470997678
21
9.80453726534734
31
0.000000000000000
  0
LINE
  5
F101B6
330
F101B7
100
AcDbEntity
8
Geo
100
AcDbLine
10
-63.2387470997678
20
9.80453726534734
30
0.000000000000000
11
-63.1387470997678
21
9.74106716070801
31
0.000000000000000
  0
LINE
  5
F101B8
330
F101B9
100
AcDbEntity
8
Geo
100
AcDbLine
10
-63.1387470997678
20
9.74106716070801
30
0.000000000000000
11
-63.0387470997678
21
9.68135563662397
31
0.000000000000000
  0
LINE
  5
F101BA
330
F101BB
100
AcDbEntity
8
Geo
100
AcDbLine
10
-63.0387470997678
20
9.68135563662397
30
0.000000000000000
11
-62.9387470997678
21
9.62549114369175
31
0.000000000000000
  0
LINE
  5
F101BC
330
F101BD
100
AcDbEntity
8
Geo
100
AcDbLine
10
-62.9387470997678
20
9.62549114369175
30
0.000000000000000
11
-62.8387470997678
21
9.57355643390606
31
0.000000000000000
  0
LINE
  5
F101BE
330
F101BF
100
AcDbEntity
8
Geo
100
AcDbLine
10
-62.8387470997678
20
9.57355643390606
30
0.000000000000000
11
-62.7387470997678
21
9.52562843807934
31
0.000000000000000
  0
LINE
  5
F101C0
330
F101C1
100
AcDbEntity
8
Geo
100
AcDbLine
10
-62.7387470997678
20
9.52562843807934
30
0.000000000000000
11
-62.6387470997678
21
9.48177815188433
31
0.000000000000000
  0
LINE
  5
F101C2
330
F101C3
100
AcDbEntity
8
Geo
100
AcDbLine
10
-62.6387470997678
20
9.48177815188433
30
0.000000000000000
11
-62.5387470997678
21
9.44207053068818
31
0.000000000000000
  0
LINE
  5
F101C4
330
F101C5
100
AcDbEntity
8
Geo
100
AcDbLine
10
-62.5387470997678
20
9.44207053068818
30
0.000000000000000
11
-62.4387470997678
21
9.40656439333427
31
0.000000000000000
  0
LINE
  5
F101C6
330
F101C7
100
AcDbEntity
8
Geo
100
AcDbLine
10
-62.4387470997678
20
9.40656439333427
30
0.000000000000000
11
-62.3387470997678
21
9.37531233501383
31
0.000000000000000
  0
LINE
  5
F101C8
330
F101C9
100
AcDbEntity
8
Geo
100
AcDbLine
10
-62.3387470997678
20
9.37531233501383
30
0.000000000000000
11
-62.2387470997678
21
9.34836064935685
31
0.000000000000000
  0
LINE
  5
F101CA
330
F101CB
100
AcDbEntity
8
Geo
100
AcDbLine
10
-62.2387470997678
20
9.34836064935685
30
0.000000000000000
11
-62.1387470997678
21
9.32574925985734
31
0.000000000000000
  0
LINE
  5
F101CC
330
F101CD
100
AcDbEntity
8
Geo
100
AcDbLine
10
-62.1387470997678
20
9.32574925985734
30
0.000000000000000
11
-62.0387470997678
21
9.30751166073470
31
0.000000000000000
  0
LINE
  5
F101CE
330
F101CF
100
AcDbEntity
8
Geo
100
AcDbLine
10
-62.0387470997678
20
9.30751166073470
30
0.000000000000000
11
-61.9387470997678
21
9.29367486731883
31
0.000000000000000
  0
LINE
  5
F101D0
330
F101D1
100
AcDbEntity
8
Geo
100
AcDbLine
10
-61.9387470997678
20
9.29367486731883
30
0.000000000000000
11
-61.8387470997678
21
9.28425937603233
31
0.000000000000000
  0
LINE
  5
F101D2
330
F101D3
100
AcDbEntity
8
Geo
100
AcDbLine
10
-61.8387470997678
20
9.28425937603233
30
0.000000000000000
11
-61.7387470997678
21
9.27927913402918
31
0.000000000000000
  0
LINE
  5
F101D4
330
F101D5
100
AcDbEntity
8
Geo
100
AcDbLine
10
-69.8387470997678
20
14.8938276935937
30
0.000000000000000
11
-69.7387470997678
21
14.9530360778594
31
0.000000000000000
  0
LINE
  5
F101D6
330
F101D7
100
AcDbEntity
8
Geo
100
AcDbLine
10
-69.7387470997678
20
14.9530360778594
30
0.000000000000000
11
-69.6387470997678
21
15.0056244398891
31
0.000000000000000
  0
LINE
  5
F101D8
330
F101D9
100
AcDbEntity
8
Geo
100
AcDbLine
10
-69.6387470997678
20
15.0056244398891
30
0.000000000000000
11
-69.5387470997678
21
15.0057829134639
31
0.000000000000000
  0
LINE
  5
F101DA
330
F101DB
100
AcDbEntity
8
Geo
100
AcDbLine
10
-69.5387470997678
20
15.0057829134639
30
0.000000000000000
11
-69.4387470997678
21
14.9556775860372
31
0.000000000000000
  0
LINE
  5
F101DC
330
F101DD
100
AcDbEntity
8
Geo
100
AcDbLine
10
-69.4387470997678
20
14.9556775860372
30
0.000000000000000
11
-69.3387470997678
21
14.9016064440872
31
0.000000000000000
  0
LINE
  5
F101DE
330
F101DF
100
AcDbEntity
8
Geo
100
AcDbLine
10
-69.3387470997678
20
14.9016064440872
30
0.000000000000000
11
-69.2387470997678
21
14.8436495831204
31
0.000000000000000
  0
LINE
  5
F101E0
330
F101E1
100
AcDbEntity
8
Geo
100
AcDbLine
10
-69.2387470997678
20
14.8436495831204
30
0.000000000000000
11
-69.1387470997678
21
14.7818928545531
31
0.000000000000000
  0
LINE
  5
F101E2
330
F101E3
100
AcDbEntity
8
Geo
100
AcDbLine
10
-69.1387470997678
20
14.7818928545531
30
0.000000000000000
11
-69.0387470997678
21
14.7164277385406
31
0.000000000000000
  0
LINE
  5
F101E4
330
F101E5
100
AcDbEntity
8
Geo
100
AcDbLine
10
-69.0387470997678
20
14.7164277385406
30
0.000000000000000
11
-68.9387470997678
21
14.6473512084669
31
0.000000000000000
  0
LINE
  5
F101E6
330
F101E7
100
AcDbEntity
8
Geo
100
AcDbLine
10
-68.9387470997678
20
14.6473512084669
30
0.000000000000000
11
-68.8387470997678
21
14.5747655872987
31
0.000000000000000
  0
LINE
  5
F101E8
330
F101E9
100
AcDbEntity
8
Geo
100
AcDbLine
10
-68.8387470997678
20
14.5747655872987
30
0.000000000000000
11
-68.7387470997678
21
14.4987783960144
31
0.000000000000000
  0
LINE
  5
F101EA
330
F101EB
100
AcDbEntity
8
Geo
100
AcDbLine
10
-68.7387470997678
20
14.4987783960144
30
0.000000000000000
11
-68.6387470997678
21
14.4195021943335
31
0.000000000000000
  0
LINE
  5
F101EC
330
F101ED
100
AcDbEntity
8
Geo
100
AcDbLine
10
-68.6387470997678
20
14.4195021943335
30
0.000000000000000
11
-68.5387470997678
21
14.3370544139819
31
0.000000000000000
  0
LINE
  5
F101EE
330
F101EF
100
AcDbEntity
8
Geo
100
AcDbLine
10
-68.5387470997678
20
14.3370544139819
30
0.000000000000000
11
-68.4387470997678
21
14.2515571847404
31
0.000000000000000
  0
LINE
  5
F101F0
330
F101F1
100
AcDbEntity
8
Geo
100
AcDbLine
10
-68.4387470997678
20
14.2515571847404
30
0.000000000000000
11
-68.3387470997678
21
14.1631371535344
31
0.000000000000000
  0
LINE
  5
F101F2
330
F101F3
100
AcDbEntity
8
Geo
100
AcDbLine
10
-68.3387470997678
20
14.1631371535344
30
0.000000000000000
11
-68.2387470997678
21
14.0719252968315
31
0.000000000000000
  0
LINE
  5
F101F4
330
F101F5
100
AcDbEntity
8
Geo
100
AcDbLine
10
-68.2387470997678
20
14.0719252968315
30
0.000000000000000
11
-68.1387470997678
21
13.9780567266266
31
0.000000000000000
  0
LINE
  5
F101F6
330
F101F7
100
AcDbEntity
8
Geo
100
AcDbLine
10
-68.1387470997678
20
13.9780567266266
30
0.000000000000000
11
-68.0387470997678
21
13.8816704903005
31
0.000000000000000
  0
LINE
  5
F101F8
330
F101F9
100
AcDbEntity
8
Geo
100
AcDbLine
10
-68.0387470997678
20
13.8816704903005
30
0.000000000000000
11
-67.9387470997678
21
13.7829093646493
31
0.000000000000000
  0
LINE
  5
F101FA
330
F101FB
100
AcDbEntity
8
Geo
100
AcDbLine
10
-67.9387470997678
20
13.7829093646493
30
0.000000000000000
11
-67.8387470997678
21
13.6819196443895
31
0.000000000000000
  0
LINE
  5
F101FC
330
F101FD
100
AcDbEntity
8
Geo
100
AcDbLine
10
-67.8387470997678
20
13.6819196443895
30
0.000000000000000
11
-67.7387470997678
21
13.5788509254512
31
0.000000000000000
  0
LINE
  5
F101FE
330
F101FF
100
AcDbEntity
8
Geo
100
AcDbLine
10
-67.7387470997678
20
13.5788509254512
30
0.000000000000000
11
-67.6387470997678
21
13.4738558833829
31
0.000000000000000
  0
LINE
  5
F10200
330
F10201
100
AcDbEntity
8
Geo
100
AcDbLine
10
-67.6387470997678
20
13.4738558833829
30
0.000000000000000
11
-67.5387470997678
21
13.3670900471923
31
0.000000000000000
  0
LINE
  5
F10202
330
F10203
100
AcDbEntity
8
Geo
100
AcDbLine
10
-67.5387470997678
20
13.3670900471923
30
0.000000000000000
11
-67.4387470997678
21
13.2587115689623
31
0.000000000000000
  0
LINE
  5
F10204
330
F10205
100
AcDbEntity
8
Geo
100
AcDbLine
10
-67.4387470997678
20
13.2587115689623
30
0.000000000000000
11
-67.3387470997678
21
13.1488809895800
31
0.000000000000000
  0
LINE
  5
F10206
330
F10207
100
AcDbEntity
8
Geo
100
AcDbLine
10
-67.3387470997678
20
13.1488809895800
30
0.000000000000000
11
-67.2387470997678
21
13.0377610009279
31
0.000000000000000
  0
LINE
  5
F10208
330
F10209
100
AcDbEntity
8
Geo
100
AcDbLine
10
-67.2387470997678
20
13.0377610009279
30
0.000000000000000
11
-67.1387470997678
21
12.9255162048889
31
0.000000000000000
  0
LINE
  5
F1020A
330
F1020B
100
AcDbEntity
8
Geo
100
AcDbLine
10
-67.1387470997678
20
12.9255162048889
30
0.000000000000000
11
-67.0387470997678
21
12.8123128695211
31
0.000000000000000
  0
LINE
  5
F1020C
330
F1020D
100
AcDbEntity
8
Geo
100
AcDbLine
10
-67.0387470997678
20
12.8123128695211
30
0.000000000000000
11
-66.9387470997678
21
12.6983186827657
31
0.000000000000000
  0
LINE
  5
F1020E
330
F1020F
100
AcDbEntity
8
Geo
100
AcDbLine
10
-66.9387470997678
20
12.6983186827657
30
0.000000000000000
11
-66.8387470997678
21
12.5837025040511
31
0.000000000000000
  0
LINE
  5
F10210
330
F10211
100
AcDbEntity
8
Geo
100
AcDbLine
10
-66.8387470997678
20
12.5837025040511
30
0.000000000000000
11
-66.7387470997678
21
12.4686341141614
31
0.000000000000000
  0
LINE
  5
F10212
330
F10213
100
AcDbEntity
8
Geo
100
AcDbLine
10
-66.7387470997678
20
12.4686341141614
30
0.000000000000000
11
-66.6387470997678
21
12.3532839637405
31
0.000000000000000
  0
LINE
  5
F10214
330
F10215
100
AcDbEntity
8
Geo
100
AcDbLine
10
-66.6387470997678
20
12.3532839637405
30
0.000000000000000
11
-66.5387470997678
21
12.2378229208036
31
0.000000000000000
  0
LINE
  5
F10216
330
F10217
100
AcDbEntity
8
Geo
100
AcDbLine
10
-66.5387470997678
20
12.2378229208036
30
0.000000000000000
11
-66.4387470997678
21
12.1224220176312
31
0.000000000000000
  0
LINE
  5
F10218
330
F10219
100
AcDbEntity
8
Geo
100
AcDbLine
10
-66.4387470997678
20
12.1224220176312
30
0.000000000000000
11
-66.3387470997678
21
12.0072521974184
31
0.000000000000000
  0
LINE
  5
F1021A
330
F1021B
100
AcDbEntity
8
Geo
100
AcDbLine
10
-66.3387470997678
20
12.0072521974184
30
0.000000000000000
11
-66.2387470997678
21
11.8924840610578
31
0.000000000000000
  0
LINE
  5
F1021C
330
F1021D
100
AcDbEntity
8
Geo
100
AcDbLine
10
-66.2387470997678
20
11.8924840610578
30
0.000000000000000
11
-66.1387470997678
21
11.7782876144282
31
0.000000000000000
  0
LINE
  5
F1021E
330
F1021F
100
AcDbEntity
8
Geo
100
AcDbLine
10
-66.1387470997678
20
11.7782876144282
30
0.000000000000000
11
-66.0387470997678
21
11.6648320165651
31
0.000000000000000
  0
LINE
  5
F10220
330
F10221
100
AcDbEntity
8
Geo
100
AcDbLine
10
-66.0387470997678
20
11.6648320165651
30
0.000000000000000
11
-65.9387470997678
21
11.5522853290858
31
0.000000000000000
  0
LINE
  5
F10222
330
F10223
100
AcDbEntity
8
Geo
100
AcDbLine
10
-65.9387470997678
20
11.5522853290858
30
0.000000000000000
11
-65.8387470997678
21
11.4408142672399
31
0.000000000000000
  0
LINE
  5
F10224
330
F10225
100
AcDbEntity
8
Geo
100
AcDbLine
10
-65.8387470997678
20
11.4408142672399
30
0.000000000000000
11
-65.7387470997678
21
11.3305839529545
31
0.000000000000000
  0
LINE
  5
F10226
330
F10227
100
AcDbEntity
8
Geo
100
AcDbLine
10
-65.7387470997678
20
11.3305839529545
30
0.000000000000000
11
-65.6387470997678
21
11.2217576702387
31
0.000000000000000
  0
LINE
  5
F10228
330
F10229
100
AcDbEntity
8
Geo
100
AcDbLine
10
-65.6387470997678
20
11.2217576702387
30
0.000000000000000
11
-65.5387470997678
21
11.1144966233119
31
0.000000000000000
  0
LINE
  5
F1022A
330
F1022B
100
AcDbEntity
8
Geo
100
AcDbLine
10
-65.5387470997678
20
11.1144966233119
30
0.000000000000000
11
-65.4387470997678
21
11.0089596978118
31
0.000000000000000
  0
LINE
  5
F1022C
330
F1022D
100
AcDbEntity
8
Geo
100
AcDbLine
10
-65.4387470997678
20
11.0089596978118
30
0.000000000000000
11
-65.3387470997678
21
10.9053032254375
31
0.000000000000000
  0
LINE
  5
F1022E
330
F1022F
100
AcDbEntity
8
Geo
100
AcDbLine
10
-65.3387470997678
20
10.9053032254375
30
0.000000000000000
11
-65.2387470997678
21
10.8036807523756
31
0.000000000000000
  0
LINE
  5
F10230
330
F10231
100
AcDbEntity
8
Geo
100
AcDbLine
10
-65.2387470997678
20
10.8036807523756
30
0.000000000000000
11
-65.1387470997678
21
10.7042428118523
31
0.000000000000000
  0
LINE
  5
F10232
330
F10233
100
AcDbEntity
8
Geo
100
AcDbLine
10
-65.1387470997678
20
10.7042428118523
30
0.000000000000000
11
-65.0387470997678
21
10.6071367011488
31
0.000000000000000
  0
LINE
  5
F10234
330
F10235
100
AcDbEntity
8
Geo
100
AcDbLine
10
-65.0387470997678
20
10.6071367011488
30
0.000000000000000
11
-64.9387470997678
21
10.5125062634102
31
0.000000000000000
  0
LINE
  5
F10236
330
F10237
100
AcDbEntity
8
Geo
100
AcDbLine
10
-64.9387470997678
20
10.5125062634102
30
0.000000000000000
11
-64.8387470997678
21
10.4204916745705
31
0.000000000000000
  0
LINE
  5
F10238
330
F10239
100
AcDbEntity
8
Geo
100
AcDbLine
10
-64.8387470997678
20
10.4204916745705
30
0.000000000000000
11
-64.7387470997678
21
10.3312292357107
31
0.000000000000000
  0
LINE
  5
F1023A
330
F1023B
100
AcDbEntity
8
Geo
100
AcDbLine
10
-64.7387470997678
20
10.3312292357107
30
0.000000000000000
11
-64.6387470997678
21
10.2448511711557
31
0.000000000000000
  0
LINE
  5
F1023C
330
F1023D
100
AcDbEntity
8
Geo
100
AcDbLine
10
-64.6387470997678
20
10.2448511711557
30
0.000000000000000
11
-64.5387470997678
21
10.1614854326108
31
0.000000000000000
  0
LINE
  5
F1023E
330
F1023F
100
AcDbEntity
8
Geo
100
AcDbLine
10
-64.5387470997678
20
10.1614854326108
30
0.000000000000000
11
-64.4387470997678
21
10.0812555096272
31
0.000000000000000
  0
LINE
  5
F10240
330
F10241
100
AcDbEntity
8
Geo
100
AcDbLine
10
-64.4387470997678
20
10.0812555096272
30
0.000000000000000
11
-64.3387470997678
21
10.0042802466768
31
0.000000000000000
  0
LINE
  5
F10242
330
F10243
100
AcDbEntity
8
Geo
100
AcDbLine
10
-64.3387470997678
20
10.0042802466768
30
0.000000000000000
11
-64.2387470997678
21
9.93067366710816
31
0.000000000000000
  0
LINE
  5
F10244
330
F10245
100
AcDbEntity
8
Geo
100
AcDbLine
10
-64.2387470997678
20
9.93067366710816
30
0.000000000000000
11
-64.1387470997678
21
9.86054480424393
31
0.000000000000000
  0
LINE
  5
F10246
330
F10247
100
AcDbEntity
8
Geo
100
AcDbLine
10
-64.1387470997678
20
9.86054480424393
30
0.000000000000000
11
-64.0387470997678
21
9.79399753986990
31
0.000000000000000
  0
LINE
  5
F10248
330
F10249
100
AcDbEntity
8
Geo
100
AcDbLine
10
-64.0387470997678
20
9.79399753986990
30
0.000000000000000
11
-63.9387470997678
21
9.73113045035506
31
0.000000000000000
  0
LINE
  5
F1024A
330
F1024B
100
AcDbEntity
8
Geo
100
AcDbLine
10
-63.9387470997678
20
9.73113045035506
30
0.000000000000000
11
-63.8387470997678
21
9.67203666063057
31
0.000000000000000
  0
LINE
  5
F1024C
330
F1024D
100
AcDbEntity
8
Geo
100
AcDbLine
10
-63.8387470997678
20
9.67203666063057
30
0.000000000000000
11
-63.7387470997678
21
9.61680370624392
31
0.000000000000000
  0
LINE
  5
F1024E
330
F1024F
100
AcDbEntity
8
Geo
100
AcDbLine
10
-63.7387470997678
20
9.61680370624392
30
0.000000000000000
11
-63.6387470997678
21
9.56551340369264
31
0.000000000000000
  0
LINE
  5
F10250
330
F10251
100
AcDbEntity
8
Geo
100
AcDbLine
10
-63.6387470997678
20
9.56551340369264
30
0.000000000000000
11
-63.5387470997678
21
9.51824172922968
31
0.000000000000000
  0
LINE
  5
F10252
330
F10253
100
AcDbEntity
8
Geo
100
AcDbLine
10
-63.5387470997678
20
9.51824172922968
30
0.000000000000000
11
-63.4387470997678
21
9.47505870631982
31
0.000000000000000
  0
LINE
  5
F10254
330
F10255
100
AcDbEntity
8
Geo
100
AcDbLine
10
-63.4387470997678
20
9.47505870631982
30
0.000000000000000
11
-63.3387470997678
21
9.43602830191409
31
0.000000000000000
  0
LINE
  5
F10256
330
F10257
100
AcDbEntity
8
Geo
100
AcDbLine
10
-63.3387470997678
20
9.43602830191409
30
0.000000000000000
11
-63.2387470997678
21
9.40120833169556
31
0.000000000000000
  0
LINE
  5
F10258
330
F10259
100
AcDbEntity
8
Geo
100
AcDbLine
10
-63.2387470997678
20
9.40120833169556
30
0.000000000000000
11
-63.1387470997678
21
9.37065037443707
31
0.000000000000000
  0
LINE
  5
F1025A
330
F1025B
100
AcDbEntity
8
Geo
100
AcDbLine
10
-63.1387470997678
20
9.37065037443707
30
0.000000000000000
11
-63.0387470997678
21
9.34439969559767
31
0.000000000000000
  0
LINE
  5
F1025C
330
F1025D
100
AcDbEntity
8
Geo
100
AcDbLine
10
-63.0387470997678
20
9.34439969559767
30
0.000000000000000
11
-62.9387470997678
21
9.32249518027096
31
0.000000000000000
  0
LINE
  5
F1025E
330
F1025F
100
AcDbEntity
8
Geo
100
AcDbLine
10
-62.9387470997678
20
9.32249518027096
30
0.000000000000000
11
-62.8387470997678
21
9.30496927558464
31
0.000000000000000
  0
LINE
  5
F10260
330
F10261
100
AcDbEntity
8
Geo
100
AcDbLine
10
-62.8387470997678
20
9.30496927558464
30
0.000000000000000
11
-62.7387470997678
21
9.29184794263663
31
0.000000000000000
  0
LINE
  5
F10262
330
F10263
100
AcDbEntity
8
Geo
100
AcDbLine
10
-62.7387470997678
20
9.29184794263663
30
0.000000000000000
11
-62.6387470997678
21
9.28315061803895
31
0.000000000000000
  0
LINE
  5
F10264
330
F10265
100
AcDbEntity
8
Geo
100
AcDbLine
10
-62.6387470997678
20
9.28315061803895
30
0.000000000000000
11
-62.5387470997678
21
9.27889018512627
31
0.000000000000000
  0
LINE
  5
F10266
330
F10267
100
AcDbEntity
8
Geo
100
AcDbLine
10
-54.3387470997678
20
15.2784081064008
30
0.000000000000000
11
-54.2387470997678
21
15.2765409503525
31
0.000000000000000
  0
LINE
  5
F10268
330
F10269
100
AcDbEntity
8
Geo
100
AcDbLine
10
-54.2387470997678
20
15.2765409503525
30
0.000000000000000
11
-54.1387470997678
21
15.2702326853313
31
0.000000000000000
  0
LINE
  5
F1026A
330
F1026B
100
AcDbEntity
8
Geo
100
AcDbLine
10
-54.1387470997678
20
15.2702326853313
30
0.000000000000000
11
-54.0387470997678
21
15.2594926557613
31
0.000000000000000
  0
LINE
  5
F1026C
330
F1026D
100
AcDbEntity
8
Geo
100
AcDbLine
10
-54.0387470997678
20
15.2594926557613
30
0.000000000000000
11
-53.9387470997678
21
15.2443367708330
31
0.000000000000000
  0
LINE
  5
F1026E
330
F1026F
100
AcDbEntity
8
Geo
100
AcDbLine
10
-53.9387470997678
20
15.2443367708330
30
0.000000000000000
11
-53.8387470997678
21
15.2247874809376
31
0.000000000000000
  0
LINE
  5
F10270
330
F10271
100
AcDbEntity
8
Geo
100
AcDbLine
10
-53.8387470997678
20
15.2247874809376
30
0.000000000000000
11
-53.7387470997678
21
15.1925327055108
31
0.000000000000000
  0
LINE
  5
F10272
330
F10273
100
AcDbEntity
8
Geo
100
AcDbLine
10
-53.7387470997678
20
15.1925327055108
30
0.000000000000000
11
-53.6387470997678
21
15.1406239123450
31
0.000000000000000
  0
LINE
  5
F10274
330
F10275
100
AcDbEntity
8
Geo
100
AcDbLine
10
-53.6387470997678
20
15.1406239123450
30
0.000000000000000
11
-53.5387470997678
21
15.0615360771137
31
0.000000000000000
  0
LINE
  5
F10276
330
F10277
100
AcDbEntity
8
Geo
100
AcDbLine
10
-53.5387470997678
20
15.0615360771137
30
0.000000000000000
11
-53.4387470997678
21
14.9465646259338
31
0.000000000000000
  0
LINE
  5
F10278
330
F10279
100
AcDbEntity
8
Geo
100
AcDbLine
10
-53.4387470997678
20
14.9465646259338
30
0.000000000000000
11
-53.3387470997678
21
14.7862503016979
31
0.000000000000000
  0
LINE
  5
F1027A
330
F1027B
100
AcDbEntity
8
Geo
100
AcDbLine
10
-53.3387470997678
20
14.7862503016979
30
0.000000000000000
11
-53.2387470997678
21
14.5710110093510
31
0.000000000000000
  0
LINE
  5
F1027C
330
F1027D
100
AcDbEntity
8
Geo
100
AcDbLine
10
-53.2387470997678
20
14.5710110093510
30
0.000000000000000
11
-53.1387470997678
21
14.2920236796473
31
0.000000000000000
  0
LINE
  5
F1027E
330
F1027F
100
AcDbEntity
8
Geo
100
AcDbLine
10
-53.1387470997678
20
14.2920236796473
30
0.000000000000000
11
-53.0387470997678
21
13.9423832020540
31
0.000000000000000
  0
LINE
  5
F10280
330
F10281
100
AcDbEntity
8
Geo
100
AcDbLine
10
-53.0387470997678
20
13.9423832020540
30
0.000000000000000
11
-52.9387470997678
21
13.5185351151495
31
0.000000000000000
  0
LINE
  5
F10282
330
F10283
100
AcDbEntity
8
Geo
100
AcDbLine
10
-52.9387470997678
20
13.5185351151495
30
0.000000000000000
11
-52.8387470997678
21
13.0219308951181
31
0.000000000000000
  0
LINE
  5
F10284
330
F10285
100
AcDbEntity
8
Geo
100
AcDbLine
10
-69.8387470997678
20
12.2784222737820
30
0.000000000000000
11
-69.7387470997678
21
12.1687528061979
31
0.000000000000000
  0
LINE
  5
F10286
330
F10287
100
AcDbEntity
8
Geo
100
AcDbLine
10
-69.7387470997678
20
12.1687528061979
30
0.000000000000000
11
-69.6387470997678
21
12.0515553889665
31
0.000000000000000
  0
LINE
  5
F10288
330
F10289
100
AcDbEntity
8
Geo
100
AcDbLine
10
-69.6387470997678
20
12.0515553889665
30
0.000000000000000
11
-69.5387470997678
21
11.9327813995898
31
0.000000000000000
  0
LINE
  5
F1028A
330
F1028B
100
AcDbEntity
8
Geo
100
AcDbLine
10
-69.5387470997678
20
11.9327813995898
30
0.000000000000000
11
-69.4387470997678
21
11.8183646089907
31
0.000000000000000
  0
LINE
  5
F1028C
330
F1028D
100
AcDbEntity
8
Geo
100
AcDbLine
10
-69.4387470997678
20
11.8183646089907
30
0.000000000000000
11
-69.3387470997678
21
11.7046293011625
31
0.000000000000000
  0
LINE
  5
F1028E
330
F1028F
100
AcDbEntity
8
Geo
100
AcDbLine
10
-69.3387470997678
20
11.7046293011625
30
0.000000000000000
11
-69.2387470997678
21
11.5917439520565
31
0.000000000000000
  0
LINE
  5
F10290
330
F10291
100
AcDbEntity
8
Geo
100
AcDbLine
10
-69.2387470997678
20
11.5917439520565
30
0.000000000000000
11
-69.1387470997678
21
11.4798757785814
31
0.000000000000000
  0
LINE
  5
F10292
330
F10293
100
AcDbEntity
8
Geo
100
AcDbLine
10
-69.1387470997678
20
11.4798757785814
30
0.000000000000000
11
-69.0387470997678
21
11.3691904909049
31
0.000000000000000
  0
LINE
  5
F10294
330
F10295
100
AcDbEntity
8
Geo
100
AcDbLine
10
-69.0387470997678
20
11.3691904909049
30
0.000000000000000
11
-68.9387470997678
21
11.2598520469877
31
0.000000000000000
  0
LINE
  5
F10296
330
F10297
100
AcDbEntity
8
Geo
100
AcDbLine
10
-68.9387470997678
20
11.2598520469877
30
0.000000000000000
11
-68.8387470997678
21
11.1520224097130
31
0.000000000000000
  0
LINE
  5
F10298
330
F10299
100
AcDbEntity
8
Geo
100
AcDbLine
10
-68.8387470997678
20
11.1520224097130
30
0.000000000000000
11
-68.7387470997678
21
11.0458613069704
31
0.000000000000000
  0
LINE
  5
F1029A
330
F1029B
100
AcDbEntity
8
Geo
100
AcDbLine
10
-68.7387470997678
20
11.0458613069704
30
0.000000000000000
11
-68.6387470997678
21
10.9415259950519
31
0.000000000000000
  0
LINE
  5
F1029C
330
F1029D
100
AcDbEntity
8
Geo
100
AcDbLine
10
-68.6387470997678
20
10.9415259950519
30
0.000000000000000
11
-68.5387470997678
21
10.8391710257083
31
0.000000000000000
  0
LINE
  5
F1029E
330
F1029F
100
AcDbEntity
8
Geo
100
AcDbLine
10
-68.5387470997678
20
10.8391710257083
30
0.000000000000000
11
-68.4387470997678
21
10.7389480172113
31
0.000000000000000
  0
LINE
  5
F102A0
330
F102A1
100
AcDbEntity
8
Geo
100
AcDbLine
10
-68.4387470997678
20
10.7389480172113
30
0.000000000000000
11
-68.3387470997678
21
10.6410054297623
31
0.000000000000000
  0
LINE
  5
F102A2
330
F102A3
100
AcDbEntity
8
Geo
100
AcDbLine
10
-68.3387470997678
20
10.6410054297623
30
0.000000000000000
11
-68.2387470997678
21
10.5454883455781
31
0.000000000000000
  0
LINE
  5
F102A4
330
F102A5
100
AcDbEntity
8
Geo
100
AcDbLine
10
-68.2387470997678
20
10.5454883455781
30
0.000000000000000
11
-68.1387470997678
21
10.4525382539811
31
0.000000000000000
  0
LINE
  5
F102A6
330
F102A7
100
AcDbEntity
8
Geo
100
AcDbLine
10
-68.1387470997678
20
10.4525382539811
30
0.000000000000000
11
-68.0387470997678
21
10.3622928418110
31
0.000000000000000
  0
LINE
  5
F102A8
330
F102A9
100
AcDbEntity
8
Geo
100
AcDbLine
10
-68.0387470997678
20
10.3622928418110
30
0.000000000000000
11
-67.9387470997678
21
10.2748857894697
31
0.000000000000000
  0
LINE
  5
F102AA
330
F102AB
100
AcDbEntity
8
Geo
100
AcDbLine
10
-67.9387470997678
20
10.2748857894697
30
0.000000000000000
11
-67.8387470997678
21
10.1904465729007
31
0.000000000000000
  0
LINE
  5
F102AC
330
F102AD
100
AcDbEntity
8
Geo
100
AcDbLine
10
-67.8387470997678
20
10.1904465729007
30
0.000000000000000
11
-67.7387470997678
21
10.1091002717968
31
0.000000000000000
  0
LINE
  5
F102AE
330
F102AF
100
AcDbEntity
8
Geo
100
AcDbLine
10
-67.7387470997678
20
10.1091002717968
30
0.000000000000000
11
-67.6387470997678
21
10.0309673843189
31
0.000000000000000
  0
LINE
  5
F102B0
330
F102B1
100
AcDbEntity
8
Geo
100
AcDbLine
10
-67.6387470997678
20
10.0309673843189
30
0.000000000000000
11
-67.5387470997678
21
9.95616364860351
31
0.000000000000000
  0
LINE
  5
F102B2
330
F102B3
100
AcDbEntity
8
Geo
100
AcDbLine
10
-67.5387470997678
20
9.95616364860351
30
0.000000000000000
11
-67.4387470997678
21
9.88479987131880
31
0.000000000000000
  0
LINE
  5
F102B4
330
F102B5
100
AcDbEntity
8
Geo
100
AcDbLine
10
-67.4387470997678
20
9.88479987131880
30
0.000000000000000
11
-67.3387470997678
21
9.81698176352760
31
0.000000000000000
  0
LINE
  5
F102B6
330
F102B7
100
AcDbEntity
8
Geo
100
AcDbLine
10
-67.3387470997678
20
9.81698176352760
30
0.000000000000000
11
-67.2387470997678
21
9.75280978409746
31
0.000000000000000
  0
LINE
  5
F102B8
330
F102B9
100
AcDbEntity
8
Geo
100
AcDbLine
10
-67.2387470997678
20
9.75280978409746
30
0.000000000000000
11
-67.1387470997678
21
9.69237899089113
31
0.000000000000000
  0
LINE
  5
F102BA
330
F102BB
100
AcDbEntity
8
Geo
100
AcDbLine
10
-67.1387470997678
20
9.69237899089113
30
0.000000000000000
11
-67.0387470997678
21
9.63577889995747
31
0.000000000000000
  0
LINE
  5
F102BC
330
F102BD
100
AcDbEntity
8
Geo
100
AcDbLine
10
-67.0387470997678
20
9.63577889995747
30
0.000000000000000
11
-66.9387470997678
21
9.58309335293146
31
0.000000000000000
  0
LINE
  5
F102BE
330
F102BF
100
AcDbEntity
8
Geo
100
AcDbLine
10
-66.9387470997678
20
9.58309335293146
30
0.000000000000000
11
-66.8387470997678
21
9.53440039283972
31
0.000000000000000
  0
LINE
  5
F102C0
330
F102C1
100
AcDbEntity
8
Geo
100
AcDbLine
10
-66.8387470997678
20
9.53440039283972
30
0.000000000000000
11
-66.7387470997678
21
9.48977214849544
31
0.000000000000000
  0
LINE
  5
F102C2
330
F102C3
100
AcDbEntity
8
Geo
100
AcDbLine
10
-66.7387470997678
20
9.48977214849544
30
0.000000000000000
11
-66.6387470997678
21
9.44927472765411
31
0.000000000000000
  0
LINE
  5
F102C4
330
F102C5
100
AcDbEntity
8
Geo
100
AcDbLine
10
-66.6387470997678
20
9.44927472765411
30
0.000000000000000
11
-66.5387470997678
21
9.41296811908819
31
0.000000000000000
  0
LINE
  5
F102C6
330
F102C7
100
AcDbEntity
8
Geo
100
AcDbLine
10
-66.5387470997678
20
9.41296811908819
30
0.000000000000000
11
-66.4387470997678
21
9.38090610372581
31
0.000000000000000
  0
LINE
  5
F102C8
330
F102C9
100
AcDbEntity
8
Geo
100
AcDbLine
10
-66.4387470997678
20
9.38090610372581
30
0.000000000000000
11
-66.3387470997678
21
9.35313617498518
31
0.000000000000000
  0
LINE
  5
F102CA
330
F102CB
100
AcDbEntity
8
Geo
100
AcDbLine
10
-66.3387470997678
20
9.35313617498518
30
0.000000000000000
11
-66.2387470997678
21
9.32969946842261
31
0.000000000000000
  0
LINE
  5
F102CC
330
F102CD
100
AcDbEntity
8
Geo
100
AcDbLine
10
-66.2387470997678
20
9.32969946842261
30
0.000000000000000
11
-66.1387470997678
21
9.31063070079854
31
0.000000000000000
  0
LINE
  5
F102CE
330
F102CF
100
AcDbEntity
8
Geo
100
AcDbLine
10
-66.1387470997678
20
9.31063070079854
30
0.000000000000000
11
-66.0387470997678
21
9.29595811865159
31
0.000000000000000
  0
LINE
  5
F102D0
330
F102D1
100
AcDbEntity
8
Geo
100
AcDbLine
10
-66.0387470997678
20
9.29595811865159
30
0.000000000000000
11
-65.9387470997678
21
9.28570345645703
31
0.000000000000000
  0
LINE
  5
F102D2
330
F102D3
100
AcDbEntity
8
Geo
100
AcDbLine
10
-65.9387470997678
20
9.28570345645703
30
0.000000000000000
11
-65.8387470997678
21
9.27988190443152
31
0.000000000000000
  0
LINE
  5
F102D4
330
F102D5
100
AcDbEntity
8
Geo
100
AcDbLine
10
-57.6387470997678
20
15.2780086050293
30
0.000000000000000
11
-57.5387470997678
21
15.2777039890128
31
0.000000000000000
  0
LINE
  5
F102D6
330
F102D7
100
AcDbEntity
8
Geo
100
AcDbLine
10
-57.5387470997678
20
15.2777039890128
30
0.000000000000000
11
-57.4387470997678
21
15.2729565412158
31
0.000000000000000
  0
LINE
  5
F102D8
330
F102D9
100
AcDbEntity
8
Geo
100
AcDbLine
10
-57.4387470997678
20
15.2729565412158
30
0.000000000000000
11
-57.3387470997678
21
15.2637732940261
31
0.000000000000000
  0
LINE
  5
F102DA
330
F102DB
100
AcDbEntity
8
Geo
100
AcDbLine
10
-57.3387470997678
20
15.2637732940261
30
0.000000000000000
11
-57.2387470997678
21
15.2501678505747
31
0.000000000000000
  0
LINE
  5
F102DC
330
F102DD
100
AcDbEntity
8
Geo
100
AcDbLine
10
-57.2387470997678
20
15.2501678505747
30
0.000000000000000
11
-57.1387470997678
21
15.2321603645860
31
0.000000000000000
  0
LINE
  5
F102DE
330
F102DF
100
AcDbEntity
8
Geo
100
AcDbLine
10
-57.1387470997678
20
15.2321603645860
30
0.000000000000000
11
-57.0387470997678
21
15.2097775105235
31
0.000000000000000
  0
LINE
  5
F102E0
330
F102E1
100
AcDbEntity
8
Geo
100
AcDbLine
10
-57.0387470997678
20
15.2097775105235
30
0.000000000000000
11
-56.9387470997678
21
15.1830524440774
31
0.000000000000000
  0
LINE
  5
F102E2
330
F102E3
100
AcDbEntity
8
Geo
100
AcDbLine
10
-56.9387470997678
20
15.1830524440774
30
0.000000000000000
11
-56.8387470997678
21
15.1520247530511
31
0.000000000000000
  0
LINE
  5
F102E4
330
F102E5
100
AcDbEntity
8
Geo
100
AcDbLine
10
-56.8387470997678
20
15.1520247530511
30
0.000000000000000
11
-56.7387470997678
21
15.1167403987194
31
0.000000000000000
  0
LINE
  5
F102E6
330
F102E7
100
AcDbEntity
8
Geo
100
AcDbLine
10
-56.7387470997678
20
15.1167403987194
30
0.000000000000000
11
-56.6387470997678
21
15.0772516477470
31
0.000000000000000
  0
LINE
  5
F102E8
330
F102E9
100
AcDbEntity
8
Geo
100
AcDbLine
10
-56.6387470997678
20
15.0772516477470
30
0.000000000000000
11
-56.5387470997678
21
15.0336169947648
31
0.000000000000000
  0
LINE
  5
F102EA
330
F102EB
100
AcDbEntity
8
Geo
100
AcDbLine
10
-56.5387470997678
20
15.0336169947648
30
0.000000000000000
11
-56.4387470997678
21
14.9859010757229
31
0.000000000000000
  0
LINE
  5
F102EC
330
F102ED
100
AcDbEntity
8
Geo
100
AcDbLine
10
-56.4387470997678
20
14.9859010757229
30
0.000000000000000
11
-56.3387470997678
21
14.9341745721451
31
0.000000000000000
  0
LINE
  5
F102EE
330
F102EF
100
AcDbEntity
8
Geo
100
AcDbLine
10
-56.3387470997678
20
14.9341745721451
30
0.000000000000000
11
-56.2387470997678
21
14.8785141064281
31
0.000000000000000
  0
LINE
  5
F102F0
330
F102F1
100
AcDbEntity
8
Geo
100
AcDbLine
10
-56.2387470997678
20
14.8785141064281
30
0.000000000000000
11
-56.1387470997678
21
14.8190021283415
31
0.000000000000000
  0
LINE
  5
F102F2
330
F102F3
100
AcDbEntity
8
Geo
100
AcDbLine
10
-56.1387470997678
20
14.8190021283415
30
0.000000000000000
11
-56.0387470997678
21
14.7557267928946
31
0.000000000000000
  0
LINE
  5
F102F4
330
F102F5
100
AcDbEntity
8
Geo
100
AcDbLine
10
-56.0387470997678
20
14.7557267928946
30
0.000000000000000
11
-55.9387470997678
21
14.6887818297526
31
0.000000000000000
  0
LINE
  5
F102F6
330
F102F7
100
AcDbEntity
8
Geo
100
AcDbLine
10
-55.9387470997678
20
14.6887818297526
30
0.000000000000000
11
-55.8387470997678
21
14.6182664043952
31
0.000000000000000
  0
LINE
  5
F102F8
330
F102F9
100
AcDbEntity
8
Geo
100
AcDbLine
10
-55.8387470997678
20
14.6182664043952
30
0.000000000000000
11
-55.7387470997678
21
14.5442849712227
31
0.000000000000000
  0
LINE
  5
F102FA
330
F102FB
100
AcDbEntity
8
Geo
100
AcDbLine
10
-55.7387470997678
20
14.5442849712227
30
0.000000000000000
11
-55.6387470997678
21
14.4669471188277
31
0.000000000000000
  0
LINE
  5
F102FC
330
F102FD
100
AcDbEntity
8
Geo
100
AcDbLine
10
-55.6387470997678
20
14.4669471188277
30
0.000000000000000
11
-55.5387470997678
21
14.3863674076622
31
0.000000000000000
  0
LINE
  5
F102FE
330
F102FF
100
AcDbEntity
8
Geo
100
AcDbLine
10
-55.5387470997678
20
14.3863674076622
30
0.000000000000000
11
-55.4387470997678
21
14.3026652003388
31
0.000000000000000
  0
LINE
  5
F10300
330
F10301
100
AcDbEntity
8
Geo
100
AcDbLine
10
-55.4387470997678
20
14.3026652003388
30
0.000000000000000
11
-55.3387470997678
21
14.2159644848193
31
0.000000000000000
  0
LINE
  5
F10302
330
F10303
100
AcDbEntity
8
Geo
100
AcDbLine
10
-55.3387470997678
20
14.2159644848193
30
0.000000000000000
11
-55.2387470997678
21
14.1263936907514
31
0.000000000000000
  0
LINE
  5
F10304
330
F10305
100
AcDbEntity
8
Geo
100
AcDbLine
10
-55.2387470997678
20
14.1263936907514
30
0.000000000000000
11
-55.1387470997678
21
14.0340854992264
31
0.000000000000000
  0
LINE
  5
F10306
330
F10307
100
AcDbEntity
8
Geo
100
AcDbLine
10
-55.1387470997678
20
14.0340854992264
30
0.000000000000000
11
-55.0387470997678
21
13.9391766462382
31
0.000000000000000
  0
LINE
  5
F10308
330
F10309
100
AcDbEntity
8
Geo
100
AcDbLine
10
-55.0387470997678
20
13.9391766462382
30
0.000000000000000
11
-54.9387470997678
21
13.8418077201372
31
0.000000000000000
  0
LINE
  5
F1030A
330
F1030B
100
AcDbEntity
8
Geo
100
AcDbLine
10
-54.9387470997678
20
13.8418077201372
30
0.000000000000000
11
-54.8387470997678
21
13.7421229533765
31
0.000000000000000
  0
LINE
  5
F1030C
330
F1030D
100
AcDbEntity
8
Geo
100
AcDbLine
10
-54.8387470997678
20
13.7421229533765
30
0.000000000000000
11
-54.7387470997678
21
13.6402700088605
31
0.000000000000000
  0
LINE
  5
F1030E
330
F1030F
100
AcDbEntity
8
Geo
100
AcDbLine
10
-54.7387470997678
20
13.6402700088605
30
0.000000000000000
11
-54.6387470997678
21
13.5363997612127
31
0.000000000000000
  0
LINE
  5
F10310
330
F10311
100
AcDbEntity
8
Geo
100
AcDbLine
10
-54.6387470997678
20
13.5363997612127
30
0.000000000000000
11
-54.5387470997678
21
13.4306660732845
31
0.000000000000000
  0
LINE
  5
F10312
330
F10313
100
AcDbEntity
8
Geo
100
AcDbLine
10
-54.5387470997678
20
13.4306660732845
30
0.000000000000000
11
-54.4387470997678
21
13.3232255682390
31
0.000000000000000
  0
LINE
  5
F10314
330
F10315
100
AcDbEntity
8
Geo
100
AcDbLine
10
-54.4387470997678
20
13.3232255682390
30
0.000000000000000
11
-54.3387470997678
21
13.2142373975450
31
0.000000000000000
  0
LINE
  5
F10316
330
F10317
100
AcDbEntity
8
Geo
100
AcDbLine
10
-54.3387470997678
20
13.2142373975450
30
0.000000000000000
11
-54.2387470997678
21
13.1038630052261
31
0.000000000000000
  0
LINE
  5
F10318
330
F10319
100
AcDbEntity
8
Geo
100
AcDbLine
10
-54.2387470997678
20
13.1038630052261
30
0.000000000000000
11
-54.1387470997678
21
12.9922658887144
31
0.000000000000000
  0
LINE
  5
F1031A
330
F1031B
100
AcDbEntity
8
Geo
100
AcDbLine
10
-54.1387470997678
20
12.9922658887144
30
0.000000000000000
11
-54.0387470997678
21
12.8796113566612
31
0.000000000000000
  0
LINE
  5
F1031C
330
F1031D
100
AcDbEntity
8
Geo
100
AcDbLine
10
-54.0387470997678
20
12.8796113566612
30
0.000000000000000
11
-53.9387470997678
21
12.7660662840663
31
0.000000000000000
  0
LINE
  5
F1031E
330
F1031F
100
AcDbEntity
8
Geo
100
AcDbLine
10
-53.9387470997678
20
12.7660662840663
30
0.000000000000000
11
-53.8387470997678
21
12.6517988650858
31
0.000000000000000
  0
LINE
  5
F10320
330
F10321
100
AcDbEntity
8
Geo
100
AcDbLine
10
-53.8387470997678
20
12.6517988650858
30
0.000000000000000
11
-53.7387470997678
21
12.6684913177222
31
0.000000000000000
  0
LINE
  5
F10322
330
F10323
100
AcDbEntity
8
Geo
100
AcDbLine
10
-53.7387470997678
20
12.6684913177222
30
0.000000000000000
11
-53.6387470997678
21
12.6897659256812
31
0.000000000000000
  0
LINE
  5
F10324
330
F10325
100
AcDbEntity
8
Geo
100
AcDbLine
10
-53.6387470997678
20
12.6897659256812
30
0.000000000000000
11
-53.5387470997678
21
12.7156082256373
31
0.000000000000000
  0
LINE
  5
F10326
330
F10327
100
AcDbEntity
8
Geo
100
AcDbLine
10
-53.5387470997678
20
12.7156082256373
30
0.000000000000000
11
-53.4387470997678
21
12.7459990470711
31
0.000000000000000
  0
LINE
  5
F10328
330
F10329
100
AcDbEntity
8
Geo
100
AcDbLine
10
-53.4387470997678
20
12.7459990470711
30
0.000000000000000
11
-53.3387470997678
21
12.7809135907190
31
0.000000000000000
  0
LINE
  5
F1032A
330
F1032B
100
AcDbEntity
8
Geo
100
AcDbLine
10
-53.3387470997678
20
12.7809135907190
30
0.000000000000000
11
-53.2387470997678
21
12.8203203474876
31
0.000000000000000
  0
LINE
  5
F1032C
330
F1032D
100
AcDbEntity
8
Geo
100
AcDbLine
10
-53.2387470997678
20
12.8203203474876
30
0.000000000000000
11
-53.1387470997678
21
12.8641798604776
31
0.000000000000000
  0
LINE
  5
F1032E
330
F1032F
100
AcDbEntity
8
Geo
100
AcDbLine
10
-53.1387470997678
20
12.8641798604776
30
0.000000000000000
11
-53.0387470997678
21
12.9124433336004
31
0.000000000000000
  0
LINE
  5
F10330
330
F10331
100
AcDbEntity
8
Geo
100
AcDbLine
10
-53.0387470997678
20
12.9124433336004
30
0.000000000000000
11
-52.9387470997678
21
12.9650510912991
31
0.000000000000000
  0
LINE
  5
F10332
330
F10333
100
AcDbEntity
8
Geo
100
AcDbLine
10
-52.9387470997678
20
12.9650510912991
30
0.000000000000000
11
-52.8387470997678
21
13.0219308951181
31
0.000000000000000
  0
LINE
  5
F10334
330
F10335
100
AcDbEntity
8
Geo
100
AcDbLine
10
-69.8387470997678
20
11.4286255392509
30
0.000000000000000
11
-69.7387470997678
21
11.2940742667038
31
0.000000000000000
  0
LINE
  5
F10336
330
F10337
100
AcDbEntity
8
Geo
100
AcDbLine
10
-69.7387470997678
20
11.2940742667038
30
0.000000000000000
11
-69.6387470997678
21
11.1537586150907
31
0.000000000000000
  0
LINE
  5
F10338
330
F10339
100
AcDbEntity
8
Geo
100
AcDbLine
10
-69.6387470997678
20
11.1537586150907
30
0.000000000000000
11
-69.5387470997678
21
11.0288207608532
31
0.000000000000000
  0
LINE
  5
F1033A
330
F1033B
100
AcDbEntity
8
Geo
100
AcDbLine
10
-69.5387470997678
20
11.0288207608532
30
0.000000000000000
11
-69.4387470997678
21
10.9247960354868
31
0.000000000000000
  0
LINE
  5
F1033C
330
F1033D
100
AcDbEntity
8
Geo
100
AcDbLine
10
-69.4387470997678
20
10.9247960354868
30
0.000000000000000
11
-69.3387470997678
21
10.8227764347607
31
0.000000000000000
  0
LINE
  5
F1033E
330
F1033F
100
AcDbEntity
8
Geo
100
AcDbLine
10
-69.3387470997678
20
10.8227764347607
30
0.000000000000000
11
-69.2387470997678
21
10.7229130801658
31
0.000000000000000
  0
LINE
  5
F10340
330
F10341
100
AcDbEntity
8
Geo
100
AcDbLine
10
-69.2387470997678
20
10.7229130801658
30
0.000000000000000
11
-69.1387470997678
21
10.6253538991485
31
0.000000000000000
  0
LINE
  5
F10342
330
F10343
100
AcDbEntity
8
Geo
100
AcDbLine
10
-69.1387470997678
20
10.6253538991485
30
0.000000000000000
11
-69.0387470997678
21
10.5302434059864
31
0.000000000000000
  0
LINE
  5
F10344
330
F10345
100
AcDbEntity
8
Geo
100
AcDbLine
10
-69.0387470997678
20
10.5302434059864
30
0.000000000000000
11
-68.9387470997678
21
10.4377224877189
31
0.000000000000000
  0
LINE
  5
F10346
330
F10347
100
AcDbEntity
8
Geo
100
AcDbLine
10
-68.9387470997678
20
10.4377224877189
30
0.000000000000000
11
-68.8387470997678
21
10.3479281954520
31
0.000000000000000
  0
LINE
  5
F10348
330
F10349
100
AcDbEntity
8
Geo
100
AcDbLine
10
-68.8387470997678
20
10.3479281954520
30
0.000000000000000
11
-68.7387470997678
21
10.2609935413444
31
0.000000000000000
  0
LINE
  5
F1034A
330
F1034B
100
AcDbEntity
8
Geo
100
AcDbLine
10
-68.7387470997678
20
10.2609935413444
30
0.000000000000000
11
-68.6387470997678
21
10.1770473015767
31
0.000000000000000
  0
LINE
  5
F1034C
330
F1034D
100
AcDbEntity
8
Geo
100
AcDbLine
10
-68.6387470997678
20
10.1770473015767
30
0.000000000000000
11
-68.5387470997678
21
10.0962138255956
31
0.000000000000000
  0
LINE
  5
F1034E
330
F1034F
100
AcDbEntity
8
Geo
100
AcDbLine
10
-68.5387470997678
20
10.0962138255956
30
0.000000000000000
11
-68.4387470997678
21
10.0186128519154
31
0.000000000000000
  0
LINE
  5
F10350
330
F10351
100
AcDbEntity
8
Geo
100
AcDbLine
10
-68.4387470997678
20
10.0186128519154
30
0.000000000000000
11
-68.3387470997678
21
9.94435933074902
31
0.000000000000000
  0
LINE
  5
F10352
330
F10353
100
AcDbEntity
8
Geo
100
AcDbLine
10
-68.3387470997678
20
9.94435933074902
30
0.000000000000000
11
-68.2387470997678
21
9.87356325373275
31
0.000000000000000
  0
LINE
  5
F10354
330
F10355
100
AcDbEntity
8
Geo
100
AcDbLine
10
-68.2387470997678
20
9.87356325373275
30
0.000000000000000
11
-68.1387470997678
21
9.80632949099580
31
0.000000000000000
  0
LINE
  5
F10356
330
F10357
100
AcDbEntity
8
Geo
100
AcDbLine
10
-68.1387470997678
20
9.80632949099580
30
0.000000000000000
11
-68.0387470997678
21
9.74275763581621
31
0.000000000000000
  0
LINE
  5
F10358
330
F10359
100
AcDbEntity
8
Geo
100
AcDbLine
10
-68.0387470997678
20
9.74275763581621
30
0.000000000000000
11
-67.9387470997678
21
9.68294185709351
31
0.000000000000000
  0
LINE
  5
F1035A
330
F1035B
100
AcDbEntity
8
Geo
100
AcDbLine
10
-67.9387470997678
20
9.68294185709351
30
0.000000000000000
11
-67.8387470997678
21
9.62697075985649
31
0.000000000000000
  0
LINE
  5
F1035C
330
F1035D
100
AcDbEntity
8
Geo
100
AcDbLine
10
-67.8387470997678
20
9.62697075985649
30
0.000000000000000
11
-67.7387470997678
21
9.57492725401265
31
0.000000000000000
  0
LINE
  5
F1035E
330
F1035F
100
AcDbEntity
8
Geo
100
AcDbLine
10
-67.7387470997678
20
9.57492725401265
30
0.000000000000000
11
-67.6387470997678
21
9.52688843153390
31
0.000000000000000
  0
LINE
  5
F10360
330
F10361
100
AcDbEntity
8
Geo
100
AcDbLine
10
-67.6387470997678
20
9.52688843153390
30
0.000000000000000
11
-67.5387470997678
21
9.48292545226031
31
0.000000000000000
  0
LINE
  5
F10362
330
F10363
100
AcDbEntity
8
Geo
100
AcDbLine
10
-67.5387470997678
20
9.48292545226031
30
0.000000000000000
11
-67.4387470997678
21
9.44310343849117
31
0.000000000000000
  0
LINE
  5
F10364
330
F10365
100
AcDbEntity
8
Geo
100
AcDbLine
10
-67.4387470997678
20
9.44310343849117
30
0.000000000000000
11
-67.3387470997678
21
9.40748137851938
31
0.000000000000000
  0
LINE
  5
F10366
330
F10367
100
AcDbEntity
8
Geo
100
AcDbLine
10
-67.3387470997678
20
9.40748137851938
30
0.000000000000000
11
-67.2387470997678
21
9.37611203925221
31
0.000000000000000
  0
LINE
  5
F10368
330
F10369
100
AcDbEntity
8
Geo
100
AcDbLine
10
-67.2387470997678
20
9.37611203925221
30
0.000000000000000
11
-67.1387470997678
21
9.34904188804774
31
0.000000000000000
  0
LINE
  5
F1036A
330
F1036B
100
AcDbEntity
8
Geo
100
AcDbLine
10
-67.1387470997678
20
9.34904188804774
30
0.000000000000000
11
-67.0387470997678
21
9.32631102388281
31
0.000000000000000
  0
LINE
  5
F1036C
330
F1036D
100
AcDbEntity
8
Geo
100
AcDbLine
10
-67.0387470997678
20
9.32631102388281
30
0.000000000000000
11
-66.9387470997678
21
9.30795311795449
31
0.000000000000000
  0
LINE
  5
F1036E
330
F1036F
100
AcDbEntity
8
Geo
100
AcDbLine
10
-66.9387470997678
20
9.30795311795449
30
0.000000000000000
11
-66.8387470997678
21
9.29399536380300
31
0.000000000000000
  0
LINE
  5
F10370
330
F10371
100
AcDbEntity
8
Geo
100
AcDbLine
10
-66.8387470997678
20
9.29399536380300
30
0.000000000000000
11
-66.7387470997678
21
9.28445843702988
31
0.000000000000000
  0
LINE
  5
F10372
330
F10373
100
AcDbEntity
8
Geo
100
AcDbLine
10
-66.7387470997678
20
9.28445843702988
30
0.000000000000000
11
-66.6387470997678
21
9.27935646467134
31
0.000000000000000
  0
LINE
  5
F10374
330
F10375
100
AcDbEntity
8
Geo
100
AcDbLine
10
-58.4387470997678
20
15.2782610423797
30
0.000000000000000
11
-58.3387470997678
21
15.2772360522139
31
0.000000000000000
  0
LINE
  5
F10376
330
F10377
100
AcDbEntity
8
Geo
100
AcDbLine
10
-58.3387470997678
20
15.2772360522139
30
0.000000000000000
11
-58.2387470997678
21
15.2717689234217
31
0.000000000000000
  0
LINE
  5
F10378
330
F10379
100
AcDbEntity
8
Geo
100
AcDbLine
10
-58.2387470997678
20
15.2717689234217
30
0.000000000000000
11
-58.1387470997678
21
15.2618677544533
31
0.000000000000000
  0
LINE
  5
F1037A
330
F1037B
100
AcDbEntity
8
Geo
100
AcDbLine
10
-58.1387470997678
20
15.2618677544533
30
0.000000000000000
11
-58.0387470997678
21
15.2475472118963
31
0.000000000000000
  0
LINE
  5
F1037C
330
F1037D
100
AcDbEntity
8
Geo
100
AcDbLine
10
-58.0387470997678
20
15.2475472118963
30
0.000000000000000
11
-57.9387470997678
21
15.2288285087504
31
0.000000000000000
  0
LINE
  5
F1037E
330
F1037F
100
AcDbEntity
8
Geo
100
AcDbLine
10
-57.9387470997678
20
15.2288285087504
30
0.000000000000000
11
-57.8387470997678
21
15.2057393730041
31
0.000000000000000
  0
LINE
  5
F10380
330
F10381
100
AcDbEntity
8
Geo
100
AcDbLine
10
-57.8387470997678
20
15.2057393730041
30
0.000000000000000
11
-57.7387470997678
21
15.1783140065616
31
0.000000000000000
  0
LINE
  5
F10382
330
F10383
100
AcDbEntity
8
Geo
100
AcDbLine
10
-57.7387470997678
20
15.1783140065616
30
0.000000000000000
11
-57.6387470997678
21
15.1465930345797
31
0.000000000000000
  0
LINE
  5
F10384
330
F10385
100
AcDbEntity
8
Geo
100
AcDbLine
10
-57.6387470997678
20
15.1465930345797
30
0.000000000000000
11
-57.5387470997678
21
15.1106234452894
31
0.000000000000000
  0
LINE
  5
F10386
330
F10387
100
AcDbEntity
8
Geo
100
AcDbLine
10
-57.5387470997678
20
15.1106234452894
30
0.000000000000000
11
-57.4387470997678
21
15.0704585203928
31
0.000000000000000
  0
LINE
  5
F10388
330
F10389
100
AcDbEntity
8
Geo
100
AcDbLine
10
-57.4387470997678
20
15.0704585203928
30
0.000000000000000
11
-57.3387470997678
21
15.0261577561364
31
0.000000000000000
  0
LINE
  5
F1038A
330
F1038B
100
AcDbEntity
8
Geo
100
AcDbLine
10
-57.3387470997678
20
15.0261577561364
30
0.000000000000000
11
-57.2387470997678
21
14.9777867751800
31
0.000000000000000
  0
LINE
  5
F1038C
330
F1038D
100
AcDbEntity
8
Geo
100
AcDbLine
10
-57.2387470997678
20
14.9777867751800
30
0.000000000000000
11
-57.1387470997678
21
14.9254172293896
31
0.000000000000000
  0
LINE
  5
F1038E
330
F1038F
100
AcDbEntity
8
Geo
100
AcDbLine
10
-57.1387470997678
20
14.9254172293896
30
0.000000000000000
11
-57.0387470997678
21
14.8691266936996
31
0.000000000000000
  0
LINE
  5
F10390
330
F10391
100
AcDbEntity
8
Geo
100
AcDbLine
10
-57.0387470997678
20
14.8691266936996
30
0.000000000000000
11
-56.9387470997678
21
14.8089985512012
31
0.000000000000000
  0
LINE
  5
F10392
330
F10393
100
AcDbEntity
8
Geo
100
AcDbLine
10
-56.9387470997678
20
14.8089985512012
30
0.000000000000000
11
-56.8387470997678
21
14.7451218696272
31
0.000000000000000
  0
LINE
  5
F10394
330
F10395
100
AcDbEntity
8
Geo
100
AcDbLine
10
-56.8387470997678
20
14.7451218696272
30
0.000000000000000
11
-56.7387470997678
21
14.6775912694161
31
0.000000000000000
  0
LINE
  5
F10396
330
F10397
100
AcDbEntity
8
Geo
100
AcDbLine
10
-56.7387470997678
20
14.6775912694161
30
0.000000000000000
11
-56.6387470997678
21
14.6065067835508
31
0.000000000000000
  0
LINE
  5
F10398
330
F10399
100
AcDbEntity
8
Geo
100
AcDbLine
10
-56.6387470997678
20
14.6065067835508
30
0.000000000000000
11
-56.5387470997678
21
14.5319737093801
31
0.000000000000000
  0
LINE
  5
F1039A
330
F1039B
100
AcDbEntity
8
Geo
100
AcDbLine
10
-56.5387470997678
20
14.5319737093801
30
0.000000000000000
11
-56.4387470997678
21
14.4541024526419
31
0.000000000000000
  0
LINE
  5
F1039C
330
F1039D
100
AcDbEntity
8
Geo
100
AcDbLine
10
-56.4387470997678
20
14.4541024526419
30
0.000000000000000
11
-56.3387470997678
21
14.3730083639190
31
0.000000000000000
  0
LINE
  5
F1039E
330
F1039F
100
AcDbEntity
8
Geo
100
AcDbLine
10
-56.3387470997678
20
14.3730083639190
30
0.000000000000000
11
-56.2387470997678
21
14.2888115677709
31
0.000000000000000
  0
LINE
  5
F103A0
330
F103A1
100
AcDbEntity
8
Geo
100
AcDbLine
10
-56.2387470997678
20
14.2888115677709
30
0.000000000000000
11
-56.1387470997678
21
14.2016367847931
31
0.000000000000000
  0
LINE
  5
F103A2
330
F103A3
100
AcDbEntity
8
Geo
100
AcDbLine
10
-56.1387470997678
20
14.2016367847931
30
0.000000000000000
11
-56.0387470997678
21
14.1116131468689
31
0.000000000000000
  0
LINE
  5
F103A4
330
F103A5
100
AcDbEntity
8
Geo
100
AcDbLine
10
-56.0387470997678
20
14.1116131468689
30
0.000000000000000
11
-55.9387470997678
21
14.0188740058863
31
0.000000000000000
  0
LINE
  5
F103A6
330
F103A7
100
AcDbEntity
8
Geo
100
AcDbLine
10
-55.9387470997678
20
14.0188740058863
30
0.000000000000000
11
-55.8387470997678
21
13.9235567362043
31
0.000000000000000
  0
LINE
  5
F103A8
330
F103A9
100
AcDbEntity
8
Geo
100
AcDbLine
10
-55.8387470997678
20
13.9235567362043
30
0.000000000000000
11
-55.7387470997678
21
13.8258025311601
31
0.000000000000000
  0
LINE
  5
F103AA
330
F103AB
100
AcDbEntity
8
Geo
100
AcDbLine
10
-55.7387470997678
20
13.8258025311601
30
0.000000000000000
11
-55.6387470997678
21
13.7257561939200
31
0.000000000000000
  0
LINE
  5
F103AC
330
F103AD
100
AcDbEntity
8
Geo
100
AcDbLine
10
-55.6387470997678
20
13.7257561939200
30
0.000000000000000
11
-55.5387470997678
21
13.6235659229826
31
0.000000000000000
  0
LINE
  5
F103AE
330
F103AF
100
AcDbEntity
8
Geo
100
AcDbLine
10
-55.5387470997678
20
13.6235659229826
30
0.000000000000000
11
-55.4387470997678
21
13.5193830926521
31
0.000000000000000
  0
LINE
  5
F103B0
330
F103B1
100
AcDbEntity
8
Geo
100
AcDbLine
10
-55.4387470997678
20
13.5193830926521
30
0.000000000000000
11
-55.3387470997678
21
13.4133620288084
31
0.000000000000000
  0
LINE
  5
F103B2
330
F103B3
100
AcDbEntity
8
Geo
100
AcDbLine
10
-55.3387470997678
20
13.4133620288084
30
0.000000000000000
11
-55.2387470997678
21
13.3056597803042
31
0.000000000000000
  0
LINE
  5
F103B4
330
F103B5
100
AcDbEntity
8
Geo
100
AcDbLine
10
-55.2387470997678
20
13.3056597803042
30
0.000000000000000
11
-55.1387470997678
21
13.1964358863283
31
0.000000000000000
  0
LINE
  5
F103B6
330
F103B7
100
AcDbEntity
8
Geo
100
AcDbLine
10
-55.1387470997678
20
13.1964358863283
30
0.000000000000000
11
-55.0387470997678
21
13.0858521400810
31
0.000000000000000
  0
LINE
  5
F103B8
330
F103B9
100
AcDbEntity
8
Geo
100
AcDbLine
10
-55.0387470997678
20
13.0858521400810
30
0.000000000000000
11
-54.9387470997678
21
12.9740723491101
31
0.000000000000000
  0
LINE
  5
F103BA
330
F103BB
100
AcDbEntity
8
Geo
100
AcDbLine
10
-54.9387470997678
20
12.9740723491101
30
0.000000000000000
11
-54.8387470997678
21
12.8612620926624
31
0.000000000000000
  0
LINE
  5
F103BC
330
F103BD
100
AcDbEntity
8
Geo
100
AcDbLine
10
-54.8387470997678
20
12.8612620926624
30
0.000000000000000
11
-54.7387470997678
21
12.7475884764118
31
0.000000000000000
  0
LINE
  5
F103BE
330
F103BF
100
AcDbEntity
8
Geo
100
AcDbLine
10
-54.7387470997678
20
12.7475884764118
30
0.000000000000000
11
-54.6387470997678
21
12.6332198849261
31
0.000000000000000
  0
LINE
  5
F103C0
330
F103C1
100
AcDbEntity
8
Geo
100
AcDbLine
10
-54.6387470997678
20
12.6332198849261
30
0.000000000000000
11
-54.5387470997678
21
12.5183257322387
31
0.000000000000000
  0
LINE
  5
F103C2
330
F103C3
100
AcDbEntity
8
Geo
100
AcDbLine
10
-54.5387470997678
20
12.5183257322387
30
0.000000000000000
11
-54.4387470997678
21
12.4030762108961
31
0.000000000000000
  0
LINE
  5
F103C4
330
F103C5
100
AcDbEntity
8
Geo
100
AcDbLine
10
-54.4387470997678
20
12.4030762108961
30
0.000000000000000
11
-54.3387470997678
21
12.2876420398521
31
0.000000000000000
  0
LINE
  5
F103C6
330
F103C7
100
AcDbEntity
8
Geo
100
AcDbLine
10
-54.3387470997678
20
12.2876420398521
30
0.000000000000000
11
-54.2387470997678
21
12.1721942115816
31
0.000000000000000
  0
LINE
  5
F103C8
330
F103C9
100
AcDbEntity
8
Geo
100
AcDbLine
10
-54.2387470997678
20
12.1721942115816
30
0.000000000000000
11
-54.1387470997678
21
12.0569037387900
31
0.000000000000000
  0
LINE
  5
F103CA
330
F103CB
100
AcDbEntity
8
Geo
100
AcDbLine
10
-54.1387470997678
20
12.0569037387900
30
0.000000000000000
11
-54.0387470997678
21
11.9419414010923
31
0.000000000000000
  0
LINE
  5
F103CC
330
F103CD
100
AcDbEntity
8
Geo
100
AcDbLine
10
-54.0387470997678
20
11.9419414010923
30
0.000000000000000
11
-53.9387470997678
21
11.8274774920374
31
0.000000000000000
  0
LINE
  5
F103CE
330
F103CF
100
AcDbEntity
8
Geo
100
AcDbLine
10
-53.9387470997678
20
11.8274774920374
30
0.000000000000000
11
-53.8387470997678
21
11.7136815668526
31
0.000000000000000
  0
LINE
  5
F103D0
330
F103D1
100
AcDbEntity
8
Geo
100
AcDbLine
10
-53.8387470997678
20
11.7136815668526
30
0.000000000000000
11
-53.7387470997678
21
11.5657088729755
31
0.000000000000000
  0
LINE
  5
F103D2
330
F103D3
100
AcDbEntity
8
Geo
100
AcDbLine
10
-53.7387470997678
20
11.5657088729755
30
0.000000000000000
11
-53.6387470997678
21
11.3796443366879
31
0.000000000000000
  0
LINE
  5
F103D4
330
F103D5
100
AcDbEntity
8
Geo
100
AcDbLine
10
-53.6387470997678
20
11.3796443366879
30
0.000000000000000
11
-53.5387470997678
21
11.1584769368550
31
0.000000000000000
  0
LINE
  5
F103D6
330
F103D7
100
AcDbEntity
8
Geo
100
AcDbLine
10
-53.5387470997678
20
11.1584769368550
30
0.000000000000000
11
-53.4387470997678
21
10.9069207649772
31
0.000000000000000
  0
LINE
  5
F103D8
330
F103D9
100
AcDbEntity
8
Geo
100
AcDbLine
10
-53.4387470997678
20
10.9069207649772
30
0.000000000000000
11
-53.3387470997678
21
10.6319719762026
31
0.000000000000000
  0
LINE
  5
F103DA
330
F103DB
100
AcDbEntity
8
Geo
100
AcDbLine
10
-53.3387470997678
20
10.6319719762026
30
0.000000000000000
11
-53.2387470997678
21
10.3434708817460
31
0.000000000000000
  0
LINE
  5
F103DC
330
F103DD
100
AcDbEntity
8
Geo
100
AcDbLine
10
-53.2387470997678
20
10.3434708817460
30
0.000000000000000
11
-53.1387470997678
21
10.0545946324624
31
0.000000000000000
  0
LINE
  5
F103DE
330
F103DF
100
AcDbEntity
8
Geo
100
AcDbLine
10
-53.1387470997678
20
10.0545946324624
30
0.000000000000000
11
-53.0387470997678
21
9.78217828947594
31
0.000000000000000
  0
LINE
  5
F103E0
330
F103E1
100
AcDbEntity
8
Geo
100
AcDbLine
10
-53.0387470997678
20
9.78217828947594
30
0.000000000000000
11
-52.9387470997678
21
9.54673412527836
31
0.000000000000000
  0
LINE
  5
F103E2
330
F103E3
100
AcDbEntity
8
Geo
100
AcDbLine
10
-52.9387470997678
20
9.54673412527836
30
0.000000000000000
11
-52.8387470997678
21
9.37201642978863
31
0.000000000000000
  0
LINE
  5
F103E4
330
F103E5
100
AcDbEntity
8
Geo
100
AcDbLine
10
-61.7387470997678
20
15.2775654135348
30
0.000000000000000
11
-61.6387470997678
21
15.2781030290291
31
0.000000000000000
  0
LINE
  5
F103E6
330
F103E7
100
AcDbEntity
8
Geo
100
AcDbLine
10
-61.6387470997678
20
15.2781030290291
30
0.000000000000000
11
-61.5387470997678
21
15.2741972216456
31
0.000000000000000
  0
LINE
  5
F103E8
330
F103E9
100
AcDbEntity
8
Geo
100
AcDbLine
10
-61.5387470997678
20
15.2741972216456
30
0.000000000000000
11
-61.4387470997678
21
15.2658537770511
31
0.000000000000000
  0
LINE
  5
F103EA
330
F103EB
100
AcDbEntity
8
Geo
100
AcDbLine
10
-61.4387470997678
20
15.2658537770511
30
0.000000000000000
11
-61.3387470997678
21
15.2530850543784
31
0.000000000000000
  0
LINE
  5
F103EC
330
F103ED
100
AcDbEntity
8
Geo
100
AcDbLine
10
-61.3387470997678
20
15.2530850543784
30
0.000000000000000
11
-61.2387470997678
21
15.2359099679185
31
0.000000000000000
  0
LINE
  5
F103EE
330
F103EF
100
AcDbEntity
8
Geo
100
AcDbLine
10
-61.2387470997678
20
15.2359099679185
30
0.000000000000000
11
-61.1387470997678
21
15.2143539591026
31
0.000000000000000
  0
LINE
  5
F103F0
330
F103F1
100
AcDbEntity
8
Geo
100
AcDbLine
10
-61.1387470997678
20
15.2143539591026
30
0.000000000000000
11
-61.0387470997678
21
15.1884489588164
31
0.000000000000000
  0
LINE
  5
F103F2
330
F103F3
100
AcDbEntity
8
Geo
100
AcDbLine
10
-61.0387470997678
20
15.1884489588164
30
0.000000000000000
11
-60.9387470997678
21
15.1582333401002
31
0.000000000000000
  0
LINE
  5
F103F4
330
F103F5
100
AcDbEntity
8
Geo
100
AcDbLine
10
-60.9387470997678
20
15.1582333401002
30
0.000000000000000
11
-60.8387470997678
21
15.1237518613075
31
0.000000000000000
  0
LINE
  5
F103F6
330
F103F7
100
AcDbEntity
8
Geo
100
AcDbLine
10
-60.8387470997678
20
15.1237518613075
30
0.000000000000000
11
-60.7387470997678
21
15.0850555998042
31
0.000000000000000
  0
LINE
  5
F103F8
330
F103F9
100
AcDbEntity
8
Geo
100
AcDbLine
10
-60.7387470997678
20
15.0850555998042
30
0.000000000000000
11
-60.6387470997678
21
15.0422018763081
31
0.000000000000000
  0
LINE
  5
F103FA
330
F103FB
100
AcDbEntity
8
Geo
100
AcDbLine
10
-60.6387470997678
20
15.0422018763081
30
0.000000000000000
11
-60.5387470997678
21
14.9952541699794
31
0.000000000000000
  0
LINE
  5
F103FC
330
F103FD
100
AcDbEntity
8
Geo
100
AcDbLine
10
-60.5387470997678
20
14.9952541699794
30
0.000000000000000
11
-60.4387470997678
21
14.9442820243893
31
0.000000000000000
  0
LINE
  5
F103FE
330
F103FF
100
AcDbEntity
8
Geo
100
AcDbLine
10
-60.4387470997678
20
14.9442820243893
30
0.000000000000000
11
-60.3387470997678
21
14.8893609445053
31
0.000000000000000
  0
LINE
  5
F10400
330
F10401
100
AcDbEntity
8
Geo
100
AcDbLine
10
-60.3387470997678
20
14.8893609445053
30
0.000000000000000
11
-60.2387470997678
21
14.8305722848457
31
0.000000000000000
  0
LINE
  5
F10402
330
F10403
100
AcDbEntity
8
Geo
100
AcDbLine
10
-60.2387470997678
20
14.8305722848457
30
0.000000000000000
11
-60.1387470997678
21
14.7680031289693
31
0.000000000000000
  0
LINE
  5
F10404
330
F10405
100
AcDbEntity
8
Geo
100
AcDbLine
10
-60.1387470997678
20
14.7680031289693
30
0.000000000000000
11
-60.0387470997678
21
14.7017461604785
31
0.000000000000000
  0
LINE
  5
F10406
330
F10407
100
AcDbEntity
8
Geo
100
AcDbLine
10
-60.0387470997678
20
14.7017461604785
30
0.000000000000000
11
-59.9387470997678
21
14.6318995257274
31
0.000000000000000
  0
LINE
  5
F10408
330
F10409
100
AcDbEntity
8
Geo
100
AcDbLine
10
-59.9387470997678
20
14.6318995257274
30
0.000000000000000
11
-59.8387470997678
21
14.5585666884377
31
0.000000000000000
  0
LINE
  5
F1040A
330
F1040B
100
AcDbEntity
8
Geo
100
AcDbLine
10
-59.8387470997678
20
14.5585666884377
30
0.000000000000000
11
-59.7387470997678
21
14.4818562764380
31
0.000000000000000
  0
LINE
  5
F1040C
330
F1040D
100
AcDbEntity
8
Geo
100
AcDbLine
10
-59.7387470997678
20
14.4818562764380
30
0.000000000000000
11
-59.6387470997678
21
14.4018819207536
31
0.000000000000000
  0
LINE
  5
F1040E
330
F1040F
100
AcDbEntity
8
Geo
100
AcDbLine
10
-59.6387470997678
20
14.4018819207536
30
0.000000000000000
11
-59.5387470997678
21
14.3187620872849
31
0.000000000000000
  0
LINE
  5
F10410
330
F10411
100
AcDbEntity
8
Geo
100
AcDbLine
10
-59.5387470997678
20
14.3187620872849
30
0.000000000000000
11
-59.4387470997678
21
14.2326199013242
31
0.000000000000000
  0
LINE
  5
F10412
330
F10413
100
AcDbEntity
8
Geo
100
AcDbLine
10
-59.4387470997678
20
14.2326199013242
30
0.000000000000000
11
-59.3387470997678
21
14.1435829651701
31
0.000000000000000
  0
LINE
  5
F10414
330
F10415
100
AcDbEntity
8
Geo
100
AcDbLine
10
-59.3387470997678
20
14.1435829651701
30
0.000000000000000
11
-59.2387470997678
21
14.0517831691108
31
0.000000000000000
  0
LINE
  5
F10416
330
F10417
100
AcDbEntity
8
Geo
100
AcDbLine
10
-59.2387470997678
20
14.0517831691108
30
0.000000000000000
11
-59.1387470997678
21
13.9573564960549
31
0.000000000000000
  0
LINE
  5
F10418
330
F10419
100
AcDbEntity
8
Geo
100
AcDbLine
10
-59.1387470997678
20
13.9573564960549
30
0.000000000000000
11
-59.0387470997678
21
13.8604428201003
31
0.000000000000000
  0
LINE
  5
F1041A
330
F1041B
100
AcDbEntity
8
Geo
100
AcDbLine
10
-59.0387470997678
20
13.8604428201003
30
0.000000000000000
11
-58.9387470997678
21
13.7611856993386
31
0.000000000000000
  0
LINE
  5
F1041C
330
F1041D
100
AcDbEntity
8
Geo
100
AcDbLine
10
-58.9387470997678
20
13.7611856993386
30
0.000000000000000
11
-58.8387470997678
21
13.6597321632029
31
0.000000000000000
  0
LINE
  5
F1041E
330
F1041F
100
AcDbEntity
8
Geo
100
AcDbLine
10
-58.8387470997678
20
13.6597321632029
30
0.000000000000000
11
-58.7387470997678
21
13.5562324946736
31
0.000000000000000
  0
LINE
  5
F10420
330
F10421
100
AcDbEntity
8
Geo
100
AcDbLine
10
-58.7387470997678
20
13.5562324946736
30
0.000000000000000
11
-58.6387470997678
21
13.4508400076637
31
0.000000000000000
  0
LINE
  5
F10422
330
F10423
100
AcDbEntity
8
Geo
100
AcDbLine
10
-58.6387470997678
20
13.4508400076637
30
0.000000000000000
11
-58.5387470997678
21
13.3437108199160
31
0.000000000000000
  0
LINE
  5
F10424
330
F10425
100
AcDbEntity
8
Geo
100
AcDbLine
10
-58.5387470997678
20
13.3437108199160
30
0.000000000000000
11
-58.4387470997678
21
13.2350036217452
31
0.000000000000000
  0
LINE
  5
F10426
330
F10427
100
AcDbEntity
8
Geo
100
AcDbLine
10
-58.4387470997678
20
13.2350036217452
30
0.000000000000000
11
-58.3387470997678
21
13.1248794409710
31
0.000000000000000
  0
LINE
  5
F10428
330
F10429
100
AcDbEntity
8
Geo
100
AcDbLine
10
-58.3387470997678
20
13.1248794409710
30
0.000000000000000
11
-58.2387470997678
21
13.0135014043872
31
0.000000000000000
  0
LINE
  5
F1042A
330
F1042B
100
AcDbEntity
8
Geo
100
AcDbLine
10
-58.2387470997678
20
13.0135014043872
30
0.000000000000000
11
-58.1387470997678
21
12.9010344961225
31
0.000000000000000
  0
LINE
  5
F1042C
330
F1042D
100
AcDbEntity
8
Geo
100
AcDbLine
10
-58.1387470997678
20
12.9010344961225
30
0.000000000000000
11
-58.0387470997678
21
12.7876453132498
31
0.000000000000000
  0
LINE
  5
F1042E
330
F1042F
100
AcDbEntity
8
Geo
100
AcDbLine
10
-58.0387470997678
20
12.7876453132498
30
0.000000000000000
11
-57.9387470997678
21
12.6735018190060
31
0.000000000000000
  0
LINE
  5
F10430
330
F10431
100
AcDbEntity
8
Geo
100
AcDbLine
10
-57.9387470997678
20
12.6735018190060
30
0.000000000000000
11
-57.8387470997678
21
12.5587730939882
31
0.000000000000000
  0
LINE
  5
F10432
330
F10433
100
AcDbEntity
8
Geo
100
AcDbLine
10
-57.8387470997678
20
12.5587730939882
30
0.000000000000000
11
-57.7387470997678
21
12.4436290856954
31
0.000000000000000
  0
LINE
  5
F10434
330
F10435
100
AcDbEntity
8
Geo
100
AcDbLine
10
-57.7387470997678
20
12.4436290856954
30
0.000000000000000
11
-57.6387470997678
21
12.3282403567847
31
0.000000000000000
  0
LINE
  5
F10436
330
F10437
100
AcDbEntity
8
Geo
100
AcDbLine
10
-57.6387470997678
20
12.3282403567847
30
0.000000000000000
11
-57.5387470997678
21
12.2127778324178
31
0.000000000000000
  0
LINE
  5
F10438
330
F10439
100
AcDbEntity
8
Geo
100
AcDbLine
10
-57.5387470997678
20
12.2127778324178
30
0.000000000000000
11
-57.4387470997678
21
12.0974125470695
31
0.000000000000000
  0
LINE
  5
F1043A
330
F1043B
100
AcDbEntity
8
Geo
100
AcDbLine
10
-57.4387470997678
20
12.0974125470695
30
0.000000000000000
11
-57.3387470997678
21
11.9823153911744
31
0.000000000000000
  0
LINE
  5
F1043C
330
F1043D
100
AcDbEntity
8
Geo
100
AcDbLine
10
-57.3387470997678
20
11.9823153911744
30
0.000000000000000
11
-57.2387470997678
21
11.8676568579875
31
0.000000000000000
  0
LINE
  5
F1043E
330
F1043F
100
AcDbEntity
8
Geo
100
AcDbLine
10
-57.2387470997678
20
11.8676568579875
30
0.000000000000000
11
-57.1387470997678
21
11.7536067910325
31
0.000000000000000
  0
LINE
  5
F10440
330
F10441
100
AcDbEntity
8
Geo
100
AcDbLine
10
-57.1387470997678
20
11.7536067910325
30
0.000000000000000
11
-57.0387470997678
21
11.6403341325128
31
0.000000000000000
  0
LINE
  5
F10442
330
F10443
100
AcDbEntity
8
Geo
100
AcDbLine
10
-57.0387470997678
20
11.6403341325128
30
0.000000000000000
11
-56.9387470997678
21
11.5280066730582
31
0.000000000000000
  0
LINE
  5
F10444
330
F10445
100
AcDbEntity
8
Geo
100
AcDbLine
10
-56.9387470997678
20
11.5280066730582
30
0.000000000000000
11
-56.8387470997678
21
11.4167908031760
31
0.000000000000000
  0
LINE
  5
F10446
330
F10447
100
AcDbEntity
8
Geo
100
AcDbLine
10
-56.8387470997678
20
11.4167908031760
30
0.000000000000000
11
-56.7387470997678
21
11.3068512667776
31
0.000000000000000
  0
LINE
  5
F10448
330
F10449
100
AcDbEntity
8
Geo
100
AcDbLine
10
-56.7387470997678
20
11.3068512667776
30
0.000000000000000
11
-56.6387470997678
21
11.1983509171435
31
0.000000000000000
  0
LINE
  5
F1044A
330
F1044B
100
AcDbEntity
8
Geo
100
AcDbLine
10
-56.6387470997678
20
11.1983509171435
30
0.000000000000000
11
-56.5387470997678
21
11.0914504756888
31
0.000000000000000
  0
LINE
  5
F1044C
330
F1044D
100
AcDbEntity
8
Geo
100
AcDbLine
10
-56.5387470997678
20
11.0914504756888
30
0.000000000000000
11
-56.4387470997678
21
10.9863082938869
31
0.000000000000000
  0
LINE
  5
F1044E
330
F1044F
100
AcDbEntity
8
Geo
100
AcDbLine
10
-56.4387470997678
20
10.9863082938869
30
0.000000000000000
11
-56.3387470997678
21
10.8830801187035
31
0.000000000000000
  0
LINE
  5
F10450
330
F10451
100
AcDbEntity
8
Geo
100
AcDbLine
10
-56.3387470997678
20
10.8830801187035
30
0.000000000000000
11
-56.2387470997678
21
10.7819188618891
31
0.000000000000000
  0
LINE
  5
F10452
330
F10453
100
AcDbEntity
8
Geo
100
AcDbLine
10
-56.2387470997678
20
10.7819188618891
30
0.000000000000000
11
-56.1387470997678
21
10.6829743734711
31
0.000000000000000
  0
LINE
  5
F10454
330
F10455
100
AcDbEntity
8
Geo
100
AcDbLine
10
-56.1387470997678
20
10.6829743734711
30
0.000000000000000
11
-56.0387470997678
21
10.5863932197808
31
0.000000000000000
  0
LINE
  5
F10456
330
F10457
100
AcDbEntity
8
Geo
100
AcDbLine
10
-56.0387470997678
20
10.5863932197808
30
0.000000000000000
11
-55.9387470997678
21
10.4923184663450
31
0.000000000000000
  0
LINE
  5
F10458
330
F10459
100
AcDbEntity
8
Geo
100
AcDbLine
10
-55.9387470997678
20
10.4923184663450
30
0.000000000000000
11
-55.8387470997678
21
10.4008894659635
31
0.000000000000000
  0
LINE
  5
F1045A
330
F1045B
100
AcDbEntity
8
Geo
100
AcDbLine
10
-55.8387470997678
20
10.4008894659635
30
0.000000000000000
11
-55.7387470997678
21
10.3122416522859
31
0.000000000000000
  0
LINE
  5
F1045C
330
F1045D
100
AcDbEntity
8
Geo
100
AcDbLine
10
-55.7387470997678
20
10.3122416522859
30
0.000000000000000
11
-55.6387470997678
21
10.2265063391937
31
0.000000000000000
  0
LINE
  5
F1045E
330
F1045F
100
AcDbEntity
8
Geo
100
AcDbLine
10
-55.6387470997678
20
10.2265063391937
30
0.000000000000000
11
-55.5387470997678
21
10.1438105262854
31
0.000000000000000
  0
LINE
  5
F10460
330
F10461
100
AcDbEntity
8
Geo
100
AcDbLine
10
-55.5387470997678
20
10.1438105262854
30
0.000000000000000
11
-55.4387470997678
21
10.0642767107521
31
0.000000000000000
  0
LINE
  5
F10462
330
F10463
100
AcDbEntity
8
Geo
100
AcDbLine
10
-55.4387470997678
20
10.0642767107521
30
0.000000000000000
11
-55.3387470997678
21
9.98802270592298
31
0.000000000000000
  0
LINE
  5
F10464
330
F10465
100
AcDbEntity
8
Geo
100
AcDbLine
10
-55.3387470997678
20
9.98802270592298
30
0.000000000000000
11
-55.2387470997678
21
9.91516146674780
31
0.000000000000000
  0
LINE
  5
F10466
330
F10467
100
AcDbEntity
8
Geo
100
AcDbLine
10
-55.2387470997678
20
9.91516146674780
30
0.000000000000000
11
-55.1387470997678
21
9.84580092247758
31
0.000000000000000
  0
LINE
  5
F10468
330
F10469
100
AcDbEntity
8
Geo
100
AcDbLine
10
-55.1387470997678
20
9.84580092247758
30
0.000000000000000
11
-55.0387470997678
21
9.78004381678885
31
0.000000000000000
  0
LINE
  5
F1046A
330
F1046B
100
AcDbEntity
8
Geo
100
AcDbLine
10
-55.0387470997678
20
9.78004381678885
30
0.000000000000000
11
-54.9387470997678
21
9.71798755558967
31
0.000000000000000
  0
LINE
  5
F1046C
330
F1046D
100
AcDbEntity
8
Geo
100
AcDbLine
10
-54.9387470997678
20
9.71798755558967
30
0.000000000000000
11
-54.8387470997678
21
9.65972406273234
31
0.000000000000000
  0
LINE
  5
F1046E
330
F1046F
100
AcDbEntity
8
Geo
100
AcDbLine
10
-54.8387470997678
20
9.65972406273234
30
0.000000000000000
11
-54.7387470997678
21
9.60533964384678
31
0.000000000000000
  0
LINE
  5
F10470
330
F10471
100
AcDbEntity
8
Geo
100
AcDbLine
10
-54.7387470997678
20
9.60533964384678
30
0.000000000000000
11
-54.6387470997678
21
9.55491485849607
31
0.000000000000000
  0
LINE
  5
F10472
330
F10473
100
AcDbEntity
8
Geo
100
AcDbLine
10
-54.6387470997678
20
9.55491485849607
30
0.000000000000000
11
-54.5387470997678
21
9.50852440084374
31
0.000000000000000
  0
LINE
  5
F10474
330
F10475
100
AcDbEntity
8
Geo
100
AcDbLine
10
-54.5387470997678
20
9.50852440084374
30
0.000000000000000
11
-54.4387470997678
21
9.46623698900937
31
0.000000000000000
  0
LINE
  5
F10476
330
F10477
100
AcDbEntity
8
Geo
100
AcDbLine
10
-54.4387470997678
20
9.46623698900937
30
0.000000000000000
11
-54.3387470997678
21
9.42811526327656
31
0.000000000000000
  0
LINE
  5
F10478
330
F10479
100
AcDbEntity
8
Geo
100
AcDbLine
10
-54.3387470997678
20
9.42811526327656
30
0.000000000000000
11
-54.2387470997678
21
9.39421569330393
31
0.000000000000000
  0
LINE
  5
F1047A
330
F1047B
100
AcDbEntity
8
Geo
100
AcDbLine
10
-54.2387470997678
20
9.39421569330393
30
0.000000000000000
11
-54.1387470997678
21
9.36458849447676
31
0.000000000000000
  0
LINE
  5
F1047C
330
F1047D
100
AcDbEntity
8
Geo
100
AcDbLine
10
-54.1387470997678
20
9.36458849447676
30
0.000000000000000
11
-54.0387470997678
21
9.33927755352292
31
0.000000000000000
  0
LINE
  5
F1047E
330
F1047F
100
AcDbEntity
8
Geo
100
AcDbLine
10
-54.0387470997678
20
9.33927755352292
30
0.000000000000000
11
-53.9387470997678
21
9.31832036350360
31
0.000000000000000
  0
LINE
  5
F10480
330
F10481
100
AcDbEntity
8
Geo
100
AcDbLine
10
-53.9387470997678
20
9.31832036350360
30
0.000000000000000
11
-53.8387470997678
21
9.30174796827487
31
0.000000000000000
  0
LINE
  5
F10482
330
F10483
100
AcDbEntity
8
Geo
100
AcDbLine
10
-53.8387470997678
20
9.30174796827487
30
0.000000000000000
11
-53.7387470997678
21
9.30388934557974
31
0.000000000000000
  0
LINE
  5
F10484
330
F10485
100
AcDbEntity
8
Geo
100
AcDbLine
10
-53.7387470997678
20
9.30388934557974
30
0.000000000000000
11
-53.6387470997678
21
9.30675668020621
31
0.000000000000000
  0
LINE
  5
F10486
330
F10487
100
AcDbEntity
8
Geo
100
AcDbLine
10
-53.6387470997678
20
9.30675668020621
30
0.000000000000000
11
-53.5387470997678
21
9.31044847950747
31
0.000000000000000
  0
LINE
  5
F10488
330
F10489
100
AcDbEntity
8
Geo
100
AcDbLine
10
-53.5387470997678
20
9.31044847950747
30
0.000000000000000
11
-53.4387470997678
21
9.31508429760033
31
0.000000000000000
  0
LINE
  5
F1048A
330
F1048B
100
AcDbEntity
8
Geo
100
AcDbLine
10
-53.4387470997678
20
9.31508429760033
30
0.000000000000000
11
-53.3387470997678
21
9.32080457089967
31
0.000000000000000
  0
LINE
  5
F1048C
330
F1048D
100
AcDbEntity
8
Geo
100
AcDbLine
10
-53.3387470997678
20
9.32080457089967
30
0.000000000000000
11
-53.2387470997678
21
9.32777040043025
31
0.000000000000000
  0
LINE
  5
F1048E
330
F1048F
100
AcDbEntity
8
Geo
100
AcDbLine
10
-53.2387470997678
20
9.32777040043025
30
0.000000000000000
11
-53.1387470997678
21
9.33616326927058
31
0.000000000000000
  0
LINE
  5
F10490
330
F10491
100
AcDbEntity
8
Geo
100
AcDbLine
10
-53.1387470997678
20
9.33616326927058
30
0.000000000000000
11
-53.0387470997678
21
9.34618468182142
31
0.000000000000000
  0
LINE
  5
F10492
330
F10493
100
AcDbEntity
8
Geo
100
AcDbLine
10
-53.0387470997678
20
9.34618468182142
30
0.000000000000000
11
-52.9387470997678
21
9.35805570998301
31
0.000000000000000
  0
LINE
  5
F10494
330
F10495
100
AcDbEntity
8
Geo
100
AcDbLine
10
-52.9387470997678
20
9.35805570998301
30
0.000000000000000
11
-52.8387470997678
21
9.37201642978863
31
0.000000000000000
  0
LINE
  5
F10496
330
F10497
100
AcDbEntity
8
Geo
100
AcDbLine
10
-62.5387470997678
20
15.2779543624377
30
0.000000000000000
11
-62.4387470997678
21
15.2777715926921
31
0.000000000000000
  0
LINE
  5
F10498
330
F10499
100
AcDbEntity
8
Geo
100
AcDbLine
10
-62.4387470997678
20
15.2777715926921
30
0.000000000000000
11
-62.3387470997678
21
15.2731458910248
31
0.000000000000000
  0
LINE
  5
F1049A
330
F1049B
100
AcDbEntity
8
Geo
100
AcDbLine
10
-62.3387470997678
20
15.2731458910248
30
0.000000000000000
11
-62.2387470997678
21
15.2640841094811
31
0.000000000000000
  0
LINE
  5
F1049C
330
F1049D
100
AcDbEntity
8
Geo
100
AcDbLine
10
-62.2387470997678
20
15.2640841094811
30
0.000000000000000
11
-62.1387470997678
21
15.2505996712654
31
0.000000000000000
  0
LINE
  5
F1049E
330
F1049F
100
AcDbEntity
8
Geo
100
AcDbLine
10
-62.1387470997678
20
15.2505996712654
30
0.000000000000000
11
-62.0387470997678
21
15.2327125508568
31
0.000000000000000
  0
LINE
  5
F104A0
330
F104A1
100
AcDbEntity
8
Geo
100
AcDbLine
10
-62.0387470997678
20
15.2327125508568
30
0.000000000000000
11
-61.9387470997678
21
15.2104492444218
31
0.000000000000000
  0
LINE
  5
F104A2
330
F104A3
100
AcDbEntity
8
Geo
100
AcDbLine
10
-61.9387470997678
20
15.2104492444218
30
0.000000000000000
11
-61.8387470997678
21
15.1838427305647
31
0.000000000000000
  0
LINE
  5
F104A4
330
F104A5
100
AcDbEntity
8
Geo
100
AcDbLine
10
-61.8387470997678
20
15.1838427305647
30
0.000000000000000
11
-61.7387470997678
21
15.1529324214770
31
0.000000000000000
  0
LINE
  5
F104A6
330
F104A7
100
AcDbEntity
8
Geo
100
AcDbLine
10
-61.7387470997678
20
15.1529324214770
30
0.000000000000000
11
-61.6387470997678
21
15.1177641045562
31
0.000000000000000
  0
LINE
  5
F104A8
330
F104A9
100
AcDbEntity
8
Geo
100
AcDbLine
10
-61.6387470997678
20
15.1177641045562
30
0.000000000000000
11
-61.5387470997678
21
15.0783898745804
31
0.000000000000000
  0
LINE
  5
F104AA
330
F104AB
100
AcDbEntity
8
Geo
100
AcDbLine
10
-61.5387470997678
20
15.0783898745804
30
0.000000000000000
11
-61.4387470997678
21
15.0348680565412
31
0.000000000000000
  0
LINE
  5
F104AC
330
F104AD
100
AcDbEntity
8
Geo
100
AcDbLine
10
-61.4387470997678
20
15.0348680565412
30
0.000000000000000
11
-61.3387470997678
21
14.9872631192462
31
0.000000000000000
  0
LINE
  5
F104AE
330
F104AF
100
AcDbEntity
8
Geo
100
AcDbLine
10
-61.3387470997678
20
14.9872631192462
30
0.000000000000000
11
-61.2387470997678
21
14.9356455798221
31
0.000000000000000
  0
LINE
  5
F104B0
330
F104B1
100
AcDbEntity
8
Geo
100
AcDbLine
10
-61.2387470997678
20
14.9356455798221
30
0.000000000000000
11
-61.1387470997678
21
14.8800918992573
31
0.000000000000000
  0
LINE
  5
F104B2
330
F104B3
100
AcDbEntity
8
Geo
100
AcDbLine
10
-61.1387470997678
20
14.8800918992573
30
0.000000000000000
11
-61.0387470997678
21
14.8206843691405
31
0.000000000000000
  0
LINE
  5
F104B4
330
F104B5
100
AcDbEntity
8
Geo
100
AcDbLine
10
-61.0387470997678
20
14.8206843691405
30
0.000000000000000
11
-60.9387470997678
21
14.7575109897625
31
0.000000000000000
  0
LINE
  5
F104B6
330
F104B7
100
AcDbEntity
8
Geo
100
AcDbLine
10
-60.9387470997678
20
14.7575109897625
30
0.000000000000000
11
-60.8387470997678
21
14.6906653397611
31
0.000000000000000
  0
LINE
  5
F104B8
330
F104B9
100
AcDbEntity
8
Geo
100
AcDbLine
10
-60.8387470997678
20
14.6906653397611
30
0.000000000000000
11
-60.7387470997678
21
14.6202464375036
31
0.000000000000000
  0
LINE
  5
F104BA
330
F104BB
100
AcDbEntity
8
Geo
100
AcDbLine
10
-60.7387470997678
20
14.6202464375036
30
0.000000000000000
11
-60.6387470997678
21
14.5463585944107
31
0.000000000000000
  0
LINE
  5
F104BC
330
F104BD
100
AcDbEntity
8
Geo
100
AcDbLine
10
-60.6387470997678
20
14.5463585944107
30
0.000000000000000
11
-60.5387470997678
21
14.4691112604403
31
0.000000000000000
  0
LINE
  5
F104BE
330
F104BF
100
AcDbEntity
8
Geo
100
AcDbLine
10
-60.5387470997678
20
14.4691112604403
30
0.000000000000000
11
-60.4387470997678
21
14.3886188619594
31
0.000000000000000
  0
LINE
  5
F104C0
330
F104C1
100
AcDbEntity
8
Geo
100
AcDbLine
10
-60.4387470997678
20
14.3886188619594
30
0.000000000000000
11
-60.3387470997678
21
14.3050006322445
31
0.000000000000000
  0
LINE
  5
F104C2
330
F104C3
100
AcDbEntity
8
Geo
100
AcDbLine
10
-60.3387470997678
20
14.3050006322445
30
0.000000000000000
11
-60.2387470997678
21
14.2183804348615
31
0.000000000000000
  0
LINE
  5
F104C4
330
F104C5
100
AcDbEntity
8
Geo
100
AcDbLine
10
-60.2387470997678
20
14.2183804348615
30
0.000000000000000
11
-60.1387470997678
21
14.1288865801868
31
0.000000000000000
  0
LINE
  5
F104C6
330
F104C7
100
AcDbEntity
8
Geo
100
AcDbLine
10
-60.1387470997678
20
14.1288865801868
30
0.000000000000000
11
-60.0387470997678
21
14.0366516353412
31
0.000000000000000
  0
LINE
  5
F104C8
330
F104C9
100
AcDbEntity
8
Geo
100
AcDbLine
10
-60.0387470997678
20
14.0366516353412
30
0.000000000000000
11
-59.9387470997678
21
13.9418122278188
31
0.000000000000000
  0
LINE
  5
F104CA
330
F104CB
100
AcDbEntity
8
Geo
100
AcDbLine
10
-59.9387470997678
20
13.9418122278188
30
0.000000000000000
11
-59.8387470997678
21
13.8445088431002
31
0.000000000000000
  0
LINE
  5
F104CC
330
F104CD
100
AcDbEntity
8
Geo
100
AcDbLine
10
-59.8387470997678
20
13.8445088431002
30
0.000000000000000
11
-59.7387470997678
21
13.7448856165522
31
0.000000000000000
  0
LINE
  5
F104CE
330
F104CF
100
AcDbEntity
8
Geo
100
AcDbLine
10
-59.7387470997678
20
13.7448856165522
30
0.000000000000000
11
-59.6387470997678
21
13.6430901199200
31
0.000000000000000
  0
LINE
  5
F104D0
330
F104D1
100
AcDbEntity
8
Geo
100
AcDbLine
10
-59.6387470997678
20
13.6430901199200
30
0.000000000000000
11
-59.5387470997678
21
13.5392731427294
31
0.000000000000000
  0
LINE
  5
F104D2
330
F104D3
100
AcDbEntity
8
Geo
100
AcDbLine
10
-59.5387470997678
20
13.5392731427294
30
0.000000000000000
11
-59.4387470997678
21
13.4335884689224
31
0.000000000000000
  0
LINE
  5
F104D4
330
F104D5
100
AcDbEntity
8
Geo
100
AcDbLine
10
-59.4387470997678
20
13.4335884689224
30
0.000000000000000
11
-59.3387470997678
21
13.3261926490575
31
0.000000000000000
  0
LINE
  5
F104D6
330
F104D7
100
AcDbEntity
8
Geo
100
AcDbLine
10
-59.3387470997678
20
13.3261926490575
30
0.000000000000000
11
-59.2387470997678
21
13.2172447684115
31
0.000000000000000
  0
LINE
  5
F104D8
330
F104D9
100
AcDbEntity
8
Geo
100
AcDbLine
10
-59.2387470997678
20
13.2172447684115
30
0.000000000000000
11
-59.1387470997678
21
13.1069062113264
31
0.000000000000000
  0
LINE
  5
F104DA
330
F104DB
100
AcDbEntity
8
Geo
100
AcDbLine
10
-59.1387470997678
20
13.1069062113264
30
0.000000000000000
11
-59.0387470997678
21
12.9953404221515
31
0.000000000000000
  0
LINE
  5
F104DC
330
F104DD
100
AcDbEntity
8
Geo
100
AcDbLine
10
-59.0387470997678
20
12.9953404221515
30
0.000000000000000
11
-58.9387470997678
21
12.8827126631331
31
0.000000000000000
  0
LINE
  5
F104DE
330
F104DF
100
AcDbEntity
8
Geo
100
AcDbLine
10
-58.9387470997678
20
12.8827126631331
30
0.000000000000000
11
-58.8387470997678
21
12.7691897696121
31
0.000000000000000
  0
LINE
  5
F104E0
330
F104E1
100
AcDbEntity
8
Geo
100
AcDbLine
10
-58.8387470997678
20
12.7691897696121
30
0.000000000000000
11
-58.7387470997678
21
12.6549399028908
31
0.000000000000000
  0
LINE
  5
F104E2
330
F104E3
100
AcDbEntity
8
Geo
100
AcDbLine
10
-58.7387470997678
20
12.6549399028908
30
0.000000000000000
11
-58.6387470997678
21
12.5401323011358
31
0.000000000000000
  0
LINE
  5
F104E4
330
F104E5
100
AcDbEntity
8
Geo
100
AcDbLine
10
-58.6387470997678
20
12.5401323011358
30
0.000000000000000
11
-58.5387470997678
21
12.4249370286858
31
0.000000000000000
  0
LINE
  5
F104E6
330
F104E7
100
AcDbEntity
8
Geo
100
AcDbLine
10
-58.5387470997678
20
12.4249370286858
30
0.000000000000000
11
-58.4387470997678
21
12.3095247241357
31
0.000000000000000
  0
LINE
  5
F104E8
330
F104E9
100
AcDbEntity
8
Geo
100
AcDbLine
10
-58.4387470997678
20
12.3095247241357
30
0.000000000000000
11
-58.3387470997678
21
12.1940663475698
31
0.000000000000000
  0
LINE
  5
F104EA
330
F104EB
100
AcDbEntity
8
Geo
100
AcDbLine
10
-58.3387470997678
20
12.1940663475698
30
0.000000000000000
11
-58.2387470997678
21
12.0787329273185
31
0.000000000000000
  0
LINE
  5
F104EC
330
F104ED
100
AcDbEntity
8
Geo
100
AcDbLine
10
-58.2387470997678
20
12.0787329273185
30
0.000000000000000
11
-58.1387470997678
21
11.9636953066149
31
0.000000000000000
  0
LINE
  5
F104EE
330
F104EF
100
AcDbEntity
8
Geo
100
AcDbLine
10
-58.1387470997678
20
11.9636953066149
30
0.000000000000000
11
-58.0387470997678
21
11.8491238905245
31
0.000000000000000
  0
LINE
  5
F104F0
330
F104F1
100
AcDbEntity
8
Geo
100
AcDbLine
10
-58.0387470997678
20
11.8491238905245
30
0.000000000000000
11
-57.9387470997678
21
11.7351883935246
31
0.000000000000000
  0
LINE
  5
F104F2
330
F104F3
100
AcDbEntity
8
Geo
100
AcDbLine
10
-57.9387470997678
20
11.7351883935246
30
0.000000000000000
11
-57.8387470997678
21
11.6220575881064
31
0.000000000000000
  0
LINE
  5
F104F4
330
F104F5
100
AcDbEntity
8
Geo
100
AcDbLine
10
-57.8387470997678
20
11.6220575881064
30
0.000000000000000
11
-57.7387470997678
21
11.5098990547727
31
0.000000000000000
  0
LINE
  5
F104F6
330
F104F7
100
AcDbEntity
8
Geo
100
AcDbLine
10
-57.7387470997678
20
11.5098990547727
30
0.000000000000000
11
-57.6387470997678
21
11.3988789338008
31
0.000000000000000
  0
LINE
  5
F104F8
330
F104F9
100
AcDbEntity
8
Geo
100
AcDbLine
10
-57.6387470997678
20
11.3988789338008
30
0.000000000000000
11
-57.5387470997678
21
11.2891616791397
31
0.000000000000000
  0
LINE
  5
F104FA
330
F104FB
100
AcDbEntity
8
Geo
100
AcDbLine
10
-57.5387470997678
20
11.2891616791397
30
0.000000000000000
11
-57.4387470997678
21
11.1809098148041
31
0.000000000000000
  0
LINE
  5
F104FC
330
F104FD
100
AcDbEntity
8
Geo
100
AcDbLine
10
-57.4387470997678
20
11.1809098148041
30
0.000000000000000
11
-57.3387470997678
21
11.0742836941282
31
0.000000000000000
  0
LINE
  5
F104FE
330
F104FF
100
AcDbEntity
8
Geo
100
AcDbLine
10
-57.3387470997678
20
11.0742836941282
30
0.000000000000000
11
-57.2387470997678
21
10.9694412622344
31
0.000000000000000
  0
LINE
  5
F10500
330
F10501
100
AcDbEntity
8
Geo
100
AcDbLine
10
-57.2387470997678
20
10.9694412622344
30
0.000000000000000
11
-57.1387470997678
21
10.8665378220694
31
0.000000000000000
  0
LINE
  5
F10502
330
F10503
100
AcDbEntity
8
Geo
100
AcDbLine
10
-57.1387470997678
20
10.8665378220694
30
0.000000000000000
11
-57.0387470997678
21
10.7657258043542
31
0.000000000000000
  0
LINE
  5
F10504
330
F10505
100
AcDbEntity
8
Geo
100
AcDbLine
10
-57.0387470997678
20
10.7657258043542
30
0.000000000000000
11
-56.9387470997678
21
10.6671545417886
31
0.000000000000000
  0
LINE
  5
F10506
330
F10507
100
AcDbEntity
8
Geo
100
AcDbLine
10
-56.9387470997678
20
10.6671545417886
30
0.000000000000000
11
-56.8387470997678
21
10.5709700478450
31
0.000000000000000
  0
LINE
  5
F10508
330
F10509
100
AcDbEntity
8
Geo
100
AcDbLine
10
-56.8387470997678
20
10.5709700478450
30
0.000000000000000
11
-56.7387470997678
21
10.4773148004789
31
0.000000000000000
  0
LINE
  5
F1050A
330
F1050B
100
AcDbEntity
8
Geo
100
AcDbLine
10
-56.7387470997678
20
10.4773148004789
30
0.000000000000000
11
-56.6387470997678
21
10.3863275310763
31
0.000000000000000
  0
LINE
  5
F1050C
330
F1050D
100
AcDbEntity
8
Geo
100
AcDbLine
10
-56.6387470997678
20
10.3863275310763
30
0.000000000000000
11
-56.5387470997678
21
10.2981430189511
31
0.000000000000000
  0
LINE
  5
F1050E
330
F1050F
100
AcDbEntity
8
Geo
100
AcDbLine
10
-56.5387470997678
20
10.2981430189511
30
0.000000000000000
11
-56.4387470997678
21
10.2128918916970
31
0.000000000000000
  0
LINE
  5
F10510
330
F10511
100
AcDbEntity
8
Geo
100
AcDbLine
10
-56.4387470997678
20
10.2128918916970
30
0.000000000000000
11
-56.3387470997678
21
10.1307004316887
31
0.000000000000000
  0
LINE
  5
F10512
330
F10513
100
AcDbEntity
8
Geo
100
AcDbLine
10
-56.3387470997678
20
10.1307004316887
30
0.000000000000000
11
-56.2387470997678
21
10.0516903890202
31
0.000000000000000
  0
LINE
  5
F10514
330
F10515
100
AcDbEntity
8
Geo
100
AcDbLine
10
-56.2387470997678
20
10.0516903890202
30
0.000000000000000
11
-56.1387470997678
21
9.97597880115639
31
0.000000000000000
  0
LINE
  5
F10516
330
F10517
100
AcDbEntity
8
Geo
100
AcDbLine
10
-56.1387470997678
20
9.97597880115639
30
0.000000000000000
11
-56.0387470997678
21
9.90367781956573
31
0.000000000000000
  0
LINE
  5
F10518
330
F10519
100
AcDbEntity
8
Geo
100
AcDbLine
10
-56.0387470997678
20
9.90367781956573
30
0.000000000000000
11
-55.9387470997678
21
9.83489454359043
31
0.000000000000000
  0
LINE
  5
F1051A
330
F1051B
100
AcDbEntity
8
Geo
100
AcDbLine
10
-55.9387470997678
20
9.83489454359043
30
0.000000000000000
11
-55.8387470997678
21
9.76973086180031
31
0.000000000000000
  0
LINE
  5
F1051C
330
F1051D
100
AcDbEntity
8
Geo
100
AcDbLine
10
-55.8387470997678
20
9.76973086180031
30
0.000000000000000
11
-55.7387470997678
21
9.70828330106544
31
0.000000000000000
  0
LINE
  5
F1051E
330
F1051F
100
AcDbEntity
8
Geo
100
AcDbLine
10
-55.7387470997678
20
9.70828330106544
30
0.000000000000000
11
-55.6387470997678
21
9.65064288357097
31
0.000000000000000
  0
LINE
  5
F10520
330
F10521
100
AcDbEntity
8
Geo
100
AcDbLine
10
-55.6387470997678
20
9.65064288357097
30
0.000000000000000
11
-55.5387470997678
21
9.59689499198616
31
0.000000000000000
  0
LINE
  5
F10522
330
F10523
100
AcDbEntity
8
Geo
100
AcDbLine
10
-55.5387470997678
20
9.59689499198616
30
0.000000000000000
11
-55.4387470997678
21
9.54711924298712
31
0.000000000000000
  0
LINE
  5
F10524
330
F10525
100
AcDbEntity
8
Geo
100
AcDbLine
10
-55.4387470997678
20
9.54711924298712
30
0.000000000000000
11
-55.3387470997678
21
9.50138936932074
31
0.000000000000000
  0
LINE
  5
F10526
330
F10527
100
AcDbEntity
8
Geo
100
AcDbLine
10
-55.3387470997678
20
9.50138936932074
30
0.000000000000000
11
-55.2387470997678
21
9.45977311058446
31
0.000000000000000
  0
LINE
  5
F10528
330
F10529
100
AcDbEntity
8
Geo
100
AcDbLine
10
-55.2387470997678
20
9.45977311058446
30
0.000000000000000
11
-55.1387470997678
21
9.42233211288375
31
0.000000000000000
  0
LINE
  5
F1052A
330
F1052B
100
AcDbEntity
8
Geo
100
AcDbLine
10
-55.1387470997678
20
9.42233211288375
30
0.000000000000000
11
-55.0387470997678
21
9.38912183751575
31
0.000000000000000
  0
LINE
  5
F1052C
330
F1052D
100
AcDbEntity
8
Geo
100
AcDbLine
10
-55.0387470997678
20
9.38912183751575
30
0.000000000000000
11
-54.9387470997678
21
9.36019147881461
31
0.000000000000000
  0
LINE
  5
F1052E
330
F1052F
100
AcDbEntity
8
Geo
100
AcDbLine
10
-54.9387470997678
20
9.36019147881461
30
0.000000000000000
11
-54.8387470997678
21
9.33558389127991
31
0.000000000000000
  0
LINE
  5
F10530
330
F10531
100
AcDbEntity
8
Geo
100
AcDbLine
10
-54.8387470997678
20
9.33558389127991
30
0.000000000000000
11
-54.7387470997678
21
9.31533552609641
31
0.000000000000000
  0
LINE
  5
F10532
330
F10533
100
AcDbEntity
8
Geo
100
AcDbLine
10
-54.7387470997678
20
9.31533552609641
30
0.000000000000000
11
-54.6387470997678
21
9.29947637713895
31
0.000000000000000
  0
LINE
  5
F10534
330
F10535
100
AcDbEntity
8
Geo
100
AcDbLine
10
-54.6387470997678
20
9.29947637713895
30
0.000000000000000
11
-54.5387470997678
21
9.28802993654253
31
0.000000000000000
  0
LINE
  5
F10536
330
F10537
100
AcDbEntity
8
Geo
100
AcDbLine
10
-54.5387470997678
20
9.28802993654253
30
0.000000000000000
11
-54.4387470997678
21
9.28101315990349
31
0.000000000000000
  0
LINE
  5
F10538
330
F10539
100
AcDbEntity
8
Geo
100
AcDbLine
10
-54.4387470997678
20
9.28101315990349
30
0.000000000000000
11
-54.3387470997678
21
9.27843644116318
31
0.000000000000000
  0
LINE
  5
F1053A
330
F1053B
100
AcDbEntity
8
Geo
100
AcDbLine
10
-65.8387470997678
20
15.2769626431325
30
0.000000000000000
11
-65.7387470997678
21
15.2783424615321
31
0.000000000000000
  0
LINE
  5
F1053C
330
F1053D
100
AcDbEntity
8
Geo
100
AcDbLine
10
-65.7387470997678
20
15.2783424615321
30
0.000000000000000
11
-65.6387470997678
21
15.2752785023828
31
0.000000000000000
  0
LINE
  5
F1053E
330
F1053F
100
AcDbEntity
8
Geo
100
AcDbLine
10
-65.6387470997678
20
15.2752785023828
30
0.000000000000000
11
-65.5387470997678
21
15.2677753043230
31
0.000000000000000
  0
LINE
  5
F10540
330
F10541
100
AcDbEntity
8
Geo
100
AcDbLine
10
-65.5387470997678
20
15.2677753043230
30
0.000000000000000
11
-65.4387470997678
21
15.2558439818293
31
0.000000000000000
  0
LINE
  5
F10542
330
F10543
100
AcDbEntity
8
Geo
100
AcDbLine
10
-65.4387470997678
20
15.2558439818293
30
0.000000000000000
11
-65.3387470997678
21
15.2395022087531
31
0.000000000000000
  0
LINE
  5
F10544
330
F10545
100
AcDbEntity
8
Geo
100
AcDbLine
10
-65.3387470997678
20
15.2395022087531
30
0.000000000000000
11
-65.2387470997678
21
15.2187741921396
31
0.000000000000000
  0
LINE
  5
F10546
330
F10547
100
AcDbEntity
8
Geo
100
AcDbLine
10
-65.2387470997678
20
15.2187741921396
30
0.000000000000000
11
-65.1387470997678
21
15.1936906363708
31
0.000000000000000
  0
LINE
  5
F10548
330
F10549
100
AcDbEntity
8
Geo
100
AcDbLine
10
-65.1387470997678
20
15.1936906363708
30
0.000000000000000
11
-65.0387470997678
21
15.1642886976824
31
0.000000000000000
  0
LINE
  5
F1054A
330
F1054B
100
AcDbEntity
8
Geo
100
AcDbLine
10
-65.0387470997678
20
15.1642886976824
30
0.000000000000000
11
-64.9387470997678
21
15.1306119291248
31
0.000000000000000
  0
LINE
  5
F1054C
330
F1054D
100
AcDbEntity
8
Geo
100
AcDbLine
10
-64.9387470997678
20
15.1306119291248
30
0.000000000000000
11
-64.8387470997678
21
15.0927102160480
31
0.000000000000000
  0
LINE
  5
F1054E
330
F1054F
100
AcDbEntity
8
Geo
100
AcDbLine
10
-64.8387470997678
20
15.0927102160480
30
0.000000000000000
11
-64.7387470997678
21
15.0506397022059
31
0.000000000000000
  0
LINE
  5
F10550
330
F10551
100
AcDbEntity
8
Geo
100
AcDbLine
10
-64.7387470997678
20
15.0506397022059
30
0.000000000000000
11
-64.6387470997678
21
15.0044627065917
31
0.000000000000000
  0
LINE
  5
F10552
330
F10553
100
AcDbEntity
8
Geo
100
AcDbLine
10
-64.6387470997678
20
15.0044627065917
30
0.000000000000000
11
-64.5387470997678
21
14.9542476311238
31
0.000000000000000
  0
LINE
  5
F10554
330
F10555
100
AcDbEntity
8
Geo
100
AcDbLine
10
-64.5387470997678
20
14.9542476311238
30
0.000000000000000
11
-64.4387470997678
21
14.9000688593227
31
0.000000000000000
  0
LINE
  5
F10556
330
F10557
100
AcDbEntity
8
Geo
100
AcDbLine
10
-64.4387470997678
20
14.9000688593227
30
0.000000000000000
11
-64.3387470997678
21
14.8420066461270
31
0.000000000000000
  0
LINE
  5
F10558
330
F10559
100
AcDbEntity
8
Geo
100
AcDbLine
10
-64.3387470997678
20
14.8420066461270
30
0.000000000000000
11
-64.2387470997678
21
14.7801469990111
31
0.000000000000000
  0
LINE
  5
F1055A
330
F1055B
100
AcDbEntity
8
Geo
100
AcDbLine
10
-64.2387470997678
20
14.7801469990111
30
0.000000000000000
11
-64.1387470997678
21
14.7145815505832
31
0.000000000000000
  0
LINE
  5
F1055C
330
F1055D
100
AcDbEntity
8
Geo
100
AcDbLine
10
-64.1387470997678
20
14.7145815505832
30
0.000000000000000
11
-64.0387470997678
21
14.6454074228498
31
0.000000000000000
  0
LINE
  5
F1055E
330
F1055F
100
AcDbEntity
8
Geo
100
AcDbLine
10
-64.0387470997678
20
14.6454074228498
30
0.000000000000000
11
-63.9387470997678
21
14.5727270833489
31
0.000000000000000
  0
LINE
  5
F10560
330
F10561
100
AcDbEntity
8
Geo
100
AcDbLine
10
-63.9387470997678
20
14.5727270833489
30
0.000000000000000
11
-63.8387470997678
21
14.4966481933649
31
0.000000000000000
  0
LINE
  5
F10562
330
F10563
100
AcDbEntity
8
Geo
100
AcDbLine
10
-63.8387470997678
20
14.4966481933649
30
0.000000000000000
11
-63.7387470997678
21
14.4172834484504
31
0.000000000000000
  0
LINE
  5
F10564
330
F10565
100
AcDbEntity
8
Geo
100
AcDbLine
10
-63.7387470997678
20
14.4172834484504
30
0.000000000000000
11
-63.6387470997678
21
14.3347504114904
31
0.000000000000000
  0
LINE
  5
F10566
330
F10567
100
AcDbEntity
8
Geo
100
AcDbLine
10
-63.6387470997678
20
14.3347504114904
30
0.000000000000000
11
-63.5387470997678
21
14.2491713385562
31
0.000000000000000
  0
LINE
  5
F10568
330
F10569
100
AcDbEntity
8
Geo
100
AcDbLine
10
-63.5387470997678
20
14.2491713385562
30
0.000000000000000
11
-63.4387470997678
21
14.1606729978080
31
0.000000000000000
  0
LINE
  5
F1056A
330
F1056B
100
AcDbEntity
8
Geo
100
AcDbLine
10
-63.4387470997678
20
14.1606729978080
30
0.000000000000000
11
-63.3387470997678
21
14.0693864817133
31
0.000000000000000
  0
LINE
  5
F1056C
330
F1056D
100
AcDbEntity
8
Geo
100
AcDbLine
10
-63.3387470997678
20
14.0693864817133
30
0.000000000000000
11
-63.2387470997678
21
13.9754470128599
31
0.000000000000000
  0
LINE
  5
F1056E
330
F1056F
100
AcDbEntity
8
Geo
100
AcDbLine
10
-63.2387470997678
20
13.9754470128599
30
0.000000000000000
11
-63.1387470997678
21
13.8789937436506
31
0.000000000000000
  0
LINE
  5
F10570
330
F10571
100
AcDbEntity
8
Geo
100
AcDbLine
10
-63.1387470997678
20
13.8789937436506
30
0.000000000000000
11
-63.0387470997678
21
13.7801695501773
31
0.000000000000000
  0
LINE
  5
F10572
330
F10573
100
AcDbEntity
8
Geo
100
AcDbLine
10
-63.0387470997678
20
13.7801695501773
30
0.000000000000000
11
-62.9387470997678
21
13.6791208205786
31
0.000000000000000
  0
LINE
  5
F10574
330
F10575
100
AcDbEntity
8
Geo
100
AcDbLine
10
-62.9387470997678
20
13.6791208205786
30
0.000000000000000
11
-62.8387470997678
21
13.5759972381953
31
0.000000000000000
  0
LINE
  5
F10576
330
F10577
100
AcDbEntity
8
Geo
100
AcDbLine
10
-62.8387470997678
20
13.5759972381953
30
0.000000000000000
11
-62.7387470997678
21
13.4709515598448
31
0.000000000000000
  0
LINE
  5
F10578
330
F10579
100
AcDbEntity
8
Geo
100
AcDbLine
10
-62.7387470997678
20
13.4709515598448
30
0.000000000000000
11
-62.6387470997678
21
13.3641393895425
31
0.000000000000000
  0
LINE
  5
F1057A
330
F1057B
100
AcDbEntity
8
Geo
100
AcDbLine
10
-62.6387470997678
20
13.3641393895425
30
0.000000000000000
11
-62.5387470997678
21
13.2557189480057
31
0.000000000000000
  0
LINE
  5
F1057C
330
F1057D
100
AcDbEntity
8
Geo
100
AcDbLine
10
-62.5387470997678
20
13.2557189480057
30
0.000000000000000
11
-62.4387470997678
21
13.1458508382818
31
0.000000000000000
  0
LINE
  5
F1057E
330
F1057F
100
AcDbEntity
8
Geo
100
AcDbLine
10
-62.4387470997678
20
13.1458508382818
30
0.000000000000000
11
-62.3387470997678
21
13.0346978078471
31
0.000000000000000
  0
LINE
  5
F10580
330
F10581
100
AcDbEntity
8
Geo
100
AcDbLine
10
-62.3387470997678
20
13.0346978078471
30
0.000000000000000
11
-62.2387470997678
21
12.9224245075290
31
0.000000000000000
  0
LINE
  5
F10582
330
F10583
100
AcDbEntity
8
Geo
100
AcDbLine
10
-62.2387470997678
20
12.9224245075290
30
0.000000000000000
11
-62.1387470997678
21
12.8091972476090
31
0.000000000000000
  0
LINE
  5
F10584
330
F10585
100
AcDbEntity
8
Geo
100
AcDbLine
10
-62.1387470997678
20
12.8091972476090
30
0.000000000000000
11
-62.0387470997678
21
12.6951837514678
31
0.000000000000000
  0
LINE
  5
F10586
330
F10587
100
AcDbEntity
8
Geo
100
AcDbLine
10
-62.0387470997678
20
12.6951837514678
30
0.000000000000000
11
-61.9387470997678
21
12.5805529071368
31
0.000000000000000
  0
LINE
  5
F10588
330
F10589
100
AcDbEntity
8
Geo
100
AcDbLine
10
-61.9387470997678
20
12.5805529071368
30
0.000000000000000
11
-61.8387470997678
21
12.4654745171241
31
0.000000000000000
  0
LINE
  5
F1058A
330
F1058B
100
AcDbEntity
8
Geo
100
AcDbLine
10
-61.8387470997678
20
12.4654745171241
30
0.000000000000000
11
-61.7387470997678
21
12.3501190468868
31
0.000000000000000
  0
LINE
  5
F1058C
330
F1058D
100
AcDbEntity
8
Geo
100
AcDbLine
10
-61.7387470997678
20
12.3501190468868
30
0.000000000000000
11
-61.6387470997678
21
12.2346573723204
31
0.000000000000000
  0
LINE
  5
F1058E
330
F1058F
100
AcDbEntity
8
Geo
100
AcDbLine
10
-61.6387470997678
20
12.2346573723204
30
0.000000000000000
11
-61.5387470997678
21
12.1192605266410
31
0.000000000000000
  0
LINE
  5
F10590
330
F10591
100
AcDbEntity
8
Geo
100
AcDbLine
10
-61.5387470997678
20
12.1192605266410
30
0.000000000000000
11
-61.4387470997678
21
12.0040994470334
31
0.000000000000000
  0
LINE
  5
F10592
330
F10593
100
AcDbEntity
8
Geo
100
AcDbLine
10
-61.4387470997678
20
12.0040994470334
30
0.000000000000000
11
-61.3387470997678
21
11.8893447214427
31
0.000000000000000
  0
LINE
  5
F10594
330
F10595
100
AcDbEntity
8
Geo
100
AcDbLine
10
-61.3387470997678
20
11.8893447214427
30
0.000000000000000
11
-61.2387470997678
21
11.7751663358823
31
0.000000000000000
  0
LINE
  5
F10596
330
F10597
100
AcDbEntity
8
Geo
100
AcDbLine
10
-61.2387470997678
20
11.7751663358823
30
0.000000000000000
11
-61.1387470997678
21
11.6617334226339
31
0.000000000000000
  0
LINE
  5
F10598
330
F10599
100
AcDbEntity
8
Geo
100
AcDbLine
10
-61.1387470997678
20
11.6617334226339
30
0.000000000000000
11
-61.0387470997678
21
11.5492140097122
31
0.000000000000000
  0
LINE
  5
F1059A
330
F1059B
100
AcDbEntity
8
Geo
100
AcDbLine
10
-61.0387470997678
20
11.5492140097122
30
0.000000000000000
11
-60.9387470997678
21
11.4377747719649
31
0.000000000000000
  0
LINE
  5
F1059C
330
F1059D
100
AcDbEntity
8
Geo
100
AcDbLine
10
-60.9387470997678
20
11.4377747719649
30
0.000000000000000
11
-60.8387470997678
21
11.3275807841782
31
0.000000000000000
  0
LINE
  5
F1059E
330
F1059F
100
AcDbEntity
8
Geo
100
AcDbLine
10
-60.8387470997678
20
11.3275807841782
30
0.000000000000000
11
-60.7387470997678
21
11.2187952765507
31
0.000000000000000
  0
LINE
  5
F105A0
330
F105A1
100
AcDbEntity
8
Geo
100
AcDbLine
10
-60.7387470997678
20
11.2187952765507
30
0.000000000000000
11
-60.6387470997678
21
11.1115793929019
31
0.000000000000000
  0
LINE
  5
F105A2
330
F105A3
100
AcDbEntity
8
Geo
100
AcDbLine
10
-60.6387470997678
20
11.1115793929019
30
0.000000000000000
11
-60.5387470997678
21
11.0060919519691
31
0.000000000000000
  0
LINE
  5
F105A4
330
F105A5
100
AcDbEntity
8
Geo
100
AcDbLine
10
-60.5387470997678
20
11.0060919519691
30
0.000000000000000
11
-60.4387470997678
21
10.9024892121500
31
0.000000000000000
  0
LINE
  5
F105A6
330
F105A7
100
AcDbEntity
8
Geo
100
AcDbLine
10
-60.4387470997678
20
10.9024892121500
30
0.000000000000000
11
-60.3387470997678
21
10.8009246400371
31
0.000000000000000
  0
LINE
  5
F105A8
330
F105A9
100
AcDbEntity
8
Geo
100
AcDbLine
10
-60.3387470997678
20
10.8009246400371
30
0.000000000000000
11
-60.2387470997678
21
10.7015486830882
31
0.000000000000000
  0
LINE
  5
F105AA
330
F105AB
100
AcDbEntity
8
Geo
100
AcDbLine
10
-60.2387470997678
20
10.7015486830882
30
0.000000000000000
11
-60.1387470997678
21
10.6045085467683
31
0.000000000000000
  0
LINE
  5
F105AC
330
F105AD
100
AcDbEntity
8
Geo
100
AcDbLine
10
-60.1387470997678
20
10.6045085467683
30
0.000000000000000
11
-60.0387470997678
21
10.5099479764945
31
0.000000000000000
  0
LINE
  5
F105AE
330
F105AF
100
AcDbEntity
8
Geo
100
AcDbLine
10
-60.0387470997678
20
10.5099479764945
30
0.000000000000000
11
-59.9387470997678
21
10.4180070447066
31
0.000000000000000
  0
LINE
  5
F105B0
330
F105B1
100
AcDbEntity
8
Geo
100
AcDbLine
10
-59.9387470997678
20
10.4180070447066
30
0.000000000000000
11
-59.8387470997678
21
10.3288219433772
31
0.000000000000000
  0
LINE
  5
F105B2
330
F105B3
100
AcDbEntity
8
Geo
100
AcDbLine
10
-59.8387470997678
20
10.3288219433772
30
0.000000000000000
11
-59.7387470997678
21
10.2425247822714
31
0.000000000000000
  0
LINE
  5
F105B4
330
F105B5
100
AcDbEntity
8
Geo
100
AcDbLine
10
-59.7387470997678
20
10.2425247822714
30
0.000000000000000
11
-59.6387470997678
21
10.1592433932523
31
0.000000000000000
  0
LINE
  5
F105B6
330
F105B7
100
AcDbEntity
8
Geo
100
AcDbLine
10
-59.6387470997678
20
10.1592433932523
30
0.000000000000000
11
-59.5387470997678
21
10.0791011409242
31
0.000000000000000
  0
LINE
  5
F105B8
330
F105B9
100
AcDbEntity
8
Geo
100
AcDbLine
10
-59.5387470997678
20
10.0791011409242
30
0.000000000000000
11
-59.4387470997678
21
10.0022167398926
31
0.000000000000000
  0
LINE
  5
F105BA
330
F105BB
100
AcDbEntity
8
Geo
100
AcDbLine
10
-59.4387470997678
20
10.0022167398926
30
0.000000000000000
11
-59.3387470997678
21
9.92870407891251
31
0.000000000000000
  0
LINE
  5
F105BC
330
F105BD
100
AcDbEntity
8
Geo
100
AcDbLine
10
-59.3387470997678
20
9.92870407891251
30
0.000000000000000
11
-59.2387470997678
21
9.85867205218502
31
0.000000000000000
  0
LINE
  5
F105BE
330
F105BF
100
AcDbEntity
8
Geo
100
AcDbLine
10
-59.2387470997678
20
9.85867205218502
30
0.000000000000000
11
-59.1387470997678
21
9.79222439805273
31
0.000000000000000
  0
LINE
  5
F105C0
330
F105C1
100
AcDbEntity
8
Geo
100
AcDbLine
10
-59.1387470997678
20
9.79222439805273
30
0.000000000000000
11
-59.0387470997678
21
9.72945954533210
31
0.000000000000000
  0
LINE
  5
F105C2
330
F105C3
100
AcDbEntity
8
Geo
100
AcDbLine
10
-59.0387470997678
20
9.72945954533210
30
0.000000000000000
11
-58.9387470997678
21
9.67047046751107
31
0.000000000000000
  0
LINE
  5
F105C4
330
F105C5
100
AcDbEntity
8
Geo
100
AcDbLine
10
-58.9387470997678
20
9.67047046751107
30
0.000000000000000
11
-58.8387470997678
21
9.61534454502755
31
0.000000000000000
  0
LINE
  5
F105C6
330
F105C7
100
AcDbEntity
8
Geo
100
AcDbLine
10
-58.8387470997678
20
9.61534454502755
30
0.000000000000000
11
-58.7387470997678
21
9.56416343583286
31
0.000000000000000
  0
LINE
  5
F105C8
330
F105C9
100
AcDbEntity
8
Geo
100
AcDbLine
10
-58.7387470997678
20
9.56416343583286
30
0.000000000000000
11
-58.6387470997678
21
9.51700295443196
31
0.000000000000000
  0
LINE
  5
F105CA
330
F105CB
100
AcDbEntity
8
Geo
100
AcDbLine
10
-58.6387470997678
20
9.51700295443196
30
0.000000000000000
11
-58.5387470997678
21
9.47393295957954
31
0.000000000000000
  0
LINE
  5
F105CC
330
F105CD
100
AcDbEntity
8
Geo
100
AcDbLine
10
-58.5387470997678
20
9.47393295957954
30
0.000000000000000
11
-58.4387470997678
21
9.43501725079830
31
0.000000000000000
  0
LINE
  5
F105CE
330
F105CF
100
AcDbEntity
8
Geo
100
AcDbLine
10
-58.4387470997678
20
9.43501725079830
30
0.000000000000000
11
-58.3387470997678
21
9.40031347387286
31
0.000000000000000
  0
LINE
  5
F105D0
330
F105D1
100
AcDbEntity
8
Geo
100
AcDbLine
10
-58.3387470997678
20
9.40031347387286
30
0.000000000000000
11
-58.2387470997678
21
9.36987303545909
31
0.000000000000000
  0
LINE
  5
F105D2
330
F105D3
100
AcDbEntity
8
Geo
100
AcDbLine
10
-58.2387470997678
20
9.36987303545909
30
0.000000000000000
11
-58.1387470997678
21
9.34374102693555
31
0.000000000000000
  0
LINE
  5
F105D4
330
F105D5
100
AcDbEntity
8
Geo
100
AcDbLine
10
-58.1387470997678
20
9.34374102693555
30
0.000000000000000
11
-58.0387470997678
21
9.32195615760966
31
0.000000000000000
  0
LINE
  5
F105D6
330
F105D7
100
AcDbEntity
8
Geo
100
AcDbLine
10
-58.0387470997678
20
9.32195615760966
30
0.000000000000000
11
-57.9387470997678
21
9.30455069737766
31
0.000000000000000
  0
LINE
  5
F105D8
330
F105D9
100
AcDbEntity
8
Geo
100
AcDbLine
10
-57.9387470997678
20
9.30455069737766
30
0.000000000000000
11
-57.8387470997678
21
9.29155042892328
31
0.000000000000000
  0
LINE
  5
F105DA
330
F105DB
100
AcDbEntity
8
Geo
100
AcDbLine
10
-57.8387470997678
20
9.29155042892328
30
0.000000000000000
11
-57.7387470997678
21
9.28297460952588
31
0.000000000000000
  0
LINE
  5
F105DC
330
F105DD
100
AcDbEntity
8
Geo
100
AcDbLine
10
-57.7387470997678
20
9.28297460952588
30
0.000000000000000
11
-57.6387470997678
21
9.27883594253465
31
0.000000000000000
  0
LINE
  5
F105DE
330
F105DF
100
AcDbEntity
8
Geo
100
AcDbLine
10
-69.8387470997678
20
14.9763278204819
30
0.000000000000000
11
-69.7387470997678
21
15.0628867808727
31
0.000000000000000
  0
LINE
  5
F105E0
330
F105E1
100
AcDbEntity
8
Geo
100
AcDbLine
10
-69.8387470997678
20
11.9829799478783
30
0.000000000000000
11
-69.7387470997678
21
11.8755339208334
31
0.000000000000000
  0
LINE
  5
F105E2
330
F105E3
100
AcDbEntity
8
Geo
100
AcDbLine
10
-69.7387470997678
20
15.0628867808727
30
0.000000000000000
11
-69.6387470997678
21
15.1450249679049
31
0.000000000000000
  0
LINE
  5
F105E4
330
F105E5
100
AcDbEntity
8
Geo
100
AcDbLine
10
-69.7387470997678
20
11.8755339208334
30
0.000000000000000
11
-69.6387470997678
21
11.7609942888632
31
0.000000000000000
  0
LINE
  5
F105E6
330
F105E7
100
AcDbEntity
8
Geo
100
AcDbLine
10
-69.6387470997678
20
15.1450249679049
30
0.000000000000000
11
-69.5387470997678
21
15.1726579622057
31
0.000000000000000
  0
LINE
  5
F105E8
330
F105E9
100
AcDbEntity
8
Geo
100
AcDbLine
10
-69.6387470997678
20
11.7609942888632
30
0.000000000000000
11
-69.5387470997678
21
11.6453084924960
31
0.000000000000000
  0
LINE
  5
F105EA
330
F105EB
100
AcDbEntity
8
Geo
100
AcDbLine
10
-69.5387470997678
20
15.1726579622057
30
0.000000000000000
11
-69.4387470997678
21
15.1461518042606
31
0.000000000000000
  0
LINE
  5
F105EC
330
F105ED
100
AcDbEntity
8
Geo
100
AcDbLine
10
-69.5387470997678
20
11.6453084924960
30
0.000000000000000
11
-69.4387470997678
21
11.5344057281188
31
0.000000000000000
  0
LINE
  5
F105EE
330
F105EF
100
AcDbEntity
8
Geo
100
AcDbLine
10
-69.4387470997678
20
15.1461518042606
30
0.000000000000000
11
-69.3387470997678
21
15.1153976826010
31
0.000000000000000
  0
LINE
  5
F105F0
330
F105F1
100
AcDbEntity
8
Geo
100
AcDbLine
10
-69.4387470997678
20
11.5344057281188
30
0.000000000000000
11
-69.3387470997678
21
11.4246050744028
31
0.000000000000000
  0
LINE
  5
F105F2
330
F105F3
100
AcDbEntity
8
Geo
100
AcDbLine
10
-69.3387470997678
20
15.1153976826010
30
0.000000000000000
11
-69.2387470997678
21
15.0804411532640
31
0.000000000000000
  0
LINE
  5
F105F4
330
F105F5
100
AcDbEntity
8
Geo
100
AcDbLine
10
-69.3387470997678
20
11.4246050744028
30
0.000000000000000
11
-69.2387470997678
21
11.3160691789016
31
0.000000000000000
  0
LINE
  5
F105F6
330
F105F7
100
AcDbEntity
8
Geo
100
AcDbLine
10
-69.2387470997678
20
15.0804411532640
30
0.000000000000000
11
-69.1387470997678
21
15.0413339973073
31
0.000000000000000
  0
LINE
  5
F105F8
330
F105F9
100
AcDbEntity
8
Geo
100
AcDbLine
10
-69.2387470997678
20
11.3160691789016
30
0.000000000000000
11
-69.1387470997678
21
11.2089588156846
31
0.000000000000000
  0
LINE
  5
F105FA
330
F105FB
100
AcDbEntity
8
Geo
100
AcDbLine
10
-69.1387470997678
20
15.0413339973073
30
0.000000000000000
11
-69.0387470997678
21
14.9981341441060
31
0.000000000000000
  0
LINE
  5
F105FC
330
F105FD
100
AcDbEntity
8
Geo
100
AcDbLine
10
-69.1387470997678
20
11.2089588156846
30
0.000000000000000
11
-69.0387470997678
21
11.1034326471817
31
0.000000000000000
  0
LINE
  5
F105FE
330
F105FF
100
AcDbEntity
8
Geo
100
AcDbLine
10
-69.0387470997678
20
14.9981341441060
30
0.000000000000000
11
-68.9387470997678
21
14.9509055855417
31
0.000000000000000
  0
LINE
  5
F10600
330
F10601
100
AcDbEntity
8
Geo
100
AcDbLine
10
-69.0387470997678
20
11.1034326471817
30
0.000000000000000
11
-68.9387470997678
21
10.9996469891578
31
0.000000000000000
  0
LINE
  5
F10602
330
F10603
100
AcDbEntity
8
Geo
100
AcDbLine
10
-68.9387470997678
20
14.9509055855417
30
0.000000000000000
11
-68.8387470997678
21
14.8997182812116
31
0.000000000000000
  0
LINE
  5
F10604
330
F10605
100
AcDbEntity
8
Geo
100
AcDbLine
10
-68.9387470997678
20
10.9996469891578
30
0.000000000000000
11
-68.8387470997678
21
10.8977555791620
31
0.000000000000000
  0
LINE
  5
F10606
330
F10607
100
AcDbEntity
8
Geo
100
AcDbLine
10
-68.8387470997678
20
14.8997182812116
30
0.000000000000000
11
-68.7387470997678
21
14.8446480547977
31
0.000000000000000
  0
LINE
  5
F10608
330
F10609
100
AcDbEntity
8
Geo
100
AcDbLine
10
-68.8387470997678
20
10.8977555791620
30
0.000000000000000
11
-68.7387470997678
21
10.7979093487963
31
0.000000000000000
  0
LINE
  5
F1060A
330
F1060B
100
AcDbEntity
8
Geo
100
AcDbLine
10
-68.7387470997678
20
14.8446480547977
30
0.000000000000000
11
-68.6387470997678
21
14.7857764817488
31
0.000000000000000
  0
LINE
  5
F1060C
330
F1060D
100
AcDbEntity
8
Geo
100
AcDbLine
10
-68.7387470997678
20
10.7979093487963
30
0.000000000000000
11
-68.6387470997678
21
10.7002562001412
31
0.000000000000000
  0
LINE
  5
F1060E
330
F1060F
100
AcDbEntity
8
Geo
100
AcDbLine
10
-68.6387470997678
20
14.7857764817488
30
0.000000000000000
11
-68.5387470997678
21
14.7231907684430
31
0.000000000000000
  0
LINE
  5
F10610
330
F10611
100
AcDbEntity
8
Geo
100
AcDbLine
10
-68.6387470997678
20
10.7002562001412
30
0.000000000000000
11
-68.5387470997678
21
10.6049407866682
31
0.000000000000000
  0
LINE
  5
F10612
330
F10613
100
AcDbEntity
8
Geo
100
AcDbLine
10
-68.5387470997678
20
14.7231907684430
30
0.000000000000000
11
-68.4387470997678
21
14.6569836230094
31
0.000000000000000
  0
LINE
  5
F10614
330
F10615
100
AcDbEntity
8
Geo
100
AcDbLine
10
-68.5387470997678
20
10.6049407866682
30
0.000000000000000
11
-68.4387470997678
21
10.5121042989651
31
0.000000000000000
  0
LINE
  5
F10616
330
F10617
100
AcDbEntity
8
Geo
100
AcDbLine
10
-68.4387470997678
20
14.6569836230094
30
0.000000000000000
11
-68.3387470997678
21
14.5872531179992
31
0.000000000000000
  0
LINE
  5
F10618
330
F10619
100
AcDbEntity
8
Geo
100
AcDbLine
10
-68.4387470997678
20
10.5121042989651
30
0.000000000000000
11
-68.3387470997678
21
10.4218842555904
31
0.000000000000000
  0
LINE
  5
F1061A
330
F1061B
100
AcDbEntity
8
Geo
100
AcDbLine
10
-68.3387470997678
20
14.5872531179992
30
0.000000000000000
11
-68.2387470997678
21
14.5141025451113
31
0.000000000000000
  0
LINE
  5
F1061C
330
F1061D
100
AcDbEntity
8
Geo
100
AcDbLine
10
-68.3387470997678
20
10.4218842555904
30
0.000000000000000
11
-68.2387470997678
21
10.3344142993672
31
0.000000000000000
  0
LINE
  5
F1061E
330
F1061F
100
AcDbEntity
8
Geo
100
AcDbLine
10
-68.2387470997678
20
14.5141025451113
30
0.000000000000000
11
-68.1387470997678
21
14.4376402621863
31
0.000000000000000
  0
LINE
  5
F10620
330
F10621
100
AcDbEntity
8
Geo
100
AcDbLine
10
-68.2387470997678
20
10.3344142993672
30
0.000000000000000
11
-68.1387470997678
21
10.2498239994185
31
0.000000000000000
  0
LINE
  5
F10622
330
F10623
100
AcDbEntity
8
Geo
100
AcDbLine
10
-68.1387470997678
20
14.4376402621863
30
0.000000000000000
11
-68.0387470997678
21
14.3579795326962
31
0.000000000000000
  0
LINE
  5
F10624
330
F10625
100
AcDbEntity
8
Geo
100
AcDbLine
10
-68.1387470997678
20
10.2498239994185
30
0.000000000000000
11
-68.0387470997678
21
10.1682386592364
31
0.000000000000000
  0
LINE
  5
F10626
330
F10627
100
AcDbEntity
8
Geo
100
AcDbLine
10
-68.0387470997678
20
14.3579795326962
30
0.000000000000000
11
-67.9387470997678
21
14.2752383579674
31
0.000000000000000
  0
LINE
  5
F10628
330
F10629
100
AcDbEntity
8
Geo
100
AcDbLine
10
-68.0387470997678
20
10.1682386592364
30
0.000000000000000
11
-67.9387470997678
21
10.0897791310705
31
0.000000000000000
  0
LINE
  5
F1062A
330
F1062B
100
AcDbEntity
8
Geo
100
AcDbLine
10
-67.9387470997678
20
14.2752383579674
30
0.000000000000000
11
-67.8387470997678
21
14.1895393023855
31
0.000000000000000
  0
LINE
  5
F1062C
330
F1062D
100
AcDbEntity
8
Geo
100
AcDbLine
10
-67.9387470997678
20
10.0897791310705
30
0.000000000000000
11
-67.8387470997678
21
10.0145616369094
31
0.000000000000000
  0
LINE
  5
F1062E
330
F1062F
100
AcDbEntity
8
Geo
100
AcDbLine
10
-67.8387470997678
20
14.1895393023855
30
0.000000000000000
11
-67.7387470997678
21
14.1010093118408
31
0.000000000000000
  0
LINE
  5
F10630
330
F10631
100
AcDbEntity
8
Geo
100
AcDbLine
10
-67.8387470997678
20
10.0145616369094
30
0.000000000000000
11
-67.7387470997678
21
9.94269759632114
31
0.000000000000000
  0
LINE
  5
F10632
330
F10633
100
AcDbEntity
8
Geo
100
AcDbLine
10
-67.7387470997678
20
14.1010093118408
30
0.000000000000000
11
-67.6387470997678
21
14.0097795256836
31
0.000000000000000
  0
LINE
  5
F10634
330
F10635
100
AcDbEntity
8
Geo
100
AcDbLine
10
-67.7387470997678
20
9.94269759632114
30
0.000000000000000
11
-67.6387470997678
21
9.87429346140791
31
0.000000000000000
  0
LINE
  5
F10636
330
F10637
100
AcDbEntity
8
Geo
100
AcDbLine
10
-67.6387470997678
20
14.0097795256836
30
0.000000000000000
11
-67.5387470997678
21
13.9159850824677
31
0.000000000000000
  0
LINE
  5
F10638
330
F10639
100
AcDbEntity
8
Geo
100
AcDbLine
10
-67.6387470997678
20
9.87429346140791
30
0.000000000000000
11
-67.5387470997678
21
9.80945055911838
31
0.000000000000000
  0
LINE
  5
F1063A
330
F1063B
100
AcDbEntity
8
Geo
100
AcDbLine
10
-67.5387470997678
20
13.9159850824677
30
0.000000000000000
11
-67.4387470997678
21
13.8197649197696
31
0.000000000000000
  0
LINE
  5
F1063C
330
F1063D
100
AcDbEntity
8
Geo
100
AcDbLine
10
-67.5387470997678
20
9.80945055911838
30
0.000000000000000
11
-67.4387470997678
21
9.74826494115240
31
0.000000000000000
  0
LINE
  5
F1063E
330
F1063F
100
AcDbEntity
8
Geo
100
AcDbLine
10
-67.4387470997678
20
13.8197649197696
30
0.000000000000000
11
-67.3387470997678
21
13.7212615683810
31
0.000000000000000
  0
LINE
  5
F10640
330
F10641
100
AcDbEntity
8
Geo
100
AcDbLine
10
-67.4387470997678
20
9.74826494115240
30
0.000000000000000
11
-67.3387470997678
21
9.69082724167967
31
0.000000000000000
  0
LINE
  5
F10642
330
F10643
100
AcDbEntity
8
Geo
100
AcDbLine
10
-67.3387470997678
20
13.7212615683810
30
0.000000000000000
11
-67.2387470997678
21
13.6206209411774
31
0.000000000000000
  0
LINE
  5
F10644
330
F10645
100
AcDbEntity
8
Geo
100
AcDbLine
10
-67.3387470997678
20
9.69082724167967
30
0.000000000000000
11
-67.2387470997678
21
9.63722254308355
31
0.000000000000000
  0
LINE
  5
F10646
330
F10647
100
AcDbEntity
8
Geo
100
AcDbLine
10
-67.2387470997678
20
13.6206209411774
30
0.000000000000000
11
-67.1387470997678
21
13.5179921169782
31
0.000000000000000
  0
LINE
  5
F10648
330
F10649
100
AcDbEntity
8
Geo
100
AcDbLine
10
-67.2387470997678
20
9.63722254308355
30
0.000000000000000
11
-67.1387470997678
21
9.58753024992855
31
0.000000000000000
  0
LINE
  5
F1064A
330
F1064B
100
AcDbEntity
8
Geo
100
AcDbLine
10
-67.1387470997678
20
13.5179921169782
30
0.000000000000000
11
-67.0387470997678
21
13.4135271197161
31
0.000000000000000
  0
LINE
  5
F1064C
330
F1064D
100
AcDbEntity
8
Geo
100
AcDbLine
10
-67.1387470997678
20
9.58753024992855
30
0.000000000000000
11
-67.0387470997678
21
9.54182397133853
31
0.000000000000000
  0
LINE
  5
F1064E
330
F1064F
100
AcDbEntity
8
Geo
100
AcDbLine
10
-67.0387470997678
20
13.4135271197161
30
0.000000000000000
11
-66.9387470997678
21
13.3073806932445
31
0.000000000000000
  0
LINE
  5
F10650
330
F10651
100
AcDbEntity
8
Geo
100
AcDbLine
10
-67.0387470997678
20
9.54182397133853
30
0.000000000000000
11
-66.9387470997678
21
9.50017141195961
31
0.000000000000000
  0
LINE
  5
F10652
330
F10653
100
AcDbEntity
8
Geo
100
AcDbLine
10
-66.9387470997678
20
13.3073806932445
30
0.000000000000000
11
-66.8387470997678
21
13.1997100721153
31
0.000000000000000
  0
LINE
  5
F10654
330
F10655
100
AcDbEntity
8
Geo
100
AcDbLine
10
-66.9387470997678
20
9.50017141195961
30
0.000000000000000
11
-66.8387470997678
21
9.46263427166931
31
0.000000000000000
  0
LINE
  5
F10656
330
F10657
100
AcDbEntity
8
Geo
100
AcDbLine
10
-66.8387470997678
20
13.1997100721153
30
0.000000000000000
11
-66.7387470997678
21
13.0906747486680
31
0.000000000000000
  0
LINE
  5
F10658
330
F10659
100
AcDbEntity
8
Geo
100
AcDbLine
10
-66.8387470997678
20
9.46263427166931
30
0.000000000000000
11
-66.7387470997678
21
9.42926815418070
31
0.000000000000000
  0
LINE
  5
F1065A
330
F1065B
100
AcDbEntity
8
Geo
100
AcDbLine
10
-66.7387470997678
20
13.0906747486680
30
0.000000000000000
11
-66.6387470997678
21
12.9804362367737
31
0.000000000000000
  0
LINE
  5
F1065C
330
F1065D
100
AcDbEntity
8
Geo
100
AcDbLine
10
-66.7387470997678
20
9.42926815418070
30
0.000000000000000
11
-66.6387470997678
21
9.40012248467659
31
0.000000000000000
  0
LINE
  5
F1065E
330
F1065F
100
AcDbEntity
8
Geo
100
AcDbLine
10
-66.6387470997678
20
12.9804362367737
30
0.000000000000000
11
-66.5387470997678
21
12.8691578325848
31
0.000000000000000
  0
LINE
  5
F10660
330
F10661
100
AcDbEntity
8
Geo
100
AcDbLine
10
-66.6387470997678
20
9.40012248467659
30
0.000000000000000
11
-66.5387470997678
21
9.37524043659620
31
0.000000000000000
  0
LINE
  5
F10662
330
F10663
100
AcDbEntity
8
Geo
100
AcDbLine
10
-66.5387470997678
20
12.8691578325848
30
0.000000000000000
11
-66.4387470997678
21
12.7570043726446
31
0.000000000000000
  0
LINE
  5
F10664
330
F10665
100
AcDbEntity
8
Geo
100
AcDbLine
10
-66.5387470997678
20
9.37524043659620
30
0.000000000000000
11
-66.4387470997678
21
9.35465886768228
31
0.000000000000000
  0
LINE
  5
F10666
330
F10667
100
AcDbEntity
8
Geo
100
AcDbLine
10
-66.4387470997678
20
12.7570043726446
30
0.000000000000000
11
-66.3387470997678
21
12.6441419897154
31
0.000000000000000
  0
LINE
  5
F10668
330
F10669
100
AcDbEntity
8
Geo
100
AcDbLine
10
-66.4387470997678
20
9.35465886768228
30
0.000000000000000
11
-66.3387470997678
21
9.33840826538388
31
0.000000000000000
  0
LINE
  5
F1066A
330
F1066B
100
AcDbEntity
8
Geo
100
AcDbLine
10
-66.3387470997678
20
12.6441419897154
30
0.000000000000000
11
-66.2387470997678
21
12.5307378666861
31
0.000000000000000
  0
LINE
  5
F1066C
330
F1066D
100
AcDbEntity
8
Geo
100
AcDbLine
10
-66.3387470997678
20
9.33840826538388
30
0.000000000000000
11
-66.2387470997678
21
9.32651270169531
31
0.000000000000000
  0
LINE
  5
F1066E
330
F1066F
100
AcDbEntity
8
Geo
100
AcDbLine
10
-66.2387470997678
20
12.5307378666861
30
0.000000000000000
11
-66.1387470997678
21
12.4169599889244
31
0.000000000000000
  0
LINE
  5
F10670
330
F10671
100
AcDbEntity
8
Geo
100
AcDbLine
10
-66.2387470997678
20
9.32651270169531
30
0.000000000000000
11
-66.1387470997678
21
9.31898979749830
31
0.000000000000000
  0
LINE
  5
F10672
330
F10673
100
AcDbEntity
8
Geo
100
AcDbLine
10
-66.1387470997678
20
12.4169599889244
30
0.000000000000000
11
-66.0387470997678
21
12.3029768954403
31
0.000000000000000
  0
LINE
  5
F10674
330
F10675
100
AcDbEntity
8
Geo
100
AcDbLine
10
-66.1387470997678
20
9.31898979749830
30
0.000000000000000
11
-66.0387470997678
21
9.31585069646024
31
0.000000000000000
  0
LINE
  5
F10676
330
F10677
100
AcDbEntity
8
Geo
100
AcDbLine
10
-66.0387470997678
20
12.3029768954403
30
0.000000000000000
11
-65.9387470997678
21
12.1889574292298
31
0.000000000000000
  0
LINE
  5
F10678
330
F10679
100
AcDbEntity
8
Geo
100
AcDbLine
10
-65.9387470997678
20
12.1889574292298
30
0.000000000000000
11
-65.8387470997678
21
12.0750704871676
31
0.000000000000000
  0
LINE
  5
F1067A
330
F1067B
100
AcDbEntity
8
Geo
100
AcDbLine
10
-65.9387470997678
20
15.2397444990369
30
0.000000000000000
11
-65.8387470997678
21
15.2341085445286
31
0.000000000000000
  0
LINE
  5
F1067C
330
F1067D
100
AcDbEntity
8
Geo
100
AcDbLine
10
-65.8387470997678
20
12.0750704871676
30
0.000000000000000
11
-65.7387470997678
21
11.9614847698204
31
0.000000000000000
  0
LINE
  5
F1067E
330
F1067F
100
AcDbEntity
8
Geo
100
AcDbLine
10
-65.8387470997678
20
15.2341085445286
30
0.000000000000000
11
-65.7387470997678
21
15.2240943361104
31
0.000000000000000
  0
LINE
  5
F10680
330
F10681
100
AcDbEntity
8
Geo
100
AcDbLine
10
-65.7387470997678
20
11.9614847698204
30
0.000000000000000
11
-65.6387470997678
21
11.8483685315515
31
0.000000000000000
  0
LINE
  5
F10682
330
F10683
100
AcDbEntity
8
Geo
100
AcDbLine
10
-65.7387470997678
20
15.2240943361104
30
0.000000000000000
11
-65.6387470997678
21
15.2097167078150
31
0.000000000000000
  0
LINE
  5
F10684
330
F10685
100
AcDbEntity
8
Geo
100
AcDbLine
10
-65.6387470997678
20
11.8483685315515
30
0.000000000000000
11
-65.5387470997678
21
11.7358893312852
31
0.000000000000000
  0
LINE
  5
F10686
330
F10687
100
AcDbEntity
8
Geo
100
AcDbLine
10
-65.6387470997678
20
15.2097167078150
30
0.000000000000000
11
-65.5387470997678
21
15.1909969572031
31
0.000000000000000
  0
LINE
  5
F10688
330
F10689
100
AcDbEntity
8
Geo
100
AcDbLine
10
-65.5387470997678
20
11.7358893312852
30
0.000000000000000
11
-65.4387470997678
21
11.6242137843025
31
0.000000000000000
  0
LINE
  5
F1068A
330
F1068B
100
AcDbEntity
8
Geo
100
AcDbLine
10
-65.5387470997678
20
15.1909969572031
30
0.000000000000000
11
-65.4387470997678
21
15.1679628138147
31
0.000000000000000
  0
LINE
  5
F1068C
330
F1068D
100
AcDbEntity
8
Geo
100
AcDbLine
10
-65.4387470997678
20
11.6242137843025
30
0.000000000000000
11
-65.3387470997678
21
11.5135073154339
31
0.000000000000000
  0
LINE
  5
F1068E
330
F1068F
100
AcDbEntity
8
Geo
100
AcDbLine
10
-65.4387470997678
20
15.1679628138147
30
0.000000000000000
11
-65.3387470997678
21
15.1406483980941
31
0.000000000000000
  0
LINE
  5
F10690
330
F10691
100
AcDbEntity
8
Geo
100
AcDbLine
10
-65.3387470997678
20
11.5135073154339
30
0.000000000000000
11
-65.2387470997678
21
11.4039339140157
31
0.000000000000000
  0
LINE
  5
F10692
330
F10693
100
AcDbEntity
8
Geo
100
AcDbLine
10
-65.3387470997678
20
15.1406483980941
30
0.000000000000000
11
-65.2387470997678
21
15.1090941708469
31
0.000000000000000
  0
LINE
  5
F10694
330
F10695
100
AcDbEntity
8
Geo
100
AcDbLine
10
-65.2387470997678
20
11.4039339140157
30
0.000000000000000
11
-65.1387470997678
21
11.2956558909732
31
0.000000000000000
  0
LINE
  5
F10696
330
F10697
100
AcDbEntity
8
Geo
100
AcDbLine
10
-65.2387470997678
20
15.1090941708469
30
0.000000000000000
11
-65.1387470997678
21
15.0733468733053
31
0.000000000000000
  0
LINE
  5
F10698
330
F10699
100
AcDbEntity
8
Geo
100
AcDbLine
10
-65.1387470997678
20
11.2956558909732
30
0.000000000000000
11
-65.0387470997678
21
11.1888336383895
31
0.000000000000000
  0
LINE
  5
F1069A
330
F1069B
100
AcDbEntity
8
Geo
100
AcDbLine
10
-65.1387470997678
20
15.0733468733053
30
0.000000000000000
11
-65.0387470997678
21
15.0334594578909
31
0.000000000000000
  0
LINE
  5
F1069C
330
F1069D
100
AcDbEntity
8
Geo
100
AcDbLine
10
-65.0387470997678
20
11.1888336383895
30
0.000000000000000
11
-64.9387470997678
21
11.0836253919166
31
0.000000000000000
  0
LINE
  5
F1069E
330
F1069F
100
AcDbEntity
8
Geo
100
AcDbLine
10
-65.0387470997678
20
15.0334594578909
30
0.000000000000000
11
-64.9387470997678
21
14.9894910097760
31
0.000000000000000
  0
LINE
  5
F106A0
330
F106A1
100
AcDbEntity
8
Geo
100
AcDbLine
10
-64.9387470997678
20
11.0836253919166
30
0.000000000000000
11
-64.8387470997678
21
10.9801869963822
31
0.000000000000000
  0
LINE
  5
F106A2
330
F106A3
100
AcDbEntity
8
Geo
100
AcDbLine
10
-64.9387470997678
20
14.9894910097760
30
0.000000000000000
11
-64.8387470997678
21
14.9415066593609
31
0.000000000000000
  0
LINE
  5
F106A4
330
F106A5
100
AcDbEntity
8
Geo
100
AcDbLine
10
-64.8387470997678
20
10.9801869963822
30
0.000000000000000
11
-64.7387470997678
21
10.8786716749356
31
0.000000000000000
  0
LINE
  5
F106A6
330
F106A7
100
AcDbEntity
8
Geo
100
AcDbLine
10
-64.8387470997678
20
14.9415066593609
30
0.000000000000000
11
-64.7387470997678
21
14.8895774857961
31
0.000000000000000
  0
LINE
  5
F106A8
330
F106A9
100
AcDbEntity
8
Geo
100
AcDbLine
10
-64.7387470997678
20
10.8786716749356
30
0.000000000000000
11
-64.6387470997678
21
10.7792298020796
31
0.000000000000000
  0
LINE
  5
F106AA
330
F106AB
100
AcDbEntity
8
Geo
100
AcDbLine
10
-64.7387470997678
20
14.8895774857961
30
0.000000000000000
11
-64.6387470997678
21
14.8337804116935
31
0.000000000000000
  0
LINE
  5
F106AC
330
F106AD
100
AcDbEntity
8
Geo
100
AcDbLine
10
-64.6387470997678
20
10.7792298020796
30
0.000000000000000
11
-64.5387470997678
21
10.6820086809205
31
0.000000000000000
  0
LINE
  5
F106AE
330
F106AF
100
AcDbEntity
8
Geo
100
AcDbLine
10
-64.6387470997678
20
14.8337804116935
30
0.000000000000000
11
-64.5387470997678
21
14.7741980891802
31
0.000000000000000
  0
LINE
  5
F106B0
330
F106B1
100
AcDbEntity
8
Geo
100
AcDbLine
10
-64.5387470997678
20
10.6820086809205
30
0.000000000000000
11
-64.4387470997678
21
10.5871523249681
31
0.000000000000000
  0
LINE
  5
F106B2
330
F106B3
100
AcDbEntity
8
Geo
100
AcDbLine
10
-64.5387470997678
20
14.7741980891802
30
0.000000000000000
11
-64.4387470997678
21
14.7109187774667
31
0.000000000000000
  0
LINE
  5
F106B4
330
F106B5
100
AcDbEntity
8
Geo
100
AcDbLine
10
-64.4387470997678
20
10.5871523249681
30
0.000000000000000
11
-64.3387470997678
21
10.4948012448087
31
0.000000000000000
  0
LINE
  5
F106B6
330
F106B7
100
AcDbEntity
8
Geo
100
AcDbLine
10
-64.4387470997678
20
14.7109187774667
30
0.000000000000000
11
-64.3387470997678
21
14.6440362121083
31
0.000000000000000
  0
LINE
  5
F106B8
330
F106B9
100
AcDbEntity
8
Geo
100
AcDbLine
10
-64.3387470997678
20
10.4948012448087
30
0.000000000000000
11
-64.2387470997678
21
10.4050922399675
31
0.000000000000000
  0
LINE
  5
F106BA
330
F106BB
100
AcDbEntity
8
Geo
100
AcDbLine
10
-64.3387470997678
20
14.6440362121083
30
0.000000000000000
11
-64.2387470997678
21
14.5736494661549
31
0.000000000000000
  0
LINE
  5
F106BC
330
F106BD
100
AcDbEntity
8
Geo
100
AcDbLine
10
-64.2387470997678
20
10.4050922399675
30
0.000000000000000
11
-64.1387470997678
21
10.3181581962669
31
0.000000000000000
  0
LINE
  5
F106BE
330
F106BF
100
AcDbEntity
8
Geo
100
AcDbLine
10
-64.2387470997678
20
14.5736494661549
30
0.000000000000000
11
-64.1387470997678
21
14.4998628033941
31
0.000000000000000
  0
LINE
  5
F106C0
330
F106C1
100
AcDbEntity
8
Geo
100
AcDbLine
10
-64.1387470997678
20
10.3181581962669
30
0.000000000000000
11
-64.0387470997678
21
10.2341278889834
31
0.000000000000000
  0
LINE
  5
F106C2
330
F106C3
100
AcDbEntity
8
Geo
100
AcDbLine
10
-64.1387470997678
20
14.4998628033941
30
0.000000000000000
11
-64.0387470997678
21
14.4227855239055
31
0.000000000000000
  0
LINE
  5
F106C4
330
F106C5
100
AcDbEntity
8
Geo
100
AcDbLine
10
-64.0387470997678
20
10.2341278889834
30
0.000000000000000
11
-63.9387470997678
21
10.1531257920929
31
0.000000000000000
  0
LINE
  5
F106C6
330
F106C7
100
AcDbEntity
8
Geo
100
AcDbLine
10
-64.0387470997678
20
14.4227855239055
30
0.000000000000000
11
-63.9387470997678
21
14.3425318021548
31
0.000000000000000
  0
LINE
  5
F106C8
330
F106C9
100
AcDbEntity
8
Geo
100
AcDbLine
10
-63.9387470997678
20
10.1531257920929
30
0.000000000000000
11
-63.8387470997678
21
10.0752718938873
31
0.000000000000000
  0
LINE
  5
F106CA
330
F106CB
100
AcDbEntity
8
Geo
100
AcDbLine
10
-63.9387470997678
20
14.3425318021548
30
0.000000000000000
11
-63.8387470997678
21
14.2592205178668
31
0.000000000000000
  0
LINE
  5
F106CC
330
F106CD
100
AcDbEntity
8
Geo
100
AcDbLine
10
-63.8387470997678
20
10.0752718938873
30
0.000000000000000
11
-63.7387470997678
21
10.0006815192365
31
0.000000000000000
  0
LINE
  5
F106CE
330
F106CF
100
AcDbEntity
8
Geo
100
AcDbLine
10
-63.8387470997678
20
14.2592205178668
30
0.000000000000000
11
-63.7387470997678
21
14.1729750799297
31
0.000000000000000
  0
LINE
  5
F106D0
330
F106D1
100
AcDbEntity
8
Geo
100
AcDbLine
10
-63.7387470997678
20
10.0006815192365
30
0.000000000000000
11
-63.6387470997678
21
9.92946515875734
31
0.000000000000000
  0
LINE
  5
F106D2
330
F106D3
100
AcDbEntity
8
Geo
100
AcDbLine
10
-63.7387470997678
20
14.1729750799297
30
0.000000000000000
11
-63.6387470997678
21
14.0839232435891
31
0.000000000000000
  0
LINE
  5
F106D4
330
F106D5
100
AcDbEntity
8
Geo
100
AcDbLine
10
-63.6387470997678
20
9.92946515875734
30
0.000000000000000
11
-63.5387470997678
21
9.86172830514432
31
0.000000000000000
  0
LINE
  5
F106D6
330
F106D7
100
AcDbEntity
8
Geo
100
AcDbLine
10
-63.6387470997678
20
14.0839232435891
30
0.000000000000000
11
-63.5387470997678
21
13.9921969212050
31
0.000000000000000
  0
LINE
  5
F106D8
330
F106D9
100
AcDbEntity
8
Geo
100
AcDbLine
10
-63.5387470997678
20
9.86172830514432
30
0.000000000000000
11
-63.4387470997678
21
9.79757129690328
31
0.000000000000000
  0
LINE
  5
F106DA
330
F106DB
100
AcDbEntity
8
Geo
100
AcDbLine
10
-63.5387470997678
20
13.9921969212050
30
0.000000000000000
11
-63.4387470997678
21
13.8979319868493
31
0.000000000000000
  0
LINE
  5
F106DC
330
F106DD
100
AcDbEntity
8
Geo
100
AcDbLine
10
-63.4387470997678
20
9.79757129690328
30
0.000000000000000
11
-63.3387470997678
21
9.73708916972018
31
0.000000000000000
  0
LINE
  5
F106DE
330
F106DF
100
AcDbEntity
8
Geo
100
AcDbLine
10
-63.4387470997678
20
13.8979319868493
30
0.000000000000000
11
-63.3387470997678
21
13.8012680750367
31
0.000000000000000
  0
LINE
  5
F106E0
330
F106E1
100
AcDbEntity
8
Geo
100
AcDbLine
10
-63.3387470997678
20
9.73708916972018
30
0.000000000000000
11
-63.2387470997678
21
9.68037151568483
31
0.000000000000000
  0
LINE
  5
F106E2
330
F106E3
100
AcDbEntity
8
Geo
100
AcDbLine
10
-63.3387470997678
20
13.8012680750367
30
0.000000000000000
11
-63.2387470997678
21
13.7023483738835
31
0.000000000000000
  0
LINE
  5
F106E4
330
F106E5
100
AcDbEntity
8
Geo
100
AcDbLine
10
-63.2387470997678
20
9.68037151568483
30
0.000000000000000
11
-63.1387470997678
21
9.62750235057825
31
0.000000000000000
  0
LINE
  5
F106E6
330
F106E7
100
AcDbEntity
8
Geo
100
AcDbLine
10
-63.2387470997678
20
13.7023483738835
30
0.000000000000000
11
-63.1387470997678
21
13.6013194130037
31
0.000000000000000
  0
LINE
  5
F106E8
330
F106E9
100
AcDbEntity
8
Geo
100
AcDbLine
10
-63.1387470997678
20
9.62750235057825
30
0.000000000000000
11
-63.0387470997678
21
9.57855998942027
31
0.000000000000000
  0
LINE
  5
F106EA
330
F106EB
100
AcDbEntity
8
Geo
100
AcDbLine
10
-63.1387470997678
20
13.6013194130037
30
0.000000000000000
11
-63.0387470997678
21
13.4983308464548
31
0.000000000000000
  0
LINE
  5
F106EC
330
F106ED
100
AcDbEntity
8
Geo
100
AcDbLine
10
-63.0387470997678
20
9.57855998942027
30
0.000000000000000
11
-62.9387470997678
21
9.53361693046154
31
0.000000000000000
  0
LINE
  5
F106EE
330
F106EF
100
AcDbEntity
8
Geo
100
AcDbLine
10
-63.0387470997678
20
13.4983308464548
30
0.000000000000000
11
-62.9387470997678
21
13.3935352310554
31
0.000000000000000
  0
LINE
  5
F106F0
330
F106F1
100
AcDbEntity
8
Geo
100
AcDbLine
10
-62.9387470997678
20
9.53361693046154
30
0.000000000000000
11
-62.8387470997678
21
9.49273974779198
31
0.000000000000000
  0
LINE
  5
F106F2
330
F106F3
100
AcDbEntity
8
Geo
100
AcDbLine
10
-62.9387470997678
20
13.3935352310554
30
0.000000000000000
11
-62.8387470997678
21
13.2870878004029
31
0.000000000000000
  0
LINE
  5
F106F4
330
F106F5
100
AcDbEntity
8
Geo
100
AcDbLine
10
-62.8387470997678
20
9.49273974779198
30
0.000000000000000
11
-62.7387470997678
21
9.45598899272472
31
0.000000000000000
  0
LINE
  5
F106F6
330
F106F7
100
AcDbEntity
8
Geo
100
AcDbLine
10
-62.8387470997678
20
13.2870878004029
30
0.000000000000000
11
-62.7387470997678
21
13.1791462349265
31
0.000000000000000
  0
LINE
  5
F106F8
330
F106F9
100
AcDbEntity
8
Geo
100
AcDbLine
10
-62.7387470997678
20
9.45598899272472
30
0.000000000000000
11
-62.6387470997678
21
9.42341910410148
31
0.000000000000000
  0
LINE
  5
F106FA
330
F106FB
100
AcDbEntity
8
Geo
100
AcDbLine
10
-62.7387470997678
20
13.1791462349265
30
0.000000000000000
11
-62.6387470997678
21
13.0698704283150
31
0.000000000000000
  0
LINE
  5
F106FC
330
F106FD
100
AcDbEntity
8
Geo
100
AcDbLine
10
-62.6387470997678
20
9.42341910410148
30
0.000000000000000
11
-62.5387470997678
21
9.39507832765240
31
0.000000000000000
  0
LINE
  5
F106FE
330
F106FF
100
AcDbEntity
8
Geo
100
AcDbLine
10
-62.6387470997678
20
13.0698704283150
30
0.000000000000000
11
-62.5387470997678
21
12.9594222506669
31
0.000000000000000
  0
LINE
  5
F10700
330
F10701
100
AcDbEntity
8
Geo
100
AcDbLine
10
-62.5387470997678
20
9.39507832765240
30
0.000000000000000
11
-62.4387470997678
21
9.37100864452971
31
0.000000000000000
  0
LINE
  5
F10702
330
F10703
100
AcDbEntity
8
Geo
100
AcDbLine
10
-62.5387470997678
20
12.9594222506669
30
0.000000000000000
11
-62.4387470997678
21
12.8479653087123
31
0.000000000000000
  0
LINE
  5
F10704
330
F10705
100
AcDbEntity
8
Geo
100
AcDbLine
10
-62.4387470997678
20
9.37100864452971
30
0.000000000000000
11
-62.3387470997678
21
9.35124570912114
31
0.000000000000000
  0
LINE
  5
F10706
330
F10707
100
AcDbEntity
8
Geo
100
AcDbLine
10
-62.4387470997678
20
12.8479653087123
30
0.000000000000000
11
-62.3387470997678
21
12.7356647034621
31
0.000000000000000
  0
LINE
  5
F10708
330
F10709
100
AcDbEntity
8
Geo
100
AcDbLine
10
-62.3387470997678
20
9.35124570912114
30
0.000000000000000
11
-62.2387470997678
21
9.33581879623506
31
0.000000000000000
  0
LINE
  5
F1070A
330
F1070B
100
AcDbEntity
8
Geo
100
AcDbLine
10
-62.3387470997678
20
12.7356647034621
30
0.000000000000000
11
-62.2387470997678
21
12.6226867856449
31
0.000000000000000
  0
LINE
  5
F1070C
330
F1070D
100
AcDbEntity
8
Geo
100
AcDbLine
10
-62.2387470997678
20
9.33581879623506
30
0.000000000000000
11
-62.1387470997678
21
9.32475075773580
31
0.000000000000000
  0
LINE
  5
F1070E
330
F1070F
100
AcDbEntity
8
Geo
100
AcDbLine
10
-62.2387470997678
20
12.6226867856449
30
0.000000000000000
11
-62.1387470997678
21
12.5091989092911
31
0.000000000000000
  0
LINE
  5
F10710
330
F10711
100
AcDbEntity
8
Geo
100
AcDbLine
10
-62.1387470997678
20
9.32475075773580
30
0.000000000000000
11
-62.0387470997678
21
9.31805798869321
31
0.000000000000000
  0
LINE
  5
F10712
330
F10713
100
AcDbEntity
8
Geo
100
AcDbLine
10
-62.1387470997678
20
12.5091989092911
30
0.000000000000000
11
-62.0387470997678
21
12.3953691838321
31
0.000000000000000
  0
LINE
  5
F10714
330
F10715
100
AcDbEntity
8
Geo
100
AcDbLine
10
-62.0387470997678
20
9.31805798869321
30
0.000000000000000
11
-61.9387470997678
21
9.31575040309664
31
0.000000000000000
  0
LINE
  5
F10716
330
F10717
100
AcDbEntity
8
Geo
100
AcDbLine
10
-62.0387470997678
20
12.3953691838321
30
0.000000000000000
11
-61.9387470997678
21
12.2813662250800
31
0.000000000000000
  0
LINE
  5
F10718
330
F10719
100
AcDbEntity
8
Geo
100
AcDbLine
10
-61.9387470997678
20
12.2813662250800
30
0.000000000000000
11
-61.8387470997678
21
12.1673589054571
31
0.000000000000000
  0
LINE
  5
F1071A
330
F1071B
100
AcDbEntity
8
Geo
100
AcDbLine
10
-61.8387470997678
20
15.2390131283946
30
0.000000000000000
11
-61.7387470997678
21
15.2325465932587
31
0.000000000000000
  0
LINE
  5
F1071C
330
F1071D
100
AcDbEntity
8
Geo
100
AcDbLine
10
-61.8387470997678
20
12.1673589054571
30
0.000000000000000
11
-61.7387470997678
21
12.0535161038451
31
0.000000000000000
  0
LINE
  5
F1071E
330
F1071F
100
AcDbEntity
8
Geo
100
AcDbLine
10
-61.7387470997678
20
15.2325465932587
30
0.000000000000000
11
-61.6387470997678
21
15.2217041179291
31
0.000000000000000
  0
LINE
  5
F10720
330
F10721
100
AcDbEntity
8
Geo
100
AcDbLine
10
-61.7387470997678
20
12.0535161038451
30
0.000000000000000
11
-61.6387470997678
21
11.9400064554260
31
0.000000000000000
  0
LINE
  5
F10722
330
F10723
100
AcDbEntity
8
Geo
100
AcDbLine
10
-61.6387470997678
20
15.2217041179291
30
0.000000000000000
11
-61.5387470997678
21
15.2065017633492
31
0.000000000000000
  0
LINE
  5
F10724
330
F10725
100
AcDbEntity
8
Geo
100
AcDbLine
10
-61.6387470997678
20
11.9400064554260
30
0.000000000000000
11
-61.5387470997678
21
11.8269981018819
31
0.000000000000000
  0
LINE
  5
F10726
330
F10727
100
AcDbEntity
8
Geo
100
AcDbLine
10
-61.5387470997678
20
15.2065017633492
30
0.000000000000000
11
-61.4387470997678
21
15.1869620487453
31
0.000000000000000
  0
LINE
  5
F10728
330
F10729
100
AcDbEntity
8
Geo
100
AcDbLine
10
-61.5387470997678
20
11.8269981018819
30
0.000000000000000
11
-61.4387470997678
21
11.7146584423279
31
0.000000000000000
  0
LINE
  5
F1072A
330
F1072B
100
AcDbEntity
8
Geo
100
AcDbLine
10
-61.4387470997678
20
15.1869620487453
30
0.000000000000000
11
-61.3387470997678
21
15.1631139182693
31
0.000000000000000
  0
LINE
  5
F1072C
330
F1072D
100
AcDbEntity
8
Geo
100
AcDbLine
10
-61.4387470997678
20
11.7146584423279
30
0.000000000000000
11
-61.3387470997678
21
11.6031538853434
31
0.000000000000000
  0
LINE
  5
F1072E
330
F1072F
100
AcDbEntity
8
Geo
100
AcDbLine
10
-61.3387470997678
20
15.1631139182693
30
0.000000000000000
11
-61.2387470997678
21
15.1349926981233
31
0.000000000000000
  0
LINE
  5
F10730
330
F10731
100
AcDbEntity
8
Geo
100
AcDbLine
10
-61.3387470997678
20
11.6031538853434
30
0.000000000000000
11
-61.2387470997678
21
11.4926496024716
31
0.000000000000000
  0
LINE
  5
F10732
330
F10733
100
AcDbEntity
8
Geo
100
AcDbLine
10
-61.2387470997678
20
15.1349926981233
30
0.000000000000000
11
-61.1387470997678
21
15.1026400442309
31
0.000000000000000
  0
LINE
  5
F10734
330
F10735
100
AcDbEntity
8
Geo
100
AcDbLine
10
-61.2387470997678
20
11.4926496024716
30
0.000000000000000
11
-61.1387470997678
21
11.3833092835511
31
0.000000000000000
  0
LINE
  5
F10736
330
F10737
100
AcDbEntity
8
Geo
100
AcDbLine
10
-61.1387470997678
20
15.1026400442309
30
0.000000000000000
11
-61.0387470997678
21
15.0661038805329
31
0.000000000000000
  0
LINE
  5
F10738
330
F10739
100
AcDbEntity
8
Geo
100
AcDbLine
10
-61.1387470997678
20
11.3833092835511
30
0.000000000000000
11
-61.0387470997678
21
11.2752948942423
31
0.000000000000000
  0
LINE
  5
F1073A
330
F1073B
100
AcDbEntity
8
Geo
100
AcDbLine
10
-61.0387470997678
20
15.0661038805329
30
0.000000000000000
11
-60.9387470997678
21
15.0254383279971
31
0.000000000000000
  0
LINE
  5
F1073C
330
F1073D
100
AcDbEntity
8
Geo
100
AcDbLine
10
-61.0387470997678
20
11.2752948942423
30
0.000000000000000
11
-60.9387470997678
21
11.1687664361080
31
0.000000000000000
  0
LINE
  5
F1073E
330
F1073F
100
AcDbEntity
8
Geo
100
AcDbLine
10
-60.9387470997678
20
15.0254383279971
30
0.000000000000000
11
-60.8387470997678
21
14.9807036244492
31
0.000000000000000
  0
LINE
  5
F10740
330
F10741
100
AcDbEntity
8
Geo
100
AcDbLine
10
-60.9387470997678
20
11.1687664361080
30
0.000000000000000
11
-60.8387470997678
21
11.0638817096031
31
0.000000000000000
  0
LINE
  5
F10742
330
F10743
100
AcDbEntity
8
Geo
100
AcDbLine
10
-60.8387470997678
20
14.9807036244492
30
0.000000000000000
11
-60.7387470997678
21
14.9319660353425
31
0.000000000000000
  0
LINE
  5
F10744
330
F10745
100
AcDbEntity
8
Geo
100
AcDbLine
10
-60.8387470997678
20
11.0638817096031
30
0.000000000000000
11
-60.7387470997678
21
10.9607960803254
31
0.000000000000000
  0
LINE
  5
F10746
330
F10747
100
AcDbEntity
8
Geo
100
AcDbLine
10
-60.7387470997678
20
14.9319660353425
30
0.000000000000000
11
-60.6387470997678
21
14.8792977555992
31
0.000000000000000
  0
LINE
  5
F10748
330
F10749
100
AcDbEntity
8
Geo
100
AcDbLine
10
-60.7387470997678
20
10.9607960803254
30
0.000000000000000
11
-60.6387470997678
21
10.8596622488723
31
0.000000000000000
  0
LINE
  5
F1074A
330
F1074B
100
AcDbEntity
8
Geo
100
AcDbLine
10
-60.6387470997678
20
14.8792977555992
30
0.000000000000000
11
-60.5387470997678
21
14.8227768026678
31
0.000000000000000
  0
LINE
  5
F1074C
330
F1074D
100
AcDbEntity
8
Geo
100
AcDbLine
10
-60.6387470997678
20
10.8596622488723
30
0.000000000000000
11
-60.5387470997678
21
10.7606300246458
31
0.000000000000000
  0
LINE
  5
F1074E
330
F1074F
100
AcDbEntity
8
Geo
100
AcDbLine
10
-60.5387470997678
20
14.8227768026678
30
0.000000000000000
11
-60.4387470997678
21
14.7624869009563
31
0.000000000000000
  0
LINE
  5
F10750
330
F10751
100
AcDbEntity
8
Geo
100
AcDbLine
10
-60.5387470997678
20
10.7606300246458
30
0.000000000000000
11
-60.4387470997678
21
10.6638461039403
31
0.000000000000000
  0
LINE
  5
F10752
330
F10753
100
AcDbEntity
8
Geo
100
AcDbLine
10
-60.4387470997678
20
14.7624869009563
30
0.000000000000000
11
-60.3387470997678
21
14.6985173578113
31
0.000000000000000
  0
LINE
  5
F10754
330
F10755
100
AcDbEntity
8
Geo
100
AcDbLine
10
-60.4387470997678
20
10.6638461039403
30
0.000000000000000
11
-60.3387470997678
21
10.5694538526411
31
0.000000000000000
  0
LINE
  5
F10756
330
F10757
100
AcDbEntity
8
Geo
100
AcDbLine
10
-60.3387470997678
20
14.6985173578113
30
0.000000000000000
11
-60.2387470997678
21
14.6309629312268
31
0.000000000000000
  0
LINE
  5
F10758
330
F10759
100
AcDbEntity
8
Geo
100
AcDbLine
10
-60.3387470997678
20
10.5694538526411
30
0.000000000000000
11
-60.2387470997678
21
10.4775930938572
31
0.000000000000000
  0
LINE
  5
F1075A
330
F1075B
100
AcDbEntity
8
Geo
100
AcDbLine
10
-60.2387470997678
20
14.6309629312268
30
0.000000000000000
11
-60.1387470997678
21
14.5599236894798
31
0.000000000000000
  0
LINE
  5
F1075C
330
F1075D
100
AcDbEntity
8
Geo
100
AcDbLine
10
-60.2387470997678
20
10.4775930938572
30
0.000000000000000
11
-60.1387470997678
21
10.3883999008011
31
0.000000000000000
  0
LINE
  5
F1075E
330
F1075F
100
AcDbEntity
8
Geo
100
AcDbLine
10
-60.1387470997678
20
14.5599236894798
30
0.000000000000000
11
-60.0387470997678
21
14.4855048628992
31
0.000000000000000
  0
LINE
  5
F10760
330
F10761
100
AcDbEntity
8
Geo
100
AcDbLine
10
-60.1387470997678
20
10.3883999008011
30
0.000000000000000
11
-60.0387470997678
21
10.3020063952242
31
0.000000000000000
  0
LINE
  5
F10762
330
F10763
100
AcDbEntity
8
Geo
100
AcDbLine
10
-60.0387470997678
20
14.4855048628992
30
0.000000000000000
11
-59.9387470997678
21
14.4078166879877
31
0.000000000000000
  0
LINE
  5
F10764
330
F10765
100
AcDbEntity
8
Geo
100
AcDbLine
10
-60.0387470997678
20
10.3020063952242
30
0.000000000000000
11
-59.9387470997678
21
10.2185405517045
31
0.000000000000000
  0
LINE
  5
F10766
330
F10767
100
AcDbEntity
8
Geo
100
AcDbLine
10
-59.9387470997678
20
14.4078166879877
30
0.000000000000000
11
-59.8387470997678
21
14.3269742441297
31
0.000000000000000
  0
LINE
  5
F10768
330
F10769
100
AcDbEntity
8
Geo
100
AcDbLine
10
-59.9387470997678
20
10.2185405517045
30
0.000000000000000
11
-59.8387470997678
21
10.1381260080786
31
0.000000000000000
  0
LINE
  5
F1076A
330
F1076B
100
AcDbEntity
8
Geo
100
AcDbLine
10
-59.8387470997678
20
14.3269742441297
30
0.000000000000000
11
-59.7387470997678
21
14.2430972831232
31
0.000000000000000
  0
LINE
  5
F1076C
330
F1076D
100
AcDbEntity
8
Geo
100
AcDbLine
10
-59.8387470997678
20
10.1381260080786
30
0.000000000000000
11
-59.7387470997678
21
10.0608818822965
31
0.000000000000000
  0
LINE
  5
F1076E
330
F1076F
100
AcDbEntity
8
Geo
100
AcDbLine
10
-59.7387470997678
20
14.2430972831232
30
0.000000000000000
11
-59.6387470997678
21
14.1563100517925
31
0.000000000000000
  0
LINE
  5
F10770
330
F10771
100
AcDbEntity
8
Geo
100
AcDbLine
10
-59.7387470997678
20
10.0608818822965
30
0.000000000000000
11
-59.6387470997678
21
9.98692259597310
31
0.000000000000000
  0
LINE
  5
F10772
330
F10773
100
AcDbEntity
8
Geo
100
AcDbLine
10
-59.6387470997678
20
14.1563100517925
30
0.000000000000000
11
-59.5387470997678
21
14.0667411079411
31
0.000000000000000
  0
LINE
  5
F10774
330
F10775
100
AcDbEntity
8
Geo
100
AcDbLine
10
-59.6387470997678
20
9.98692259597310
30
0.000000000000000
11
-59.5387470997678
21
9.91635770489501
31
0.000000000000000
  0
LINE
  5
F10776
330
F10777
100
AcDbEntity
8
Geo
100
AcDbLine
10
-59.5387470997678
20
14.0667411079411
30
0.000000000000000
11
-59.4387470997678
21
13.9745231299194
31
0.000000000000000
  0
LINE
  5
F10778
330
F10779
100
AcDbEntity
8
Geo
100
AcDbLine
10
-59.5387470997678
20
9.91635770489501
30
0.000000000000000
11
-59.4387470997678
21
9.84929173673600
31
0.000000000000000
  0
LINE
  5
F1077A
330
F1077B
100
AcDbEntity
8
Geo
100
AcDbLine
10
-59.4387470997678
20
13.9745231299194
30
0.000000000000000
11
-59.3387470997678
21
13.8797927200884
31
0.000000000000000
  0
LINE
  5
F1077C
330
F1077D
100
AcDbEntity
8
Geo
100
AcDbLine
10
-59.4387470997678
20
9.84929173673600
30
0.000000000000000
11
-59.3387470997678
21
9.78582403622024
31
0.000000000000000
  0
LINE
  5
F1077E
330
F1077F
100
AcDbEntity
8
Geo
100
AcDbLine
10
-59.3387470997678
20
13.8797927200884
30
0.000000000000000
11
-59.2387470997678
21
13.7826902024707
31
0.000000000000000
  0
LINE
  5
F10780
330
F10781
100
AcDbEntity
8
Geo
100
AcDbLine
10
-59.3387470997678
20
9.78582403622024
30
0.000000000000000
11
-59.2387470997678
21
9.72604861796312
31
0.000000000000000
  0
LINE
  5
F10782
330
F10783
100
AcDbEntity
8
Geo
100
AcDbLine
10
-59.2387470997678
20
13.7826902024707
30
0.000000000000000
11
-59.1387470997678
21
13.6833594148888
31
0.000000000000000
  0
LINE
  5
F10784
330
F10785
100
AcDbEntity
8
Geo
100
AcDbLine
10
-59.2387470997678
20
9.72604861796312
30
0.000000000000000
11
-59.1387470997678
21
9.67005402720751
31
0.000000000000000
  0
LINE
  5
F10786
330
F10787
100
AcDbEntity
8
Geo
100
AcDbLine
10
-59.1387470997678
20
13.6833594148888
30
0.000000000000000
11
-59.0387470997678
21
13.5819474958987
31
0.000000000000000
  0
LINE
  5
F10788
330
F10789
100
AcDbEntity
8
Geo
100
AcDbLine
10
-59.1387470997678
20
9.67005402720751
30
0.000000000000000
11
-59.0387470997678
21
9.61792320866184
31
0.000000000000000
  0
LINE
  5
F1078A
330
F1078B
100
AcDbEntity
8
Geo
100
AcDbLine
10
-59.0387470997678
20
13.5819474958987
30
0.000000000000000
11
-58.9387470997678
21
13.4786046668329
31
0.000000000000000
  0
LINE
  5
F1078C
330
F1078D
100
AcDbEntity
8
Geo
100
AcDbLine
10
-59.0387470997678
20
9.61792320866184
30
0.000000000000000
11
-58.9387470997678
21
9.56973338363418
31
0.000000000000000
  0
LINE
  5
F1078E
330
F1078F
100
AcDbEntity
8
Geo
100
AcDbLine
10
-58.9387470997678
20
13.4786046668329
30
0.000000000000000
11
-58.8387470997678
21
13.3734840092787
31
0.000000000000000
  0
LINE
  5
F10790
330
F10791
100
AcDbEntity
8
Geo
100
AcDbLine
10
-58.9387470997678
20
9.56973338363418
30
0.000000000000000
11
-58.8387470997678
21
9.52555593564449
31
0.000000000000000
  0
LINE
  5
F10792
330
F10793
100
AcDbEntity
8
Geo
100
AcDbLine
10
-58.8387470997678
20
13.3734840092787
30
0.000000000000000
11
-58.7387470997678
21
13.2667412383180
31
0.000000000000000
  0
LINE
  5
F10794
330
F10795
100
AcDbEntity
8
Geo
100
AcDbLine
10
-58.8387470997678
20
9.52555593564449
30
0.000000000000000
11
-58.7387470997678
21
9.48545630468425
31
0.000000000000000
  0
LINE
  5
F10796
330
F10797
100
AcDbEntity
8
Geo
100
AcDbLine
10
-58.7387470997678
20
13.2667412383180
30
0.000000000000000
11
-58.6387470997678
21
13.1585344718671
31
0.000000000000000
  0
LINE
  5
F10798
330
F10799
100
AcDbEntity
8
Geo
100
AcDbLine
10
-58.7387470997678
20
9.48545630468425
30
0.000000000000000
11
-58.6387470997678
21
9.44949389028033
31
0.000000000000000
  0
LINE
  5
F1079A
330
F1079B
100
AcDbEntity
8
Geo
100
AcDbLine
10
-58.6387470997678
20
13.1585344718671
30
0.000000000000000
11
-58.5387470997678
21
13.0490239964568
31
0.000000000000000
  0
LINE
  5
F1079C
330
F1079D
100
AcDbEntity
8
Geo
100
AcDbLine
10
-58.6387470997678
20
9.44949389028033
30
0.000000000000000
11
-58.5387470997678
21
9.41772196350652
31
0.000000000000000
  0
LINE
  5
F1079E
330
F1079F
100
AcDbEntity
8
Geo
100
AcDbLine
10
-58.5387470997678
20
13.0490239964568
30
0.000000000000000
11
-58.4387470997678
21
12.9383720298000
31
0.000000000000000
  0
LINE
  5
F107A0
330
F107A1
100
AcDbEntity
8
Geo
100
AcDbLine
10
-58.5387470997678
20
9.41772196350652
30
0.000000000000000
11
-58.4387470997678
21
9.39018758807321
31
0.000000000000000
  0
LINE
  5
F107A2
330
F107A3
100
AcDbEntity
8
Geo
100
AcDbLine
10
-58.4387470997678
20
12.9383720298000
30
0.000000000000000
11
-58.3387470997678
21
12.8267424804991
31
0.000000000000000
  0
LINE
  5
F107A4
330
F107A5
100
AcDbEntity
8
Geo
100
AcDbLine
10
-58.4387470997678
20
9.39018758807321
30
0.000000000000000
11
-58.3387470997678
21
9.36693155061195
31
0.000000000000000
  0
LINE
  5
F107A6
330
F107A7
100
AcDbEntity
8
Geo
100
AcDbLine
10
-58.3387470997678
20
12.8267424804991
30
0.000000000000000
11
-58.2387470997678
21
12.7143007052483
31
0.000000000000000
  0
LINE
  5
F107A8
330
F107A9
100
AcDbEntity
8
Geo
100
AcDbLine
10
-58.3387470997678
20
9.36693155061195
30
0.000000000000000
11
-58.2387470997678
21
9.34798830025828
31
0.000000000000000
  0
LINE
  5
F107AA
330
F107AB
100
AcDbEntity
8
Geo
100
AcDbLine
10
-58.2387470997678
20
12.7143007052483
30
0.000000000000000
11
-58.1387470997678
21
12.6012132638909
31
0.000000000000000
  0
LINE
  5
F107AC
330
F107AD
100
AcDbEntity
8
Geo
100
AcDbLine
10
-58.2387470997678
20
9.34798830025828
30
0.000000000000000
11
-58.1387470997678
21
9.33338589762226
31
0.000000000000000
  0
LINE
  5
F107AE
330
F107AF
100
AcDbEntity
8
Geo
100
AcDbLine
10
-58.1387470997678
20
12.6012132638909
30
0.000000000000000
11
-58.0387470997678
21
12.4876476726944
31
0.000000000000000
  0
LINE
  5
F107B0
330
F107B1
100
AcDbEntity
8
Geo
100
AcDbLine
10
-58.1387470997678
20
9.33338589762226
30
0.000000000000000
11
-58.0387470997678
21
9.32314597322236
31
0.000000000000000
  0
LINE
  5
F107B2
330
F107B3
100
AcDbEntity
8
Geo
100
AcDbLine
10
-58.0387470997678
20
12.4876476726944
30
0.000000000000000
11
-57.9387470997678
21
12.3737721562092
31
0.000000000000000
  0
LINE
  5
F107B4
330
F107B5
100
AcDbEntity
8
Geo
100
AcDbLine
10
-58.0387470997678
20
9.32314597322236
30
0.000000000000000
11
-57.9387470997678
21
9.31728369544416
31
0.000000000000000
  0
LINE
  5
F107B6
330
F107B7
100
AcDbEntity
8
Geo
100
AcDbLine
10
-57.9387470997678
20
12.3737721562092
30
0.000000000000000
11
-57.8387470997678
21
12.2597553980775
31
0.000000000000000
  0
LINE
  5
F107B8
330
F107B9
100
AcDbEntity
8
Geo
100
AcDbLine
10
-57.8387470997678
20
15.2410367994925
30
0.000000000000000
11
-57.7387470997678
21
15.2381242301409
31
0.000000000000000
  0
LINE
  5
F107BA
330
F107BB
100
AcDbEntity
8
Geo
100
AcDbLine
10
-57.8387470997678
20
12.2597553980775
30
0.000000000000000
11
-57.7387470997678
21
12.1457662911625
31
0.000000000000000
  0
LINE
  5
F107BC
330
F107BD
100
AcDbEntity
8
Geo
100
AcDbLine
10
-57.7387470997678
20
15.2381242301409
30
0.000000000000000
11
-57.6387470997678
21
15.2308274584499
31
0.000000000000000
  0
LINE
  5
F107BE
330
F107BF
100
AcDbEntity
8
Geo
100
AcDbLine
10
-57.7387470997678
20
12.1457662911625
30
0.000000000000000
11
-57.6387470997678
21
12.0319736873677
31
0.000000000000000
  0
LINE
  5
F107C0
330
F107C1
100
AcDbEntity
8
Geo
100
AcDbLine
10
-57.6387470997678
20
15.2308274584499
30
0.000000000000000
11
-57.5387470997678
21
15.2191572931171
31
0.000000000000000
  0
LINE
  5
F107C2
330
F107C3
100
AcDbEntity
8
Geo
100
AcDbLine
10
-57.6387470997678
20
12.0319736873677
30
0.000000000000000
11
-57.5387470997678
21
11.9185461475168
31
0.000000000000000
  0
LINE
  5
F107C4
330
F107C5
100
AcDbEntity
8
Geo
100
AcDbLine
10
-57.5387470997678
20
15.2191572931171
30
0.000000000000000
11
-57.4387470997678
21
15.2031310211420
31
0.000000000000000
  0
LINE
  5
F107C6
330
F107C7
100
AcDbEntity
8
Geo
100
AcDbLine
10
-57.5387470997678
20
11.9185461475168
30
0.000000000000000
11
-57.4387470997678
21
11.8056516916649
31
0.000000000000000
  0
LINE
  5
F107C8
330
F107C9
100
AcDbEntity
8
Geo
100
AcDbLine
10
-57.4387470997678
20
15.2031310211420
30
0.000000000000000
11
-57.3387470997678
21
15.1827723822187
31
0.000000000000000
  0
LINE
  5
F107CA
330
F107CB
100
AcDbEntity
8
Geo
100
AcDbLine
10
-57.4387470997678
20
11.8056516916649
30
0.000000000000000
11
-57.3387470997678
21
11.6934575502104
31
0.000000000000000
  0
LINE
  5
F107CC
330
F107CD
100
AcDbEntity
8
Geo
100
AcDbLine
10
-57.3387470997678
20
15.1827723822187
30
0.000000000000000
11
-57.2387470997678
21
15.1581115335704
31
0.000000000000000
  0
LINE
  5
F107CE
330
F107CF
100
AcDbEntity
8
Geo
100
AcDbLine
10
-57.3387470997678
20
11.6934575502104
30
0.000000000000000
11
-57.2387470997678
21
11.5821299161771
31
0.000000000000000
  0
LINE
  5
F107D0
330
F107D1
100
AcDbEntity
8
Geo
100
AcDbLine
10
-57.2387470997678
20
15.1581115335704
30
0.000000000000000
11
-57.1387470997678
21
15.1291850052774
31
0.000000000000000
  0
LINE
  5
F107D2
330
F107D3
100
AcDbEntity
8
Geo
100
AcDbLine
10
-57.2387470997678
20
11.5821299161771
30
0.000000000000000
11
-57.1387470997678
21
11.4718336990324
31
0.000000000000000
  0
LINE
  5
F107D4
330
F107D5
100
AcDbEntity
8
Geo
100
AcDbLine
10
-57.1387470997678
20
15.1291850052774
30
0.000000000000000
11
-57.0387470997678
21
15.0960356461653
31
0.000000000000000
  0
LINE
  5
F107D6
330
F107D7
100
AcDbEntity
8
Geo
100
AcDbLine
10
-57.1387470997678
20
11.4718336990324
30
0.000000000000000
11
-57.0387470997678
21
11.3627322804075
31
0.000000000000000
  0
LINE
  5
F107D8
330
F107D9
100
AcDbEntity
8
Geo
100
AcDbLine
10
-57.0387470997678
20
15.0960356461653
30
0.000000000000000
11
-56.9387470997678
21
15.0587125603332
31
0.000000000000000
  0
LINE
  5
F107DA
330
F107DB
100
AcDbEntity
8
Geo
100
AcDbLine
10
-57.0387470997678
20
11.3627322804075
30
0.000000000000000
11
-56.9387470997678
21
11.2549872720800
31
0.000000000000000
  0
LINE
  5
F107DC
330
F107DD
100
AcDbEntity
8
Geo
100
AcDbLine
10
-56.9387470997678
20
15.0587125603332
30
0.000000000000000
11
-56.8387470997678
21
15.0172710344154
31
0.000000000000000
  0
LINE
  5
F107DE
330
F107DF
100
AcDbEntity
8
Geo
100
AcDbLine
10
-56.9387470997678
20
11.2549872720800
30
0.000000000000000
11
-56.8387470997678
21
11.1487582765792
31
0.000000000000000
  0
LINE
  5
F107E0
330
F107E1
100
AcDbEntity
8
Geo
100
AcDbLine
10
-56.8387470997678
20
15.0172710344154
30
0.000000000000000
11
-56.7387470997678
21
14.9717724556860
31
0.000000000000000
  0
LINE
  5
F107E2
330
F107E3
100
AcDbEntity
8
Geo
100
AcDbLine
10
-56.8387470997678
20
11.1487582765792
30
0.000000000000000
11
-56.7387470997678
21
11.0442026507663
31
0.000000000000000
  0
LINE
  5
F107E4
330
F107E5
100
AcDbEntity
8
Geo
100
AcDbLine
10
-56.7387470997678
20
14.9717724556860
30
0.000000000000000
11
-56.6387470997678
21
14.9222842211256
31
0.000000000000000
  0
LINE
  5
F107E6
330
F107E7
100
AcDbEntity
8
Geo
100
AcDbLine
10
-56.7387470997678
20
11.0442026507663
30
0.000000000000000
11
-56.6387470997678
21
10.9414752727427
31
0.000000000000000
  0
LINE
  5
F107E8
330
F107E9
100
AcDbEntity
8
Geo
100
AcDbLine
10
-56.6387470997678
20
14.9222842211256
30
0.000000000000000
11
-56.5387470997678
21
14.8688796375863
31
0.000000000000000
  0
LINE
  5
F107EA
330
F107EB
100
AcDbEntity
8
Geo
100
AcDbLine
10
-56.6387470997678
20
10.9414752727427
30
0.000000000000000
11
-56.5387470997678
21
10.8407283124287
31
0.000000000000000
  0
LINE
  5
F107EC
330
F107ED
100
AcDbEntity
8
Geo
100
AcDbLine
10
-56.5387470997678
20
14.8688796375863
30
0.000000000000000
11
-56.4387470997678
21
14.8116378132024
31
0.000000000000000
  0
LINE
  5
F107EE
330
F107EF
100
AcDbEntity
8
Geo
100
AcDbLine
10
-56.5387470997678
20
10.8407283124287
30
0.000000000000000
11
-56.4387470997678
21
10.7421110061548
31
0.000000000000000
  0
LINE
  5
F107F0
330
F107F1
100
AcDbEntity
8
Geo
100
AcDbLine
10
-56.4387470997678
20
14.8116378132024
30
0.000000000000000
11
-56.3387470997678
21
14.7506435402079
31
0.000000000000000
  0
LINE
  5
F107F2
330
F107F3
100
AcDbEntity
8
Geo
100
AcDbLine
10
-56.4387470997678
20
10.7421110061548
30
0.000000000000000
11
-56.3387470997678
21
10.6457694355978
31
0.000000000000000
  0
LINE
  5
F107F4
330
F107F5
100
AcDbEntity
8
Geo
100
AcDbLine
10
-56.3387470997678
20
14.7506435402079
30
0.000000000000000
11
-56.2387470997678
21
14.6859871693334
31
0.000000000000000
  0
LINE
  5
F107F6
330
F107F7
100
AcDbEntity
8
Geo
100
AcDbLine
10
-56.3387470997678
20
10.6457694355978
30
0.000000000000000
11
-56.2387470997678
21
10.5518463113905
31
0.000000000000000
  0
LINE
  5
F107F8
330
F107F9
100
AcDbEntity
8
Geo
100
AcDbLine
10
-56.2387470997678
20
14.6859871693334
30
0.000000000000000
11
-56.1387470997678
21
14.6177644759700
31
0.000000000000000
  0
LINE
  5
F107FA
330
F107FB
100
AcDbEntity
8
Geo
100
AcDbLine
10
-56.2387470997678
20
10.5518463113905
30
0.000000000000000
11
-56.1387470997678
21
10.4604807617246
31
0.000000000000000
  0
LINE
  5
F107FC
330
F107FD
100
AcDbEntity
8
Geo
100
AcDbLine
10
-56.1387470997678
20
14.6177644759700
30
0.000000000000000
11
-56.0387470997678
21
14.5460765182973
31
0.000000000000000
  0
LINE
  5
F107FE
330
F107FF
100
AcDbEntity
8
Geo
100
AcDbLine
10
-56.1387470997678
20
10.4604807617246
30
0.000000000000000
11
-56.0387470997678
21
10.3718081262600
31
0.000000000000000
  0
LINE
  5
F10800
330
F10801
100
AcDbEntity
8
Geo
100
AcDbLine
10
-56.0387470997678
20
14.5460765182973
30
0.000000000000000
11
-55.9387470997678
21
14.4710294875861
31
0.000000000000000
  0
LINE
  5
F10802
330
F10803
100
AcDbEntity
8
Geo
100
AcDbLine
10
-56.0387470997678
20
10.3718081262600
30
0.000000000000000
11
-55.9387470997678
21
10.2859597556468
31
0.000000000000000
  0
LINE
  5
F10804
330
F10805
100
AcDbEntity
8
Geo
100
AcDbLine
10
-55.9387470997678
20
14.4710294875861
30
0.000000000000000
11
-55.8387470997678
21
14.3927345508972
31
0.000000000000000
  0
LINE
  5
F10806
330
F10807
100
AcDbEntity
8
Geo
100
AcDbLine
10
-55.9387470997678
20
10.2859597556468
30
0.000000000000000
11
-55.8387470997678
21
10.2030628169555
31
0.000000000000000
  0
LINE
  5
F10808
330
F10809
100
AcDbEntity
8
Geo
100
AcDbLine
10
-55.8387470997678
20
14.3927345508972
30
0.000000000000000
11
-55.7387470997678
21
14.3113076864101
31
0.000000000000000
  0
LINE
  5
F1080A
330
F1080B
100
AcDbEntity
8
Geo
100
AcDbLine
10
-55.8387470997678
20
10.2030628169555
30
0.000000000000000
11
-55.7387470997678
21
10.1232401053045
31
0.000000000000000
  0
LINE
  5
F1080C
330
F1080D
100
AcDbEntity
8
Geo
100
AcDbLine
10
-55.7387470997678
20
14.3113076864101
30
0.000000000000000
11
-55.6387470997678
21
14.2268695116244
31
0.000000000000000
  0
LINE
  5
F1080E
330
F1080F
100
AcDbEntity
8
Geo
100
AcDbLine
10
-55.7387470997678
20
10.1232401053045
30
0.000000000000000
11
-55.6387470997678
21
10.0466098619643
31
0.000000000000000
  0
LINE
  5
F10810
330
F10811
100
AcDbEntity
8
Geo
100
AcDbLine
10
-55.6387470997678
20
14.2268695116244
30
0.000000000000000
11
-55.5387470997678
21
14.1395451046896
31
0.000000000000000
  0
LINE
  5
F10812
330
F10813
100
AcDbEntity
8
Geo
100
AcDbLine
10
-55.6387470997678
20
10.0466098619643
30
0.000000000000000
11
-55.5387470997678
21
9.97328559920632
31
0.000000000000000
  0
LINE
  5
F10814
330
F10815
100
AcDbEntity
8
Geo
100
AcDbLine
10
-55.5387470997678
20
14.1395451046896
30
0.000000000000000
11
-55.4387470997678
21
14.0494638191267
31
0.000000000000000
  0
LINE
  5
F10816
330
F10817
100
AcDbEntity
8
Geo
100
AcDbLine
10
-55.5387470997678
20
9.97328559920632
30
0.000000000000000
11
-55.4387470997678
21
9.90337593215777
31
0.000000000000000
  0
LINE
  5
F10818
330
F10819
100
AcDbEntity
8
Geo
100
AcDbLine
10
-55.4387470997678
20
14.0494638191267
30
0.000000000000000
11
-55.3387470997678
21
13.9567590922170
31
0.000000000000000
  0
LINE
  5
F1081A
330
F1081B
100
AcDbEntity
8
Geo
100
AcDbLine
10
-55.4387470997678
20
9.90337593215777
30
0.000000000000000
11
-55.3387470997678
21
9.83698441790997
31
0.000000000000000
  0
LINE
  5
F1081C
330
F1081D
100
AcDbEntity
8
Geo
100
AcDbLine
10
-55.3387470997678
20
13.9567590922170
30
0.000000000000000
11
-55.2387470997678
21
13.8615682473420
31
0.000000000000000
  0
LINE
  5
F1081E
330
F1081F
100
AcDbEntity
8
Geo
100
AcDbLine
10
-55.3387470997678
20
9.83698441790997
30
0.000000000000000
11
-55.2387470997678
21
9.77420940211947
31
0.000000000000000
  0
LINE
  5
F10820
330
F10821
100
AcDbEntity
8
Geo
100
AcDbLine
10
-55.2387470997678
20
13.8615682473420
30
0.000000000000000
11
-55.1387470997678
21
13.7640322905661
31
0.000000000000000
  0
LINE
  5
F10822
330
F10823
100
AcDbEntity
8
Geo
100
AcDbLine
10
-55.2387470997678
20
9.77420940211947
30
0.000000000000000
11
-55.1387470997678
21
9.71514387332874
31
0.000000000000000
  0
LINE
  5
F10824
330
F10825
100
AcDbEntity
8
Geo
100
AcDbLine
10
-55.1387470997678
20
13.7640322905661
30
0.000000000000000
11
-55.0387470997678
21
13.6642957017647
31
0.000000000000000
  0
LINE
  5
F10826
330
F10827
100
AcDbEntity
8
Geo
100
AcDbLine
10
-55.1387470997678
20
9.71514387332874
30
0.000000000000000
11
-55.0387470997678
21
9.65987532522239
31
0.000000000000000
  0
LINE
  5
F10828
330
F10829
100
AcDbEntity
8
Geo
100
AcDbLine
10
-55.0387470997678
20
13.6642957017647
30
0.000000000000000
11
-54.9387470997678
21
13.5625062206064
31
0.000000000000000
  0
LINE
  5
F1082A
330
F1082B
100
AcDbEntity
8
Geo
100
AcDbLine
10
-55.0387470997678
20
9.65987532522239
30
0.000000000000000
11
-54.9387470997678
21
9.60848562702289
31
0.000000000000000
  0
LINE
  5
F1082C
330
F1082D
100
AcDbEntity
8
Geo
100
AcDbLine
10
-54.9387470997678
20
13.5625062206064
30
0.000000000000000
11
-54.8387470997678
21
13.4588146277062
31
0.000000000000000
  0
LINE
  5
F1082E
330
F1082F
100
AcDbEntity
8
Geo
100
AcDbLine
10
-54.9387470997678
20
9.60848562702289
30
0.000000000000000
11
-54.8387470997678
21
9.56105090221780
31
0.000000000000000
  0
LINE
  5
F10830
330
F10831
100
AcDbEntity
8
Geo
100
AcDbLine
10
-54.8387470997678
20
13.4588146277062
30
0.000000000000000
11
-54.7387470997678
21
13.3533745212747
31
0.000000000000000
  0
LINE
  5
F10832
330
F10833
100
AcDbEntity
8
Geo
100
AcDbLine
10
-54.8387470997678
20
9.56105090221780
30
0.000000000000000
11
-54.7387470997678
21
9.51764141579817
31
0.000000000000000
  0
LINE
  5
F10834
330
F10835
100
AcDbEntity
8
Geo
100
AcDbLine
10
-54.7387470997678
20
13.3533745212747
30
0.000000000000000
11
-54.6387470997678
21
13.2463420895929
31
0.000000000000000
  0
LINE
  5
F10836
330
F10837
100
AcDbEntity
8
Geo
100
AcDbLine
10
-54.7387470997678
20
9.51764141579817
30
0.000000000000000
11
-54.6387470997678
21
9.47832147017509
31
0.000000000000000
  0
LINE
  5
F10838
330
F10839
100
AcDbEntity
8
Geo
100
AcDbLine
10
-54.6387470997678
20
13.2463420895929
30
0.000000000000000
11
-54.5387470997678
21
13.1378758796512
31
0.000000000000000
  0
LINE
  5
F1083A
330
F1083B
100
AcDbEntity
8
Geo
100
AcDbLine
10
-54.6387470997678
20
9.47832147017509
30
0.000000000000000
11
-54.5387470997678
21
9.44314930992863
31
0.000000000000000
  0
LINE
  5
F1083C
330
F1083D
100
AcDbEntity
8
Geo
100
AcDbLine
10
-54.5387470997678
20
13.1378758796512
30
0.000000000000000
11
-54.4387470997678
21
13.0281365622936
31
0.000000000000000
  0
LINE
  5
F1083E
330
F1083F
100
AcDbEntity
8
Geo
100
AcDbLine
10
-54.5387470997678
20
9.44314930992863
30
0.000000000000000
11
-54.4387470997678
21
9.41217703553022
31
0.000000000000000
  0
LINE
  5
F10840
330
F10841
100
AcDbEntity
8
Geo
100
AcDbLine
10
-54.4387470997678
20
13.0281365622936
30
0.000000000000000
11
-54.3387470997678
21
12.9172866942164
31
0.000000000000000
  0
LINE
  5
F10842
330
F10843
100
AcDbEntity
8
Geo
100
AcDbLine
10
-54.4387470997678
20
9.41217703553022
30
0.000000000000000
11
-54.3387470997678
21
9.38545052616633
31
0.000000000000000
  0
LINE
  5
F10844
330
F10845
100
AcDbEntity
8
Geo
100
AcDbLine
10
-54.3387470997678
20
12.9172866942164
30
0.000000000000000
11
-54.2387470997678
21
12.8054904771730
31
0.000000000000000
  0
LINE
  5
F10846
330
F10847
100
AcDbEntity
8
Geo
100
AcDbLine
10
-54.3387470997678
20
9.38545052616633
30
0.000000000000000
11
-54.2387470997678
21
9.36300937177761
31
0.000000000000000
  0
LINE
  5
F10848
330
F10849
100
AcDbEntity
8
Geo
100
AcDbLine
10
-54.2387470997678
20
12.8054904771730
30
0.000000000000000
11
-54.1387470997678
21
12.6929135147423
31
0.000000000000000
  0
LINE
  5
F1084A
330
F1084B
100
AcDbEntity
8
Geo
100
AcDbLine
10
-54.2387470997678
20
9.36300937177761
30
0.000000000000000
11
-54.1387470997678
21
9.34488681441446
31
0.000000000000000
  0
LINE
  5
F1084C
330
F1084D
100
AcDbEntity
8
Geo
100
AcDbLine
10
-54.1387470997678
20
12.6929135147423
30
0.000000000000000
11
-54.0387470997678
21
12.5797225670201
31
0.000000000000000
  0
LINE
  5
F1084E
330
F1084F
100
AcDbEntity
8
Geo
100
AcDbLine
10
-54.1387470997678
20
9.34488681441446
30
0.000000000000000
11
-54.0387470997678
21
9.33110969899558
31
0.000000000000000
  0
LINE
  5
F10850
330
F10851
100
AcDbEntity
8
Geo
100
AcDbLine
10
-54.0387470997678
20
12.5797225670201
30
0.000000000000000
11
-53.9387470997678
21
12.4660853035979
31
0.000000000000000
  0
LINE
  5
F10852
330
F10853
100
AcDbEntity
8
Geo
100
AcDbLine
10
-54.0387470997678
20
9.33110969899558
30
0.000000000000000
11
-53.9387470997678
21
9.32169843354263
31
0.000000000000000
  0
LINE
  5
F10854
330
F10855
100
AcDbEntity
8
Geo
100
AcDbLine
10
-53.9387470997678
20
12.4660853035979
30
0.000000000000000
11
-53.8387470997678
21
12.3521700551939
31
0.000000000000000
  0
LINE
  5
F10856
330
F10857
100
AcDbEntity
8
Geo
100
AcDbLine
10
-53.9387470997678
20
9.32169843354263
30
0.000000000000000
11
-53.8387470997678
21
9.31666695894987
31
0.000000000000000
  0
LINE
  5
F10858
330
F10859
100
AcDbEntity
8
Geo
100
AcDbLine
10
-69.8387470997678
20
12.2784222737820
30
0.000000000000000
11
-69.8387470997678
21
12.2784222737820
31
0.000000000000000
  0
LINE
  5
F1085A
330
F1085B
100
AcDbEntity
8
Geo
100
AcDbLine
10
-69.8387470997678
20
12.2784222737820
30
0.000000000000000
11
-69.8387470997678
21
12.2784222737820
31
0.000000000000000
  0
LINE
  5
F1085C
330
F1085D
100
AcDbEntity
8
Geo
100
AcDbLine
10
-70.8387470997678
20
12.2784222737820
30
0.000000000000000
11
-70.5387470997678
21
12.2784222737820
31
0.000000000000000
  0
LINE
  5
F1085E
330
F1085F
100
AcDbEntity
8
Geo
100
AcDbLine
10
-70.4112470997678
20
12.2784222737820
30
0.000000000000000
11
-70.3262470997678
21
12.2784222737820
31
0.000000000000000
  0
LINE
  5
F10860
330
F10861
100
AcDbEntity
8
Geo
100
AcDbLine
10
-70.1137470997678
20
12.2784222737820
30
0.000000000000000
11
-69.6887470997678
21
12.2784222737820
31
0.000000000000000
  0
LINE
  5
F10862
330
F10863
100
AcDbEntity
8
Geo
100
AcDbLine
10
-69.5612470997678
20
12.2784222737820
30
0.000000000000000
11
-69.4762470997678
21
12.2784222737820
31
0.000000000000000
  0
LINE
  5
F10864
330
F10865
100
AcDbEntity
8
Geo
100
AcDbLine
10
-69.2637470997678
20
12.2784222737820
30
0.000000000000000
11
-68.8387470997678
21
12.2784222737820
31
0.000000000000000
  0
LINE
  5
F10866
330
F10867
100
AcDbEntity
8
Geo
100
AcDbLine
10
-5.83874709976780
20
14.2784222737820
30
0.000000000000000
11
-5.83874709976780
21
12.2784222737820
31
0.000000000000000
  0
LINE
  5
F10868
330
F10869
100
AcDbEntity
8
Geo
100
AcDbLine
10
-69.7427149836655
20
12.2784222737820
30
0.000000000000000
11
-69.8387470997678
21
9.52842227378200
31
0.000000000000000
  0
LINE
  5
F1086A
330
F1086B
100
AcDbEntity
8
Geo
100
AcDbLine
10
-69.8387470997678
20
9.52842227378200
30
0.000000000000000
11
-69.5887470997678
21
9.27842227378200
31
0.000000000000000
  0
LINE
  5
F1086C
330
F1086D
100
AcDbEntity
8
Geo
100
AcDbLine
10
-69.5887470997678
20
9.27842227378200
30
0.000000000000000
11
-53.8387470997678
21
9.27842227378200
31
0.000000000000000
  0
LINE
  5
F1086E
330
F1086F
100
AcDbEntity
8
Geo
100
AcDbLine
10
-53.8387470997678
20
9.27842227378200
30
0.000000000000000
11
-6.83874709976780
21
9.27842227378200
31
0.000000000000000
  0
LINE
  5
F10870
330
F10871
100
AcDbEntity
8
Geo
100
AcDbLine
10
-6.83874709976780
20
9.27842227378200
30
0.000000000000000
11
-5.83874709976780
21
10.2784222737820
31
0.000000000000000
  0
LINE
  5
F10872
330
F10873
100
AcDbEntity
8
Geo
100
AcDbLine
10
-69.8387470997678
20
15.0284222737820
30
0.000000000000000
11
-69.8387470997678
21
9.52842227378200
31
0.000000000000000
  0
LINE
  5
F10874
330
F10875
100
AcDbEntity
8
Geo
100
AcDbLine
10
-69.5887470997678
20
15.2784222737820
30
0.000000000000000
11
-69.5887470997678
21
9.27842227378200
31
0.000000000000000
  0
LINE
  5
F10876
330
F10877
100
AcDbEntity
8
Geo
100
AcDbLine
10
-69.5887470997678
20
15.2784222737820
30
0.000000000000000
11
-69.5887470997678
21
9.27842227378200
31
0.000000000000000
  0
LINE
  5
F10878
330
F10879
100
AcDbEntity
8
Geo
100
AcDbLine
10
-53.8387470997678
20
15.2784222737820
30
0.000000000000000
11
-53.8387470997678
21
9.27842227378200
31
0.000000000000000
  0
LINE
  5
F1087A
330
F1087B
100
AcDbEntity
8
Geo
100
AcDbLine
10
-53.8387470997678
20
15.2784222737820
30
0.000000000000000
11
-53.8387470997678
21
9.27842227378200
31
0.000000000000000
  0
LINE
  5
F1087C
330
F1087D
100
AcDbEntity
8
Geo
100
AcDbLine
10
-6.83874709976780
20
15.2784222737820
30
0.000000000000000
11
-6.83874709976780
21
9.27842227378200
31
0.000000000000000
  0
LINE
  5
F1087E
330
F1087F
100
AcDbEntity
8
Geo
100
AcDbLine
10
-5.83874709976780
20
14.2784222737820
30
0.000000000000000
11
-5.83874709976780
21
10.2784222737820
31
0.000000000000000
  0
LWPOLYLINE
  5
F10880
330
F10881
100
AcDbEntity
8
Rahmen
100
AcDbPolyline
90
   4
70
   1
43
   0.0
 10
-125.540603248260
 20
102.988399071926
 10
134.310904872390
 20
102.988399071926
 10
134.310904872390
 20
-103.238979118329
 10
-125.540603248260
 20
-103.238979118329
  0
TEXT
  5
F10882
330
F10883
 100
AcDbEntity
8
Text
100
AcDbText
10
-124.538283062645
20
-102.738979118329
30
0.000000000000000
40
1.00000000000000
1
ISBESketcher
100
AcDbText
  0
LWPOLYLINE
  5
F10884
330
F10885
100
AcDbEntity
8
Rahmen
100
AcDbPolyline
90
   4
70
   1
43
   0.0
 10
94.4686774941995
 20
-100.232018561485
 10
134.310904872390
 20
-100.232018561485
 10
134.310904872390
 20
-103.238979118329
 10
94.4686774941995
 20
-103.238979118329
  0
TEXT
  5
F10886
330
F10887
 100
AcDbEntity
8
Text
100
AcDbText
10
95.5000000000000
20
-102.001740139211
30
0.000000000000000
40
0.750000000000000
1
Created by:
100
AcDbText
  0
TEXT
  5
F10888
330
F10889
 100
AcDbEntity
8
Text
100
AcDbText
10
120.119489559165
20
-102.001740139211
30
0.000000000000000
40
0.750000000000000
1
nsarkol
100
AcDbText
  0
LWPOLYLINE
  5
F1088A
330
F1088B
100
AcDbEntity
8
Rahmen
100
AcDbPolyline
90
   4
70
   1
43
   0.0
 10
54.3758700696056
 20
-100.232018561485
 10
94.4686774941995
 20
-100.232018561485
 10
94.4686774941995
 20
-103.238979118329
 10
54.3758700696056
 20
-103.238979118329
  0
TEXT
  5
F1088C
330
F1088D
 100
AcDbEntity
8
Text
100
AcDbText
10
55.5000000000000
20
-102.001740139211
30
0.000000000000000
40
0.750000000000000
1
Created for:
100
AcDbText
  0
TEXT
  5
F1088E
330
F1088F
 100
AcDbEntity
8
Text
100
AcDbText
10
0.000000000000000
20
0.250000000000000
30
0.000000000000000
40
0.750000000000000
1

100
AcDbText
  0
LWPOLYLINE
  5
F10890
330
F10891
100
AcDbEntity
8
Rahmen
100
AcDbPolyline
90
   4
70
   1
43
   0.0
 10
121.030162412993
 20
-97.2250580046404
 10
134.310904872390
 20
-97.2250580046404
 10
134.310904872390
 20
-100.232018561485
 10
121.030162412993
 20
-100.232018561485
  0
TEXT
  5
F10892
330
F10893
 100
AcDbEntity
8
Text
100
AcDbText
10
122.166666666667
20
-99.0017401392111
30
0.000000000000000
40
0.750000000000000
1
Pages
100
AcDbText
  0
TEXT
  5
F10894
330
F10895
 100
AcDbEntity
8
Text
100
AcDbText
10
0.000000000000000
20
0.250000000000000
30
0.000000000000000
40
0.750000000000000
1

100
AcDbText
  0
LWPOLYLINE
  5
F10896
330
F10897
100
AcDbEntity
8
Rahmen
100
AcDbPolyline
90
   4
70
   1
43
   0.0
 10
121.030162412993
 20
-94.2180974477958
 10
134.310904872390
 20
-94.2180974477958
 10
134.310904872390
 20
-97.2250580046404
 10
121.030162412993
 20
-97.2250580046404
  0
TEXT
  5
F10898
330
F10899
 100
AcDbEntity
8
Text
100
AcDbText
10
122.166666666667
20
-96.0017401392111
30
0.000000000000000
40
0.750000000000000
1
Page
100
AcDbText
  0
TEXT
  5
F1089A
330
F1089B
 100
AcDbEntity
8
Text
100
AcDbText
10
0.000000000000000
20
0.250000000000000
30
0.000000000000000
40
0.750000000000000
1

100
AcDbText
  0
LWPOLYLINE
  5
F1089C
330
F1089D
100
AcDbEntity
8
Rahmen
100
AcDbPolyline
90
   4
70
   1
43
   0.0
 10
54.3758700696056
 20
-94.2180974477958
 10
121.030162412993
 20
-94.2180974477958
 10
121.030162412993
 20
-100.232018561485
 10
54.3758700696056
 20
-100.232018561485
  0
TEXT
  5
F1089E
330
F1089F
 100
AcDbEntity
8
Text
100
AcDbText
10
55.5000000000000
20
-96.0017401392111
30
0.000000000000000
40
0.750000000000000
1
Date:
100
AcDbText
  0
TEXT
  5
F108A0
330
F108A1
 100
AcDbEntity
8
Text
100
AcDbText
10
84.4505027068832
20
-99.0017401392111
30
0.000000000000000
40
0.750000000000000
1
05.07.2016
100
AcDbText
  0
LWPOLYLINE
  5
F108A2
330
F108A3
100
AcDbEntity
8
Rahmen
100
AcDbPolyline
90
   4
70
   1
43
   0.0
 10
54.3758700696056
 20
-88.2041763341067
 10
134.310904872390
 20
-88.2041763341067
 10
134.310904872390
 20
-94.2180974477958
 10
54.3758700696056
 20
-94.2180974477958
  0
TEXT
  5
F108A4
330
F108A5
 100
AcDbEntity
8
Text
100
AcDbText
10
0.000000000000000
20
0.500000000000000
30
0.000000000000000
40
1.50000000000000
1

100
AcDbText
  0
TEXT
  5
F108A6
330
F108A7
 100
AcDbEntity
8
Text
100
AcDbText
10
66.0591647331786
20
-92.5471771075019
30
0.000000000000000
40
2.50000000000000
1
VHRFFW 3 060 064 06 03 025
100
AcDbText
  0
LWPOLYLINE
  5
F108A8
330
F108A9
100
AcDbEntity
8
Rahmen
100
AcDbPolyline
90
   4
70
   1
43
   0.0
 10
94.4686774941995
 20
-82.1902552204176
 10
134.310904872390
 20
-82.1902552204176
 10
134.310904872390
 20
-88.2041763341067
 10
94.4686774941995
 20
-88.2041763341067
  0
TEXT
  5
F108AA
330
F108AB
 100
AcDbEntity
8
Text
100
AcDbText
10
95.5000000000000
20
-84.0017401392111
30
0.000000000000000
40
0.750000000000000
1
Work piece material:
100
AcDbText
  0
TEXT
  5
F108AC
330
F108AD
 100
AcDbEntity
8
Text
100
AcDbText
10
0.000000000000000
20
0.250000000000000
30
0.000000000000000
40
0.750000000000000
1

100
AcDbText
  0
LWPOLYLINE
  5
F108AE
330
F108AF
100
AcDbEntity
8
Rahmen
100
AcDbPolyline
90
   4
70
   1
43
   0.0
 10
54.3758700696056
 20
-82.1902552204176
 10
94.4686774941995
 20
-82.1902552204176
 10
94.4686774941995
 20
-88.2041763341067
 10
54.3758700696056
 20
-88.2041763341067
  0
TEXT
  5
F108B0
330
F108B1
 100
AcDbEntity
8
Text
100
AcDbText
10
55.5000000000000
20
-84.0017401392111
30
0.000000000000000
40
0.750000000000000
1
Tool material:
100
AcDbText
  0
TEXT
  5
F108B2
330
F108B3
 100
AcDbEntity
8
Text
100
AcDbText
10
0.000000000000000
20
0.250000000000000
30
0.000000000000000
40
0.750000000000000
1

100
AcDbText
  0
LWPOLYLINE
  5
F108B4
330
F108B5
100
AcDbEntity
8
Rahmen
100
AcDbPolyline
90
   4
70
   1
43
   0.0
 10
94.4686774941995
 20
-79.1832946635731
 10
134.310904872390
 20
-79.1832946635731
 10
134.310904872390
 20
-82.1902552204176
 10
94.4686774941995
 20
-82.1902552204176
  0
TEXT
  5
F108B6
330
F108B7
 100
AcDbEntity
8
Text
100
AcDbText
10
0.000000000000000
20
0.500000000000000
30
0.000000000000000
40
1.50000000000000
1

100
AcDbText
  0
TEXT
  5
F108B8
330
F108B9
 100
AcDbEntity
8
Text
100
AcDbText
10
0.000000000000000
20
0.250000000000000
30
0.000000000000000
40
0.750000000000000
1

100
AcDbText
  0
LWPOLYLINE
  5
F108BA
330
F108BB
100
AcDbEntity
8
Rahmen
100
AcDbPolyline
90
   4
70
   1
43
   0.0
 10
54.3758700696056
 20
-79.1832946635731
 10
94.4686774941995
 20
-79.1832946635731
 10
94.4686774941995
 20
-82.1902552204176
 10
54.3758700696056
 20
-82.1902552204176
  0
TEXT
  5
F108BC
330
F108BD
 100
AcDbEntity
8
Text
100
AcDbText
10
55.5000000000000
20
-81.0017401392111
30
0.000000000000000
40
0.750000000000000
1
Scale:
100
AcDbText
  0
TEXT
  5
F108BE
330
F108BF
 100
AcDbEntity
8
Text
100
AcDbText
10
81.2470997679814
20
-81.0017401392111
30
0.000000000000000
40
0.750000000000000
1
2 : 1
100
AcDbText
0
VIEWPORT
5
294
102
{ACAD_XDICTIONARY
360
58A
102
}
330
25D
100
AcDbEntity
67
1
8
0
60
1
100
AcDbViewport
10
0.0
20
0.0
30
0.0
40
10.0
41
10.0
68
-1
69
1
12
0.0
22
0.0
13
0.0
23
0.0
14
1.0
24
1.0
15
0.0
25
0.0
16
0.0
26
0.0
36
1.0
17
0.0
27
0.0
37
0.0
42
0.0
43
0.0
44
0.0
45
10.0
50
0.0
51
0.0000000000007958
72
100
90
32800
1

281
0
71
0
74
0
110
0.0
120
0.0
130
0.0
111
1.0
121
0.0
131
0.0
112
0.0
122
1.0
132
0.0
79
0
146
0.0
1001
VD_INVISIBLE_NOT_FOR_READ
1000
VD_INVISIBLE_NOT_FOR_READ
0
VIEWPORT
5
295
102
{ACAD_XDICTIONARY
360
58C
102
}
330
25D
100
AcDbEntity
67
1
8
0
60
1
100
AcDbViewport
10
0.0
20
0.0
30
0.0
40
10.0
41
10.0
68
0
69
2
12
0.0
22
0.0
13
0.0
23
0.0
14
1.0
24
1.0
15
0.0
25
0.0
16
0.0
26
0.0
36
1.0
17
0.0
27
0.0
37
0.0
42
0.0
43
0.0
44
0.0
45
10.0
50
0.0
51
0.0000000000007958
72
100
90
163872
1

281
0
71
0
74
0
110
0.0
120
0.0
130
0.0
111
1.0
121
0.0
131
0.0
112
0.0
122
1.0
132
0.0
79
0
146
0.0
1001
VD_INVISIBLE_NOT_FOR_READ
1000
VD_INVISIBLE_NOT_FOR_READ
0
ENDSEC
0
SECTION
2
OBJECTS
0
DICTIONARY
5
13
330
0
100
AcDbDictionary
281
1
3
ACAD_COLOR
350
FA7
3
ACAD_GROUP
350
14
3
ACAD_LAYOUT
350
FCF
3
ACAD_MATERIAL
350
F7A
3
ACAD_MLEADERSTYLE
350
FCD
3
ACAD_MLINESTYLE
350
16
3
ACAD_PLOTSETTINGS
350
17
3
ACAD_PLOTSTYLENAME
350
18
3
ACAD_SCALELIST
350
FAB
3
ACAD_TABLESTYLE
350
FA8
3
ACAD_VISUALSTYLE
350
F93
3
ACDB_RECOMPOSE_DATA
350
107E
3
AcDbVariableDictionary
350
FF0
3
DWGPROPS
350
107F
0
DICTIONARY
5
F1000A
330
F10009
100
AcDbDictionary
280
1
281
1
3
ACAD_MTEXT_2008_RT
360
F1000B
0
DICTIONARY
5
F10014
330
F10013
100
AcDbDictionary
280
1
281
1
3
ACAD_MTEXT_2008_RT
360
F10015
0
DICTIONARY
5
F1001E
330
F1001D
100
AcDbDictionary
280
1
281
1
3
ACAD_MTEXT_2008_RT
360
F1001F
0
DICTIONARY
5
F10023
330
F10022
100
AcDbDictionary
280
1
281
1
3
ACAD_MTEXT_2008_RT
360
F10024
0
DICTIONARY
5
F10028
330
F10027
100
AcDbDictionary
280
1
281
1
3
ACAD_MTEXT_2008_RT
360
F10029
0
DICTIONARY
5
F10005
330
F10004
100
AcDbDictionary
280
1
281
1
3
ACAD_MTEXT_2008_RT
360
F10006
0
DICTIONARY
5
F1000F
330
F1000E
100
AcDbDictionary
280
1
281
1
3
ACAD_MTEXT_2008_RT
360
F10010
0
DICTIONARY
5
F10019
330
F10018
100
AcDbDictionary
280
1
281
1
3
ACAD_MTEXT_2008_RT
360
F1001A
0
DICTIONARY
5
FA7
102
{ACAD_REACTORS
330
13
102
}
330
13
100
AcDbDictionary
281
1
0
DICTIONARY
5
14
330
13
100
AcDbDictionary
281
1
0
DICTIONARY
5
FCF
102
{ACAD_REACTORS
330
13
102
}
330
13
100
AcDbDictionary
281
1
3
Layout1
350
FD1
3
Model
350
FD0
0
DICTIONARY
5
F7A
102
{ACAD_REACTORS
330
13
102
}
330
13
100
AcDbDictionary
281
1
3
ByBlock
350
F83
3
ByLayer
350
F7B
3
Global
350
F8B
0
DICTIONARY
5
FCD
102
{ACAD_REACTORS
330
13
102
}
330
13
100
AcDbDictionary
281
1
3
Standard
350
FCE
0
DICTIONARY
5
16
330
13
100
AcDbDictionary
281
1
3
Standard
350
FAA
0
DICTIONARY
5
17
102
{ACAD_REACTORS
330
13
102
}
330
13
100
AcDbDictionary
281
1
0
ACDBDICTIONARYWDFLT
5
18
102
{ACAD_REACTORS
330
13
102
}
330
13
100
AcDbDictionary
281
1
3
Normal
350
19
100
AcDbDictionaryWithDefault
340
19
0
DICTIONARY
5
FAB
102
{ACAD_REACTORS
330
13
102
}
330
13
100
AcDbDictionary
281
1
3
A0
350
FAC
3
A1
350
FAD
3
A2
350
FAE
3
A3
350
FAF
3
A4
350
FB0
3
A5
350
FB1
3
A6
350
FB2
3
A7
350
FB3
3
A8
350
FB4
3
A9
350
FB5
3
B0
350
FB6
3
B1
350
FB7
3
B2
350
FB8
3
B3
350
FB9
3
B4
350
FBA
3
B5
350
FBB
3
B6
350
FBC
3
B7
350
FBD
3
B8
350
FBE
3
B9
350
FBF
3
C0
350
FC0
3
C1
350
FC1
3
C2
350
FC2
3
C3
350
FC3
3
C4
350
FC4
3
C5
350
FC5
3
C6
350
FC6
3
C7
350
FC7
3
C8
350
FC8
3
C9
350
FC9
3
D0
350
FCA
3
D1
350
FCB
3
D2
350
FCC
0
DICTIONARY
5
FA8
102
{ACAD_REACTORS
330
13
102
}
330
13
100
AcDbDictionary
281
1
3
Standard
350
FA9
0
DICTIONARY
5
F93
102
{ACAD_REACTORS
330
13
102
}
330
13
100
AcDbDictionary
281
1
3
2dWireframe
350
F99
3
3D Hidden
350
F9B
3
3dWireframe
350
F9A
3
Basic
350
F98
3
Brighten
350
F9F
3
ColorChange
350
FA3
3
Conceptual
350
F9C
3
Dim
350
F9E
3
EdgeColorOff
350
FA6
3
Facepattern
350
FA2
3
Flat
350
F94
3
FlatWithEdges
350
F95
3
Gouraud
350
F96
3
GouraudWithEdges
350
F97
3
JitterOff
350
FA4
3
Linepattern
350
FA1
3
OverhangOff
350
FA5
3
Realistic
350
F9D
3
Thicken
350
FA0
0
XRECORD
5
107E
102
{ACAD_REACTORS
330
13
102
}
330
13
100
AcDbXrecord
280
1
90
1
330
FA9
330
F10009
330
F10013
330
F1001D
330
F10022
330
F10027
330
F10004
330
F1000E
330
F10018
0
XRECORD
5
F1000B
102
{ACAD_REACTORS
330
F1000A
102
}
330
F1000A
100
AcDbXrecord
280
1
40
48458.0
1
0.25 x 45°
0
XRECORD
5
F10015
102
{ACAD_REACTORS
330
F10014
102
}
330
F10014
100
AcDbXrecord
280
1
40
48458.0
1
48
0
XRECORD
5
F1001F
102
{ACAD_REACTORS
330
F1001E
102
}
330
F1001E
100
AcDbXrecord
280
1
40
48458.0
1
16
0
XRECORD
5
F10024
102
{ACAD_REACTORS
330
F10023
102
}
330
F10023
100
AcDbXrecord
280
1
40
48458.0
1
17
0
XRECORD
5
F10029
102
{ACAD_REACTORS
330
F10028
102
}
330
F10028
100
AcDbXrecord
280
1
40
48458.0
1
64
0
XRECORD
5
F10006
102
{ACAD_REACTORS
330
F10005
102
}
330
F10005
100
AcDbXrecord
280
1
40
48458.0
1
2°
0
XRECORD
5
F10010
102
{ACAD_REACTORS
330
F1000F
102
}
330
F1000F
100
AcDbXrecord
280
1
40
48458.0
1
6
0
LAYOUT
5
FD1
102
{ACAD_XDICTIONARY
360
10A9
102
}
102
{ACAD_REACTORS
330
FCF
102
}
330
FCF
100
AcDbPlotSettings
1

2
Microsoft XPS Document Writer
4

6

40
0.0
41
0.0
42
0.0
43
0.0
44
0.0
45
0.0
46
0.0
47
0.0
48
0.0
49
0.0
140
0.0
141
0.0
142
1.0
143
1.0
70
688
72
0
73
0
74
5
7

75
16
147
1.0
148
0.0
149
0.0
100
AcDbLayout
1
Layout1
70
1
71
1
10
0.0
20
0.0
11
12.0
21
9.0
12
0.0
22
0.0
32
0.0
14
1.000000000000000E+20
24
1.000000000000000E+20
34
1.000000000000000E+20
15
-1.000000000000000E+20
25
-1.000000000000000E+20
35
-1.000000000000000E+20
146
0.0
13
0.0
23
0.0
33
0.0
16
1.0
26
0.0
36
0.0
17
0.0
27
1.0
37
0.0
76
0
330
25D
0
LAYOUT
5
FD0
102
{ACAD_XDICTIONARY
360
10A7
102
}
102
{ACAD_REACTORS
330
FCF
102
}
330
FCF
100
AcDbPlotSettings
1

2
Microsoft XPS Document Writer
4

6

40
0.0
41
0.0
42
0.0
43
0.0
44
0.0
45
0.0
46
0.0
47
0.0
48
0.0
49
0.0
140
0.0
141
0.0
142
1.0
143
1.0
70
1712
72
0
73
0
74
0
7

75
0
147
1.0
148
0.0
149
0.0
100
AcDbLayout
1
Model
70
1
71
0
10
0.0
20
0.0
11
12.0
21
9.0
12
0.0
22
0.0
32
0.0
14
0.0
24
0.0
34
0.0
15
0.0
25
0.0
35
0.0
146
0.0
13
0.0
23
0.0
33
0.0
16
1.0
26
0.0
36
0.0
17
0.0
27
1.0
37
0.0
76
0
330
261
331
26B
0
MATERIAL
5
F83
102
{ACAD_XDICTIONARY
360
F84
102
}
102
{ACAD_REACTORS
330
F7A
102
}
330
F7A
100
AcDbMaterial
1
ByBlock
72
0
43
0.0208333333333333
43
0.0
43
0.0
43
0.0
43
0.0
43
0.0208333333333333
43
0.0
43
0.0
43
0.0
43
0.0
43
1.0
43
0.0
43
0.0
43
0.0
43
0.0
43
1.0
77
0
47
0.0208333333333333
47
0.0
47
0.0
47
0.0
47
0.0
47
0.0208333333333333
47
0.0
47
0.0
47
0.0
47
0.0
47
1.0
47
0.0
47
0.0
47
0.0
47
0.0
47
1.0
171
0
49
0.0208333333333333
49
0.0
49
0.0
49
0.0
49
0.0
49
0.0208333333333333
49
0.0
49
0.0
49
0.0
49
0.0
49
1.0
49
0.0
49
0.0
49
0.0
49
0.0
49
1.0
175
0
142
0.0208333333333333
142
0.0
142
0.0
142
0.0
142
0.0
142
0.0208333333333333
142
0.0
142
0.0
142
0.0
142
0.0
142
1.0
142
0.0
142
0.0
142
0.0
142
0.0
142
1.0
179
0
144
0.0208333333333333
144
0.0
144
0.0
144
0.0
144
0.0
144
0.0208333333333333
144
0.0
144
0.0
144
0.0
144
0.0
144
1.0
144
0.0
144
0.0
144
0.0
144
0.0
144
1.0
147
0.0208333333333333
147
0.0
147
0.0
147
0.0
147
0.0
147
0.0208333333333333
147
0.0
147
0.0
147
0.0
147
0.0
147
1.0
147
0.0
147
0.0
147
0.0
147
0.0
147
1.0
0
MATERIAL
5
F7B
102
{ACAD_XDICTIONARY
360
F7C
102
}
102
{ACAD_REACTORS
330
F7A
102
}
330
F7A
100
AcDbMaterial
1
ByLayer
72
0
43
0.0208333333333333
43
0.0
43
0.0
43
0.0
43
0.0
43
0.0208333333333333
43
0.0
43
0.0
43
0.0
43
0.0
43
1.0
43
0.0
43
0.0
43
0.0
43
0.0
43
1.0
77
0
47
0.0208333333333333
47
0.0
47
0.0
47
0.0
47
0.0
47
0.0208333333333333
47
0.0
47
0.0
47
0.0
47
0.0
47
1.0
47
0.0
47
0.0
47
0.0
47
0.0
47
1.0
171
0
49
0.0208333333333333
49
0.0
49
0.0
49
0.0
49
0.0
49
0.0208333333333333
49
0.0
49
0.0
49
0.0
49
0.0
49
1.0
49
0.0
49
0.0
49
0.0
49
0.0
49
1.0
175
0
142
0.0208333333333333
142
0.0
142
0.0
142
0.0
142
0.0
142
0.0208333333333333
142
0.0
142
0.0
142
0.0
142
0.0
142
1.0
142
0.0
142
0.0
142
0.0
142
0.0
142
1.0
179
0
144
0.0208333333333333
144
0.0
144
0.0
144
0.0
144
0.0
144
0.0208333333333333
144
0.0
144
0.0
144
0.0
144
0.0
144
1.0
144
0.0
144
0.0
144
0.0
144
0.0
144
1.0
147
0.0208333333333333
147
0.0
147
0.0
147
0.0
147
0.0
147
0.0208333333333333
147
0.0
147
0.0
147
0.0
147
0.0
147
1.0
147
0.0
147
0.0
147
0.0
147
0.0
147
1.0
0
MATERIAL
5
F8B
102
{ACAD_XDICTIONARY
360
F8C
102
}
102
{ACAD_REACTORS
330
F7A
102
}
330
F7A
100
AcDbMaterial
1
Global
72
0
43
0.0208333333333333
43
0.0
43
0.0
43
0.0
43
0.0
43
0.0208333333333333
43
0.0
43
0.0
43
0.0
43
0.0
43
1.0
43
0.0
43
0.0
43
0.0
43
0.0
43
1.0
77
0
47
0.0208333333333333
47
0.0
47
0.0
47
0.0
47
0.0
47
0.0208333333333333
47
0.0
47
0.0
47
0.0
47
0.0
47
1.0
47
0.0
47
0.0
47
0.0
47
0.0
47
1.0
171
0
49
0.0208333333333333
49
0.0
49
0.0
49
0.0
49
0.0
49
0.0208333333333333
49
0.0
49
0.0
49
0.0
49
0.0
49
1.0
49
0.0
49
0.0
49
0.0
49
0.0
49
1.0
175
0
142
0.0208333333333333
142
0.0
142
0.0
142
0.0
142
0.0
142
0.0208333333333333
142
0.0
142
0.0
142
0.0
142
0.0
142
1.0
142
0.0
142
0.0
142
0.0
142
0.0
142
1.0
179
0
144
0.0208333333333333
144
0.0
144
0.0
144
0.0
144
0.0
144
0.0208333333333333
144
0.0
144
0.0
144
0.0
144
0.0
144
1.0
144
0.0
144
0.0
144
0.0
144
0.0
144
1.0
147
0.0208333333333333
147
0.0
147
0.0
147
0.0
147
0.0
147
0.0208333333333333
147
0.0
147
0.0
147
0.0
147
0.0
147
1.0
147
0.0
147
0.0
147
0.0
147
0.0
147
1.0
0
MLEADERSTYLE
5
FCE
102
{ACAD_REACTORS
330
FCD
102
}
330
FCD
100
AcDbMLeaderStyle
170
2
171
1
172
0
90
2
40
0.0
41
0.0
173
1
91
-1056964608
340
256
92
-2
290
1
42
0.09
291
1
43
0.36
3
Standard
44
0.18
300

342
253
174
1
178
6
175
1
176
0
93
-1056964608
45
0.18
292
0
297
0
46
0.18
94
-1056964608
47
1.0
49
1.0
140
1.0
293
1
141
0.0
294
1
177
0
142
1.0
295
0
296
0
143
0.125
1001
ACAD_MLEADERVER
1070
2
0
MLINESTYLE
5
FAA
102
{ACAD_REACTORS
330
16
102
}
330
16
100
AcDbMlineStyle
2
STANDARD
70
0
3

62
256
51
90.0
52
90.0
71
2
49
0.5
62
256
6
BYLAYER
49
-0.5
62
256
6
BYLAYER
0
ACDBPLACEHOLDER
5
19
102
{ACAD_REACTORS
330
18
102
}
330
18
0
SCALE
5
FAC
102
{ACAD_REACTORS
330
FAB
102
}
330
FAB
100
AcDbScale
70
0
300
1:1
140
1.0
141
1.0
290
1
0
SCALE
5
FAD
102
{ACAD_REACTORS
330
FAB
102
}
330
FAB
100
AcDbScale
70
0
300
1:2
140
1.0
141
2.0
290
0
0
SCALE
5
FAE
102
{ACAD_REACTORS
330
FAB
102
}
330
FAB
100
AcDbScale
70
0
300
1:4
140
1.0
141
4.0
290
0
0
SCALE
5
FAF
102
{ACAD_REACTORS
330
FAB
102
}
330
FAB
100
AcDbScale
70
0
300
1:5
140
1.0
141
5.0
290
0
0
SCALE
5
FB0
102
{ACAD_REACTORS
330
FAB
102
}
330
FAB
100
AcDbScale
70
0
300
1:8
140
1.0
141
8.0
290
0
0
SCALE
5
FB1
102
{ACAD_REACTORS
330
FAB
102
}
330
FAB
100
AcDbScale
70
0
300
1:10
140
1.0
141
10.0
290
0
0
SCALE
5
FB2
102
{ACAD_REACTORS
330
FAB
102
}
330
FAB
100
AcDbScale
70
0
300
1:16
140
1.0
141
16.0
290
0
0
SCALE
5
FB3
102
{ACAD_REACTORS
330
FAB
102
}
330
FAB
100
AcDbScale
70
0
300
1:20
140
1.0
141
20.0
290
0
0
SCALE
5
FB4
102
{ACAD_REACTORS
330
FAB
102
}
330
FAB
100
AcDbScale
70
0
300
1:30
140
1.0
141
30.0
290
0
0
SCALE
5
FB5
102
{ACAD_REACTORS
330
FAB
102
}
330
FAB
100
AcDbScale
70
0
300
1:40
140
1.0
141
40.0
290
0
0
SCALE
5
FB6
102
{ACAD_REACTORS
330
FAB
102
}
330
FAB
100
AcDbScale
70
0
300
1:50
140
1.0
141
50.0
290
0
0
SCALE
5
FB7
102
{ACAD_REACTORS
330
FAB
102
}
330
FAB
100
AcDbScale
70
0
300
1:100
140
1.0
141
100.0
290
0
0
SCALE
5
FB8
102
{ACAD_REACTORS
330
FAB
102
}
330
FAB
100
AcDbScale
70
0
300
2:1
140
2.0
141
1.0
290
0
0
SCALE
5
FB9
102
{ACAD_REACTORS
330
FAB
102
}
330
FAB
100
AcDbScale
70
0
300
4:1
140
4.0
141
1.0
290
0
0
SCALE
5
FBA
102
{ACAD_REACTORS
330
FAB
102
}
330
FAB
100
AcDbScale
70
0
300
8:1
140
8.0
141
1.0
290
0
0
SCALE
5
FBB
102
{ACAD_REACTORS
330
FAB
102
}
330
FAB
100
AcDbScale
70
0
300
10:1
140
10.0
141
1.0
290
0
0
SCALE
5
FBC
102
{ACAD_REACTORS
330
FAB
102
}
330
FAB
100
AcDbScale
70
0
300
100:1
140
100.0
141
1.0
290
0
0
SCALE
5
FBD
102
{ACAD_REACTORS
330
FAB
102
}
330
FAB
100
AcDbScale
70
0
300
1/128" = 1'-0"
140
0.0078125
141
12.0
290
0
0
SCALE
5
FBE
102
{ACAD_REACTORS
330
FAB
102
}
330
FAB
100
AcDbScale
70
0
300
1/64" = 1'-0"
140
0.015625
141
12.0
290
0
0
SCALE
5
FBF
102
{ACAD_REACTORS
330
FAB
102
}
330
FAB
100
AcDbScale
70
0
300
1/32" = 1'-0"
140
0.03125
141
12.0
290
0
0
SCALE
5
FC0
102
{ACAD_REACTORS
330
FAB
102
}
330
FAB
100
AcDbScale
70
0
300
1/16" = 1'-0"
140
0.0625
141
12.0
290
0
0
SCALE
5
FC1
102
{ACAD_REACTORS
330
FAB
102
}
330
FAB
100
AcDbScale
70
0
300
3/32" = 1'-0"
140
0.09375
141
12.0
290
0
0
SCALE
5
FC2
102
{ACAD_REACTORS
330
FAB
102
}
330
FAB
100
AcDbScale
70
0
300
1/8" = 1'-0"
140
0.125
141
12.0
290
0
0
SCALE
5
FC3
102
{ACAD_REACTORS
330
FAB
102
}
330
FAB
100
AcDbScale
70
0
300
3/16" = 1'-0"
140
0.1875
141
12.0
290
0
0
SCALE
5
FC4
102
{ACAD_REACTORS
330
FAB
102
}
330
FAB
100
AcDbScale
70
0
300
1/4" = 1'-0"
140
0.25
141
12.0
290
0
0
SCALE
5
FC5
102
{ACAD_REACTORS
330
FAB
102
}
330
FAB
100
AcDbScale
70
0
300
3/8" = 1'-0"
140
0.375
141
12.0
290
0
0
SCALE
5
FC6
102
{ACAD_REACTORS
330
FAB
102
}
330
FAB
100
AcDbScale
70
0
300
1/2" = 1'-0"
140
0.5
141
12.0
290
0
0
SCALE
5
FC7
102
{ACAD_REACTORS
330
FAB
102
}
330
FAB
100
AcDbScale
70
0
300
3/4" = 1'-0"
140
0.75
141
12.0
290
0
0
SCALE
5
FC8
102
{ACAD_REACTORS
330
FAB
102
}
330
FAB
100
AcDbScale
70
0
300
1" = 1'-0"
140
1.0
141
12.0
290
0
0
SCALE
5
FC9
102
{ACAD_REACTORS
330
FAB
102
}
330
FAB
100
AcDbScale
70
0
300
1-1/2" = 1'-0"
140
1.5
141
12.0
290
0
0
SCALE
5
FCA
102
{ACAD_REACTORS
330
FAB
102
}
330
FAB
100
AcDbScale
70
0
300
3" = 1'-0"
140
3.0
141
12.0
290
0
0
SCALE
5
FCB
102
{ACAD_REACTORS
330
FAB
102
}
330
FAB
100
AcDbScale
70
0
300
6" = 1'-0"
140
6.0
141
12.0
290
0
0
SCALE
5
FCC
102
{ACAD_REACTORS
330
FAB
102
}
330
FAB
100
AcDbScale
70
0
300
1'-0" = 1'-0"
140
12.0
141
12.0
290
0
0
TABLESTYLE
5
FA9
102
{ACAD_XDICTIONARY
360
FF8
102
}
102
{ACAD_REACTORS
330
FA8
102
}
330
FA8
100
AcDbTableStyle
3
Standard
70
0
71
0
40
0.06
41
0.06
280
0
281
0
7
Standard
140
0.18
170
2
62
0
63
7
283
0
274
-2
284
1
64
0
275
-2
285
1
65
0
276
-2
286
1
66
0
277
-2
287
1
67
0
278
-2
288
1
68
0
279
-2
289
1
69
0
7
Standard
140
0.25
170
5
62
0
63
7
283
0
274
-2
284
1
64
0
275
-2
285
1
65
0
276
-2
286
1
66
0
277
-2
287
1
67
0
278
-2
288
1
68
0
279
-2
289
1
69
0
7
Standard
140
0.18
170
5
62
0
63
7
283
0
274
-2
284
1
64
0
275
-2
285
1
65
0
276
-2
286
1
66
0
277
-2
287
1
67
0
278
-2
288
1
68
0
279
-2
289
1
69
0
0
VISUALSTYLE
5
F99
102
{ACAD_XDICTIONARY
360
108A
102
}
102
{ACAD_REACTORS
330
F93
102
}
330
F93
100
AcDbVisualStyle
2

70
4
71
0
72
2
73
0
90
0
40
-0.6
41
-30.0
62
5
63
7
74
1
91
4
64
7
65
257
75
1
175
1
42
1.0
92
0
66
257
43
1.0
76
1
77
6
78
2
67
7
79
5
170
0
171
0
290
0
174
0
93
1
44
0.0
173
0
291
0
45
0.0
1001
ACAD
1000
AcDbSavedByObjectVersion
1070
0
0
VISUALSTYLE
5
F9B
102
{ACAD_XDICTIONARY
360
108E
102
}
102
{ACAD_REACTORS
330
F93
102
}
330
F93
100
AcDbVisualStyle
2

70
6
71
1
72
2
73
2
90
0
40
-0.6
41
-30.0
62
5
63
7
74
2
91
2
64
7
65
257
75
2
175
1
42
179.0
92
0
66
257
43
1.0
76
1
77
6
78
2
67
7
79
3
170
0
171
0
290
0
174
0
93
1
44
0.0
173
0
291
0
45
0.0
1001
ACAD
1000
AcDbSavedByObjectVersion
1070
0
0
VISUALSTYLE
5
F9A
102
{ACAD_XDICTIONARY
360
108C
102
}
102
{ACAD_REACTORS
330
F93
102
}
330
F93
100
AcDbVisualStyle
2

70
5
71
0
72
2
73
0
90
0
40
-0.6
41
-30.0
62
5
63
7
74
1
91
4
64
7
65
257
75
1
175
1
42
1.0
92
0
66
257
43
1.0
76
1
77
6
78
2
67
7
79
5
170
0
171
0
290
0
174
0
93
1
44
0.0
173
0
291
0
45
0.0
1001
ACAD
1000
AcDbSavedByObjectVersion
1070
0
0
VISUALSTYLE
5
F98
102
{ACAD_XDICTIONARY
360
1088
102
}
102
{ACAD_REACTORS
330
F93
102
}
330
F93
100
AcDbVisualStyle
2

70
7
71
1
72
0
73
1
90
0
40
-0.6
41
-30.0
62
5
63
7
74
0
91
4
64
7
65
257
75
1
175
1
42
1.0
92
8
66
7
43
1.0
76
1
77
6
78
2
67
7
79
5
170
0
171
0
290
0
174
0
93
1
44
0.0
173
0
291
1
45
0.0
1001
ACAD
1000
AcDbSavedByObjectVersion
1070
0
0
VISUALSTYLE
5
F9F
102
{ACAD_XDICTIONARY
360
1096
102
}
102
{ACAD_REACTORS
330
F93
102
}
330
F93
100
AcDbVisualStyle
2

70
12
71
2
72
2
73
0
90
0
40
-0.6
41
-30.0
62
5
63
7
74
1
91
4
64
7
65
257
75
1
175
1
42
1.0
92
8
66
7
43
1.0
76
1
77
6
78
2
67
7
79
5
170
0
171
0
290
0
174
0
93
1
44
50.0
173
0
291
1
45
0.0
1001
ACAD
1000
AcDbSavedByObjectVersion
1070
0
0
VISUALSTYLE
5
FA3
102
{ACAD_XDICTIONARY
360
109E
102
}
102
{ACAD_REACTORS
330
F93
102
}
330
F93
100
AcDbVisualStyle
2

70
16
71
2
72
2
73
3
90
0
40
-0.6
41
-30.0
62
5
63
8
74
1
91
4
64
7
65
257
75
1
175
1
42
1.0
92
8
66
8
43
1.0
76
1
77
6
78
2
67
7
79
5
170
0
171
0
290
0
174
0
93
1
44
0.0
173
0
291
1
45
0.0
1001
ACAD
1000
AcDbSavedByObjectVersion
1070
0
0
VISUALSTYLE
5
F9C
102
{ACAD_XDICTIONARY
360
1090
102
}
102
{ACAD_REACTORS
330
F93
102
}
330
F93
100
AcDbVisualStyle
2

70
9
71
3
72
2
73
0
90
0
40
-0.6
41
-30.0
62
5
63
7
74
2
91
2
64
7
65
257
75
1
175
1
42
179.0
92
8
66
7
43
1.0
76
1
77
6
78
2
67
7
79
3
170
0
171
0
290
0
174
0
93
1
44
0.0
173
0
291
0
45
0.0
1001
ACAD
1000
AcDbSavedByObjectVersion
1070
0
0
VISUALSTYLE
5
F9E
102
{ACAD_XDICTIONARY
360
1094
102
}
102
{ACAD_REACTORS
330
F93
102
}
330
F93
100
AcDbVisualStyle
2

70
11
71
2
72
2
73
0
90
0
40
-0.6
41
-30.0
62
5
63
7
74
1
91
4
64
7
65
257
75
1
175
1
42
1.0
92
8
66
7
43
1.0
76
1
77
6
78
2
67
7
79
5
170
0
171
0
290
0
174
0
93
1
44
-50.0
173
0
291
1
45
0.0
1001
ACAD
1000
AcDbSavedByObjectVersion
1070
0
0
VISUALSTYLE
5
FA6
102
{ACAD_XDICTIONARY
360
10A4
102
}
102
{ACAD_REACTORS
330
F93
102
}
330
F93
100
AcDbVisualStyle
2

70
22
71
2
72
2
73
0
90
0
40
-0.6
41
-30.0
62
5
63
7
74
1
91
4
64
7
65
257
75
1
175
1
42
1.0
92
8
66
7
43
1.0
76
1
77
6
78
2
67
7
79
5
170
0
171
0
290
0
174
0
93
1
44
0.0
173
0
291
1
45
0.0
1001
ACAD
1000
AcDbSavedByObjectVersion
1070
0
0
VISUALSTYLE
5
FA2
102
{ACAD_XDICTIONARY
360
109C
102
}
102
{ACAD_REACTORS
330
F93
102
}
330
F93
100
AcDbVisualStyle
2

70
15
71
2
72
2
73
0
90
0
40
-0.6
41
-30.0
62
5
63
7
74
1
91
4
64
7
65
257
75
1
175
1
42
1.0
92
8
66
7
43
1.0
76
1
77
6
78
2
67
7
79
5
170
0
171
0
290
0
174
0
93
1
44
0.0
173
0
291
1
45
0.0
1001
ACAD
1000
AcDbSavedByObjectVersion
1070
0
0
VISUALSTYLE
5
F94
102
{ACAD_XDICTIONARY
360
1080
102
}
102
{ACAD_REACTORS
330
F93
102
}
330
F93
100
AcDbVisualStyle
2

70
0
71
2
72
1
73
1
90
2
40
-0.6
41
30.0
62
5
63
7
74
0
91
4
64
7
65
257
75
1
175
1
42
1.0
92
8
66
7
43
1.0
76
1
77
6
78
2
67
7
79
5
170
0
171
0
290
0
174
0
93
13
44
0.0
173
0
291
1
45
0.0
1001
ACAD
1000
AcDbSavedByObjectVersion
1070
0
0
VISUALSTYLE
5
F95
102
{ACAD_XDICTIONARY
360
1082
102
}
102
{ACAD_REACTORS
330
F93
102
}
330
F93
100
AcDbVisualStyle
2

70
1
71
2
72
1
73
1
90
2
40
-0.6
41
30.0
62
5
63
7
74
1
91
4
64
7
65
257
75
1
175
1
42
1.0
92
0
66
257
43
1.0
76
1
77
6
78
2
67
7
79
5
170
0
171
0
290
0
174
0
93
13
44
0.0
173
0
291
1
45
0.0
1001
ACAD
1000
AcDbSavedByObjectVersion
1070
0
0
VISUALSTYLE
5
F96
102
{ACAD_XDICTIONARY
360
1084
102
}
102
{ACAD_REACTORS
330
F93
102
}
330
F93
100
AcDbVisualStyle
2

70
2
71
2
72
2
73
1
90
2
40
-0.6
41
30.0
62
5
63
7
74
0
91
4
64
7
65
257
75
1
175
1
42
1.0
92
0
66
7
43
1.0
76
1
77
6
78
2
67
7
79
5
170
0
171
0
290
0
174
0
93
13
44
0.0
173
0
291
1
45
0.0
1001
ACAD
1000
AcDbSavedByObjectVersion
1070
0
0
VISUALSTYLE
5
F97
102
{ACAD_XDICTIONARY
360
1086
102
}
102
{ACAD_REACTORS
330
F93
102
}
330
F93
100
AcDbVisualStyle
2

70
3
71
2
72
2
73
1
90
2
40
-0.6
41
30.0
62
5
63
7
74
1
91
4
64
7
65
257
75
1
175
1
42
1.0
92
0
66
257
43
1.0
76
1
77
6
78
2
67
7
79
5
170
0
171
0
290
0
174
0
93
13
44
0.0
173
0
291
1
45
0.0
1001
ACAD
1000
AcDbSavedByObjectVersion
1070
0
0
VISUALSTYLE
5
FA4
102
{ACAD_XDICTIONARY
360
10A0
102
}
102
{ACAD_REACTORS
330
F93
102
}
330
F93
100
AcDbVisualStyle
2

70
20
71
2
72
2
73
0
90
0
40
-0.6
41
-30.0
62
5
63
7
74
1
91
4
64
7
65
257
75
1
175
1
42
1.0
92
10
66
7
43
1.0
76
1
77
6
78
2
67
7
79
5
170
0
171
0
290
0
174
0
93
1
44
0.0
173
0
291
1
45
0.0
1001
ACAD
1000
AcDbSavedByObjectVersion
1070
0
0
VISUALSTYLE
5
FA1
102
{ACAD_XDICTIONARY
360
109A
102
}
102
{ACAD_REACTORS
330
F93
102
}
330
F93
100
AcDbVisualStyle
2

70
14
71
2
72
2
73
0
90
0
40
-0.6
41
-30.0
62
5
63
7
74
1
91
4
64
7
65
257
75
7
175
7
42
1.0
92
8
66
7
43
1.0
76
1
77
6
78
2
67
7
79
5
170
0
171
0
290
0
174
0
93
1
44
0.0
173
0
291
1
45
0.0
1001
ACAD
1000
AcDbSavedByObjectVersion
1070
0
0
VISUALSTYLE
5
FA5
102
{ACAD_XDICTIONARY
360
10A2
102
}
102
{ACAD_REACTORS
330
F93
102
}
330
F93
100
AcDbVisualStyle
2

70
21
71
2
72
2
73
0
90
0
40
-0.6
41
-30.0
62
5
63
7
74
1
91
4
64
7
65
257
75
1
175
1
42
1.0
92
9
66
7
43
1.0
76
1
77
6
78
2
67
7
79
5
170
0
171
0
290
0
174
0
93
1
44
0.0
173
0
291
1
45
0.0
1001
ACAD
1000
AcDbSavedByObjectVersion
1070
0
0
VISUALSTYLE
5
F9D
102
{ACAD_XDICTIONARY
360
1092
102
}
102
{ACAD_REACTORS
330
F93
102
}
330
F93
100
AcDbVisualStyle
2

70
8
71
2
72
2
73
0
90
0
40
-0.6
41
-30.0
62
5
63
7
74
1
91
0
64
7
65
257
75
1
175
1
42
1.0
92
8
66
8
43
1.0
76
1
77
6
78
2
67
7
79
5
170
0
171
0
290
0
174
0
93
13
44
0.0
173
0
291
0
45
0.0
1001
ACAD
1000
AcDbSavedByObjectVersion
1070
0
0
VISUALSTYLE
5
FA0
102
{ACAD_XDICTIONARY
360
1098
102
}
102
{ACAD_REACTORS
330
F93
102
}
330
F93
100
AcDbVisualStyle
2

70
13
71
2
72
2
73
0
90
0
40
-0.6
41
-30.0
62
5
63
7
74
1
91
4
64
7
65
257
75
1
175
1
42
1.0
92
12
66
7
43
1.0
76
1
77
6
78
2
67
7
79
5
170
0
171
0
290
0
174
0
93
1
44
0.0
173
0
291
1
45
0.0
1001
ACAD
1000
AcDbSavedByObjectVersion
1070
0
0
DICTIONARYVAR
5
FF3
102
{ACAD_REACTORS
330
FF0
102
}
330
FF0
100
DictionaryVariables
280
0
1
1:1
0
DICTIONARYVAR
5
FF2
102
{ACAD_REACTORS
330
FF0
102
}
330
FF0
100
DictionaryVariables
280
0
1
STANDARD
0
DICTIONARYVAR
5
FF1
102
{ACAD_REACTORS
330
FF0
102
}
330
FF0
100
DictionaryVariables
280
0
1
STANDARD
0
DICTIONARYVAR
5
FF6
102
{ACAD_REACTORS
330
FF0
102
}
330
FF0
100
DictionaryVariables
280
0
1
1
0
DICTIONARYVAR
5
FF5
102
{ACAD_REACTORS
330
FF0
102
}
330
FF0
100
DictionaryVariables
280
0
1
0
0
DICTIONARYVAR
5
FF4
102
{ACAD_REACTORS
330
FF0
102
}
330
FF0
100
DictionaryVariables
280
0
1
127
0
DICTIONARYVAR
5
1078
102
{ACAD_REACTORS
330
FF0
102
}
330
FF0
100
DictionaryVariables
280
0
1
2
0
DICTIONARY
5
10A9
330
FD1
100
AcDbDictionary
280
1
281
1
3
ACAD_XREC_ROUNDTRIP
360
10AA
0
DICTIONARY
5
10A7
330
FD0
100
AcDbDictionary
280
1
281
1
3
ACAD_XREC_ROUNDTRIP
360
10A8
0
DICTIONARY
5
F84
330
F83
100
AcDbDictionary
280
1
281
1
3
ACAD_XREC_ROUNDTRIP
360
FFF
3
BUMPTILE
360
F86
3
DIFFUSETILE
360
F85
3
OPACITYTILE
360
F89
3
REFLECTIONTILE
360
F88
3
REFRACTIONTILE
360
F8A
3
SPECULARTILE
360
F87
0
DICTIONARY
5
F7C
330
F7B
100
AcDbDictionary
280
1
281
1
3
ACAD_XREC_ROUNDTRIP
360
FFE
3
BUMPTILE
360
F7E
3
DIFFUSETILE
360
F7D
3
OPACITYTILE
360
F81
3
REFLECTIONTILE
360
F80
3
REFRACTIONTILE
360
F82
3
SPECULARTILE
360
F7F
0
DICTIONARY
5
F8C
330
F8B
100
AcDbDictionary
280
1
281
1
3
ACAD_XREC_ROUNDTRIP
360
1000
3
BUMPTILE
360
F8E
3
DIFFUSETILE
360
F8D
3
OPACITYTILE
360
F91
3
REFLECTIONTILE
360
F90
3
REFRACTIONTILE
360
F92
3
SPECULARTILE
360
F8F
0
DICTIONARY
5
FF8
330
FA9
100
AcDbDictionary
280
1
281
1
3
ACAD_ROUNDTRIP_2008_TABLESTYLE_CELLSTYLEMAP
360
1079
3
ACAD_XREC_ROUNDTRIP
360
10A6
0
DICTIONARY
5
108A
330
F99
100
AcDbDictionary
280
1
281
1
3
ACAD_XREC_ROUNDTRIP
360
108B
0
DICTIONARY
5
108E
330
F9B
100
AcDbDictionary
280
1
281
1
3
ACAD_XREC_ROUNDTRIP
360
108F
0
DICTIONARY
5
108C
330
F9A
100
AcDbDictionary
280
1
281
1
3
ACAD_XREC_ROUNDTRIP
360
108D
0
DICTIONARY
5
1088
330
F98
100
AcDbDictionary
280
1
281
1
3
ACAD_XREC_ROUNDTRIP
360
1089
0
DICTIONARY
5
1096
330
F9F
100
AcDbDictionary
280
1
281
1
3
ACAD_XREC_ROUNDTRIP
360
1097
0
DICTIONARY
5
109E
330
FA3
100
AcDbDictionary
280
1
281
1
3
ACAD_XREC_ROUNDTRIP
360
109F
0
DICTIONARY
5
1090
330
F9C
100
AcDbDictionary
280
1
281
1
3
ACAD_XREC_ROUNDTRIP
360
1091
0
DICTIONARY
5
1094
330
F9E
100
AcDbDictionary
280
1
281
1
3
ACAD_XREC_ROUNDTRIP
360
1095
0
DICTIONARY
5
10A4
330
FA6
100
AcDbDictionary
280
1
281
1
3
ACAD_XREC_ROUNDTRIP
360
10A5
0
DICTIONARY
5
109C
330
FA2
100
AcDbDictionary
280
1
281
1
3
ACAD_XREC_ROUNDTRIP
360
109D
0
DICTIONARY
5
1080
330
F94
100
AcDbDictionary
280
1
281
1
3
ACAD_XREC_ROUNDTRIP
360
1081
0
DICTIONARY
5
1082
330
F95
100
AcDbDictionary
280
1
281
1
3
ACAD_XREC_ROUNDTRIP
360
1083
0
DICTIONARY
5
1084
330
F96
100
AcDbDictionary
280
1
281
1
3
ACAD_XREC_ROUNDTRIP
360
1085
0
DICTIONARY
5
1086
330
F97
100
AcDbDictionary
280
1
281
1
3
ACAD_XREC_ROUNDTRIP
360
1087
0
DICTIONARY
5
10A0
330
FA4
100
AcDbDictionary
280
1
281
1
3
ACAD_XREC_ROUNDTRIP
360
10A1
0
DICTIONARY
5
109A
330
FA1
100
AcDbDictionary
280
1
281
1
3
ACAD_XREC_ROUNDTRIP
360
109B
0
DICTIONARY
5
10A2
330
FA5
100
AcDbDictionary
280
1
281
1
3
ACAD_XREC_ROUNDTRIP
360
10A3
0
DICTIONARY
5
1092
330
F9D
100
AcDbDictionary
280
1
281
1
3
ACAD_XREC_ROUNDTRIP
360
1093
0
DICTIONARY
5
1098
330
FA0
100
AcDbDictionary
280
1
281
1
3
ACAD_XREC_ROUNDTRIP
360
1099
0
XRECORD
5
10AA
102
{ACAD_REACTORS
330
10A9
102
}
330
10A9
100
AcDbXrecord
280
1
102
SHADEPLOT
70
0
102
SHADEPLOTRESLEVEL
70
2
102
SHADEPLOTCUSTOMDPI
70
300
0
XRECORD
5
10A8
102
{ACAD_REACTORS
330
10A7
102
}
330
10A7
100
AcDbXrecord
280
1
102
SHADEPLOT
70
0
102
SHADEPLOTRESLEVEL
70
2
102
SHADEPLOTCUSTOMDPI
70
300
0
XRECORD
5
FFF
102
{ACAD_REACTORS
330
F84
102
}
330
F84
100
AcDbXrecord
280
1
102
MATERIAL
148
0.0
149
0.0
149
0.0
93
0
94
127
282
0
72
0
77
0
171
0
175
0
179
0
273
0
0
XRECORD
5
F86
102
{ACAD_REACTORS
330
F84
102
}
330
F84
100
AcDbXrecord
280
1
270
1
271
1
0
XRECORD
5
F85
102
{ACAD_REACTORS
330
F84
102
}
330
F84
100
AcDbXrecord
280
1
270
1
271
1
0
XRECORD
5
F89
102
{ACAD_REACTORS
330
F84
102
}
330
F84
100
AcDbXrecord
280
1
270
1
271
1
0
XRECORD
5
F88
102
{ACAD_REACTORS
330
F84
102
}
330
F84
100
AcDbXrecord
280
1
270
1
271
1
0
XRECORD
5
F8A
102
{ACAD_REACTORS
330
F84
102
}
330
F84
100
AcDbXrecord
280
1
270
1
271
1
0
XRECORD
5
F87
102
{ACAD_REACTORS
330
F84
102
}
330
F84
100
AcDbXrecord
280
1
270
1
271
1
0
XRECORD
5
FFE
102
{ACAD_REACTORS
330
F7C
102
}
330
F7C
100
AcDbXrecord
280
1
102
MATERIAL
148
0.0
149
0.0
149
0.0
93
0
94
127
282
0
72
0
77
0
171
0
175
0
179
0
273
0
0
XRECORD
5
F7E
102
{ACAD_REACTORS
330
F7C
102
}
330
F7C
100
AcDbXrecord
280
1
270
1
271
1
0
XRECORD
5
F7D
102
{ACAD_REACTORS
330
F7C
102
}
330
F7C
100
AcDbXrecord
280
1
270
1
271
1
0
XRECORD
5
F81
102
{ACAD_REACTORS
330
F7C
102
}
330
F7C
100
AcDbXrecord
280
1
270
1
271
1
0
XRECORD
5
F80
102
{ACAD_REACTORS
330
F7C
102
}
330
F7C
100
AcDbXrecord
280
1
270
1
271
1
0
XRECORD
5
F82
102
{ACAD_REACTORS
330
F7C
102
}
330
F7C
100
AcDbXrecord
280
1
270
1
271
1
0
XRECORD
5
F7F
102
{ACAD_REACTORS
330
F7C
102
}
330
F7C
100
AcDbXrecord
280
1
270
1
271
1
0
XRECORD
5
1000
102
{ACAD_REACTORS
330
F8C
102
}
330
F8C
100
AcDbXrecord
280
1
102
MATERIAL
148
0.0
149
0.0
149
0.0
93
0
94
127
282
0
72
0
77
0
171
0
175
0
179
0
273
0
0
XRECORD
5
F8E
102
{ACAD_REACTORS
330
F8C
102
}
330
F8C
100
AcDbXrecord
280
1
270
1
271
1
0
XRECORD
5
F8D
102
{ACAD_REACTORS
330
F8C
102
}
330
F8C
100
AcDbXrecord
280
1
270
1
271
1
0
XRECORD
5
F91
102
{ACAD_REACTORS
330
F8C
102
}
330
F8C
100
AcDbXrecord
280
1
270
1
271
1
0
XRECORD
5
F90
102
{ACAD_REACTORS
330
F8C
102
}
330
F8C
100
AcDbXrecord
280
1
270
1
271
1
0
XRECORD
5
F92
102
{ACAD_REACTORS
330
F8C
102
}
330
F8C
100
AcDbXrecord
280
1
270
1
271
1
0
XRECORD
5
F8F
102
{ACAD_REACTORS
330
F8C
102
}
330
F8C
100
AcDbXrecord
280
1
270
1
271
1
0
CELLSTYLEMAP
5
1079
102
{ACAD_REACTORS
330
FF8
102
}
330
FF8
100
AcDbCellStyleMap
90
3
300
CELLSTYLE
1
TABLEFORMAT_BEGIN
90
5
170
1
91
0
92
32768
62
257
93
1
300
CONTENTFORMAT
1
CONTENTFORMAT_BEGIN
90
0
91
0
92
512
93
0
300

40
0.0
140
1.0
94
5
62
0
340
253
144
0.25
309
CONTENTFORMAT_END
171
1
301
MARGIN
1
CELLMARGIN_BEGIN
40
0.06
40
0.06
40
0.06
40
0.06
40
0.18
40
0.18
309
CELLMARGIN_END
94
6
95
1
302
GRIDFORMAT
1
GRIDFORMAT_BEGIN
90
0
91
1
62
0
92
-2
340
0
93
0
40
0.045
309
GRIDFORMAT_END
95
2
302
GRIDFORMAT
1
GRIDFORMAT_BEGIN
90
0
91
1
62
0
92
-2
340
0
93
0
40
0.045
309
GRIDFORMAT_END
95
4
302
GRIDFORMAT
1
GRIDFORMAT_BEGIN
90
0
91
1
62
0
92
-2
340
0
93
0
40
0.045
309
GRIDFORMAT_END
95
8
302
GRIDFORMAT
1
GRIDFORMAT_BEGIN
90
0
91
1
62
0
92
-2
340
0
93
0
40
0.045
309
GRIDFORMAT_END
95
16
302
GRIDFORMAT
1
GRIDFORMAT_BEGIN
90
0
91
1
62
0
92
-2
340
0
93
0
40
0.045
309
GRIDFORMAT_END
95
32
302
GRIDFORMAT
1
GRIDFORMAT_BEGIN
90
0
91
1
62
0
92
-2
340
0
93
0
40
0.045
309
GRIDFORMAT_END
309
TABLEFORMAT_END
1
CELLSTYLE_BEGIN
90
1
91
1
300
_TITLE
309
CELLSTYLE_END
300
CELLSTYLE
1
TABLEFORMAT_BEGIN
90
5
170
1
91
0
92
0
62
257
93
1
300
CONTENTFORMAT
1
CONTENTFORMAT_BEGIN
90
0
91
0
92
512
93
0
300

40
0.0
140
1.0
94
5
62
0
340
253
144
0.18
309
CONTENTFORMAT_END
171
1
301
MARGIN
1
CELLMARGIN_BEGIN
40
0.06
40
0.06
40
0.06
40
0.06
40
0.18
40
0.18
309
CELLMARGIN_END
94
6
95
1
302
GRIDFORMAT
1
GRIDFORMAT_BEGIN
90
0
91
1
62
0
92
-2
340
0
93
0
40
0.045
309
GRIDFORMAT_END
95
2
302
GRIDFORMAT
1
GRIDFORMAT_BEGIN
90
0
91
1
62
0
92
-2
340
0
93
0
40
0.045
309
GRIDFORMAT_END
95
4
302
GRIDFORMAT
1
GRIDFORMAT_BEGIN
90
0
91
1
62
0
92
-2
340
0
93
0
40
0.045
309
GRIDFORMAT_END
95
8
302
GRIDFORMAT
1
GRIDFORMAT_BEGIN
90
0
91
1
62
0
92
-2
340
0
93
0
40
0.045
309
GRIDFORMAT_END
95
16
302
GRIDFORMAT
1
GRIDFORMAT_BEGIN
90
0
91
1
62
0
92
-2
340
0
93
0
40
0.045
309
GRIDFORMAT_END
95
32
302
GRIDFORMAT
1
GRIDFORMAT_BEGIN
90
0
91
1
62
0
92
-2
340
0
93
0
40
0.045
309
GRIDFORMAT_END
309
TABLEFORMAT_END
1
CELLSTYLE_BEGIN
90
2
91
1
300
_HEADER
309
CELLSTYLE_END
300
CELLSTYLE
1
TABLEFORMAT_BEGIN
90
5
170
1
91
0
92
0
62
257
93
1
300
CONTENTFORMAT
1
CONTENTFORMAT_BEGIN
90
0
91
0
92
512
93
0
300

40
0.0
140
1.0
94
2
62
0
340
253
144
0.18
309
CONTENTFORMAT_END
171
1
301
MARGIN
1
CELLMARGIN_BEGIN
40
0.06
40
0.06
40
0.06
40
0.06
40
0.18
40
0.18
309
CELLMARGIN_END
94
6
95
1
302
GRIDFORMAT
1
GRIDFORMAT_BEGIN
90
0
91
1
62
0
92
-2
340
0
93
0
40
0.045
309
GRIDFORMAT_END
95
2
302
GRIDFORMAT
1
GRIDFORMAT_BEGIN
90
0
91
1
62
0
92
-2
340
0
93
0
40
0.045
309
GRIDFORMAT_END
95
4
302
GRIDFORMAT
1
GRIDFORMAT_BEGIN
90
0
91
1
62
0
92
-2
340
0
93
0
40
0.045
309
GRIDFORMAT_END
95
8
302
GRIDFORMAT
1
GRIDFORMAT_BEGIN
90
0
91
1
62
0
92
-2
340
0
93
0
40
0.045
309
GRIDFORMAT_END
95
16
302
GRIDFORMAT
1
GRIDFORMAT_BEGIN
90
0
91
1
62
0
92
-2
340
0
93
0
40
0.045
309
GRIDFORMAT_END
95
32
302
GRIDFORMAT
1
GRIDFORMAT_BEGIN
90
0
91
1
62
0
92
-2
340
0
93
0
40
0.045
309
GRIDFORMAT_END
309
TABLEFORMAT_END
1
CELLSTYLE_BEGIN
90
3
91
2
300
_DATA
309
CELLSTYLE_END
0
XRECORD
5
10A6
102
{ACAD_REACTORS
330
FF8
102
}
330
FF8
100
AcDbXrecord
280
1
102
ACAD_ROUNDTRIP_PRE2007_TABLESTYLE
90
512
91
0
1

92
512
93
0
2

94
512
95
0
3

0
XRECORD
5
108B
102
{ACAD_REACTORS
330
108A
102
}
330
108A
100
AcDbXrecord
280
1
102
RTVSPropertyOp0
70
1
102
RTVSPropertyOp1
70
1
102
RTVSPropertyOp2
70
1
102
RTVSPropertyOp3
70
1
102
RTVSPropertyOp4
70
1
102
RTVSPropertyOp5
70
1
102
RTVSPropertyOp6
70
1
102
RTVSPropertyOp7
70
1
102
RTVSPropertyOp8
70
1
102
RTVSPropertyOp9
70
1
102
RTVSPropertyOp10
70
1
102
RTVSPropertyOp11
70
1
102
RTVSPropertyOp12
70
1
102
RTVSPropertyOp13
70
1
102
RTVSPropertyOp14
70
1
102
RTVSPropertyOp15
70
1
102
RTVSPropertyOp16
70
1
102
RTVSPropertyOp17
70
1
102
RTVSPropertyOp18
70
1
102
RTVSPropertyOp19
70
1
102
RTVSPropertyOp20
70
1
102
RTVSPropertyOp21
70
1
102
RTVSPropertyOp22
70
1
102
RTVSPropertyOp23
70
1
102
RTVSPropertyOp24
70
1
102
RTVSPropertyOp25
70
1
102
RTVSPropertyOp26
70
1
102
RTVSPropertyOp27
70
1
0
XRECORD
5
108F
102
{ACAD_REACTORS
330
108E
102
}
330
108E
100
AcDbXrecord
280
1
102
RTVSPropertyOp0
70
1
102
RTVSPropertyOp1
70
1
102
RTVSPropertyOp2
70
1
102
RTVSPropertyOp3
70
1
102
RTVSPropertyOp4
70
1
102
RTVSPropertyOp5
70
1
102
RTVSPropertyOp6
70
1
102
RTVSPropertyOp7
70
1
102
RTVSPropertyOp8
70
1
102
RTVSPropertyOp9
70
1
102
RTVSPropertyOp10
70
1
102
RTVSPropertyOp11
70
1
102
RTVSPropertyOp12
70
1
102
RTVSPropertyOp13
70
1
102
RTVSPropertyOp14
70
1
102
RTVSPropertyOp15
70
1
102
RTVSPropertyOp16
70
1
102
RTVSPropertyOp17
70
1
102
RTVSPropertyOp18
70
1
102
RTVSPropertyOp19
70
1
102
RTVSPropertyOp20
70
1
102
RTVSPropertyOp21
70
1
102
RTVSPropertyOp22
70
1
102
RTVSPropertyOp23
70
1
102
RTVSPropertyOp24
70
1
102
RTVSPropertyOp25
70
1
102
RTVSPropertyOp26
70
1
102
RTVSPropertyOp27
70
1
0
XRECORD
5
108D
102
{ACAD_REACTORS
330
108C
102
}
330
108C
100
AcDbXrecord
280
1
102
RTVSPropertyOp0
70
1
102
RTVSPropertyOp1
70
1
102
RTVSPropertyOp2
70
1
102
RTVSPropertyOp3
70
1
102
RTVSPropertyOp4
70
1
102
RTVSPropertyOp5
70
1
102
RTVSPropertyOp6
70
1
102
RTVSPropertyOp7
70
1
102
RTVSPropertyOp8
70
1
102
RTVSPropertyOp9
70
1
102
RTVSPropertyOp10
70
1
102
RTVSPropertyOp11
70
1
102
RTVSPropertyOp12
70
1
102
RTVSPropertyOp13
70
1
102
RTVSPropertyOp14
70
1
102
RTVSPropertyOp15
70
1
102
RTVSPropertyOp16
70
1
102
RTVSPropertyOp17
70
1
102
RTVSPropertyOp18
70
1
102
RTVSPropertyOp19
70
1
102
RTVSPropertyOp20
70
1
102
RTVSPropertyOp21
70
1
102
RTVSPropertyOp22
70
1
102
RTVSPropertyOp23
70
1
102
RTVSPropertyOp24
70
1
102
RTVSPropertyOp25
70
1
102
RTVSPropertyOp26
70
1
102
RTVSPropertyOp27
70
1
0
XRECORD
5
1089
102
{ACAD_REACTORS
330
1088
102
}
330
1088
100
AcDbXrecord
280
1
102
RTVSPropertyOp0
70
1
102
RTVSPropertyOp1
70
1
102
RTVSPropertyOp2
70
1
102
RTVSPropertyOp3
70
1
102
RTVSPropertyOp4
70
1
102
RTVSPropertyOp5
70
1
102
RTVSPropertyOp6
70
1
102
RTVSPropertyOp7
70
1
102
RTVSPropertyOp8
70
1
102
RTVSPropertyOp9
70
1
102
RTVSPropertyOp10
70
1
102
RTVSPropertyOp11
70
1
102
RTVSPropertyOp12
70
1
102
RTVSPropertyOp13
70
1
102
RTVSPropertyOp14
70
1
102
RTVSPropertyOp15
70
1
102
RTVSPropertyOp16
70
1
102
RTVSPropertyOp17
70
1
102
RTVSPropertyOp18
70
1
102
RTVSPropertyOp19
70
1
102
RTVSPropertyOp20
70
1
102
RTVSPropertyOp21
70
1
102
RTVSPropertyOp22
70
1
102
RTVSPropertyOp23
70
1
102
RTVSPropertyOp24
70
1
102
RTVSPropertyOp25
70
1
102
RTVSPropertyOp26
70
1
102
RTVSPropertyOp27
70
1
0
XRECORD
5
1097
102
{ACAD_REACTORS
330
1096
102
}
330
1096
100
AcDbXrecord
280
1
102
RTVSPropertyOp0
70
1
102
RTVSPropertyOp1
70
1
102
RTVSPropertyOp2
70
1
102
RTVSPropertyOp3
70
1
102
RTVSPropertyOp4
70
1
102
RTVSPropertyOp5
70
1
102
RTVSPropertyOp6
70
1
102
RTVSPropertyOp7
70
1
102
RTVSPropertyOp8
70
1
102
RTVSPropertyOp9
70
1
102
RTVSPropertyOp10
70
1
102
RTVSPropertyOp11
70
1
102
RTVSPropertyOp12
70
1
102
RTVSPropertyOp13
70
1
102
RTVSPropertyOp14
70
1
102
RTVSPropertyOp15
70
1
102
RTVSPropertyOp16
70
1
102
RTVSPropertyOp17
70
1
102
RTVSPropertyOp18
70
1
102
RTVSPropertyOp19
70
1
102
RTVSPropertyOp20
70
1
102
RTVSPropertyOp21
70
1
102
RTVSPropertyOp22
70
1
102
RTVSPropertyOp23
70
1
102
RTVSPropertyOp24
70
1
102
RTVSPropertyOp25
70
1
102
RTVSPropertyOp26
70
1
102
RTVSPropertyOp27
70
1
0
XRECORD
5
109F
102
{ACAD_REACTORS
330
109E
102
}
330
109E
100
AcDbXrecord
280
1
102
RTVSPropertyOp0
70
1
102
RTVSPropertyOp1
70
1
102
RTVSPropertyOp2
70
1
102
RTVSPropertyOp3
70
1
102
RTVSPropertyOp4
70
1
102
RTVSPropertyOp5
70
1
102
RTVSPropertyOp6
70
1
102
RTVSPropertyOp7
70
1
102
RTVSPropertyOp8
70
1
102
RTVSPropertyOp9
70
1
102
RTVSPropertyOp10
70
1
102
RTVSPropertyOp11
70
1
102
RTVSPropertyOp12
70
1
102
RTVSPropertyOp13
70
1
102
RTVSPropertyOp14
70
1
102
RTVSPropertyOp15
70
1
102
RTVSPropertyOp16
70
1
102
RTVSPropertyOp17
70
1
102
RTVSPropertyOp18
70
1
102
RTVSPropertyOp19
70
1
102
RTVSPropertyOp20
70
1
102
RTVSPropertyOp21
70
1
102
RTVSPropertyOp22
70
1
102
RTVSPropertyOp23
70
1
102
RTVSPropertyOp24
70
1
102
RTVSPropertyOp25
70
1
102
RTVSPropertyOp26
70
1
102
RTVSPropertyOp27
70
1
0
XRECORD
5
1091
102
{ACAD_REACTORS
330
1090
102
}
330
1090
100
AcDbXrecord
280
1
102
RTVSPropertyOp0
70
1
102
RTVSPropertyOp1
70
1
102
RTVSPropertyOp2
70
1
102
RTVSPropertyOp3
70
1
102
RTVSPropertyOp4
70
1
102
RTVSPropertyOp5
70
1
102
RTVSPropertyOp6
70
1
102
RTVSPropertyOp7
70
1
102
RTVSPropertyOp8
70
1
102
RTVSPropertyOp9
70
1
102
RTVSPropertyOp10
70
1
102
RTVSPropertyOp11
70
1
102
RTVSPropertyOp12
70
1
102
RTVSPropertyOp13
70
1
102
RTVSPropertyOp14
70
1
102
RTVSPropertyOp15
70
1
102
RTVSPropertyOp16
70
1
102
RTVSPropertyOp17
70
1
102
RTVSPropertyOp18
70
1
102
RTVSPropertyOp19
70
1
102
RTVSPropertyOp20
70
1
102
RTVSPropertyOp21
70
1
102
RTVSPropertyOp22
70
1
102
RTVSPropertyOp23
70
1
102
RTVSPropertyOp24
70
1
102
RTVSPropertyOp25
70
1
102
RTVSPropertyOp26
70
1
102
RTVSPropertyOp27
70
1
0
XRECORD
5
1095
102
{ACAD_REACTORS
330
1094
102
}
330
1094
100
AcDbXrecord
280
1
102
RTVSPropertyOp0
70
1
102
RTVSPropertyOp1
70
1
102
RTVSPropertyOp2
70
1
102
RTVSPropertyOp3
70
1
102
RTVSPropertyOp4
70
1
102
RTVSPropertyOp5
70
1
102
RTVSPropertyOp6
70
1
102
RTVSPropertyOp7
70
1
102
RTVSPropertyOp8
70
1
102
RTVSPropertyOp9
70
1
102
RTVSPropertyOp10
70
1
102
RTVSPropertyOp11
70
1
102
RTVSPropertyOp12
70
1
102
RTVSPropertyOp13
70
1
102
RTVSPropertyOp14
70
1
102
RTVSPropertyOp15
70
1
102
RTVSPropertyOp16
70
1
102
RTVSPropertyOp17
70
1
102
RTVSPropertyOp18
70
1
102
RTVSPropertyOp19
70
1
102
RTVSPropertyOp20
70
1
102
RTVSPropertyOp21
70
1
102
RTVSPropertyOp22
70
1
102
RTVSPropertyOp23
70
1
102
RTVSPropertyOp24
70
1
102
RTVSPropertyOp25
70
1
102
RTVSPropertyOp26
70
1
102
RTVSPropertyOp27
70
1
0
XRECORD
5
10A5
102
{ACAD_REACTORS
330
10A4
102
}
330
10A4
100
AcDbXrecord
280
1
102
RTVSPropertyOp0
70
0
102
RTVSPropertyOp1
70
0
102
RTVSPropertyOp2
70
0
102
RTVSPropertyOp3
70
0
102
RTVSPropertyOp4
70
0
102
RTVSPropertyOp5
70
0
102
RTVSPropertyOp6
70
0
102
RTVSPropertyOp7
70
0
102
RTVSPropertyOp8
70
0
102
RTVSPropertyOp9
70
0
102
RTVSPropertyOp10
70
0
102
RTVSPropertyOp11
70
0
102
RTVSPropertyOp12
70
0
102
RTVSPropertyOp13
70
0
102
RTVSPropertyOp14
70
2
102
RTVSPropertyOp15
70
0
102
RTVSPropertyOp16
70
0
102
RTVSPropertyOp17
70
0
102
RTVSPropertyOp18
70
0
102
RTVSPropertyOp19
70
0
102
RTVSPropertyOp20
70
0
102
RTVSPropertyOp21
70
0
102
RTVSPropertyOp22
70
0
102
RTVSPropertyOp23
70
0
102
RTVSPropertyOp24
70
0
102
RTVSPropertyOp25
70
0
102
RTVSPropertyOp26
70
0
102
RTVSPropertyOp27
70
0
0
XRECORD
5
109D
102
{ACAD_REACTORS
330
109C
102
}
330
109C
100
AcDbXrecord
280
1
102
RTVSPropertyOp0
70
1
102
RTVSPropertyOp1
70
1
102
RTVSPropertyOp2
70
1
102
RTVSPropertyOp3
70
1
102
RTVSPropertyOp4
70
1
102
RTVSPropertyOp5
70
1
102
RTVSPropertyOp6
70
1
102
RTVSPropertyOp7
70
1
102
RTVSPropertyOp8
70
1
102
RTVSPropertyOp9
70
1
102
RTVSPropertyOp10
70
1
102
RTVSPropertyOp11
70
1
102
RTVSPropertyOp12
70
1
102
RTVSPropertyOp13
70
1
102
RTVSPropertyOp14
70
1
102
RTVSPropertyOp15
70
1
102
RTVSPropertyOp16
70
1
102
RTVSPropertyOp17
70
1
102
RTVSPropertyOp18
70
1
102
RTVSPropertyOp19
70
1
102
RTVSPropertyOp20
70
1
102
RTVSPropertyOp21
70
1
102
RTVSPropertyOp22
70
1
102
RTVSPropertyOp23
70
1
102
RTVSPropertyOp24
70
1
102
RTVSPropertyOp25
70
1
102
RTVSPropertyOp26
70
1
102
RTVSPropertyOp27
70
1
0
XRECORD
5
1081
102
{ACAD_REACTORS
330
1080
102
}
330
1080
100
AcDbXrecord
280
1
102
RTVSPropertyOp0
70
1
102
RTVSPropertyOp1
70
1
102
RTVSPropertyOp2
70
1
102
RTVSPropertyOp3
70
1
102
RTVSPropertyOp4
70
1
102
RTVSPropertyOp5
70
1
102
RTVSPropertyOp6
70
1
102
RTVSPropertyOp7
70
1
102
RTVSPropertyOp8
70
1
102
RTVSPropertyOp9
70
1
102
RTVSPropertyOp10
70
1
102
RTVSPropertyOp11
70
1
102
RTVSPropertyOp12
70
1
102
RTVSPropertyOp13
70
1
102
RTVSPropertyOp14
70
1
102
RTVSPropertyOp15
70
1
102
RTVSPropertyOp16
70
1
102
RTVSPropertyOp17
70
1
102
RTVSPropertyOp18
70
1
102
RTVSPropertyOp19
70
1
102
RTVSPropertyOp20
70
1
102
RTVSPropertyOp21
70
1
102
RTVSPropertyOp22
70
1
102
RTVSPropertyOp23
70
1
102
RTVSPropertyOp24
70
1
102
RTVSPropertyOp25
70
1
102
RTVSPropertyOp26
70
1
102
RTVSPropertyOp27
70
1
0
XRECORD
5
1083
102
{ACAD_REACTORS
330
1082
102
}
330
1082
100
AcDbXrecord
280
1
102
RTVSPropertyOp0
70
1
102
RTVSPropertyOp1
70
1
102
RTVSPropertyOp2
70
1
102
RTVSPropertyOp3
70
1
102
RTVSPropertyOp4
70
1
102
RTVSPropertyOp5
70
1
102
RTVSPropertyOp6
70
1
102
RTVSPropertyOp7
70
1
102
RTVSPropertyOp8
70
1
102
RTVSPropertyOp9
70
1
102
RTVSPropertyOp10
70
1
102
RTVSPropertyOp11
70
1
102
RTVSPropertyOp12
70
1
102
RTVSPropertyOp13
70
1
102
RTVSPropertyOp14
70
1
102
RTVSPropertyOp15
70
1
102
RTVSPropertyOp16
70
1
102
RTVSPropertyOp17
70
1
102
RTVSPropertyOp18
70
1
102
RTVSPropertyOp19
70
1
102
RTVSPropertyOp20
70
1
102
RTVSPropertyOp21
70
1
102
RTVSPropertyOp22
70
1
102
RTVSPropertyOp23
70
1
102
RTVSPropertyOp24
70
1
102
RTVSPropertyOp25
70
1
102
RTVSPropertyOp26
70
1
102
RTVSPropertyOp27
70
1
0
XRECORD
5
1085
102
{ACAD_REACTORS
330
1084
102
}
330
1084
100
AcDbXrecord
280
1
102
RTVSPropertyOp0
70
1
102
RTVSPropertyOp1
70
1
102
RTVSPropertyOp2
70
1
102
RTVSPropertyOp3
70
1
102
RTVSPropertyOp4
70
1
102
RTVSPropertyOp5
70
1
102
RTVSPropertyOp6
70
1
102
RTVSPropertyOp7
70
1
102
RTVSPropertyOp8
70
1
102
RTVSPropertyOp9
70
1
102
RTVSPropertyOp10
70
1
102
RTVSPropertyOp11
70
1
102
RTVSPropertyOp12
70
1
102
RTVSPropertyOp13
70
1
102
RTVSPropertyOp14
70
1
102
RTVSPropertyOp15
70
1
102
RTVSPropertyOp16
70
1
102
RTVSPropertyOp17
70
1
102
RTVSPropertyOp18
70
1
102
RTVSPropertyOp19
70
1
102
RTVSPropertyOp20
70
1
102
RTVSPropertyOp21
70
1
102
RTVSPropertyOp22
70
1
102
RTVSPropertyOp23
70
1
102
RTVSPropertyOp24
70
1
102
RTVSPropertyOp25
70
1
102
RTVSPropertyOp26
70
1
102
RTVSPropertyOp27
70
1
0
XRECORD
5
1087
102
{ACAD_REACTORS
330
1086
102
}
330
1086
100
AcDbXrecord
280
1
102
RTVSPropertyOp0
70
1
102
RTVSPropertyOp1
70
1
102
RTVSPropertyOp2
70
1
102
RTVSPropertyOp3
70
1
102
RTVSPropertyOp4
70
1
102
RTVSPropertyOp5
70
1
102
RTVSPropertyOp6
70
1
102
RTVSPropertyOp7
70
1
102
RTVSPropertyOp8
70
1
102
RTVSPropertyOp9
70
1
102
RTVSPropertyOp10
70
1
102
RTVSPropertyOp11
70
1
102
RTVSPropertyOp12
70
1
102
RTVSPropertyOp13
70
1
102
RTVSPropertyOp14
70
1
102
RTVSPropertyOp15
70
1
102
RTVSPropertyOp16
70
1
102
RTVSPropertyOp17
70
1
102
RTVSPropertyOp18
70
1
102
RTVSPropertyOp19
70
1
102
RTVSPropertyOp20
70
1
102
RTVSPropertyOp21
70
1
102
RTVSPropertyOp22
70
1
102
RTVSPropertyOp23
70
1
102
RTVSPropertyOp24
70
1
102
RTVSPropertyOp25
70
1
102
RTVSPropertyOp26
70
1
102
RTVSPropertyOp27
70
1
0
XRECORD
5
10A1
102
{ACAD_REACTORS
330
10A0
102
}
330
10A0
100
AcDbXrecord
280
1
102
RTVSPropertyOp0
70
0
102
RTVSPropertyOp1
70
0
102
RTVSPropertyOp2
70
0
102
RTVSPropertyOp3
70
0
102
RTVSPropertyOp4
70
0
102
RTVSPropertyOp5
70
0
102
RTVSPropertyOp6
70
0
102
RTVSPropertyOp7
70
0
102
RTVSPropertyOp8
70
0
102
RTVSPropertyOp9
70
0
102
RTVSPropertyOp10
70
0
102
RTVSPropertyOp11
70
0
102
RTVSPropertyOp12
70
0
102
RTVSPropertyOp13
70
0
102
RTVSPropertyOp14
70
2
102
RTVSPropertyOp15
70
0
102
RTVSPropertyOp16
70
0
102
RTVSPropertyOp17
70
0
102
RTVSPropertyOp18
70
0
102
RTVSPropertyOp19
70
0
102
RTVSPropertyOp20
70
0
102
RTVSPropertyOp21
70
0
102
RTVSPropertyOp22
70
0
102
RTVSPropertyOp23
70
0
102
RTVSPropertyOp24
70
0
102
RTVSPropertyOp25
70
0
102
RTVSPropertyOp26
70
0
102
RTVSPropertyOp27
70
0
0
XRECORD
5
109B
102
{ACAD_REACTORS
330
109A
102
}
330
109A
100
AcDbXrecord
280
1
102
RTVSPropertyOp0
70
1
102
RTVSPropertyOp1
70
1
102
RTVSPropertyOp2
70
1
102
RTVSPropertyOp3
70
1
102
RTVSPropertyOp4
70
1
102
RTVSPropertyOp5
70
1
102
RTVSPropertyOp6
70
1
102
RTVSPropertyOp7
70
1
102
RTVSPropertyOp8
70
1
102
RTVSPropertyOp9
70
1
102
RTVSPropertyOp10
70
1
102
RTVSPropertyOp11
70
1
102
RTVSPropertyOp12
70
1
102
RTVSPropertyOp13
70
1
102
RTVSPropertyOp14
70
1
102
RTVSPropertyOp15
70
1
102
RTVSPropertyOp16
70
1
102
RTVSPropertyOp17
70
1
102
RTVSPropertyOp18
70
1
102
RTVSPropertyOp19
70
1
102
RTVSPropertyOp20
70
1
102
RTVSPropertyOp21
70
1
102
RTVSPropertyOp22
70
1
102
RTVSPropertyOp23
70
1
102
RTVSPropertyOp24
70
1
102
RTVSPropertyOp25
70
1
102
RTVSPropertyOp26
70
1
102
RTVSPropertyOp27
70
1
0
XRECORD
5
10A3
102
{ACAD_REACTORS
330
10A2
102
}
330
10A2
100
AcDbXrecord
280
1
102
RTVSPropertyOp0
70
0
102
RTVSPropertyOp1
70
0
102
RTVSPropertyOp2
70
0
102
RTVSPropertyOp3
70
0
102
RTVSPropertyOp4
70
0
102
RTVSPropertyOp5
70
0
102
RTVSPropertyOp6
70
0
102
RTVSPropertyOp7
70
0
102
RTVSPropertyOp8
70
0
102
RTVSPropertyOp9
70
0
102
RTVSPropertyOp10
70
0
102
RTVSPropertyOp11
70
0
102
RTVSPropertyOp12
70
0
102
RTVSPropertyOp13
70
0
102
RTVSPropertyOp14
70
2
102
RTVSPropertyOp15
70
0
102
RTVSPropertyOp16
70
0
102
RTVSPropertyOp17
70
0
102
RTVSPropertyOp18
70
0
102
RTVSPropertyOp19
70
0
102
RTVSPropertyOp20
70
0
102
RTVSPropertyOp21
70
0
102
RTVSPropertyOp22
70
0
102
RTVSPropertyOp23
70
0
102
RTVSPropertyOp24
70
0
102
RTVSPropertyOp25
70
0
102
RTVSPropertyOp26
70
0
102
RTVSPropertyOp27
70
0
0
XRECORD
5
1093
102
{ACAD_REACTORS
330
1092
102
}
330
1092
100
AcDbXrecord
280
1
102
RTVSPropertyOp0
70
1
102
RTVSPropertyOp1
70
1
102
RTVSPropertyOp2
70
1
102
RTVSPropertyOp3
70
1
102
RTVSPropertyOp4
70
1
102
RTVSPropertyOp5
70
1
102
RTVSPropertyOp6
70
1
102
RTVSPropertyOp7
70
1
102
RTVSPropertyOp8
70
1
102
RTVSPropertyOp9
70
1
102
RTVSPropertyOp10
70
1
102
RTVSPropertyOp11
70
1
102
RTVSPropertyOp12
70
1
102
RTVSPropertyOp13
70
1
102
RTVSPropertyOp14
70
1
102
RTVSPropertyOp15
70
1
102
RTVSPropertyOp16
70
1
102
RTVSPropertyOp17
70
1
102
RTVSPropertyOp18
70
1
102
RTVSPropertyOp19
70
1
102
RTVSPropertyOp20
70
1
102
RTVSPropertyOp21
70
1
102
RTVSPropertyOp22
70
1
102
RTVSPropertyOp23
70
1
102
RTVSPropertyOp24
70
1
102
RTVSPropertyOp25
70
1
102
RTVSPropertyOp26
70
1
102
RTVSPropertyOp27
70
1
0
XRECORD
5
1099
102
{ACAD_REACTORS
330
1098
102
}
330
1098
100
AcDbXrecord
280
1
102
RTVSPropertyOp0
70
1
102
RTVSPropertyOp1
70
1
102
RTVSPropertyOp2
70
1
102
RTVSPropertyOp3
70
1
102
RTVSPropertyOp4
70
1
102
RTVSPropertyOp5
70
1
102
RTVSPropertyOp6
70
1
102
RTVSPropertyOp7
70
1
102
RTVSPropertyOp8
70
1
102
RTVSPropertyOp9
70
1
102
RTVSPropertyOp10
70
1
102
RTVSPropertyOp11
70
1
102
RTVSPropertyOp12
70
1
102
RTVSPropertyOp13
70
1
102
RTVSPropertyOp14
70
1
102
RTVSPropertyOp15
70
1
102
RTVSPropertyOp16
70
1
102
RTVSPropertyOp17
70
1
102
RTVSPropertyOp18
70
1
102
RTVSPropertyOp19
70
1
102
RTVSPropertyOp20
70
1
102
RTVSPropertyOp21
70
1
102
RTVSPropertyOp22
70
1
102
RTVSPropertyOp23
70
1
102
RTVSPropertyOp24
70
1
102
RTVSPropertyOp25
70
1
102
RTVSPropertyOp26
70
1
102
RTVSPropertyOp27
70
1
0
ENDSEC
0
EOF
