0
SECTION
2
HEADER
9
$ACADVER
1
AC1015
9
$ACADMAINTVER
70
20
9
$DWGCODEPAGE
3
ANSI_1252
9
$INSBASE
10
0.0
20
0.0
30
0.0
9
$EXTMIN
10
-150.000000000000
20
-105.000000000000
30
0.0
9
$EXTMAX
10
150.000000000000
20
105.000000000000
30
0.0
9
$LIMMIN
10
0.0
20
0.0
9
$LIMMAX
10
12.0
20
9.0
9
$ORTHOMODE
70
0
9
$REGENMODE
70
1
9
$FILLMODE
70
1
9
$QTEXTMODE
70
0
9
$MIRRTEXT
70
1
9
$LTSCALE
40
1.0
9
$ATTMODE
70
1
9
$TEXTSIZE
40
0.2
9
$TRACEWID
40
0.05
9
$TEXTSTYLE
7
Standard
9
$CLAYER
8
0
9
$CELTYPE
6
ByLayer
9
$CECOLOR
62
256
9
$CELTSCALE
40
1.0
9
$DISPSILH
70
0
9
$DIMSCALE
40
1.0
9
$DIMASZ
40
2.5
9
$DIMEXO
40
0.625
9
$DIMDLI
40
0.38
9
$DIMRND
40
0.0
9
$DIMDLE
40
0.0
9
$DIMEXE
40
1.25
9
$DIMTP
40
0.0
9
$DIMTM
40
0.000000001
9
$DIMTXT
40
2.5
9
$DIMCEN
40
0.09
9
$DIMTSZ
40
0.0
9
$DIMTOL
70
1
9
$DIMLIM
70
0
9
$DIMTIH
70
0
9
$DIMTOH
70
0
9
$DIMSE1
70
0
9
$DIMSE2
70
0
9
$DIMTAD
70
1
9
$DIMZIN
70
0
9
$DIMBLK
1
VDDIM_DEFAULT
9
$DIMASO
70
1
9
$DIMSHO
70
1
9
$DIMPOST
1

9
$DIMAPOST
1

9
$DIMALT
70
0
9
$DIMALTD
70
2
9
$DIMALTF
40
25.4
9
$DIMLFAC
40
1.00000000000000
9
$DIMTOFL
70
0
9
$DIMTVP
40
0.0
9
$DIMTIX
70
0
9
$DIMSOXD
70
0
9
$DIMSAH
70
0
9
$DIMBLK1
1

9
$DIMBLK2
1

9
$DIMSTYLE
2
BEM-ISBE
9
$DIMCLRD
70
0
9
$DIMCLRE
70
0
9
$DIMCLRT
70
0
9
$DIMTFAC
40
0.5
9
$DIMGAP
40
0.625
9
$DIMJUST
70
0
9
$DIMSD1
70
0
9
$DIMSD2
70
0
9
$DIMTOLJ
70
1
9
$DIMTZIN
70
0
9
$DIMALTZ
70
0
9
$DIMALTTZ
70
0
9
$DIMUPT
70
0
9
$DIMDEC
70
3
9
$DIMTDEC
70
3
9
$DIMALTU
70
2
9
$DIMALTTD
70
2
9
$DIMTXSTY
7
Standard
9
$DIMAUNIT
70
0
9
$DIMADEC
70
3
9
$DIMALTRND
40
0.0
9
$DIMAZIN
70
0
9
$DIMDSEP
70
46
9
$DIMATFIT
70
3
9
$DIMFRAC
70
0
9
$DIMLDRBLK
1

9
$DIMLUNIT
70
2
9
$DIMLWD
70
-2
9
$DIMLWE
70
-2
9
$DIMTMOVE
70
0
9
$LUNITS
70
2
9
$LUPREC
70
4
9
$SKETCHINC
40
0.1
9
$FILLETRAD
40
0.5
9
$AUNITS
70
0
9
$AUPREC
70
0
9
$MENU
1
.
9
$ELEVATION
40
0.0
9
$PELEVATION
40
0.0
9
$THICKNESS
40
0.0
9
$LIMCHECK
70
0
9
$CHAMFERA
40
0.5
9
$CHAMFERB
40
0.5
9
$CHAMFERC
40
1.0
9
$CHAMFERD
40
0.0
9
$SKPOLY
70
0
9
$TDCREATE
40
0.0
9
$TDUCREATE
40
0.0
9
$TDUPDATE
40
0.0
9
$TDUUPDATE
40
0.0
9
$TDINDWG
40
0.0
9
$TDUSRTIMER
40
0.0
9
$USRTIMER
70
1
9
$ANGBASE
50
0.0
9
$ANGDIR
70
0
9
$PDMODE
70
0
9
$PDSIZE
40
0.0
9
$PLINEWID
40
0.0
9
$SPLFRAME
70
0
9
$SPLINETYPE
70
6
9
$SPLINESEGS
70
8
9
$HANDSEED
5
10AB
9
$SURFTAB1
70
6
9
$SURFTAB2
70
6
9
$SURFTYPE
70
6
9
$SURFU
70
6
9
$SURFV
70
6
9
$UCSBASE
2

9
$UCSNAME
2

9
$UCSORG
10
0.0
20
0.0
30
0.0
9
$UCSXDIR
10
1.0
20
0.0
30
0.0
9
$UCSYDIR
10
0.0
20
1.0
30
0.0
9
$UCSORTHOREF
2

9
$UCSORTHOVIEW
70
0
9
$UCSORGTOP
10
0.0
20
0.0
30
0.0
9
$UCSORGBOTTOM
10
0.0
20
0.0
30
0.0
9
$UCSORGLEFT
10
0.0
20
0.0
30
0.0
9
$UCSORGRIGHT
10
0.0
20
0.0
30
0.0
9
$UCSORGFRONT
10
0.0
20
0.0
30
0.0
9
$UCSORGBACK
10
0.0
20
0.0
30
0.0
9
$PUCSBASE
2

9
$PUCSNAME
2

9
$PUCSORG
10
0.0
20
0.0
30
0.0
9
$PUCSXDIR
10
1.0
20
0.0
30
0.0
9
$PUCSYDIR
10
0.0
20
1.0
30
0.0
9
$PUCSORTHOREF
2

9
$PUCSORTHOVIEW
70
0
9
$PUCSORGTOP
10
0.0
20
0.0
30
0.0
9
$PUCSORGBOTTOM
10
0.0
20
0.0
30
0.0
9
$PUCSORGLEFT
10
0.0
20
0.0
30
0.0
9
$PUCSORGRIGHT
10
0.0
20
0.0
30
0.0
9
$PUCSORGFRONT
10
0.0
20
0.0
30
0.0
9
$PUCSORGBACK
10
0.0
20
0.0
30
0.0
9
$USERI1
70
0
9
$USERI2
70
0
9
$USERI3
70
0
9
$USERI4
70
0
9
$USERI5
70
0
9
$USERR1
40
0.0
9
$USERR2
40
0.0
9
$USERR3
40
0.0
9
$USERR4
40
0.0
9
$USERR5
40
0.0
9
$WORLDVIEW
70
1
9
$SHADEDGE
70
3
9
$SHADEDIF
70
70
9
$TILEMODE
70
1
9
$MAXACTVP
70
64
9
$PINSBASE
10
0.0
20
0.0
30
0.0
9
$PLIMCHECK
70
0
9
$PEXTMIN
10
1.000000000000000E+20
20
1.000000000000000E+20
30
1.000000000000000E+20
9
$PEXTMAX
10
-1.000000000000000E+20
20
-1.000000000000000E+20
30
-1.000000000000000E+20
9
$PLIMMIN
10
0.0
20
0.0
9
$PLIMMAX
10
12.0
20
9.0
9
$UNITMODE
70
0
9
$VISRETAIN
70
1
9
$PLINEGEN
70
0
9
$PSLTSCALE
70
1
9
$TREEDEPTH
70
3020
9
$CMLSTYLE
2
Standard
9
$CMLJUST
70
0
9
$CMLSCALE
40
1.0
9
$PROXYGRAPHICS
70
1
9
$MEASUREMENT
70
0
9
$CELWEIGHT
370
-1
9
$ENDCAPS
280
0
9
$JOINSTYLE
280
0
9
$LWDISPLAY
290
0
9
$INSUNITS
70
4
9
$HYPERLINKBASE
1

9
$STYLESHEET
1

9
$XEDIT
290
1
9
$CEPSNTYPE
380
0
9
$PSTYLEMODE
290
0
9
$FINGERPRINTGUID
2
{FAEB1C30-E019-11D5-929B-00C0DF256EC4}
9
$VERSIONGUID
2
{04C5C4E4-4947-4D90-8812-D401569E61F7}
9
$EXTNAMES
290
1
9
$PSVPSCALE
40
0.0
9
$OLESTARTUP
290
0
0
ENDSEC
0
SECTION
2
TABLES
0
TABLE
2
VPORT
5
24A
330
0
100
AcDbSymbolTable
70
1
0
VPORT
5
26B
330
24A
100
AcDbSymbolTableRecord
100
AcDbViewportTableRecord
2
*Active
70
0
10
0.0
20
0.0
11
1.0
21
1.0
12
0.000000000000000
22
0.000000000000000
13
0.0
23
0.0
14
10.0
24
10.0
15
10.0
25
10.0
16
0.0
26
0.0
36
1.0
17
0.0
27
0.0
37
0.0
40
210.000000000000
41
1.42857142857143
42
1.0
43
0.0
44
0.0
50
0.0
51
0.0000000000007958
71
0
72
100
73
1
74
3
75
0
76
0
77
0
78
1
281
0
65
1
110
0.0
120
0.0
130
0.0
111
1.0
121
0.0
131
0.0
112
0.0
122
1.0
132
0.0
79
0
146
0.0
0
ENDTAB
0
TABLE
2
LTYPE
5
247
330
0
100
AcDbSymbolTable
70
25
0
LTYPE
5
256
330
247
100
AcDbSymbolTableRecord
100
AcDbLinetypeTableRecord
2
ByBlock
70
0
3

72
65
73
0
40
0.0
0
LTYPE
5
257
330
247
100
AcDbSymbolTableRecord
100
AcDbLinetypeTableRecord
2
ByLayer
70
0
3

72
65
73
0
40
0.0
0
LTYPE
5
258
330
247
100
AcDbSymbolTableRecord
100
AcDbLinetypeTableRecord
2
Continuous
70
0
3
Solid line
72
65
73
0
40
0.0
0
LTYPE
5
273
330
247
100
AcDbSymbolTableRecord
100
AcDbLinetypeTableRecord
2
CENTER
70
0
3
Center ____ _ ____ _ ____ _ ____ _ ____ _ ____
72
65
73
4
40
2.0
49
1.25
74
0
49
-0.25
74
0
49
0.25
74
0
49
-0.25
74
0
0
LTYPE
5
274
330
247
100
AcDbSymbolTableRecord
100
AcDbLinetypeTableRecord
2
DASHDOT
70
0
3
Dashdot __ . __ . __ . __ . __ . __ . __ . __
72
65
73
4
40
1.0
49
0.5
74
0
49
-0.25
74
0
49
0.0
74
0
49
-0.25
74
0
0
LTYPE
5
275
330
247
100
AcDbSymbolTableRecord
100
AcDbLinetypeTableRecord
2
DASHED
70
0
3
Dashed __ __ __ __ __ __ __ __ __ __ __ __ __ _
72
65
73
2
40
0.75
49
0.5
74
0
49
-0.25
74
0
0
LTYPE
5
276
330
247
100
AcDbSymbolTableRecord
100
AcDbLinetypeTableRecord
2
HIDDEN
70
0
3
Hidden __ __ __ __ __ __ __ __ __ __ __ __ __ __
72
65
73
2
40
0.375
49
0.25
74
0
49
-0.125
74
0
0
LTYPE
5
277
330
247
100
AcDbSymbolTableRecord
100
AcDbLinetypeTableRecord
2
HIDDEN2
70
0
3
Hidden2 _ _ _ _ _ _ _ _ _ _ _ _ _ _ _ _ _
72
65
73
2
40
0.1875
49
0.125
74
0
49
-0.0625
74
0
0
LTYPE
5
278
330
247
100
AcDbSymbolTableRecord
100
AcDbLinetypeTableRecord
2
BORDER
70
0
3
Border __ __ . __ __ . __ __ . __ __ . __ __ .
72
65
73
6
40
1.75
49
0.5
74
0
49
-0.25
74
0
49
0.5
74
0
49
-0.25
74
0
49
0.0
74
0
49
-0.25
74
0
0
LTYPE
5
279
330
247
100
AcDbSymbolTableRecord
100
AcDbLinetypeTableRecord
2
BORDER2
70
0
3
Border2 __.__.__.__.__.__.__.__.__.__.__.
72
65
73
6
40
0.875
49
0.25
74
0
49
-0.125
74
0
49
0.25
74
0
49
-0.125
74
0
49
0.0
74
0
49
-0.125
74
0
0
LTYPE
5
27A
330
247
100
AcDbSymbolTableRecord
100
AcDbLinetypeTableRecord
2
BORDERX2
70
0
3
Borderx2  ____  ____  .  ____  ____  .  ___
72
65
73
6
40
3.5
49
1.0
74
0
49
-0.5
74
0
49
1.0
74
0
49
-0.5
74
0
49
0.0
74
0
49
-0.5
74
0
0
LTYPE
5
27B
330
247
100
AcDbSymbolTableRecord
100
AcDbLinetypeTableRecord
2
CENTER2
70
0
3
Center2  ___ _ ___ _ ___ _ ___ _ ___ _ ___
72
65
73
4
40
1.125
49
0.75
74
0
49
-0.125
74
0
49
0.125
74
0
49
-0.125
74
0
0
LTYPE
5
27C
330
247
100
AcDbSymbolTableRecord
100
AcDbLinetypeTableRecord
2
CENTERX2
70
0
3
Centerx2  ________  __  ________  __  _____
72
65
73
4
40
4.0
49
2.5
74
0
49
-0.5
74
0
49
0.5
74
0
49
-0.5
74
0
0
LTYPE
5
27D
330
247
100
AcDbSymbolTableRecord
100
AcDbLinetypeTableRecord
2
DASHDOT2
70
0
3
Dashdot2  _._._._._._._._._._._._._._._.
72
65
73
4
40
0.5
49
0.25
74
0
49
-0.125
74
0
49
0.0
74
0
49
-0.125
74
0
0
LTYPE
5
27E
330
247
100
AcDbSymbolTableRecord
100
AcDbLinetypeTableRecord
2
DASHDOTX2
70
0
3
Dashdotx2 ____  .  ____  .  ____  .  ___
72
65
73
4
40
2.0
49
1.0
74
0
49
-0.5
74
0
49
0.0
74
0
49
-0.5
74
0
0
LTYPE
5
27F
330
247
100
AcDbSymbolTableRecord
100
AcDbLinetypeTableRecord
2
DASHED2
70
0
3
Dashed2 _ _ _ _ _ _ _ _ _ _ _ _ _ _ _ _ _
72
65
73
2
40
0.375
49
0.25
74
0
49
-0.125
74
0
0
LTYPE
5
280
330
247
100
AcDbSymbolTableRecord
100
AcDbLinetypeTableRecord
2
DASHEDX2
70
0
3
Dashedx2 ____  ____  ____  ____  ____  ___
72
65
73
2
40
1.5
49
1.0
74
0
49
-0.5
74
0
0
LTYPE
5
281
330
247
100
AcDbSymbolTableRecord
100
AcDbLinetypeTableRecord
2
DIVIDE
70
0
3
Divide ____ . . ____ . . ____ . . ____ . . ____
72
65
73
6
40
1.25
49
0.5
74
0
49
-0.25
74
0
49
0.0
74
0
49
-0.25
74
0
49
0.0
74
0
49
-0.25
74
0
0
LTYPE
5
282
330
247
100
AcDbSymbolTableRecord
100
AcDbLinetypeTableRecord
2
DIVIDE2
70
0
3
Divide2 __..__..__..__..__..__..__..__.._
72
65
73
6
40
0.625
49
0.25
74
0
49
-0.125
74
0
49
0.0
74
0
49
-0.125
74
0
49
0.0
74
0
49
-0.125
74
0
0
LTYPE
5
283
330
247
100
AcDbSymbolTableRecord
100
AcDbLinetypeTableRecord
2
DIVIDEX2
70
0
3
Dividex2 ________  .  .  ________  .  .  _
72
65
73
6
40
2.5
49
1.0
74
0
49
-0.5
74
0
49
0.0
74
0
49
-0.5
74
0
49
0.0
74
0
49
-0.5
74
0
0
LTYPE
5
284
330
247
100
AcDbSymbolTableRecord
100
AcDbLinetypeTableRecord
2
DOT
70
0
3
Dot . . . . . . . . . . . . . . . . . . . . . . . .
72
65
73
2
40
0.25
49
0.0
74
0
49
-0.25
74
0
0
LTYPE
5
285
330
247
100
AcDbSymbolTableRecord
100
AcDbLinetypeTableRecord
2
DOT2
70
0
3
Dot2 ........................................
72
65
73
2
40
0.125
49
0.0
74
0
49
-0.125
74
0
0
LTYPE
5
286
330
247
100
AcDbSymbolTableRecord
100
AcDbLinetypeTableRecord
2
DOTX2
70
0
3
Dotx2 .  .  .  .  .  .  .  .  .  .  .  .  .  .
72
65
73
2
40
0.5
49
0.0
74
0
49
-0.5
74
0
0
LTYPE
5
287
330
247
100
AcDbSymbolTableRecord
100
AcDbLinetypeTableRecord
2
HIDDENX2
70
0
3
Hiddenx2 ____ ____ ____ ____ ____ ____ ____
72
65
73
2
40
0.75
49
0.5
74
0
49
-0.25
74
0
0
LTYPE
5
288
330
247
100
AcDbSymbolTableRecord
100
AcDbLinetypeTableRecord
2
PHANTOM
70
0
3
Phantom ______  __  __  ______  __  __  ______
72
65
73
6
40
2.5
49
1.25
74
0
49
-0.25
74
0
49
0.25
74
0
49
-0.25
74
0
49
0.25
74
0
49
-0.25
74
0
0
LTYPE
5
289
330
247
100
AcDbSymbolTableRecord
100
AcDbLinetypeTableRecord
2
PHANTOM2
70
0
3
Phantom2 ___ _ _ ___ _ _ ___ _ _ ___ _ _
72
65
73
6
40
1.25
49
0.625
74
0
49
-0.125
74
0
49
0.125
74
0
49
-0.125
74
0
49
0.125
74
0
49
-0.125
74
0
0
LTYPE
5
28A
330
247
100
AcDbSymbolTableRecord
100
AcDbLinetypeTableRecord
2
PHANTOMX2
70
0
3
Phantomx2 ____________    ____    ____   _
72
65
73
6
40
5.0
49
2.5
74
0
49
-0.5
74
0
49
0.5
74
0
49
-0.5
74
0
49
0.5
74
0
49
-0.5
74
0
0
ENDTAB
0
TABLE
2
LAYER
5
244
330
0
100
AcDbSymbolTable
70
6
0
LAYER
5
252
330
244
100
AcDbSymbolTableRecord
100
AcDbLayerTableRecord
2
0
70
0
62
7
6
Continuous
370
0
390
251
0
LAYER
5
23F
330
244
100
AcDbSymbolTableRecord
100
AcDbLayerTableRecord
2
Bemassung
70
0
 62
   7
6
Continuous
370
0
390
251
0
LAYER
5
240
330
244
100
AcDbSymbolTableRecord
100
AcDbLayerTableRecord
2
Rahmen
70
0
 62
   7
6
Continuous
370
0
390
251
0
LAYER
5
241
330
244
100
AcDbSymbolTableRecord
100
AcDbLayerTableRecord
2
Geo
70
0
 62
   7
6
Continuous
370
0
390
251
0
LAYER
5
33A
330
244
100
AcDbSymbolTableRecord
100
AcDbLayerTableRecord
2
Defpoints
70
0
62
7
6
Continuous
290
0
370
-3
390
251
0
LAYER
5
57E
330
244
100
AcDbSymbolTableRecord
100
AcDbLayerTableRecord
2
Text
70
0
 62
   7
6
Continuous
370
0
390
251
1001
AcAecLayerStandard
1000

1000

0
ENDTAB
0
TABLE
2
STYLE
5
245
330
0
100
AcDbSymbolTable
70
2
0
STYLE
5
253
330
245
100
AcDbSymbolTableRecord
100
AcDbTextStyleTableRecord
2
Standard
70
0
40
0.0
41
1.0
50
0.0
71
0
42
0.2
3
Arial
4

1001
ACAD
1000
Arial
1071
0
0
STYLE
5
132
330
245
100
AcDbSymbolTableRecord
100
AcDbTextStyleTableRecord
2
Beschriftung
70
0
40
0.0
41
1.0
50
0.0
71
0
42
0.2
3
Arial
4

1001
ACAD
1000
Arial
1071
0
1001
AcadAnnotative
1000
AnnotativeData
1070
1
1070
1
0
ENDTAB
0
TABLE
2
VIEW
5
248
330
0
100
AcDbSymbolTable
70
0
0
ENDTAB
0
TABLE
2
UCS
5
249
330
0
100
AcDbSymbolTable
70
0
0
ENDTAB
0
TABLE
2
APPID
5
24B
330
0
100
AcDbSymbolTable
70
13
0
APPID
5
254
330
24B
100
AcDbSymbolTableRecord
100
AcDbRegAppTableRecord
2
ACAD
70
0
0
APPID
5
26C
330
24B
100
AcDbSymbolTableRecord
100
AcDbRegAppTableRecord
2
VD_INVISIBLE_NOT_FOR_READ
70
0
0
APPID
5
26D
330
24B
100
AcDbSymbolTableRecord
100
AcDbRegAppTableRecord
2
VD_TEMPHATCH
70
0
0
APPID
5
26E
330
24B
100
AcDbSymbolTableRecord
100
AcDbRegAppTableRecord
2
VDEXTRAPARAM
70
0
0
APPID
5
26F
330
24B
100
AcDbSymbolTableRecord
100
AcDbRegAppTableRecord
2
PE_URL
70
0
0
APPID
5
270
330
24B
100
AcDbSymbolTableRecord
100
AcDbRegAppTableRecord
2
VD_UNKNOWN
70
0
0
APPID
5
28F
330
24B
100
AcDbSymbolTableRecord
100
AcDbRegAppTableRecord
2
AcadAnnotative
70
0
0
APPID
5
290
330
24B
100
AcDbSymbolTableRecord
100
AcDbRegAppTableRecord
2
ACAD_DSTYLE_DIMJAG
70
0
0
APPID
5
291
330
24B
100
AcDbSymbolTableRecord
100
AcDbRegAppTableRecord
2
ACAD_DSTYLE_DIMTALN
70
0
0
APPID
5
293
330
24B
100
AcDbSymbolTableRecord
100
AcDbRegAppTableRecord
2
ACAD_PSEXT
70
0
0
APPID
5
42A
330
24B
100
AcDbSymbolTableRecord
100
AcDbRegAppTableRecord
2
ACAD_MLEADERVER
70
0
0
APPID
5
532
330
24B
100
AcDbSymbolTableRecord
100
AcDbRegAppTableRecord
2
ACAD_EXEMPT_FROM_CAD_STANDARDS
70
0
0
APPID
5
57F
330
24B
100
AcDbSymbolTableRecord
100
AcDbRegAppTableRecord
2
AcAecLayerStandard
70
0
0
ENDTAB
0
TABLE
2
DIMSTYLE
5
24C
330
0
100
AcDbSymbolTable
70
3
100
AcDbDimStyleTable
71
2
340
27
340
269
0
DIMSTYLE
105
269
330
24C
100
AcDbSymbolTableRecord
100
AcDbDimStyleTableRecord
2
Standard
70
0
172
1
174
1
288
1
340
253
342
23C
0
DIMSTYLE
105
137
330
24C
100
AcDbSymbolTableRecord
100
AcDbDimStyleTableRecord
2
Beschriftung
70
0
41
2.5
42
0.625
44
1.25
73
0
74
0
77
1
140
2.5
147
0.625
172
1
174
1
271
2
288
1
340
253
342
23C
1001
AcadAnnotative
1000
AnnotativeData
1070
1
1070
1
1001
ACAD_DSTYLE_DIMJAG
1070
388
1040
1.5
1001
ACAD_DSTYLE_DIMTALN
1070
392
1070
0
0
DIMSTYLE
105
27
102
{ACAD_REACTORS
330
F10008
330
F10012
330
F1001C
330
F10021
330
F10026
330
F10003
330
F1000D
330
F10017
102
}
330
24C
100
AcDbSymbolTableRecord
100
AcDbDimStyleTableRecord
2
BEM-ISBE
70
0
41
2.5
42
0.625
44
1.25
48
0.000000001
71
1
73
0
74
0
77
1
140
2.5
144
1.00000000000000
146
0.5
147
0.625
171
 3
172
 1
179
 3
271
 3
272
 3
274
 3
340
253
342
23C
1001
ACAD_DSTYLE_DIMJAG
1070
388
1040
1.5
1001
ACAD_DSTYLE_DIMTALN
1070
392
1070
1
0
ENDTAB
0
TABLE
2
BLOCK_RECORD
5
243
330
0
100
AcDbSymbolTable
70
5
0
BLOCK_RECORD
5
261
330
243
100
AcDbSymbolTableRecord
100
AcDbBlockTableRecord
2
*Model_Space
340
FD0
0
BLOCK_RECORD
5
25D
330
243
100
AcDbSymbolTableRecord
100
AcDbBlockTableRecord
2
*Paper_Space
340
FD1
0
BLOCK_RECORD
5
265
330
243
100
AcDbSymbolTableRecord
100
AcDbBlockTableRecord
2
*Paper_Space0
340
0
0
BLOCK_RECORD
5
23C
330
243
100
AcDbSymbolTableRecord
100
AcDbBlockTableRecord
2
VDDIM_DEFAULT
340
0
102
{BLKREFS
102
}
0
BLOCK_RECORD
5
23E
330
243
100
AcDbSymbolTableRecord
100
AcDbBlockTableRecord
2
VDDIM_NONE
340
0
0
BLOCK_RECORD
5
F10007
330
243
100
AcDbSymbolTableRecord
100
AcDbBlockTableRecord
2
*D4
340
0
0
BLOCK_RECORD
5
F10011
330
243
100
AcDbSymbolTableRecord
100
AcDbBlockTableRecord
2
*D6
340
0
0
BLOCK_RECORD
5
F1001B
330
243
100
AcDbSymbolTableRecord
100
AcDbBlockTableRecord
2
*D8
340
0
0
BLOCK_RECORD
5
F10020
330
243
100
AcDbSymbolTableRecord
100
AcDbBlockTableRecord
2
*D9
340
0
0
BLOCK_RECORD
5
F10025
330
243
100
AcDbSymbolTableRecord
100
AcDbBlockTableRecord
2
*D10
340
0
0
BLOCK_RECORD
5
F10002
330
243
100
AcDbSymbolTableRecord
100
AcDbBlockTableRecord
2
*D3
340
0
0
BLOCK_RECORD
5
F1000C
330
243
100
AcDbSymbolTableRecord
100
AcDbBlockTableRecord
2
*D5
340
0
0
BLOCK_RECORD
5
F10016
330
243
100
AcDbSymbolTableRecord
100
AcDbBlockTableRecord
2
*D7
340
0
0
ENDTAB
0
ENDSEC
0
SECTION
2
BLOCKS
0
BLOCK
5
262
330
261
100
AcDbEntity
8
0
100
AcDbBlockBegin
2
*Model_Space
70
0
10
0.0
20
0.0
30
0.0
3
*Model_Space
1

0
ENDBLK
5
263
330
261
100
AcDbEntity
8
0
100
AcDbBlockEnd
0
BLOCK
5
25E
330
25D
100
AcDbEntity
67
1
8
0
100
AcDbBlockBegin
2
*Paper_Space
70
0
10
0.0
20
0.0
30
0.0
3
*Paper_Space
1

0
ENDBLK
5
25F
330
25D
100
AcDbEntity
67
1
8
0
100
AcDbBlockEnd
0
BLOCK
5
266
330
265
100
AcDbEntity
8
0
100
AcDbBlockBegin
2
*Paper_Space0
70
0
10
0.0
20
0.0
30
0.0
3
*Paper_Space0
1

0
VIEWPORT
5
296
102
{ACAD_XDICTIONARY
360
58E
102
}
330
265
100
AcDbEntity
8
0
60
1
100
AcDbViewport
10
0.0
20
0.0
30
0.0
40
10.0
41
10.0
69
0
12
0.0
22
0.0
13
0.0
23
0.0
14
1.0
24
1.0
15
0.0
25
0.0
16
0.0
26
0.0
36
1.0
17
0.0
27
0.0
37
0.0
42
0.0
43
0.0
44
0.0
45
10.0
50
0.0
51
0.0000000000007958
72
100
90
163872
1

281
0
71
0
74
0
110
0.0
120
0.0
130
0.0
111
1.0
121
0.0
131
0.0
112
0.0
122
1.0
132
0.0
79
0
146
0.0
1001
VD_INVISIBLE_NOT_FOR_READ
1000
VD_INVISIBLE_NOT_FOR_READ
0
VIEWPORT
5
297
102
{ACAD_XDICTIONARY
360
590
102
}
330
265
100
AcDbEntity
8
0
60
1
100
AcDbViewport
10
0.0
20
0.0
30
0.0
40
10.0
41
10.0
69
0
12
0.0
22
0.0
13
0.0
23
0.0
14
1.0
24
1.0
15
0.0
25
0.0
16
0.0
26
0.0
36
1.0
17
0.0
27
0.0
37
0.0
42
0.0
43
0.0
44
0.0
45
10.0
50
0.0
51
0.0000000000007958
72
100
90
163872
1

281
0
71
0
74
0
110
0.0
120
0.0
130
0.0
111
1.0
121
0.0
131
0.0
112
0.0
122
1.0
132
0.0
79
0
146
0.0
1001
VD_INVISIBLE_NOT_FOR_READ
1000
VD_INVISIBLE_NOT_FOR_READ
0
ENDBLK
5
267
330
265
100
AcDbEntity
8
0
100
AcDbBlockEnd
0
BLOCK
5
28B
330
23C
100
AcDbEntity
8
0
100
AcDbBlockBegin
2
VDDIM_DEFAULT
70
0
10
0.0
20
0.0
30
0.0
3
VDDIM_DEFAULT
1

0
LWPOLYLINE
5
23D
330
23C
100
AcDbEntity
8
0
6
Continuous
62
0
100
AcDbPolyline
90
4
70
0
43
0.0
10
0.0
20
0.0
10
-1.0
20
-0.1665
10
-1.0
20
0.1665
10
0.0
20
0.0
1001
VDEXTRAPARAM
1071
1
1071
0
1071
0
1040
1.0
1000

1000

1040
0.0
1040
0.0
0
HATCH
5
292
330
23C
100
AcDbEntity
8
0
6
Continuous
62
0
100
AcDbHatch
10
0.0
20
0.0
30
0.0
210
0.0
220
0.0
230
1.0
2
SOLID
70
1
71
0
91
1
92
2
72
0
73
1
93
3
10
0.0
20
0.0
10
-1.0
20
-0.1665
10
-1.0
20
0.1665
97
0
75
0
76
1
98
1
10
0.0
20
0.0
1001
VDEXTRAPARAM
1071
1
1071
0
1071
0
1040
1.0
1000

1000

1040
0.0
1040
0.0
1001
VD_TEMPHATCH
1000
VD_TEMPHATCH
0
ENDBLK
5
28C
330
23C
100
AcDbEntity
8
0
100
AcDbBlockEnd
0
BLOCK
5
28D
330
23E
100
AcDbEntity
8
0
100
AcDbBlockBegin
2
VDDIM_NONE
70
0
10
0.0
20
0.0
30
0.0
3
VDDIM_NONE
1

0
ENDBLK
5
28E
330
23E
100
AcDbEntity
8
0
100
AcDbBlockEnd
  0
BLOCK
  5
F1002A
330
F10007
100
AcDbEntity
  8
0
100
AcDbBlockBegin
  2
*D4
 70
     1
 10
0.0
 20
0.0
 30
0.0
  3
*D4
  1

  0
LINE
  5
F1002B
330
F10007
100
AcDbEntity
  8
Bemassung
 62
     0
370
    -2
100
AcDbLine
10
-83.4754775091384
20
-20.6278521620237
30
0.000000000000000
11
-83.4754775091384
21
24.3721478379763
31
0.000000000000000
  0
LINE
  5
F1002C
330
F10007
100
AcDbEntity
  8
Bemassung
 62
     0
370
    -2
100
AcDbLine
10
-83.2254775091384
20
2.37214783797633
30
0.000000000000000
11
-83.2254775091384
21
9.37214783797633
31
0.000000000000000
  0
LINE
  5
F1002D
330
F10007
100
AcDbEntity
  8
Bemassung
 62
     0
370
    -2
100
AcDbLine
10
-98.1545957410246
20
7.37214783797633
30
0.000000000000000
11
-83.1151004030339
21
7.37214783797633
31
0.000000000000000
  0
INSERT
  5
F1002E
330
F10007
100
AcDbEntity
  8
Bemassung
 62
     0
370
    -2
100
AcDbBlockReference
  2
VDDIM_DEFAULT
10
-83.4754775091384
20
7.37214783797633
30
0.000000000000000
 41
2.50000000000000
 42
2.50000000000000
 43
2.50000000000000
  0
INSERT
  5
F1002F
330
F10007
100
AcDbEntity
  8
Bemassung
 62
     0
370
    -2
100
AcDbBlockReference
  2
VDDIM_DEFAULT
10
-83.2254775091384
20
7.37214783797633
30
0.000000000000000
 41
2.50000000000000
 42
2.50000000000000
 43
2.50000000000000
 50
180.000000000000
  0
MTEXT
  5
F10030
330
F10007
100
AcDbEntity
  8
Bemassung
 62
     0
100
AcDbMText
10
-83.2254775091384
20
8.03881450464299
30
0.000000000000000
 40
2.50000000000000
 41
0.0
 71
     8
 72
     1
  1
0.25 x 45°
 11
1.00000000000000
 21
0.000000000000000
 31
0.0
 73
     1
 44
1.0
1001
ACAD
1000
MTEXTBEGIN
1070
73
1070
1
1070
44
1040
1.0
1070
74
1070
0
1000
MTEXTEND
  0
POINT
  5
F10031
330
F10007
100
AcDbEntity
  8
Bemassung
 62
     0
100
AcDbPoint
10
-83.4754775091384
20
-20.6278521620237
30
0.000000000000000
  0
POINT
  5
F10032
330
F10007
100
AcDbEntity
  8
Bemassung
 62
     0
100
AcDbPoint
10
-83.2254775091384
20
2.37214783797633
30
0.000000000000000
  0
ENDBLK
  5
F10033
330
F10007
100
AcDbEntity
  8
0
100
AcDbBlockEnd
  0
BLOCK
  5
F10034
330
F10011
100
AcDbEntity
  8
0
100
AcDbBlockBegin
  2
*D6
 70
     1
 10
0.0
 20
0.0
 30
0.0
  3
*D6
  1

  0
LINE
  5
F10035
330
F10011
100
AcDbEntity
  8
Bemassung
 62
     0
370
    -2
100
AcDbLine
10
-67.4754775091384
20
2.37214783797633
30
0.000000000000000
11
-67.4754775091384
21
19.3721478379763
31
0.000000000000000
  0
LINE
  5
F10036
330
F10011
100
AcDbEntity
  8
Bemassung
 62
     0
370
    -2
100
AcDbLine
10
-19.4754775091384
20
1.87214783797633
30
0.000000000000000
11
-19.4754775091384
21
24.3721478379763
31
0.000000000000000
  0
LINE
  5
F10037
330
F10011
100
AcDbEntity
  8
Bemassung
 62
     0
370
    -2
100
AcDbLine
10
-67.4754775091384
20
17.3721478379763
30
0.000000000000000
11
-1.67044872653037
21
17.3721478379763
31
0.000000000000000
  0
INSERT
  5
F10038
330
F10011
100
AcDbEntity
  8
Bemassung
 62
     0
370
    -2
100
AcDbBlockReference
  2
VDDIM_DEFAULT
10
-67.4754775091384
20
17.3721478379763
30
0.000000000000000
 41
2.50000000000000
 42
2.50000000000000
 43
2.50000000000000
 50
180.000000000000
  0
INSERT
  5
F10039
330
F10011
100
AcDbEntity
  8
Bemassung
 62
     0
370
    -2
100
AcDbBlockReference
  2
VDDIM_DEFAULT
10
-19.4754775091384
20
17.3721478379763
30
0.000000000000000
 41
2.50000000000000
 42
2.50000000000000
 43
2.50000000000000
  0
MTEXT
  5
F1003A
330
F10011
100
AcDbEntity
  8
Bemassung
 62
     0
100
AcDbMText
10
-43.4754775091384
20
18.0388145046430
30
0.000000000000000
 40
2.50000000000000
 41
0.0
 71
     8
 72
     1
  1
48
 11
1.00000000000000
 21
0.000000000000000
 31
0.0
 73
     1
 44
1.0
1001
ACAD
1000
MTEXTBEGIN
1070
73
1070
1
1070
44
1040
1.0
1070
74
1070
0
1000
MTEXTEND
  0
POINT
  5
F1003B
330
F10011
100
AcDbEntity
  8
Bemassung
 62
     0
100
AcDbPoint
10
-67.4754775091384
20
2.37214783797633
30
0.000000000000000
  0
POINT
  5
F1003C
330
F10011
100
AcDbEntity
  8
Bemassung
 62
     0
100
AcDbPoint
10
-19.4754775091384
20
1.87214783797633
30
0.000000000000000
  0
ENDBLK
  5
F1003D
330
F10011
100
AcDbEntity
  8
0
100
AcDbBlockEnd
  0
BLOCK
  5
F1003E
330
F1001B
100
AcDbEntity
  8
0
100
AcDbBlockBegin
  2
*D8
 70
     1
 10
0.0
 20
0.0
 30
0.0
  3
*D8
  1

  0
LINE
  5
F1003F
330
F1001B
100
AcDbEntity
  8
Bemassung
 62
     0
370
    -2
100
AcDbLine
10
-67.4754775091384
20
-15.6278521620237
30
0.000000000000000
11
-67.4754775091384
21
-3.62785216202367
31
0.000000000000000
  0
LINE
  5
F10040
330
F1001B
100
AcDbEntity
  8
Bemassung
 62
     0
370
    -2
100
AcDbLine
10
-83.4754775091384
20
-20.6278521620237
30
0.000000000000000
11
-83.4754775091384
21
24.3721478379763
31
0.000000000000000
  0
LINE
  5
F10041
330
F1001B
100
AcDbEntity
  8
Bemassung
 62
     0
370
    -2
100
AcDbLine
10
-65.7618365515062
20
-13.6278521620237
30
0.000000000000000
11
-83.4754775091384
21
-13.6278521620237
31
0.000000000000000
  0
INSERT
  5
F10042
330
F1001B
100
AcDbEntity
  8
Bemassung
 62
     0
370
    -2
100
AcDbBlockReference
  2
VDDIM_DEFAULT
10
-67.4754775091384
20
-13.6278521620237
30
0.000000000000000
 41
2.50000000000000
 42
2.50000000000000
 43
2.50000000000000
  0
INSERT
  5
F10043
330
F1001B
100
AcDbEntity
  8
Bemassung
 62
     0
370
    -2
100
AcDbBlockReference
  2
VDDIM_DEFAULT
10
-83.4754775091384
20
-13.6278521620237
30
0.000000000000000
 41
2.50000000000000
 42
2.50000000000000
 43
2.50000000000000
 50
180.000000000000
  0
MTEXT
  5
F10044
330
F1001B
100
AcDbEntity
  8
Bemassung
 62
     0
100
AcDbMText
10
-75.4754775091384
20
-12.9611854953570
30
0.000000000000000
 40
2.50000000000000
 41
0.0
 71
     8
 72
     1
  1
16
 11
1.00000000000000
 21
0.000000000000000
 31
0.0
 73
     1
 44
1.0
1001
ACAD
1000
MTEXTBEGIN
1070
73
1070
1
1070
44
1040
1.0
1070
74
1070
0
1000
MTEXTEND
  0
POINT
  5
F10045
330
F1001B
100
AcDbEntity
  8
Bemassung
 62
     0
100
AcDbPoint
10
-67.4754775091384
20
-15.6278521620237
30
0.000000000000000
  0
POINT
  5
F10046
330
F1001B
100
AcDbEntity
  8
Bemassung
 62
     0
100
AcDbPoint
10
-83.4754775091384
20
-20.6278521620237
30
0.000000000000000
  0
ENDBLK
  5
F10047
330
F1001B
100
AcDbEntity
  8
0
100
AcDbBlockEnd
  0
BLOCK
  5
F10048
330
F10020
100
AcDbEntity
  8
0
100
AcDbBlockBegin
  2
*D9
 70
     1
 10
0.0
 20
0.0
 30
0.0
  3
*D9
  1

  0
LINE
  5
F10049
330
F10020
100
AcDbEntity
  8
Bemassung
 62
     0
370
    -2
100
AcDbLine
10
-66.4754775091384
20
-3.62785216202367
30
0.000000000000000
11
-66.4754775091384
21
-20.6278521620237
31
0.000000000000000
  0
LINE
  5
F1004A
330
F10020
100
AcDbEntity
  8
Bemassung
 62
     0
370
    -2
100
AcDbLine
10
-83.4754775091384
20
-20.6278521620237
30
0.000000000000000
11
-83.4754775091384
21
24.3721478379763
31
0.000000000000000
  0
LINE
  5
F1004B
330
F10020
100
AcDbEntity
  8
Bemassung
 62
     0
370
    -2
100
AcDbLine
10
-64.8363291460913
20
-18.6278521620237
30
0.000000000000000
11
-83.4754775091384
21
-18.6278521620237
31
0.000000000000000
  0
INSERT
  5
F1004C
330
F10020
100
AcDbEntity
  8
Bemassung
 62
     0
370
    -2
100
AcDbBlockReference
  2
VDDIM_DEFAULT
10
-66.4754775091384
20
-18.6278521620237
30
0.000000000000000
 41
2.50000000000000
 42
2.50000000000000
 43
2.50000000000000
  0
INSERT
  5
F1004D
330
F10020
100
AcDbEntity
  8
Bemassung
 62
     0
370
    -2
100
AcDbBlockReference
  2
VDDIM_DEFAULT
10
-83.4754775091384
20
-18.6278521620237
30
0.000000000000000
 41
2.50000000000000
 42
2.50000000000000
 43
2.50000000000000
 50
180.000000000000
  0
MTEXT
  5
F1004E
330
F10020
100
AcDbEntity
  8
Bemassung
 62
     0
100
AcDbMText
10
-74.9754775091384
20
-17.9611854953570
30
0.000000000000000
 40
2.50000000000000
 41
0.0
 71
     8
 72
     1
  1
17
 11
1.00000000000000
 21
0.000000000000000
 31
0.0
 73
     1
 44
1.0
1001
ACAD
1000
MTEXTBEGIN
1070
73
1070
1
1070
44
1040
1.0
1070
74
1070
0
1000
MTEXTEND
  0
POINT
  5
F1004F
330
F10020
100
AcDbEntity
  8
Bemassung
 62
     0
100
AcDbPoint
10
-66.4754775091384
20
-3.62785216202367
30
0.000000000000000
  0
POINT
  5
F10050
330
F10020
100
AcDbEntity
  8
Bemassung
 62
     0
100
AcDbPoint
10
-83.4754775091384
20
-20.6278521620237
30
0.000000000000000
  0
ENDBLK
  5
F10051
330
F10020
100
AcDbEntity
  8
0
100
AcDbBlockEnd
  0
BLOCK
  5
F10052
330
F10025
100
AcDbEntity
  8
0
100
AcDbBlockBegin
  2
*D10
 70
     1
 10
0.0
 20
0.0
 30
0.0
  3
*D10
  1

  0
LINE
  5
F10053
330
F10025
100
AcDbEntity
  8
Bemassung
 62
     0
370
    -2
100
AcDbLine
10
-19.4754775091384
20
1.87214783797633
30
0.000000000000000
11
-19.4754775091384
21
24.3721478379763
31
0.000000000000000
  0
LINE
  5
F10054
330
F10025
100
AcDbEntity
  8
Bemassung
 62
     0
370
    -2
100
AcDbLine
10
-83.4754775091384
20
-20.6278521620237
30
0.000000000000000
11
-83.4754775091384
21
24.3721478379763
31
0.000000000000000
  0
LINE
  5
F10055
330
F10025
100
AcDbEntity
  8
Bemassung
 62
     0
370
    -2
100
AcDbLine
10
-17.6354514699358
20
22.3721478379763
30
0.000000000000000
11
-83.4754775091384
21
22.3721478379763
31
0.000000000000000
  0
INSERT
  5
F10056
330
F10025
100
AcDbEntity
  8
Bemassung
 62
     0
370
    -2
100
AcDbBlockReference
  2
VDDIM_DEFAULT
10
-19.4754775091384
20
22.3721478379763
30
0.000000000000000
 41
2.50000000000000
 42
2.50000000000000
 43
2.50000000000000
  0
INSERT
  5
F10057
330
F10025
100
AcDbEntity
  8
Bemassung
 62
     0
370
    -2
100
AcDbBlockReference
  2
VDDIM_DEFAULT
10
-83.4754775091384
20
22.3721478379763
30
0.000000000000000
 41
2.50000000000000
 42
2.50000000000000
 43
2.50000000000000
 50
180.000000000000
  0
MTEXT
  5
F10058
330
F10025
100
AcDbEntity
  8
Bemassung
 62
     0
100
AcDbMText
10
-51.4754775091384
20
23.0388145046430
30
0.000000000000000
 40
2.50000000000000
 41
0.0
 71
     8
 72
     1
  1
64
 11
1.00000000000000
 21
0.000000000000000
 31
0.0
 73
     1
 44
1.0
1001
ACAD
1000
MTEXTBEGIN
1070
73
1070
1
1070
44
1040
1.0
1070
74
1070
0
1000
MTEXTEND
  0
POINT
  5
F10059
330
F10025
100
AcDbEntity
  8
Bemassung
 62
     0
100
AcDbPoint
10
-19.4754775091384
20
1.87214783797633
30
0.000000000000000
  0
POINT
  5
F1005A
330
F10025
100
AcDbEntity
  8
Bemassung
 62
     0
100
AcDbPoint
10
-83.4754775091384
20
-20.6278521620237
30
0.000000000000000
  0
ENDBLK
  5
F1005B
330
F10025
100
AcDbEntity
  8
0
100
AcDbBlockEnd
  0
BLOCK
  5
F1005C
330
F10002
100
AcDbEntity
  8
0
100
AcDbBlockBegin
  2
*D3
 70
     1
 10
0.0
 20
0.0
 30
0.0
  3
*D3
  1

 0
ARC
  5
F1005D
330
F10002
100
AcDbEntity
  8
Bemassung
 62
     0
370
   -2
100
AcDbCircle
10
-83.4754775091384
20
2.12214783797633
30
0.000000000000000
 40
15.0566551361939
100
AcDbArc
 50
90.0000000000000
 51
112.370470419578
  0
LINE
  5
F1005E
330
F10002
100
AcDbEntity
  8
Bemassung
 62
     0
370
    -2
100
AcDbLine
10
-83.4754775091384
20
2.12214783797633
30
0.000000000000000
11
-83.4754775091384
21
19.1788029741703
31
0.000000000000000
  0
LINE
  5
F1005F
330
F10002
100
AcDbEntity
  8
Bemassung
 62
     0
370
    -2
100
AcDbLine
10
-83.4754775091384
20
2.12214783797633
30
0.000000000000000
11
-84.0707461888197
21
19.1684125207167
31
0.000000000000000
  0
INSERT
  5
F10060
330
F10002
100
AcDbEntity
  8
Bemassung
 62
     0
370
    -2
100
AcDbBlockReference
  2
VDDIM_DEFAULT
10
-83.4754775091384
20
17.1788029741703
30
0.000000000000000
 41
2.50000000000000
 42
2.50000000000000
 43
2.50000000000000
 50
179.809732359873
  0
INSERT
  5
F10061
330
F10002
100
AcDbEntity
  8
Bemassung
 62
     0
370
    -2
100
AcDbBlockReference
  2
VDDIM_DEFAULT
10
-84.0009471954147
20
17.1696308666785
30
0.000000000000000
 41
2.50000000000000
 42
2.50000000000000
 43
2.50000000000000
 50
2.19026764012496
  0
MTEXT
  5
F10062
330
F10002
100
AcDbEntity
  8
Bemassung
 62
     0
100
AcDbMText
10
-88.6681448355228
20
16.2550551796303
30
0.000000000000000
 40
2.50000000000000
 41
0.0
 71
     8
 72
     1
  1
2°
 11
0.940690666396463
 21
0.339265486241347
 31
0.0
 73
     1
 44
1.0
1001
ACAD
1000
MTEXTBEGIN
1070
73
1070
1
1070
44
1040
1.0
1070
74
1070
0
1000
MTEXTEND
  0
POINT
  5
F10063
330
F10002
100
AcDbEntity
  8
Bemassung
 62
     0
100
AcDbPoint
10
-83.4754775091384
20
2.12214783797633
30
0.000000000000000
  0
POINT
  5
F10064
330
F10002
100
AcDbEntity
  8
Bemassung
 62
     0
100
AcDbPoint
10
-83.4754775091384
20
17.1788029741703
30
0.000000000000000
  0
POINT
  5
F10065
330
F10002
100
AcDbEntity
  8
Bemassung
 62
     0
100
AcDbPoint
10
-84.0009471954147
20
17.1696308666785
30
0.000000000000000
  0
POINT
  5
F10066
330
F10002
100
AcDbEntity
  8
Bemassung
 62
     0
100
AcDbPoint
10
-83.7382523741613
20
17.1765097726645
30
0.000000000000000
  0
ENDBLK
  5
F10067
330
F10002
100
AcDbEntity
  8
0
100
AcDbBlockEnd
  0
BLOCK
  5
F10068
330
F1000C
100
AcDbEntity
  8
0
100
AcDbBlockBegin
  2
*D5
 70
     1
 10
0.0
 20
0.0
 30
0.0
  3
*D5
  1

  0
LINE
  5
F10069
330
F1000C
100
AcDbEntity
  8
Bemassung
 62
     0
370
    -2
100
AcDbLine
10
-83.2254775091384
20
-3.62785216202367
30
0.000000000000000
11
-95.4754775091384
21
-3.62785216202367
31
0.000000000000000
  0
LINE
  5
F1006A
330
F1000C
100
AcDbEntity
  8
Bemassung
 62
     0
370
    -2
100
AcDbLine
10
-83.2254775091384
20
2.37214783797633
30
0.000000000000000
11
-95.4754775091384
21
2.37214783797633
31
0.000000000000000
  0
LINE
  5
F1006B
330
F1000C
100
AcDbEntity
  8
Bemassung
 62
     0
370
    -2
100
AcDbLine
10
-93.4754775091384
20
-3.62785216202367
30
0.000000000000000
11
-93.4754775091384
21
2.37214783797633
31
0.000000000000000
  0
INSERT
  5
F1006C
330
F1000C
100
AcDbEntity
  8
Bemassung
 62
     0
370
    -2
100
AcDbBlockReference
  2
VDDIM_DEFAULT
10
-93.4754775091384
20
-3.62785216202367
30
0.000000000000000
 41
2.50000000000000
 42
2.50000000000000
 43
2.50000000000000
 50
270.000000000000
  0
INSERT
  5
F1006D
330
F1000C
100
AcDbEntity
  8
Bemassung
 62
     0
370
    -2
100
AcDbBlockReference
  2
VDDIM_DEFAULT
10
-93.4754775091384
20
2.37214783797633
30
0.000000000000000
 41
2.50000000000000
 42
2.50000000000000
 43
2.50000000000000
 50
90.0000000000000
  0
MTEXT
  5
F1006E
330
F1000C
100
AcDbEntity
  8
Bemassung
 62
     0
100
AcDbMText
10
-92.8088108424718
20
-0.627852162023672
30
0.000000000000000
 40
2.50000000000000
 41
0.0
 71
     8
 72
     1
  1
6
 11
6.12323399573677e-017
 21
1.00000000000000
 31
0.0
 73
     1
 44
1.0
1001
ACAD
1000
MTEXTBEGIN
1070
73
1070
1
1070
44
1040
1.0
1070
74
1070
0
1000
MTEXTEND
  0
POINT
  5
F1006F
330
F1000C
100
AcDbEntity
  8
Bemassung
 62
     0
100
AcDbPoint
10
-83.2254775091384
20
-3.62785216202367
30
0.000000000000000
  0
POINT
  5
F10070
330
F1000C
100
AcDbEntity
  8
Bemassung
 62
     0
100
AcDbPoint
10
-83.2254775091384
20
2.37214783797633
30
0.000000000000000
  0
ENDBLK
  5
F10071
330
F1000C
100
AcDbEntity
  8
0
100
AcDbBlockEnd
  0
BLOCK
  5
F10072
330
F10016
100
AcDbEntity
  8
0
100
AcDbBlockBegin
  2
*D7
 70
     1
 10
0.0
 20
0.0
 30
0.0
  3
*D7
  1

  0
LINE
  5
F10073
330
F10016
100
AcDbEntity
  8
Bemassung
 62
     0
370
    -2
100
AcDbLine
10
-19.9754775091384
20
-3.62785216202367
30
0.000000000000000
11
-7.47547750913844
21
-3.62785216202367
31
0.000000000000000
  0
LINE
  5
F10074
330
F10016
100
AcDbEntity
  8
Bemassung
 62
     0
370
    -2
100
AcDbLine
10
-19.9754775091384
20
2.37214783797633
30
0.000000000000000
11
-7.47547750913844
21
2.37214783797633
31
0.000000000000000
  0
LINE
  5
F10075
330
F10016
100
AcDbEntity
  8
Bemassung
 62
     0
370
    -2
100
AcDbLine
10
-9.47547750913844
20
-4.59538365844745
30
0.000000000000000
11
-9.47547750913844
21
2.37214783797633
31
0.000000000000000
  0
INSERT
  5
F10076
330
F10016
100
AcDbEntity
  8
Bemassung
 62
     0
370
    -2
100
AcDbBlockReference
  2
VDDIM_DEFAULT
10
-9.47547750913844
20
-3.62785216202367
30
0.000000000000000
 41
2.50000000000000
 42
2.50000000000000
 43
2.50000000000000
 50
90.0000000000000
  0
INSERT
  5
F10077
330
F10016
100
AcDbEntity
  8
Bemassung
 62
     0
370
    -2
100
AcDbBlockReference
  2
VDDIM_DEFAULT
10
-9.47547750913844
20
2.37214783797633
30
0.000000000000000
 41
2.50000000000000
 42
2.50000000000000
 43
2.50000000000000
 50
270.000000000000
  0
MTEXT
  5
F10078
330
F10016
100
AcDbEntity
  8
Bemassung
 62
     0
100
AcDbMText
10
-8.80881084247178
20
-0.876291525082785
30
0.000000000000000
 40
2.50000000000000
 41
0.0
 71
     8
 72
     1
  1
6h5
 11
6.12323399573677e-017
 21
1.00000000000000
 31
0.0
 73
     1
 44
1.0
  0
POINT
  5
F10079
330
F10016
100
AcDbEntity
  8
Bemassung
 62
     0
100
AcDbPoint
10
-19.9754775091384
20
-3.62785216202367
30
0.000000000000000
  0
POINT
  5
F1007A
330
F10016
100
AcDbEntity
  8
Bemassung
 62
     0
100
AcDbPoint
10
-19.9754775091384
20
2.37214783797633
30
0.000000000000000
  0
ENDBLK
  5
F1007B
330
F10016
100
AcDbEntity
  8
0
100
AcDbBlockEnd
0
ENDSEC
0
SECTION
2
ENTITIES
  0
DIMENSION
  5
F10008
330
261
100
AcDbEntity
  8
Bemassung
100
AcDbDimension
  2
*D4
10
-83.2254775091384
20
7.37214783797633
30
0.000000000000000
11
-83.2254775091384
21
8.03881450464299
31
0.000000000000000
 70
32
 1
0.25 x 45°
 71
     8
  3
BEM-ISBE
100
AcDbAlignedDimension
13
-83.4754775091384
23
-20.6278521620237
33
0.000000000000000
14
-83.2254775091384
24
2.37214783797633
34
0.000000000000000
100
AcDbRotatedDimension
1001
ACAD
1000
DSTYLE
1002
{
1070
284
1070
8
1070
78
1070
8
1070
144
1040
1.00000000000000
1070
147
1040
0.625
1070
 72
1070
 0
1070
 71
1070
 0
1002
}
  0
DIMENSION
  5
F10012
330
261
100
AcDbEntity
  8
Bemassung
100
AcDbDimension
  2
*D6
10
-19.4754775091384
20
17.3721478379763
30
0.000000000000000
11
-43.4754775091384
21
18.0388145046430
31
0.000000000000000
 70
32
 1
48
 71
     8
  3
BEM-ISBE
100
AcDbAlignedDimension
13
-67.4754775091384
23
2.37214783797633
33
0.000000000000000
14
-19.4754775091384
24
1.87214783797633
34
0.000000000000000
100
AcDbRotatedDimension
1001
ACAD
1000
DSTYLE
1002
{
1070
284
1070
8
1070
78
1070
8
1070
144
1040
1.00000000000000
1070
147
1040
0.625
1070
 72
1070
 0
1070
 71
1070
 0
1002
}
  0
DIMENSION
  5
F1001C
330
261
100
AcDbEntity
  8
Bemassung
100
AcDbDimension
  2
*D8
10
-83.4754775091384
20
-13.6278521620237
30
0.000000000000000
11
-75.4754775091384
21
-12.9611854953570
31
0.000000000000000
 70
32
 1
16
 71
     8
  3
BEM-ISBE
100
AcDbAlignedDimension
13
-67.4754775091384
23
-15.6278521620237
33
0.000000000000000
14
-83.4754775091384
24
-20.6278521620237
34
0.000000000000000
100
AcDbRotatedDimension
1001
ACAD
1000
DSTYLE
1002
{
1070
284
1070
8
1070
78
1070
8
1070
144
1040
1.00000000000000
1070
147
1040
0.625
1070
 72
1070
 0
1070
 71
1070
 0
1002
}
  0
DIMENSION
  5
F10021
330
261
100
AcDbEntity
  8
Bemassung
100
AcDbDimension
  2
*D9
10
-83.4754775091384
20
-18.6278521620237
30
0.000000000000000
11
-74.9754775091384
21
-17.9611854953570
31
0.000000000000000
 70
32
 1
17
 71
     8
  3
BEM-ISBE
100
AcDbAlignedDimension
13
-66.4754775091384
23
-3.62785216202367
33
0.000000000000000
14
-83.4754775091384
24
-20.6278521620237
34
0.000000000000000
100
AcDbRotatedDimension
1001
ACAD
1000
DSTYLE
1002
{
1070
284
1070
8
1070
78
1070
8
1070
144
1040
1.00000000000000
1070
147
1040
0.625
1070
 72
1070
 0
1070
 71
1070
 0
1002
}
  0
DIMENSION
  5
F10026
330
261
100
AcDbEntity
  8
Bemassung
100
AcDbDimension
  2
*D10
10
-83.4754775091384
20
22.3721478379763
30
0.000000000000000
11
-51.4754775091384
21
23.0388145046430
31
0.000000000000000
 70
32
 1
64
 71
     8
  3
BEM-ISBE
100
AcDbAlignedDimension
13
-19.4754775091384
23
1.87214783797633
33
0.000000000000000
14
-83.4754775091384
24
-20.6278521620237
34
0.000000000000000
100
AcDbRotatedDimension
1001
ACAD
1000
DSTYLE
1002
{
1070
284
1070
8
1070
78
1070
8
1070
144
1040
1.00000000000000
1070
147
1040
0.625
1070
 72
1070
 0
1070
 71
1070
 0
1002
}
  0
DIMENSION
  5
F10003
330
261
100
AcDbEntity
  8
Bemassung
100
AcDbDimension
  2
*D3
10
-83.4754775091384
20
2.12214783797633
30
0.000000000000000
11
-88.6681448355228
21
16.2550551796303
31
0.000000000000000
 70
34
 1
2°
 71
     8
  3
BEM-ISBE
100
AcDb2LineAngularDimension
13
-83.4754775091384
23
2.12214783797633
33
0.000000000000000
14
-89.2059474859750
24
16.0456738904837
34
0.000000000000000
15
-83.4754775091384
25
17.1788029741703
35
0.000000000000000
16
-83.7382523741613
26
17.1765097726645
36
0.000000000000000
1001
ACAD
1000
DSTYLE
1002
{
1070
284
1070
8
1070
79
1070
2
1070
147
1040
0.625
1070
 72
1070
 0
1070
 71
1070
 0
1002
}
  0
DIMENSION
  5
F1000D
330
261
100
AcDbEntity
  8
Bemassung
100
AcDbDimension
  2
*D5
10
-93.4754775091384
20
2.37214783797633
30
0.000000000000000
11
-92.8088108424718
21
-0.627852162023672
31
0.000000000000000
 70
32
 1
6
 71
     8
  3
BEM-ISBE
100
AcDbAlignedDimension
13
-83.2254775091384
23
-3.62785216202367
33
0.000000000000000
14
-83.2254775091384
24
2.37214783797633
34
0.000000000000000
50
90.0000000000000
100
AcDbRotatedDimension
1001
ACAD
1000
DSTYLE
1002
{
1070
284
1070
8
1070
78
1070
8
1070
144
1040
1.00000000000000
1070
147
1040
0.625
1070
 72
1070
 0
1070
 71
1070
 0
1002
}
  0
DIMENSION
  5
F10017
330
261
100
AcDbEntity
  8
Bemassung
100
AcDbDimension
  2
*D7
10
-9.47547750913844
20
2.37214783797633
30
0.000000000000000
11
-8.80881084247178
21
-0.876291525082785
31
0.000000000000000
 70
32
 1
6h5
 71
     8
  3
BEM-ISBE
100
AcDbAlignedDimension
13
-19.9754775091384
23
-3.62785216202367
33
0.000000000000000
14
-19.9754775091384
24
2.37214783797633
34
0.000000000000000
50
90.0000000000000
100
AcDbRotatedDimension
1001
ACAD
1000
DSTYLE
1002
{
1070
284
1070
8
1070
78
1070
8
1070
144
1040
1.00000000000000
1070
147
1040
0.625
1070
 72
1070
 0
1070
 71
1070
 0
1002
}
  0
LINE
  5
F1007C
330
F1007D
100
AcDbEntity
8
Geo
100
AcDbLine
10
-83.3794453930361
20
-0.627852162023672
30
0.000000000000000
11
-83.4754775091384
21
2.12214783797633
31
0.000000000000000
  0
LINE
  5
F1007E
330
F1007F
100
AcDbEntity
8
Geo
100
AcDbLine
10
-83.4754775091384
20
2.12214783797633
30
0.000000000000000
11
-83.2254775091384
21
2.37214783797633
31
0.000000000000000
  0
LINE
  5
F10080
330
F10081
100
AcDbEntity
8
Geo
100
AcDbLine
10
-83.2254775091384
20
2.37214783797633
30
0.000000000000000
11
-67.4754775091384
21
2.37214783797633
31
0.000000000000000
  0
LINE
  5
F10082
330
F10083
100
AcDbEntity
8
Geo
100
AcDbLine
10
-67.4754775091384
20
2.37214783797633
30
0.000000000000000
11
-19.9754775091384
21
2.37214783797633
31
0.000000000000000
  0
LINE
  5
F10084
330
F10085
100
AcDbEntity
8
Geo
100
AcDbLine
10
-19.9754775091384
20
2.37214783797633
30
0.000000000000000
11
-19.4754775091384
21
1.87214783797633
31
0.000000000000000
  0
LINE
  5
F10086
330
F10087
100
AcDbEntity
8
Geo
100
AcDbLine
10
-80.2754775091384
20
2.37121364708699
30
0.000000000000000
11
-80.1754775091384
21
2.37187310748648
31
0.000000000000000
  0
LINE
  5
F10088
330
F10089
100
AcDbEntity
8
Geo
100
AcDbLine
10
-80.1754775091384
20
2.37187310748648
30
0.000000000000000
11
-80.0754775091384
21
2.36808907906916
31
0.000000000000000
  0
LINE
  5
F1008A
330
F1008B
100
AcDbEntity
8
Geo
100
AcDbLine
10
-80.0754775091384
20
2.36808907906916
30
0.000000000000000
11
-79.9754775091384
21
2.35986716711101
31
0.000000000000000
  0
LINE
  5
F1008C
330
F1008D
100
AcDbEntity
8
Geo
100
AcDbLine
10
-79.9754775091384
20
2.35986716711101
30
0.000000000000000
11
-79.8754775091384
21
2.34721955071861
31
0.000000000000000
  0
LINE
  5
F1008E
330
F1008F
100
AcDbEntity
8
Geo
100
AcDbLine
10
-79.8754775091384
20
2.34721955071861
30
0.000000000000000
11
-79.7754775091384
21
2.33016496478832
31
0.000000000000000
  0
LINE
  5
F10090
330
F10091
100
AcDbEntity
8
Geo
100
AcDbLine
10
-79.7754775091384
20
2.33016496478832
30
0.000000000000000
11
-79.6754775091384
21
2.30872867225427
31
0.000000000000000
  0
LINE
  5
F10092
330
F10093
100
AcDbEntity
8
Geo
100
AcDbLine
10
-79.6754775091384
20
2.30872867225427
30
0.000000000000000
11
-79.5754775091384
21
2.28294242666638
31
0.000000000000000
  0
LINE
  5
F10094
330
F10095
100
AcDbEntity
8
Geo
100
AcDbLine
10
-79.5754775091384
20
2.28294242666638
30
0.000000000000000
11
-79.4754775091384
21
2.25284442515393
31
0.000000000000000
  0
LINE
  5
F10096
330
F10097
100
AcDbEntity
8
Geo
100
AcDbLine
10
-79.4754775091384
20
2.25284442515393
30
0.000000000000000
11
-79.3754775091384
21
2.21847925184416
31
0.000000000000000
  0
LINE
  5
F10098
330
F10099
100
AcDbEntity
8
Geo
100
AcDbLine
10
-79.3754775091384
20
2.21847925184416
30
0.000000000000000
11
-79.2754775091384
21
2.17989781181991
31
0.000000000000000
  0
LINE
  5
F1009A
330
F1009B
100
AcDbEntity
8
Geo
100
AcDbLine
10
-79.2754775091384
20
2.17989781181991
30
0.000000000000000
11
-79.1754775091384
21
2.13715725571394
31
0.000000000000000
  0
LINE
  5
F1009C
330
F1009D
100
AcDbEntity
8
Geo
100
AcDbLine
10
-79.1754775091384
20
2.13715725571394
30
0.000000000000000
11
-79.0754775091384
21
2.09032089505180
31
0.000000000000000
  0
LINE
  5
F1009E
330
F1009F
100
AcDbEntity
8
Geo
100
AcDbLine
10
-79.0754775091384
20
2.09032089505180
30
0.000000000000000
11
-78.9754775091384
21
2.03945810846860
31
0.000000000000000
  0
LINE
  5
F100A0
330
F100A1
100
AcDbEntity
8
Geo
100
AcDbLine
10
-78.9754775091384
20
2.03945810846860
30
0.000000000000000
11
-78.8754775091384
21
1.98464423893844
31
0.000000000000000
  0
LINE
  5
F100A2
330
F100A3
100
AcDbEntity
8
Geo
100
AcDbLine
10
-78.8754775091384
20
1.98464423893844
30
0.000000000000000
11
-78.7754775091384
21
1.92596048216907
31
0.000000000000000
  0
LINE
  5
F100A4
330
F100A5
100
AcDbEntity
8
Geo
100
AcDbLine
10
-78.7754775091384
20
1.92596048216907
30
0.000000000000000
11
-78.6754775091384
21
1.86349376632674
31
0.000000000000000
  0
LINE
  5
F100A6
330
F100A7
100
AcDbEntity
8
Geo
100
AcDbLine
10
-78.6754775091384
20
1.86349376632674
30
0.000000000000000
11
-78.5754775091384
21
1.79733662326964
31
0.000000000000000
  0
LINE
  5
F100A8
330
F100A9
100
AcDbEntity
8
Geo
100
AcDbLine
10
-78.5754775091384
20
1.79733662326964
30
0.000000000000000
11
-78.4754775091384
21
1.72758705148061
31
0.000000000000000
  0
LINE
  5
F100AA
330
F100AB
100
AcDbEntity
8
Geo
100
AcDbLine
10
-78.4754775091384
20
1.72758705148061
30
0.000000000000000
11
-78.3754775091384
21
1.65434837090210
31
0.000000000000000
  0
LINE
  5
F100AC
330
F100AD
100
AcDbEntity
8
Geo
100
AcDbLine
10
-78.3754775091384
20
1.65434837090210
30
0.000000000000000
11
-78.2754775091384
21
1.57772906988849
31
0.000000000000000
  0
LINE
  5
F100AE
330
F100AF
100
AcDbEntity
8
Geo
100
AcDbLine
10
-78.2754775091384
20
1.57772906988849
30
0.000000000000000
11
-78.1754775091384
21
1.49784264450247
31
0.000000000000000
  0
LINE
  5
F100B0
330
F100B1
100
AcDbEntity
8
Geo
100
AcDbLine
10
-78.1754775091384
20
1.49784264450247
30
0.000000000000000
11
-78.0754775091385
21
1.41480743039345
31
0.000000000000000
  0
LINE
  5
F100B2
330
F100B3
100
AcDbEntity
8
Geo
100
AcDbLine
10
-78.0754775091385
20
1.41480743039345
30
0.000000000000000
11
-77.9754775091384
21
1.32874642750713
31
0.000000000000000
  0
LINE
  5
F100B4
330
F100B5
100
AcDbEntity
8
Geo
100
AcDbLine
10
-77.9754775091384
20
1.32874642750713
30
0.000000000000000
11
-77.8754775091384
21
1.23978711788589
31
0.000000000000000
  0
LINE
  5
F100B6
330
F100B7
100
AcDbEntity
8
Geo
100
AcDbLine
10
-77.8754775091384
20
1.23978711788589
30
0.000000000000000
11
-77.7754775091385
21
1.14806127682976
31
0.000000000000000
  0
LINE
  5
F100B8
330
F100B9
100
AcDbEntity
8
Geo
100
AcDbLine
10
-77.7754775091385
20
1.14806127682976
30
0.000000000000000
11
-77.6754775091384
21
1.05370477769791
31
0.000000000000000
  0
LINE
  5
F100BA
330
F100BB
100
AcDbEntity
8
Geo
100
AcDbLine
10
-77.6754775091384
20
1.05370477769791
30
0.000000000000000
11
-77.5754775091385
21
0.956857390639624
31
0.000000000000000
  0
LINE
  5
F100BC
330
F100BD
100
AcDbEntity
8
Geo
100
AcDbLine
10
-77.5754775091385
20
0.956857390639624
30
0.000000000000000
11
-77.4754775091384
21
0.857662575552936
31
0.000000000000000
  0
LINE
  5
F100BE
330
F100BF
100
AcDbEntity
8
Geo
100
AcDbLine
10
-77.4754775091384
20
0.857662575552936
30
0.000000000000000
11
-77.3754775091384
21
0.756267269577726
31
0.000000000000000
  0
LINE
  5
F100C0
330
F100C1
100
AcDbEntity
8
Geo
100
AcDbLine
10
-77.3754775091384
20
0.756267269577726
30
0.000000000000000
11
-77.2754775091385
21
0.652821669437927
31
0.000000000000000
  0
LINE
  5
F100C2
330
F100C3
100
AcDbEntity
8
Geo
100
AcDbLine
10
-77.2754775091385
20
0.652821669437927
30
0.000000000000000
11
-77.1754775091384
21
0.547479008955330
31
0.000000000000000
  0
LINE
  5
F100C4
330
F100C5
100
AcDbEntity
8
Geo
100
AcDbLine
10
-77.1754775091384
20
0.547479008955330
30
0.000000000000000
11
-77.0754775091385
21
0.440395332064540
31
0.000000000000000
  0
LINE
  5
F100C6
330
F100C7
100
AcDbEntity
8
Geo
100
AcDbLine
10
-77.0754775091385
20
0.440395332064540
30
0.000000000000000
11
-76.9754775091384
21
0.331729261665314
31
0.000000000000000
  0
LINE
  5
F100C8
330
F100C9
100
AcDbEntity
8
Geo
100
AcDbLine
10
-76.9754775091384
20
0.331729261665314
30
0.000000000000000
11
-76.8754775091384
21
0.221641764654686
31
0.000000000000000
  0
LINE
  5
F100CA
330
F100CB
100
AcDbEntity
8
Geo
100
AcDbLine
10
-76.8754775091384
20
0.221641764654686
30
0.000000000000000
11
-76.7754775091385
21
0.110295913486925
31
0.000000000000000
  0
LINE
  5
F100CC
330
F100CD
100
AcDbEntity
8
Geo
100
AcDbLine
10
-76.7754775091385
20
0.110295913486925
30
0.000000000000000
11
-76.6754775091384
21
-0.00214335538545551
31
0.000000000000000
  0
LINE
  5
F100CE
330
F100CF
100
AcDbEntity
8
Geo
100
AcDbLine
10
-76.6754775091384
20
-0.00214335538545551
30
0.000000000000000
11
-76.5754775091385
21
-0.115509485831839
31
0.000000000000000
  0
LINE
  5
F100D0
330
F100D1
100
AcDbEntity
8
Geo
100
AcDbLine
10
-76.5754775091385
20
-0.115509485831839
30
0.000000000000000
11
-76.4754775091385
21
-0.229634548762863
31
0.000000000000000
  0
LINE
  5
F100D2
330
F100D3
100
AcDbEntity
8
Geo
100
AcDbLine
10
-76.4754775091385
20
-0.229634548762863
30
0.000000000000000
11
-76.3754775091384
21
-0.344349490883547
31
0.000000000000000
  0
LINE
  5
F100D4
330
F100D5
100
AcDbEntity
8
Geo
100
AcDbLine
10
-76.3754775091384
20
-0.344349490883547
30
0.000000000000000
11
-76.2754775091385
21
-0.459484385111698
31
0.000000000000000
  0
LINE
  5
F100D6
330
F100D7
100
AcDbEntity
8
Geo
100
AcDbLine
10
-76.2754775091385
20
-0.459484385111698
30
0.000000000000000
11
-76.1754775091385
21
-0.574868682290651
31
0.000000000000000
  0
LINE
  5
F100D8
330
F100D9
100
AcDbEntity
8
Geo
100
AcDbLine
10
-76.1754775091385
20
-0.574868682290651
30
0.000000000000000
11
-76.0754775091385
21
-0.690331463823510
31
0.000000000000000
  0
LINE
  5
F100DA
330
F100DB
100
AcDbEntity
8
Geo
100
AcDbLine
10
-76.0754775091385
20
-0.690331463823510
30
0.000000000000000
11
-75.9754775091385
21
-0.805701694854610
31
0.000000000000000
  0
LINE
  5
F100DC
330
F100DD
100
AcDbEntity
8
Geo
100
AcDbLine
10
-75.9754775091385
20
-0.805701694854610
30
0.000000000000000
11
-75.8754775091384
21
-0.920808477623217
31
0.000000000000000
  0
LINE
  5
F100DE
330
F100DF
100
AcDbEntity
8
Geo
100
AcDbLine
10
-75.8754775091384
20
-0.920808477623217
30
0.000000000000000
11
-75.7754775091385
21
-1.03548130461414
31
0.000000000000000
  0
LINE
  5
F100E0
330
F100E1
100
AcDbEntity
8
Geo
100
AcDbLine
10
-75.7754775091385
20
-1.03548130461414
30
0.000000000000000
11
-75.6754775091385
21
-1.14955031113026
31
0.000000000000000
  0
LINE
  5
F100E2
330
F100E3
100
AcDbEntity
8
Geo
100
AcDbLine
10
-75.6754775091385
20
-1.14955031113026
30
0.000000000000000
11
-75.5754775091385
21
-1.26284652691288
31
0.000000000000000
  0
LINE
  5
F100E4
330
F100E5
100
AcDbEntity
8
Geo
100
AcDbLine
10
-75.5754775091385
20
-1.26284652691288
30
0.000000000000000
11
-75.4754775091385
21
-1.37520212643715
31
0.000000000000000
  0
LINE
  5
F100E6
330
F100E7
100
AcDbEntity
8
Geo
100
AcDbLine
10
-75.4754775091385
20
-1.37520212643715
30
0.000000000000000
11
-75.3754775091384
21
-1.48645067751172
31
0.000000000000000
  0
LINE
  5
F100E8
330
F100E9
100
AcDbEntity
8
Geo
100
AcDbLine
10
-75.3754775091384
20
-1.48645067751172
30
0.000000000000000
11
-75.2754775091385
21
-1.59642738781458
31
0.000000000000000
  0
LINE
  5
F100EA
330
F100EB
100
AcDbEntity
8
Geo
100
AcDbLine
10
-75.2754775091385
20
-1.59642738781458
30
0.000000000000000
11
-75.1754775091385
21
-1.70496934899965
31
0.000000000000000
  0
LINE
  5
F100EC
330
F100ED
100
AcDbEntity
8
Geo
100
AcDbLine
10
-75.1754775091385
20
-1.70496934899965
30
0.000000000000000
11
-75.0754775091385
21
-1.81191577801271
31
0.000000000000000
  0
LINE
  5
F100EE
330
F100EF
100
AcDbEntity
8
Geo
100
AcDbLine
10
-75.0754775091385
20
-1.81191577801271
30
0.000000000000000
11
-74.9754775091385
21
-1.91710825525907
31
0.000000000000000
  0
LINE
  5
F100F0
330
F100F1
100
AcDbEntity
8
Geo
100
AcDbLine
10
-74.9754775091385
20
-1.91710825525907
30
0.000000000000000
11
-74.8754775091385
21
-2.02039095927036
31
0.000000000000000
  0
LINE
  5
F100F2
330
F100F3
100
AcDbEntity
8
Geo
100
AcDbLine
10
-74.8754775091385
20
-2.02039095927036
30
0.000000000000000
11
-74.7754775091385
21
-2.12161089752259
31
0.000000000000000
  0
LINE
  5
F100F4
330
F100F5
100
AcDbEntity
8
Geo
100
AcDbLine
10
-74.7754775091385
20
-2.12161089752259
30
0.000000000000000
11
-74.6754775091385
21
-2.22061813306378
31
0.000000000000000
  0
LINE
  5
F100F6
330
F100F7
100
AcDbEntity
8
Geo
100
AcDbLine
10
-74.6754775091385
20
-2.22061813306378
30
0.000000000000000
11
-74.5754775091385
21
-2.31726600661539
31
0.000000000000000
  0
LINE
  5
F100F8
330
F100F9
100
AcDbEntity
8
Geo
100
AcDbLine
10
-74.5754775091385
20
-2.31726600661539
30
0.000000000000000
11
-74.4754775091385
21
-2.41141135381842
31
0.000000000000000
  0
LINE
  5
F100FA
330
F100FB
100
AcDbEntity
8
Geo
100
AcDbLine
10
-74.4754775091385
20
-2.41141135381842
30
0.000000000000000
11
-74.3754775091385
21
-2.50291471730268
31
0.000000000000000
  0
LINE
  5
F100FC
330
F100FD
100
AcDbEntity
8
Geo
100
AcDbLine
10
-74.3754775091385
20
-2.50291471730268
30
0.000000000000000
11
-74.2754775091385
21
-2.59164055326471
31
0.000000000000000
  0
LINE
  5
F100FE
330
F100FF
100
AcDbEntity
8
Geo
100
AcDbLine
10
-74.2754775091385
20
-2.59164055326471
30
0.000000000000000
11
-74.1754775091385
21
-2.67745743224866
31
0.000000000000000
  0
LINE
  5
F10100
330
F10101
100
AcDbEntity
8
Geo
100
AcDbLine
10
-74.1754775091385
20
-2.67745743224866
30
0.000000000000000
11
-74.0754775091385
21
-2.76023823383257
31
0.000000000000000
  0
LINE
  5
F10102
330
F10103
100
AcDbEntity
8
Geo
100
AcDbLine
10
-74.0754775091385
20
-2.76023823383257
30
0.000000000000000
11
-73.9754775091385
21
-2.83986033493163
31
0.000000000000000
  0
LINE
  5
F10104
330
F10105
100
AcDbEntity
8
Geo
100
AcDbLine
10
-73.9754775091385
20
-2.83986033493163
30
0.000000000000000
11
-73.8754775091385
21
-2.91620579143963
31
0.000000000000000
  0
LINE
  5
F10106
330
F10107
100
AcDbEntity
8
Geo
100
AcDbLine
10
-73.8754775091385
20
-2.91620579143963
30
0.000000000000000
11
-73.7754775091385
21
-2.98916151293937
31
0.000000000000000
  0
LINE
  5
F10108
330
F10109
100
AcDbEntity
8
Geo
100
AcDbLine
10
-73.7754775091385
20
-2.98916151293937
30
0.000000000000000
11
-73.6754775091385
21
-3.05861943022336
31
0.000000000000000
  0
LINE
  5
F1010A
330
F1010B
100
AcDbEntity
8
Geo
100
AcDbLine
10
-73.6754775091385
20
-3.05861943022336
30
0.000000000000000
11
-73.5754775091385
21
-3.12447665537653
31
0.000000000000000
  0
LINE
  5
F1010C
330
F1010D
100
AcDbEntity
8
Geo
100
AcDbLine
10
-73.5754775091385
20
-3.12447665537653
30
0.000000000000000
11
-73.4754775091385
21
-3.18663563418404
31
0.000000000000000
  0
LINE
  5
F1010E
330
F1010F
100
AcDbEntity
8
Geo
100
AcDbLine
10
-73.4754775091385
20
-3.18663563418404
30
0.000000000000000
11
-73.3754775091385
21
-3.24500429063812
31
0.000000000000000
  0
LINE
  5
F10110
330
F10111
100
AcDbEntity
8
Geo
100
AcDbLine
10
-73.3754775091385
20
-3.24500429063812
30
0.000000000000000
11
-73.2754775091385
21
-3.29949616333017
31
0.000000000000000
  0
LINE
  5
F10112
330
F10113
100
AcDbEntity
8
Geo
100
AcDbLine
10
-73.2754775091385
20
-3.29949616333017
30
0.000000000000000
11
-73.1754775091385
21
-3.35003053352592
31
0.000000000000000
  0
LINE
  5
F10114
330
F10115
100
AcDbEntity
8
Geo
100
AcDbLine
10
-73.1754775091385
20
-3.35003053352592
30
0.000000000000000
11
-73.0754775091385
21
-3.39653254473397
31
0.000000000000000
  0
LINE
  5
F10116
330
F10117
100
AcDbEntity
8
Geo
100
AcDbLine
10
-73.0754775091385
20
-3.39653254473397
30
0.000000000000000
11
-72.9754775091385
21
-3.43893331359063
31
0.000000000000000
  0
LINE
  5
F10118
330
F10119
100
AcDbEntity
8
Geo
100
AcDbLine
10
-72.9754775091385
20
-3.43893331359063
30
0.000000000000000
11
-72.8754775091385
21
-3.47717003189669
31
0.000000000000000
  0
LINE
  5
F1011A
330
F1011B
100
AcDbEntity
8
Geo
100
AcDbLine
10
-72.8754775091385
20
-3.47717003189669
30
0.000000000000000
11
-72.7754775091385
21
-3.51118605965519
31
0.000000000000000
  0
LINE
  5
F1011C
330
F1011D
100
AcDbEntity
8
Geo
100
AcDbLine
10
-72.7754775091385
20
-3.51118605965519
30
0.000000000000000
11
-72.6754775091385
21
-3.54093100897212
31
0.000000000000000
  0
LINE
  5
F1011E
330
F1011F
100
AcDbEntity
8
Geo
100
AcDbLine
10
-72.6754775091385
20
-3.54093100897212
30
0.000000000000000
11
-72.5754775091385
21
-3.56636081869594
31
0.000000000000000
  0
LINE
  5
F10120
330
F10121
100
AcDbEntity
8
Geo
100
AcDbLine
10
-72.5754775091385
20
-3.56636081869594
30
0.000000000000000
11
-72.4754775091385
21
-3.58743781968533
31
0.000000000000000
  0
LINE
  5
F10122
330
F10123
100
AcDbEntity
8
Geo
100
AcDbLine
10
-72.4754775091385
20
-3.58743781968533
30
0.000000000000000
11
-72.3754775091385
21
-3.60413079060842
31
0.000000000000000
  0
LINE
  5
F10124
330
F10125
100
AcDbEntity
8
Geo
100
AcDbLine
10
-72.3754775091385
20
-3.60413079060842
30
0.000000000000000
11
-72.2754775091385
21
-3.61641500419087
31
0.000000000000000
  0
LINE
  5
F10126
330
F10127
100
AcDbEntity
8
Geo
100
AcDbLine
10
-72.2754775091385
20
-3.61641500419087
30
0.000000000000000
11
-72.1754775091385
21
-3.62427226384442
31
0.000000000000000
  0
LINE
  5
F10128
330
F10129
100
AcDbEntity
8
Geo
100
AcDbLine
10
-72.1754775091385
20
-3.62427226384442
30
0.000000000000000
11
-72.0754775091385
21
-3.62769093062141
31
0.000000000000000
  0
LINE
  5
F1012A
330
F1012B
100
AcDbEntity
8
Geo
100
AcDbLine
10
-83.4754775091384
20
2.12214783797633
30
0.000000000000000
11
-83.3754775091384
21
2.22003698748335
31
0.000000000000000
  0
LINE
  5
F1012C
330
F1012D
100
AcDbEntity
8
Geo
100
AcDbLine
10
-83.3754775091384
20
2.22003698748335
30
0.000000000000000
11
-83.2754775091384
21
2.31341141279823
31
0.000000000000000
  0
LINE
  5
F1012E
330
F1012F
100
AcDbEntity
8
Geo
100
AcDbLine
10
-83.2754775091384
20
2.31341141279823
30
0.000000000000000
11
-83.1754775091384
21
2.35217005032436
31
0.000000000000000
  0
LINE
  5
F10130
330
F10131
100
AcDbEntity
8
Geo
100
AcDbLine
10
-83.1754775091384
20
2.35217005032436
30
0.000000000000000
11
-83.0754775091384
21
2.33666246014752
31
0.000000000000000
  0
LINE
  5
F10132
330
F10133
100
AcDbEntity
8
Geo
100
AcDbLine
10
-83.0754775091384
20
2.33666246014752
30
0.000000000000000
11
-82.9754775091384
21
2.31676353863618
31
0.000000000000000
  0
LINE
  5
F10134
330
F10135
100
AcDbEntity
8
Geo
100
AcDbLine
10
-82.9754775091384
20
2.31676353863618
30
0.000000000000000
11
-82.8754775091384
21
2.29250276203476
31
0.000000000000000
  0
LINE
  5
F10136
330
F10137
100
AcDbEntity
8
Geo
100
AcDbLine
10
-82.8754775091384
20
2.29250276203476
30
0.000000000000000
11
-82.7754775091384
21
2.26391606779746
31
0.000000000000000
  0
LINE
  5
F10138
330
F10139
100
AcDbEntity
8
Geo
100
AcDbLine
10
-82.7754775091384
20
2.26391606779746
30
0.000000000000000
11
-82.6754775091384
21
2.23104580135419
31
0.000000000000000
  0
LINE
  5
F1013A
330
F1013B
100
AcDbEntity
8
Geo
100
AcDbLine
10
-82.6754775091384
20
2.23104580135419
30
0.000000000000000
11
-82.5754775091384
21
2.19394065338435
31
0.000000000000000
  0
LINE
  5
F1013C
330
F1013D
100
AcDbEntity
8
Geo
100
AcDbLine
10
-82.5754775091384
20
2.19394065338435
30
0.000000000000000
11
-82.4754775091384
21
2.15265558769135
31
0.000000000000000
  0
LINE
  5
F1013E
330
F1013F
100
AcDbEntity
8
Geo
100
AcDbLine
10
-82.4754775091384
20
2.15265558769135
30
0.000000000000000
11
-82.3754775091384
21
2.10725175978486
31
0.000000000000000
  0
LINE
  5
F10140
330
F10141
100
AcDbEntity
8
Geo
100
AcDbLine
10
-82.3754775091384
20
2.10725175978486
30
0.000000000000000
11
-82.2754775091384
21
2.05779642629122
31
0.000000000000000
  0
LINE
  5
F10142
330
F10143
100
AcDbEntity
8
Geo
100
AcDbLine
10
-82.2754775091384
20
2.05779642629122
30
0.000000000000000
11
-82.1754775091384
21
2.00436284532626
31
0.000000000000000
  0
LINE
  5
F10144
330
F10145
100
AcDbEntity
8
Geo
100
AcDbLine
10
-82.1754775091384
20
2.00436284532626
30
0.000000000000000
11
-82.0754775091384
21
1.94703016797822
31
0.000000000000000
  0
LINE
  5
F10146
330
F10147
100
AcDbEntity
8
Geo
100
AcDbLine
10
-82.0754775091384
20
1.94703016797822
30
0.000000000000000
11
-81.9754775091384
21
1.88588332106131
31
0.000000000000000
  0
LINE
  5
F10148
330
F10149
100
AcDbEntity
8
Geo
100
AcDbLine
10
-81.9754775091384
20
1.88588332106131
30
0.000000000000000
11
-81.8754775091384
21
1.82101288131373
31
0.000000000000000
  0
LINE
  5
F1014A
330
F1014B
100
AcDbEntity
8
Geo
100
AcDbLine
10
-81.8754775091384
20
1.82101288131373
30
0.000000000000000
11
-81.7754775091384
21
1.75251494122653
31
0.000000000000000
  0
LINE
  5
F1014C
330
F1014D
100
AcDbEntity
8
Geo
100
AcDbLine
10
-81.7754775091384
20
1.75251494122653
30
0.000000000000000
11
-81.6754775091384
21
1.68049096670187
31
0.000000000000000
  0
LINE
  5
F1014E
330
F1014F
100
AcDbEntity
8
Geo
100
AcDbLine
10
-81.6754775091384
20
1.68049096670187
30
0.000000000000000
11
-81.5754775091384
21
1.60504764675178
31
0.000000000000000
  0
LINE
  5
F10150
330
F10151
100
AcDbEntity
8
Geo
100
AcDbLine
10
-81.5754775091384
20
1.60504764675178
30
0.000000000000000
11
-81.4754775091384
21
1.52629673545985
31
0.000000000000000
  0
LINE
  5
F10152
330
F10153
100
AcDbEntity
8
Geo
100
AcDbLine
10
-81.4754775091384
20
1.52629673545985
30
0.000000000000000
11
-81.3754775091384
21
1.44435488644006
31
0.000000000000000
  0
LINE
  5
F10154
330
F10155
100
AcDbEntity
8
Geo
100
AcDbLine
10
-81.3754775091384
20
1.44435488644006
30
0.000000000000000
11
-81.2754775091384
21
1.35934348003794
31
0.000000000000000
  0
LINE
  5
F10156
330
F10157
100
AcDbEntity
8
Geo
100
AcDbLine
10
-81.2754775091384
20
1.35934348003794
30
0.000000000000000
11
-81.1754775091384
21
1.27138844353008
31
0.000000000000000
  0
LINE
  5
F10158
330
F10159
100
AcDbEntity
8
Geo
100
AcDbLine
10
-81.1754775091384
20
1.27138844353008
30
0.000000000000000
11
-81.0754775091384
21
1.18062006458816
31
0.000000000000000
  0
LINE
  5
F1015A
330
F1015B
100
AcDbEntity
8
Geo
100
AcDbLine
10
-81.0754775091384
20
1.18062006458816
30
0.000000000000000
11
-80.9754775091384
21
1.08717279828408
31
0.000000000000000
  0
LINE
  5
F1015C
330
F1015D
100
AcDbEntity
8
Geo
100
AcDbLine
10
-80.9754775091384
20
1.08717279828408
30
0.000000000000000
11
-80.8754775091384
21
0.991185067921800
31
0.000000000000000
  0
LINE
  5
F1015E
330
F1015F
100
AcDbEntity
8
Geo
100
AcDbLine
10
-80.8754775091384
20
0.991185067921800
30
0.000000000000000
11
-80.7754775091384
21
0.892799059991108
31
0.000000000000000
  0
LINE
  5
F10160
330
F10161
100
AcDbEntity
8
Geo
100
AcDbLine
10
-80.7754775091384
20
0.892799059991108
30
0.000000000000000
11
-80.6754775091384
21
0.792160513546984
31
0.000000000000000
  0
LINE
  5
F10162
330
F10163
100
AcDbEntity
8
Geo
100
AcDbLine
10
-80.6754775091384
20
0.792160513546984
30
0.000000000000000
11
-80.5754775091384
21
0.689418504326534
31
0.000000000000000
  0
LINE
  5
F10164
330
F10165
100
AcDbEntity
8
Geo
100
AcDbLine
10
-80.5754775091384
20
0.689418504326534
30
0.000000000000000
11
-80.4754775091384
21
0.584725223923309
31
0.000000000000000
  0
LINE
  5
F10166
330
F10167
100
AcDbEntity
8
Geo
100
AcDbLine
10
-80.4754775091384
20
0.584725223923309
30
0.000000000000000
11
-80.3754775091384
21
0.478235754346117
31
0.000000000000000
  0
LINE
  5
F10168
330
F10169
100
AcDbEntity
8
Geo
100
AcDbLine
10
-80.3754775091384
20
0.478235754346117
30
0.000000000000000
11
-80.2754775091384
21
0.370107838296259
31
0.000000000000000
  0
LINE
  5
F1016A
330
F1016B
100
AcDbEntity
8
Geo
100
AcDbLine
10
-80.2754775091384
20
0.370107838296259
30
0.000000000000000
11
-80.1754775091384
21
0.260501645503489
31
0.000000000000000
  0
LINE
  5
F1016C
330
F1016D
100
AcDbEntity
8
Geo
100
AcDbLine
10
-80.1754775091384
20
0.260501645503489
30
0.000000000000000
11
-80.0754775091384
21
0.149579535466819
31
0.000000000000000
  0
LINE
  5
F1016E
330
F1016F
100
AcDbEntity
8
Geo
100
AcDbLine
10
-80.0754775091384
20
0.149579535466819
30
0.000000000000000
11
-79.9754775091384
21
0.0375058169516171
31
0.000000000000000
  0
LINE
  5
F10170
330
F10171
100
AcDbEntity
8
Geo
100
AcDbLine
10
-79.9754775091384
20
0.0375058169516171
30
0.000000000000000
11
-79.8754775091384
21
-0.0755534954007269
31
0.000000000000000
  0
LINE
  5
F10172
330
F10173
100
AcDbEntity
8
Geo
100
AcDbLine
10
-79.8754775091384
20
-0.0755534954007269
30
0.000000000000000
11
-79.7754775091384
21
-0.189430926990063
31
0.000000000000000
  0
LINE
  5
F10174
330
F10175
100
AcDbEntity
8
Geo
100
AcDbLine
10
-79.7754775091384
20
-0.189430926990063
30
0.000000000000000
11
-79.6754775091384
21
-0.303957791337366
31
0.000000000000000
  0
LINE
  5
F10176
330
F10177
100
AcDbEntity
8
Geo
100
AcDbLine
10
-79.6754775091384
20
-0.303957791337366
30
0.000000000000000
11
-79.5754775091384
21
-0.418964439959783
31
0.000000000000000
  0
LINE
  5
F10178
330
F10179
100
AcDbEntity
8
Geo
100
AcDbLine
10
-79.5754775091384
20
-0.418964439959783
30
0.000000000000000
11
-79.4754775091384
21
-0.534280513670688
31
0.000000000000000
  0
LINE
  5
F1017A
330
F1017B
100
AcDbEntity
8
Geo
100
AcDbLine
10
-79.4754775091384
20
-0.534280513670688
30
0.000000000000000
11
-79.3754775091384
21
-0.649735194932508
31
0.000000000000000
  0
LINE
  5
F1017C
330
F1017D
100
AcDbEntity
8
Geo
100
AcDbLine
10
-79.3754775091384
20
-0.649735194932508
30
0.000000000000000
11
-79.2754775091384
21
-0.765157460888502
31
0.000000000000000
  0
LINE
  5
F1017E
330
F1017F
100
AcDbEntity
8
Geo
100
AcDbLine
10
-79.2754775091384
20
-0.765157460888502
30
0.000000000000000
11
-79.1754775091384
21
-0.880376336698672
31
0.000000000000000
  0
LINE
  5
F10180
330
F10181
100
AcDbEntity
8
Geo
100
AcDbLine
10
-79.1754775091384
20
-0.880376336698672
30
0.000000000000000
11
-79.0754775091384
21
-0.995221148804561
31
0.000000000000000
  0
LINE
  5
F10182
330
F10183
100
AcDbEntity
8
Geo
100
AcDbLine
10
-79.0754775091384
20
-0.995221148804561
30
0.000000000000000
11
-78.9754775091384
21
-1.10952177774775
31
0.000000000000000
  0
LINE
  5
F10184
330
F10185
100
AcDbEntity
8
Geo
100
AcDbLine
10
-78.9754775091384
20
-1.10952177774775
30
0.000000000000000
11
-78.8754775091384
21
-1.22310891016756
31
0.000000000000000
  0
LINE
  5
F10186
330
F10187
100
AcDbEntity
8
Geo
100
AcDbLine
10
-78.8754775091384
20
-1.22310891016756
30
0.000000000000000
11
-78.7754775091384
21
-1.33581428960473
31
0.000000000000000
  0
LINE
  5
F10188
330
F10189
100
AcDbEntity
8
Geo
100
AcDbLine
10
-78.7754775091384
20
-1.33581428960473
30
0.000000000000000
11
-78.6754775091384
21
-1.44747096573943
31
0.000000000000000
  0
LINE
  5
F1018A
330
F1018B
100
AcDbEntity
8
Geo
100
AcDbLine
10
-78.6754775091384
20
-1.44747096573943
30
0.000000000000000
11
-78.5754775091384
21
-1.55791354169457
31
0.000000000000000
  0
LINE
  5
F1018C
330
F1018D
100
AcDbEntity
8
Geo
100
AcDbLine
10
-78.5754775091384
20
-1.55791354169457
30
0.000000000000000
11
-78.4754775091384
21
-1.66697841903793
31
0.000000000000000
  0
LINE
  5
F1018E
330
F1018F
100
AcDbEntity
8
Geo
100
AcDbLine
10
-78.4754775091384
20
-1.66697841903793
30
0.000000000000000
11
-78.3754775091384
21
-1.77450404012032
31
0.000000000000000
  0
LINE
  5
F10190
330
F10191
100
AcDbEntity
8
Geo
100
AcDbLine
10
-78.3754775091384
20
-1.77450404012032
30
0.000000000000000
11
-78.2754775091384
21
-1.88033112739066
31
0.000000000000000
  0
LINE
  5
F10192
330
F10193
100
AcDbEntity
8
Geo
100
AcDbLine
10
-78.2754775091384
20
-1.88033112739066
30
0.000000000000000
11
-78.1754775091384
21
-1.98430291933365
31
0.000000000000000
  0
LINE
  5
F10194
330
F10195
100
AcDbEntity
8
Geo
100
AcDbLine
10
-78.1754775091384
20
-1.98430291933365
30
0.000000000000000
11
-78.0754775091385
21
-2.08626540268030
31
0.000000000000000
  0
LINE
  5
F10196
330
F10197
100
AcDbEntity
8
Geo
100
AcDbLine
10
-78.0754775091385
20
-2.08626540268030
30
0.000000000000000
11
-77.9754775091384
21
-2.18606754054766
31
0.000000000000000
  0
LINE
  5
F10198
330
F10199
100
AcDbEntity
8
Geo
100
AcDbLine
10
-77.9754775091384
20
-2.18606754054766
30
0.000000000000000
11
-77.8754775091384
21
-2.28356149616944
31
0.000000000000000
  0
LINE
  5
F1019A
330
F1019B
100
AcDbEntity
8
Geo
100
AcDbLine
10
-77.8754775091384
20
-2.28356149616944
30
0.000000000000000
11
-77.7754775091385
21
-2.37860285188652
31
0.000000000000000
  0
LINE
  5
F1019C
330
F1019D
100
AcDbEntity
8
Geo
100
AcDbLine
10
-77.7754775091385
20
-2.37860285188652
30
0.000000000000000
11
-77.6754775091384
21
-2.47105082307252
31
0.000000000000000
  0
LINE
  5
F1019E
330
F1019F
100
AcDbEntity
8
Geo
100
AcDbLine
10
-77.6754775091384
20
-2.47105082307252
30
0.000000000000000
11
-77.5754775091385
21
-2.56076846667794
31
0.000000000000000
  0
LINE
  5
F101A0
330
F101A1
100
AcDbEntity
8
Geo
100
AcDbLine
10
-77.5754775091385
20
-2.56076846667794
30
0.000000000000000
11
-77.4754775091384
21
-2.64762288408366
31
0.000000000000000
  0
LINE
  5
F101A2
330
F101A3
100
AcDbEntity
8
Geo
100
AcDbLine
10
-77.4754775091384
20
-2.64762288408366
30
0.000000000000000
11
-77.3754775091384
21
-2.73148541796350
31
0.000000000000000
  0
LINE
  5
F101A4
330
F101A5
100
AcDbEntity
8
Geo
100
AcDbLine
10
-77.3754775091384
20
-2.73148541796350
30
0.000000000000000
11
-77.2754775091385
21
-2.81223184286416
31
0.000000000000000
  0
LINE
  5
F101A6
330
F101A7
100
AcDbEntity
8
Geo
100
AcDbLine
10
-77.2754775091385
20
-2.81223184286416
30
0.000000000000000
11
-77.1754775091384
21
-2.88974254922014
31
0.000000000000000
  0
LINE
  5
F101A8
330
F101A9
100
AcDbEntity
8
Geo
100
AcDbLine
10
-77.1754775091384
20
-2.88974254922014
30
0.000000000000000
11
-77.0754775091385
21
-2.96390272053129
31
0.000000000000000
  0
LINE
  5
F101AA
330
F101AB
100
AcDbEntity
8
Geo
100
AcDbLine
10
-77.0754775091385
20
-2.96390272053129
30
0.000000000000000
11
-76.9754775091384
21
-3.03460250344031
31
0.000000000000000
  0
LINE
  5
F101AC
330
F101AD
100
AcDbEntity
8
Geo
100
AcDbLine
10
-76.9754775091384
20
-3.03460250344031
30
0.000000000000000
11
-76.8754775091384
21
-3.10173717045833
31
0.000000000000000
  0
LINE
  5
F101AE
330
F101AF
100
AcDbEntity
8
Geo
100
AcDbLine
10
-76.8754775091384
20
-3.10173717045833
30
0.000000000000000
11
-76.7754775091385
21
-3.16520727509766
31
0.000000000000000
  0
LINE
  5
F101B0
330
F101B1
100
AcDbEntity
8
Geo
100
AcDbLine
10
-76.7754775091385
20
-3.16520727509766
30
0.000000000000000
11
-76.6754775091384
21
-3.22491879918170
31
0.000000000000000
  0
LINE
  5
F101B2
330
F101B3
100
AcDbEntity
8
Geo
100
AcDbLine
10
-76.6754775091384
20
-3.22491879918170
30
0.000000000000000
11
-76.5754775091385
21
-3.28078329211392
31
0.000000000000000
  0
LINE
  5
F101B4
330
F101B5
100
AcDbEntity
8
Geo
100
AcDbLine
10
-76.5754775091385
20
-3.28078329211392
30
0.000000000000000
11
-76.4754775091385
21
-3.33271800189961
31
0.000000000000000
  0
LINE
  5
F101B6
330
F101B7
100
AcDbEntity
8
Geo
100
AcDbLine
10
-76.4754775091385
20
-3.33271800189961
30
0.000000000000000
11
-76.3754775091384
21
-3.38064599772633
31
0.000000000000000
  0
LINE
  5
F101B8
330
F101B9
100
AcDbEntity
8
Geo
100
AcDbLine
10
-76.3754775091384
20
-3.38064599772633
30
0.000000000000000
11
-76.2754775091385
21
-3.42449628392134
31
0.000000000000000
  0
LINE
  5
F101BA
330
F101BB
100
AcDbEntity
8
Geo
100
AcDbLine
10
-76.2754775091385
20
-3.42449628392134
30
0.000000000000000
11
-76.1754775091385
21
-3.46420390511749
31
0.000000000000000
  0
LINE
  5
F101BC
330
F101BD
100
AcDbEntity
8
Geo
100
AcDbLine
10
-76.1754775091385
20
-3.46420390511749
30
0.000000000000000
11
-76.0754775091385
21
-3.49971004247140
31
0.000000000000000
  0
LINE
  5
F101BE
330
F101BF
100
AcDbEntity
8
Geo
100
AcDbLine
10
-76.0754775091385
20
-3.49971004247140
30
0.000000000000000
11
-75.9754775091385
21
-3.53096210079184
31
0.000000000000000
  0
LINE
  5
F101C0
330
F101C1
100
AcDbEntity
8
Geo
100
AcDbLine
10
-75.9754775091385
20
-3.53096210079184
30
0.000000000000000
11
-75.8754775091384
21
-3.55791378644882
31
0.000000000000000
  0
LINE
  5
F101C2
330
F101C3
100
AcDbEntity
8
Geo
100
AcDbLine
10
-75.8754775091384
20
-3.55791378644882
30
0.000000000000000
11
-75.7754775091385
21
-3.58052517594834
31
0.000000000000000
  0
LINE
  5
F101C4
330
F101C5
100
AcDbEntity
8
Geo
100
AcDbLine
10
-75.7754775091385
20
-3.58052517594834
30
0.000000000000000
11
-75.6754775091385
21
-3.59876277507098
31
0.000000000000000
  0
LINE
  5
F101C6
330
F101C7
100
AcDbEntity
8
Geo
100
AcDbLine
10
-75.6754775091385
20
-3.59876277507098
30
0.000000000000000
11
-75.5754775091385
21
-3.61259956848684
31
0.000000000000000
  0
LINE
  5
F101C8
330
F101C9
100
AcDbEntity
8
Geo
100
AcDbLine
10
-75.5754775091385
20
-3.61259956848684
30
0.000000000000000
11
-75.4754775091385
21
-3.62201505977334
31
0.000000000000000
  0
LINE
  5
F101CA
330
F101CB
100
AcDbEntity
8
Geo
100
AcDbLine
10
-75.4754775091385
20
-3.62201505977334
30
0.000000000000000
11
-75.3754775091384
21
-3.62699530177649
31
0.000000000000000
  0
LINE
  5
F101CC
330
F101CD
100
AcDbEntity
8
Geo
100
AcDbLine
10
-83.4754775091384
20
1.98755325778800
30
0.000000000000000
11
-83.3754775091384
21
2.04676164205370
31
0.000000000000000
  0
LINE
  5
F101CE
330
F101CF
100
AcDbEntity
8
Geo
100
AcDbLine
10
-83.3754775091384
20
2.04676164205370
30
0.000000000000000
11
-83.2754775091384
21
2.09935000408340
31
0.000000000000000
  0
LINE
  5
F101D0
330
F101D1
100
AcDbEntity
8
Geo
100
AcDbLine
10
-83.2754775091384
20
2.09935000408340
30
0.000000000000000
11
-83.1754775091384
21
2.09950847765821
31
0.000000000000000
  0
LINE
  5
F101D2
330
F101D3
100
AcDbEntity
8
Geo
100
AcDbLine
10
-83.1754775091384
20
2.09950847765821
30
0.000000000000000
11
-83.0754775091384
21
2.04940315023154
31
0.000000000000000
  0
LINE
  5
F101D4
330
F101D5
100
AcDbEntity
8
Geo
100
AcDbLine
10
-83.0754775091384
20
2.04940315023154
30
0.000000000000000
11
-82.9754775091384
21
1.99533200828157
31
0.000000000000000
  0
LINE
  5
F101D6
330
F101D7
100
AcDbEntity
8
Geo
100
AcDbLine
10
-82.9754775091384
20
1.99533200828157
30
0.000000000000000
11
-82.8754775091384
21
1.93737514731470
31
0.000000000000000
  0
LINE
  5
F101D8
330
F101D9
100
AcDbEntity
8
Geo
100
AcDbLine
10
-82.8754775091384
20
1.93737514731470
30
0.000000000000000
11
-82.7754775091384
21
1.87561841874747
31
0.000000000000000
  0
LINE
  5
F101DA
330
F101DB
100
AcDbEntity
8
Geo
100
AcDbLine
10
-82.7754775091384
20
1.87561841874747
30
0.000000000000000
11
-82.6754775091384
21
1.81015330273492
31
0.000000000000000
  0
LINE
  5
F101DC
330
F101DD
100
AcDbEntity
8
Geo
100
AcDbLine
10
-82.6754775091384
20
1.81015330273492
30
0.000000000000000
11
-82.5754775091384
21
1.74107677266120
31
0.000000000000000
  0
LINE
  5
F101DE
330
F101DF
100
AcDbEntity
8
Geo
100
AcDbLine
10
-82.5754775091384
20
1.74107677266120
30
0.000000000000000
11
-82.4754775091384
21
1.66849115149301
31
0.000000000000000
  0
LINE
  5
F101E0
330
F101E1
100
AcDbEntity
8
Geo
100
AcDbLine
10
-82.4754775091384
20
1.66849115149301
30
0.000000000000000
11
-82.3754775091384
21
1.59250396020875
31
0.000000000000000
  0
LINE
  5
F101E2
330
F101E3
100
AcDbEntity
8
Geo
100
AcDbLine
10
-82.3754775091384
20
1.59250396020875
30
0.000000000000000
11
-82.2754775091384
21
1.51322775852786
31
0.000000000000000
  0
LINE
  5
F101E4
330
F101E5
100
AcDbEntity
8
Geo
100
AcDbLine
10
-82.2754775091384
20
1.51322775852786
30
0.000000000000000
11
-82.1754775091384
21
1.43077997817623
31
0.000000000000000
  0
LINE
  5
F101E6
330
F101E7
100
AcDbEntity
8
Geo
100
AcDbLine
10
-82.1754775091384
20
1.43077997817623
30
0.000000000000000
11
-82.0754775091384
21
1.34528274893478
31
0.000000000000000
  0
LINE
  5
F101E8
330
F101E9
100
AcDbEntity
8
Geo
100
AcDbLine
10
-82.0754775091384
20
1.34528274893478
30
0.000000000000000
11
-81.9754775091384
21
1.25686271772875
31
0.000000000000000
  0
LINE
  5
F101EA
330
F101EB
100
AcDbEntity
8
Geo
100
AcDbLine
10
-81.9754775091384
20
1.25686271772875
30
0.000000000000000
11
-81.8754775091384
21
1.16565086102584
31
0.000000000000000
  0
LINE
  5
F101EC
330
F101ED
100
AcDbEntity
8
Geo
100
AcDbLine
10
-81.8754775091384
20
1.16565086102584
30
0.000000000000000
11
-81.7754775091384
21
1.07178229082092
31
0.000000000000000
  0
LINE
  5
F101EE
330
F101EF
100
AcDbEntity
8
Geo
100
AcDbLine
10
-81.7754775091384
20
1.07178229082092
30
0.000000000000000
11
-81.6754775091384
21
0.975396054494827
31
0.000000000000000
  0
LINE
  5
F101F0
330
F101F1
100
AcDbEntity
8
Geo
100
AcDbLine
10
-81.6754775091384
20
0.975396054494827
30
0.000000000000000
11
-81.5754775091384
21
0.876634928843678
31
0.000000000000000
  0
LINE
  5
F101F2
330
F101F3
100
AcDbEntity
8
Geo
100
AcDbLine
10
-81.5754775091384
20
0.876634928843678
30
0.000000000000000
11
-81.4754775091384
21
0.775645208583797
31
0.000000000000000
  0
LINE
  5
F101F4
330
F101F5
100
AcDbEntity
8
Geo
100
AcDbLine
10
-81.4754775091384
20
0.775645208583797
30
0.000000000000000
11
-81.3754775091384
21
0.672576489645572
31
0.000000000000000
  0
LINE
  5
F101F6
330
F101F7
100
AcDbEntity
8
Geo
100
AcDbLine
10
-81.3754775091384
20
0.672576489645572
30
0.000000000000000
11
-81.2754775091384
21
0.567581447577198
31
0.000000000000000
  0
LINE
  5
F101F8
330
F101F9
100
AcDbEntity
8
Geo
100
AcDbLine
10
-81.2754775091384
20
0.567581447577198
30
0.000000000000000
11
-81.1754775091384
21
0.460815611386612
31
0.000000000000000
  0
LINE
  5
F101FA
330
F101FB
100
AcDbEntity
8
Geo
100
AcDbLine
10
-81.1754775091384
20
0.460815611386612
30
0.000000000000000
11
-81.0754775091384
21
0.352437133156592
31
0.000000000000000
  0
LINE
  5
F101FC
330
F101FD
100
AcDbEntity
8
Geo
100
AcDbLine
10
-81.0754775091384
20
0.352437133156592
30
0.000000000000000
11
-80.9754775091384
21
0.242606553774296
31
0.000000000000000
  0
LINE
  5
F101FE
330
F101FF
100
AcDbEntity
8
Geo
100
AcDbLine
10
-80.9754775091384
20
0.242606553774296
30
0.000000000000000
11
-80.8754775091384
21
0.131486565122272
31
0.000000000000000
  0
LINE
  5
F10200
330
F10201
100
AcDbEntity
8
Geo
100
AcDbLine
10
-80.8754775091384
20
0.131486565122272
30
0.000000000000000
11
-80.7754775091384
21
0.0192417690832054
31
0.000000000000000
  0
LINE
  5
F10202
330
F10203
100
AcDbEntity
8
Geo
100
AcDbLine
10
-80.7754775091384
20
0.0192417690832054
30
0.000000000000000
11
-80.6754775091384
21
-0.0939615662846193
31
0.000000000000000
  0
LINE
  5
F10204
330
F10205
100
AcDbEntity
8
Geo
100
AcDbLine
10
-80.6754775091384
20
-0.0939615662846193
30
0.000000000000000
11
-80.5754775091384
21
-0.207955753039962
31
0.000000000000000
  0
LINE
  5
F10206
330
F10207
100
AcDbEntity
8
Geo
100
AcDbLine
10
-80.5754775091384
20
-0.207955753039962
30
0.000000000000000
11
-80.4754775091384
21
-0.322571931754535
31
0.000000000000000
  0
LINE
  5
F10208
330
F10209
100
AcDbEntity
8
Geo
100
AcDbLine
10
-80.4754775091384
20
-0.322571931754535
30
0.000000000000000
11
-80.3754775091384
21
-0.437640321644239
31
0.000000000000000
  0
LINE
  5
F1020A
330
F1020B
100
AcDbEntity
8
Geo
100
AcDbLine
10
-80.3754775091384
20
-0.437640321644239
30
0.000000000000000
11
-80.2754775091384
21
-0.552990472065196
31
0.000000000000000
  0
LINE
  5
F1020C
330
F1020D
100
AcDbEntity
8
Geo
100
AcDbLine
10
-80.2754775091384
20
-0.552990472065196
30
0.000000000000000
11
-80.1754775091384
21
-0.668451515002051
31
0.000000000000000
  0
LINE
  5
F1020E
330
F1020F
100
AcDbEntity
8
Geo
100
AcDbLine
10
-80.1754775091384
20
-0.668451515002051
30
0.000000000000000
11
-80.0754775091384
21
-0.783852418174520
31
0.000000000000000
  0
LINE
  5
F10210
330
F10211
100
AcDbEntity
8
Geo
100
AcDbLine
10
-80.0754775091384
20
-0.783852418174520
30
0.000000000000000
11
-79.9754775091384
21
-0.899022238387269
31
0.000000000000000
  0
LINE
  5
F10212
330
F10213
100
AcDbEntity
8
Geo
100
AcDbLine
10
-79.9754775091384
20
-0.899022238387269
30
0.000000000000000
11
-79.8754775091384
21
-1.01379037474783
31
0.000000000000000
  0
LINE
  5
F10214
330
F10215
100
AcDbEntity
8
Geo
100
AcDbLine
10
-79.8754775091384
20
-1.01379037474783
30
0.000000000000000
11
-79.7754775091384
21
-1.12798682137744
31
0.000000000000000
  0
LINE
  5
F10216
330
F10217
100
AcDbEntity
8
Geo
100
AcDbLine
10
-79.7754775091384
20
-1.12798682137744
30
0.000000000000000
11
-79.6754775091384
21
-1.24144241924057
31
0.000000000000000
  0
LINE
  5
F10218
330
F10219
100
AcDbEntity
8
Geo
100
AcDbLine
10
-79.6754775091384
20
-1.24144241924057
30
0.000000000000000
11
-79.5754775091384
21
-1.35398910671988
31
0.000000000000000
  0
LINE
  5
F1021A
330
F1021B
100
AcDbEntity
8
Geo
100
AcDbLine
10
-79.5754775091384
20
-1.35398910671988
30
0.000000000000000
11
-79.4754775091384
21
-1.46546016856573
31
0.000000000000000
  0
LINE
  5
F1021C
330
F1021D
100
AcDbEntity
8
Geo
100
AcDbLine
10
-79.4754775091384
20
-1.46546016856573
30
0.000000000000000
11
-79.3754775091384
21
-1.57569048285120
31
0.000000000000000
  0
LINE
  5
F1021E
330
F1021F
100
AcDbEntity
8
Geo
100
AcDbLine
10
-79.3754775091384
20
-1.57569048285120
30
0.000000000000000
11
-79.2754775091384
21
-1.68451676556700
31
0.000000000000000
  0
LINE
  5
F10220
330
F10221
100
AcDbEntity
8
Geo
100
AcDbLine
10
-79.2754775091384
20
-1.68451676556700
30
0.000000000000000
11
-79.1754775091384
21
-1.79177781249382
31
0.000000000000000
  0
LINE
  5
F10222
330
F10223
100
AcDbEntity
8
Geo
100
AcDbLine
10
-79.1754775091384
20
-1.79177781249382
30
0.000000000000000
11
-79.0754775091384
21
-1.89731473799391
31
0.000000000000000
  0
LINE
  5
F10224
330
F10225
100
AcDbEntity
8
Geo
100
AcDbLine
10
-79.0754775091384
20
-1.89731473799391
30
0.000000000000000
11
-78.9754775091384
21
-2.00097121036817
31
0.000000000000000
  0
LINE
  5
F10226
330
F10227
100
AcDbEntity
8
Geo
100
AcDbLine
10
-78.9754775091384
20
-2.00097121036817
30
0.000000000000000
11
-78.8754775091384
21
-2.10259368343006
31
0.000000000000000
  0
LINE
  5
F10228
330
F10229
100
AcDbEntity
8
Geo
100
AcDbLine
10
-78.8754775091384
20
-2.10259368343006
30
0.000000000000000
11
-78.7754775091384
21
-2.20203162395338
31
0.000000000000000
  0
LINE
  5
F1022A
330
F1022B
100
AcDbEntity
8
Geo
100
AcDbLine
10
-78.7754775091384
20
-2.20203162395338
30
0.000000000000000
11
-78.6754775091384
21
-2.29913773465686
31
0.000000000000000
  0
LINE
  5
F1022C
330
F1022D
100
AcDbEntity
8
Geo
100
AcDbLine
10
-78.6754775091384
20
-2.29913773465686
30
0.000000000000000
11
-78.5754775091384
21
-2.39376817239551
31
0.000000000000000
  0
LINE
  5
F1022E
330
F1022F
100
AcDbEntity
8
Geo
100
AcDbLine
10
-78.5754775091384
20
-2.39376817239551
30
0.000000000000000
11
-78.4754775091384
21
-2.48578276123516
31
0.000000000000000
  0
LINE
  5
F10230
330
F10231
100
AcDbEntity
8
Geo
100
AcDbLine
10
-78.4754775091384
20
-2.48578276123516
30
0.000000000000000
11
-78.3754775091384
21
-2.57504520009498
31
0.000000000000000
  0
LINE
  5
F10232
330
F10233
100
AcDbEntity
8
Geo
100
AcDbLine
10
-78.3754775091384
20
-2.57504520009498
30
0.000000000000000
11
-78.2754775091384
21
-2.66142326465000
31
0.000000000000000
  0
LINE
  5
F10234
330
F10235
100
AcDbEntity
8
Geo
100
AcDbLine
10
-78.2754775091384
20
-2.66142326465000
30
0.000000000000000
11
-78.1754775091384
21
-2.74478900319485
31
0.000000000000000
  0
LINE
  5
F10236
330
F10237
100
AcDbEntity
8
Geo
100
AcDbLine
10
-78.1754775091384
20
-2.74478900319485
30
0.000000000000000
11
-78.0754775091385
21
-2.82501892617844
31
0.000000000000000
  0
LINE
  5
F10238
330
F10239
100
AcDbEntity
8
Geo
100
AcDbLine
10
-78.0754775091385
20
-2.82501892617844
30
0.000000000000000
11
-77.9754775091384
21
-2.90199418912886
31
0.000000000000000
  0
LINE
  5
F1023A
330
F1023B
100
AcDbEntity
8
Geo
100
AcDbLine
10
-77.9754775091384
20
-2.90199418912886
30
0.000000000000000
11
-77.8754775091384
21
-2.97560076869751
31
0.000000000000000
  0
LINE
  5
F1023C
330
F1023D
100
AcDbEntity
8
Geo
100
AcDbLine
10
-77.8754775091384
20
-2.97560076869751
30
0.000000000000000
11
-77.7754775091385
21
-3.04572963156174
31
0.000000000000000
  0
LINE
  5
F1023E
330
F1023F
100
AcDbEntity
8
Geo
100
AcDbLine
10
-77.7754775091385
20
-3.04572963156174
30
0.000000000000000
11
-77.6754775091384
21
-3.11227689593577
31
0.000000000000000
  0
LINE
  5
F10240
330
F10241
100
AcDbEntity
8
Geo
100
AcDbLine
10
-77.6754775091384
20
-3.11227689593577
30
0.000000000000000
11
-77.5754775091385
21
-3.17514398545061
31
0.000000000000000
  0
LINE
  5
F10242
330
F10243
100
AcDbEntity
8
Geo
100
AcDbLine
10
-77.5754775091385
20
-3.17514398545061
30
0.000000000000000
11
-77.4754775091384
21
-3.23423777517510
31
0.000000000000000
  0
LINE
  5
F10244
330
F10245
100
AcDbEntity
8
Geo
100
AcDbLine
10
-77.4754775091384
20
-3.23423777517510
30
0.000000000000000
11
-77.3754775091384
21
-3.28947072956175
31
0.000000000000000
  0
LINE
  5
F10246
330
F10247
100
AcDbEntity
8
Geo
100
AcDbLine
10
-77.3754775091384
20
-3.28947072956175
30
0.000000000000000
11
-77.2754775091385
21
-3.34076103211303
31
0.000000000000000
  0
LINE
  5
F10248
330
F10249
100
AcDbEntity
8
Geo
100
AcDbLine
10
-77.2754775091385
20
-3.34076103211303
30
0.000000000000000
11
-77.1754775091384
21
-3.38803270657599
31
0.000000000000000
  0
LINE
  5
F1024A
330
F1024B
100
AcDbEntity
8
Geo
100
AcDbLine
10
-77.1754775091384
20
-3.38803270657599
30
0.000000000000000
11
-77.0754775091385
21
-3.43121572948585
31
0.000000000000000
  0
LINE
  5
F1024C
330
F1024D
100
AcDbEntity
8
Geo
100
AcDbLine
10
-77.0754775091385
20
-3.43121572948585
30
0.000000000000000
11
-76.9754775091384
21
-3.47024613389158
31
0.000000000000000
  0
LINE
  5
F1024E
330
F1024F
100
AcDbEntity
8
Geo
100
AcDbLine
10
-76.9754775091384
20
-3.47024613389158
30
0.000000000000000
11
-76.8754775091384
21
-3.50506610411011
31
0.000000000000000
  0
LINE
  5
F10250
330
F10251
100
AcDbEntity
8
Geo
100
AcDbLine
10
-76.8754775091384
20
-3.50506610411011
30
0.000000000000000
11
-76.7754775091385
21
-3.53562406136860
31
0.000000000000000
  0
LINE
  5
F10252
330
F10253
100
AcDbEntity
8
Geo
100
AcDbLine
10
-76.7754775091385
20
-3.53562406136860
30
0.000000000000000
11
-76.6754775091384
21
-3.56187474020800
31
0.000000000000000
  0
LINE
  5
F10254
330
F10255
100
AcDbEntity
8
Geo
100
AcDbLine
10
-76.6754775091384
20
-3.56187474020800
30
0.000000000000000
11
-76.5754775091385
21
-3.58377925553471
31
0.000000000000000
  0
LINE
  5
F10256
330
F10257
100
AcDbEntity
8
Geo
100
AcDbLine
10
-76.5754775091385
20
-3.58377925553471
30
0.000000000000000
11
-76.4754775091385
21
-3.60130516022103
31
0.000000000000000
  0
LINE
  5
F10258
330
F10259
100
AcDbEntity
8
Geo
100
AcDbLine
10
-76.4754775091385
20
-3.60130516022103
30
0.000000000000000
11
-76.3754775091384
21
-3.61442649316904
31
0.000000000000000
  0
LINE
  5
F1025A
330
F1025B
100
AcDbEntity
8
Geo
100
AcDbLine
10
-76.3754775091384
20
-3.61442649316904
30
0.000000000000000
11
-76.2754775091385
21
-3.62312381776672
31
0.000000000000000
  0
LINE
  5
F1025C
330
F1025D
100
AcDbEntity
8
Geo
100
AcDbLine
10
-76.2754775091385
20
-3.62312381776672
30
0.000000000000000
11
-76.1754775091385
21
-3.62738425067940
31
0.000000000000000
  0
LINE
  5
F1025E
330
F1025F
100
AcDbEntity
8
Geo
100
AcDbLine
10
-67.9754775091385
20
2.37213367059514
30
0.000000000000000
11
-67.8754775091385
21
2.37026651454688
31
0.000000000000000
  0
LINE
  5
F10260
330
F10261
100
AcDbEntity
8
Geo
100
AcDbLine
10
-67.8754775091385
20
2.37026651454688
30
0.000000000000000
11
-67.7754775091385
21
2.36395824952566
31
0.000000000000000
  0
LINE
  5
F10262
330
F10263
100
AcDbEntity
8
Geo
100
AcDbLine
10
-67.7754775091385
20
2.36395824952566
30
0.000000000000000
11
-67.6754775091385
21
2.35321821995559
31
0.000000000000000
  0
LINE
  5
F10264
330
F10265
100
AcDbEntity
8
Geo
100
AcDbLine
10
-67.6754775091385
20
2.35321821995559
30
0.000000000000000
11
-67.5754775091385
21
2.33806233502734
31
0.000000000000000
  0
LINE
  5
F10266
330
F10267
100
AcDbEntity
8
Geo
100
AcDbLine
10
-67.5754775091385
20
2.33806233502734
30
0.000000000000000
11
-67.4754775091384
21
2.31851304513189
31
0.000000000000000
  0
LINE
  5
F10268
330
F10269
100
AcDbEntity
8
Geo
100
AcDbLine
10
-67.4754775091384
20
2.31851304513189
30
0.000000000000000
11
-67.3754775091384
21
2.28625826970517
31
0.000000000000000
  0
LINE
  5
F1026A
330
F1026B
100
AcDbEntity
8
Geo
100
AcDbLine
10
-67.3754775091384
20
2.28625826970517
30
0.000000000000000
11
-67.2754775091384
21
2.23434947653935
31
0.000000000000000
  0
LINE
  5
F1026C
330
F1026D
100
AcDbEntity
8
Geo
100
AcDbLine
10
-67.2754775091384
20
2.23434947653935
30
0.000000000000000
11
-67.1754775091384
21
2.15526164130802
31
0.000000000000000
  0
LINE
  5
F1026E
330
F1026F
100
AcDbEntity
8
Geo
100
AcDbLine
10
-67.1754775091384
20
2.15526164130802
30
0.000000000000000
11
-67.0754775091384
21
2.04029019012813
31
0.000000000000000
  0
LINE
  5
F10270
330
F10271
100
AcDbEntity
8
Geo
100
AcDbLine
10
-67.0754775091384
20
2.04029019012813
30
0.000000000000000
11
-66.9754775091384
21
1.87997586589222
31
0.000000000000000
  0
LINE
  5
F10272
330
F10273
100
AcDbEntity
8
Geo
100
AcDbLine
10
-66.9754775091384
20
1.87997586589222
30
0.000000000000000
11
-66.8754775091384
21
1.66473657354535
31
0.000000000000000
  0
LINE
  5
F10274
330
F10275
100
AcDbEntity
8
Geo
100
AcDbLine
10
-66.8754775091384
20
1.66473657354535
30
0.000000000000000
11
-66.7754775091384
21
1.38574924384168
31
0.000000000000000
  0
LINE
  5
F10276
330
F10277
100
AcDbEntity
8
Geo
100
AcDbLine
10
-66.7754775091384
20
1.38574924384168
30
0.000000000000000
11
-66.6754775091384
21
1.03610876624831
31
0.000000000000000
  0
LINE
  5
F10278
330
F10279
100
AcDbEntity
8
Geo
100
AcDbLine
10
-66.6754775091384
20
1.03610876624831
30
0.000000000000000
11
-66.5754775091384
21
0.612260679343877
31
0.000000000000000
  0
LINE
  5
F1027A
330
F1027B
100
AcDbEntity
8
Geo
100
AcDbLine
10
-66.5754775091384
20
0.612260679343877
30
0.000000000000000
11
-66.4754775091384
21
0.115656459312460
31
0.000000000000000
  0
LINE
  5
F1027C
330
F1027D
100
AcDbEntity
8
Geo
100
AcDbLine
10
-83.4754775091384
20
-0.627852162023681
30
0.000000000000000
11
-83.3754775091384
21
-0.737521629607794
31
0.000000000000000
  0
LINE
  5
F1027E
330
F1027F
100
AcDbEntity
8
Geo
100
AcDbLine
10
-83.3754775091384
20
-0.737521629607794
30
0.000000000000000
11
-83.2754775091384
21
-0.854719046839137
31
0.000000000000000
  0
LINE
  5
F10280
330
F10281
100
AcDbEntity
8
Geo
100
AcDbLine
10
-83.2754775091384
20
-0.854719046839137
30
0.000000000000000
11
-83.1754775091384
21
-0.973493036215887
31
0.000000000000000
  0
LINE
  5
F10282
330
F10283
100
AcDbEntity
8
Geo
100
AcDbLine
10
-83.1754775091384
20
-0.973493036215887
30
0.000000000000000
11
-83.0754775091384
21
-1.08790982681496
31
0.000000000000000
  0
LINE
  5
F10284
330
F10285
100
AcDbEntity
8
Geo
100
AcDbLine
10
-83.0754775091384
20
-1.08790982681496
30
0.000000000000000
11
-82.9754775091384
21
-1.20164513464314
31
0.000000000000000
  0
LINE
  5
F10286
330
F10287
100
AcDbEntity
8
Geo
100
AcDbLine
10
-82.9754775091384
20
-1.20164513464314
30
0.000000000000000
11
-82.8754775091384
21
-1.31453048374912
31
0.000000000000000
  0
LINE
  5
F10288
330
F10289
100
AcDbEntity
8
Geo
100
AcDbLine
10
-82.8754775091384
20
-1.31453048374912
30
0.000000000000000
11
-82.7754775091384
21
-1.42639865722428
31
0.000000000000000
  0
LINE
  5
F1028A
330
F1028B
100
AcDbEntity
8
Geo
100
AcDbLine
10
-82.7754775091384
20
-1.42639865722428
30
0.000000000000000
11
-82.6754775091384
21
-1.53708394490080
31
0.000000000000000
  0
LINE
  5
F1028C
330
F1028D
100
AcDbEntity
8
Geo
100
AcDbLine
10
-82.6754775091384
20
-1.53708394490080
30
0.000000000000000
11
-82.5754775091384
21
-1.64642238881793
31
0.000000000000000
  0
LINE
  5
F1028E
330
F1028F
100
AcDbEntity
8
Geo
100
AcDbLine
10
-82.5754775091384
20
-1.64642238881793
30
0.000000000000000
11
-82.4754775091384
21
-1.75425202609271
31
0.000000000000000
  0
LINE
  5
F10290
330
F10291
100
AcDbEntity
8
Geo
100
AcDbLine
10
-82.4754775091384
20
-1.75425202609271
30
0.000000000000000
11
-82.3754775091384
21
-1.86041312883530
31
0.000000000000000
  0
LINE
  5
F10292
330
F10293
100
AcDbEntity
8
Geo
100
AcDbLine
10
-82.3754775091384
20
-1.86041312883530
30
0.000000000000000
11
-82.2754775091384
21
-1.96474844075373
31
0.000000000000000
  0
LINE
  5
F10294
330
F10295
100
AcDbEntity
8
Geo
100
AcDbLine
10
-82.2754775091384
20
-1.96474844075373
30
0.000000000000000
11
-82.1754775091384
21
-2.06710341009741
31
0.000000000000000
  0
LINE
  5
F10296
330
F10297
100
AcDbEntity
8
Geo
100
AcDbLine
10
-82.1754775091384
20
-2.06710341009741
30
0.000000000000000
11
-82.0754775091384
21
-2.16732641859441
31
0.000000000000000
  0
LINE
  5
F10298
330
F10299
100
AcDbEntity
8
Geo
100
AcDbLine
10
-82.0754775091384
20
-2.16732641859441
30
0.000000000000000
11
-81.9754775091384
21
-2.26526900604341
31
0.000000000000000
  0
LINE
  5
F1029A
330
F1029B
100
AcDbEntity
8
Geo
100
AcDbLine
10
-81.9754775091384
20
-2.26526900604341
30
0.000000000000000
11
-81.8754775091384
21
-2.36078609022755
31
0.000000000000000
  0
LINE
  5
F1029C
330
F1029D
100
AcDbEntity
8
Geo
100
AcDbLine
10
-81.8754775091384
20
-2.36078609022755
30
0.000000000000000
11
-81.7754775091384
21
-2.45373618182457
31
0.000000000000000
  0
LINE
  5
F1029E
330
F1029F
100
AcDbEntity
8
Geo
100
AcDbLine
10
-81.7754775091384
20
-2.45373618182457
30
0.000000000000000
11
-81.6754775091384
21
-2.54398159399470
31
0.000000000000000
  0
LINE
  5
F102A0
330
F102A1
100
AcDbEntity
8
Geo
100
AcDbLine
10
-81.6754775091384
20
-2.54398159399470
30
0.000000000000000
11
-81.5754775091384
21
-2.63138864633599
31
0.000000000000000
  0
LINE
  5
F102A2
330
F102A3
100
AcDbEntity
8
Geo
100
AcDbLine
10
-81.5754775091384
20
-2.63138864633599
30
0.000000000000000
11
-81.4754775091384
21
-2.71582786290492
31
0.000000000000000
  0
LINE
  5
F102A4
330
F102A5
100
AcDbEntity
8
Geo
100
AcDbLine
10
-81.4754775091384
20
-2.71582786290492
30
0.000000000000000
11
-81.3754775091384
21
-2.79717416400892
31
0.000000000000000
  0
LINE
  5
F102A6
330
F102A7
100
AcDbEntity
8
Geo
100
AcDbLine
10
-81.3754775091384
20
-2.79717416400892
30
0.000000000000000
11
-81.2754775091384
21
-2.87530705148672
31
0.000000000000000
  0
LINE
  5
F102A8
330
F102A9
100
AcDbEntity
8
Geo
100
AcDbLine
10
-81.2754775091384
20
-2.87530705148672
30
0.000000000000000
11
-81.1754775091384
21
-2.95011078720216
31
0.000000000000000
  0
LINE
  5
F102AA
330
F102AB
100
AcDbEntity
8
Geo
100
AcDbLine
10
-81.1754775091384
20
-2.95011078720216
30
0.000000000000000
11
-81.0754775091384
21
-3.02147456448687
31
0.000000000000000
  0
LINE
  5
F102AC
330
F102AD
100
AcDbEntity
8
Geo
100
AcDbLine
10
-81.0754775091384
20
-3.02147456448687
30
0.000000000000000
11
-80.9754775091384
21
-3.08929267227807
31
0.000000000000000
  0
LINE
  5
F102AE
330
F102AF
100
AcDbEntity
8
Geo
100
AcDbLine
10
-80.9754775091384
20
-3.08929267227807
30
0.000000000000000
11
-80.8754775091384
21
-3.15346465170821
31
0.000000000000000
  0
LINE
  5
F102B0
330
F102B1
100
AcDbEntity
8
Geo
100
AcDbLine
10
-80.8754775091384
20
-3.15346465170821
30
0.000000000000000
11
-80.7754775091384
21
-3.21389544491454
31
0.000000000000000
  0
LINE
  5
F102B2
330
F102B3
100
AcDbEntity
8
Geo
100
AcDbLine
10
-80.7754775091384
20
-3.21389544491454
30
0.000000000000000
11
-80.6754775091384
21
-3.27049553584820
31
0.000000000000000
  0
LINE
  5
F102B4
330
F102B5
100
AcDbEntity
8
Geo
100
AcDbLine
10
-80.6754775091384
20
-3.27049553584820
30
0.000000000000000
11
-80.5754775091384
21
-3.32318108287421
31
0.000000000000000
  0
LINE
  5
F102B6
330
F102B7
100
AcDbEntity
8
Geo
100
AcDbLine
10
-80.5754775091384
20
-3.32318108287421
30
0.000000000000000
11
-80.4754775091384
21
-3.37187404296595
31
0.000000000000000
  0
LINE
  5
F102B8
330
F102B9
100
AcDbEntity
8
Geo
100
AcDbLine
10
-80.4754775091384
20
-3.37187404296595
30
0.000000000000000
11
-80.3754775091384
21
-3.41650228731023
31
0.000000000000000
  0
LINE
  5
F102BA
330
F102BB
100
AcDbEntity
8
Geo
100
AcDbLine
10
-80.3754775091384
20
-3.41650228731023
30
0.000000000000000
11
-80.2754775091384
21
-3.45699970815156
31
0.000000000000000
  0
LINE
  5
F102BC
330
F102BD
100
AcDbEntity
8
Geo
100
AcDbLine
10
-80.2754775091384
20
-3.45699970815156
30
0.000000000000000
11
-80.1754775091384
21
-3.49330631671748
31
0.000000000000000
  0
LINE
  5
F102BE
330
F102BF
100
AcDbEntity
8
Geo
100
AcDbLine
10
-80.1754775091384
20
-3.49330631671748
30
0.000000000000000
11
-80.0754775091384
21
-3.52536833207986
31
0.000000000000000
  0
LINE
  5
F102C0
330
F102C1
100
AcDbEntity
8
Geo
100
AcDbLine
10
-80.0754775091384
20
-3.52536833207986
30
0.000000000000000
11
-79.9754775091384
21
-3.55313826082049
31
0.000000000000000
  0
LINE
  5
F102C2
330
F102C3
100
AcDbEntity
8
Geo
100
AcDbLine
10
-79.9754775091384
20
-3.55313826082049
30
0.000000000000000
11
-79.8754775091384
21
-3.57657496738306
31
0.000000000000000
  0
LINE
  5
F102C4
330
F102C5
100
AcDbEntity
8
Geo
100
AcDbLine
10
-79.8754775091384
20
-3.57657496738306
30
0.000000000000000
11
-79.7754775091384
21
-3.59564373500713
31
0.000000000000000
  0
LINE
  5
F102C6
330
F102C7
100
AcDbEntity
8
Geo
100
AcDbLine
10
-79.7754775091384
20
-3.59564373500713
30
0.000000000000000
11
-79.6754775091384
21
-3.61031631715408
31
0.000000000000000
  0
LINE
  5
F102C8
330
F102C9
100
AcDbEntity
8
Geo
100
AcDbLine
10
-79.6754775091384
20
-3.61031631715408
30
0.000000000000000
11
-79.5754775091384
21
-3.62057097934864
31
0.000000000000000
  0
LINE
  5
F102CA
330
F102CB
100
AcDbEntity
8
Geo
100
AcDbLine
10
-79.5754775091384
20
-3.62057097934864
30
0.000000000000000
11
-79.4754775091384
21
-3.62639253137415
31
0.000000000000000
  0
LINE
  5
F102CC
330
F102CD
100
AcDbEntity
8
Geo
100
AcDbLine
10
-71.2754775091385
20
2.37173416922368
30
0.000000000000000
11
-71.1754775091385
21
2.37142955320716
31
0.000000000000000
  0
LINE
  5
F102CE
330
F102CF
100
AcDbEntity
8
Geo
100
AcDbLine
10
-71.1754775091385
20
2.37142955320716
30
0.000000000000000
11
-71.0754775091385
21
2.36668210541016
31
0.000000000000000
  0
LINE
  5
F102D0
330
F102D1
100
AcDbEntity
8
Geo
100
AcDbLine
10
-71.0754775091385
20
2.36668210541016
30
0.000000000000000
11
-70.9754775091385
21
2.35749885822042
31
0.000000000000000
  0
LINE
  5
F102D2
330
F102D3
100
AcDbEntity
8
Geo
100
AcDbLine
10
-70.9754775091385
20
2.35749885822042
30
0.000000000000000
11
-70.8754775091385
21
2.34389341476906
31
0.000000000000000
  0
LINE
  5
F102D4
330
F102D5
100
AcDbEntity
8
Geo
100
AcDbLine
10
-70.8754775091385
20
2.34389341476906
30
0.000000000000000
11
-70.7754775091385
21
2.32588592878031
31
0.000000000000000
  0
LINE
  5
F102D6
330
F102D7
100
AcDbEntity
8
Geo
100
AcDbLine
10
-70.7754775091385
20
2.32588592878031
30
0.000000000000000
11
-70.6754775091385
21
2.30350307471780
31
0.000000000000000
  0
LINE
  5
F102D8
330
F102D9
100
AcDbEntity
8
Geo
100
AcDbLine
10
-70.6754775091385
20
2.30350307471780
30
0.000000000000000
11
-70.5754775091385
21
2.27677800827173
31
0.000000000000000
  0
LINE
  5
F102DA
330
F102DB
100
AcDbEntity
8
Geo
100
AcDbLine
10
-70.5754775091385
20
2.27677800827173
30
0.000000000000000
11
-70.4754775091385
21
2.24575031724538
31
0.000000000000000
  0
LINE
  5
F102DC
330
F102DD
100
AcDbEntity
8
Geo
100
AcDbLine
10
-70.4754775091385
20
2.24575031724538
30
0.000000000000000
11
-70.3754775091385
21
2.21046596291378
31
0.000000000000000
  0
LINE
  5
F102DE
330
F102DF
100
AcDbEntity
8
Geo
100
AcDbLine
10
-70.3754775091385
20
2.21046596291378
30
0.000000000000000
11
-70.2754775091385
21
2.17097721194129
31
0.000000000000000
  0
LINE
  5
F102E0
330
F102E1
100
AcDbEntity
8
Geo
100
AcDbLine
10
-70.2754775091385
20
2.17097721194129
30
0.000000000000000
11
-70.1754775091385
21
2.12734255895912
31
0.000000000000000
  0
LINE
  5
F102E2
330
F102E3
100
AcDbEntity
8
Geo
100
AcDbLine
10
-70.1754775091385
20
2.12734255895912
30
0.000000000000000
11
-70.0754775091385
21
2.07962663991726
31
0.000000000000000
  0
LINE
  5
F102E4
330
F102E5
100
AcDbEntity
8
Geo
100
AcDbLine
10
-70.0754775091385
20
2.07962663991726
30
0.000000000000000
11
-69.9754775091385
21
2.02790013633941
31
0.000000000000000
  0
LINE
  5
F102E6
330
F102E7
100
AcDbEntity
8
Geo
100
AcDbLine
10
-69.9754775091385
20
2.02790013633941
30
0.000000000000000
11
-69.8754775091385
21
1.97223967062244
31
0.000000000000000
  0
LINE
  5
F102E8
330
F102E9
100
AcDbEntity
8
Geo
100
AcDbLine
10
-69.8754775091385
20
1.97223967062244
30
0.000000000000000
11
-69.7754775091385
21
1.91272769253583
31
0.000000000000000
  0
LINE
  5
F102EA
330
F102EB
100
AcDbEntity
8
Geo
100
AcDbLine
10
-69.7754775091385
20
1.91272769253583
30
0.000000000000000
11
-69.6754775091385
21
1.84945235708890
31
0.000000000000000
  0
LINE
  5
F102EC
330
F102ED
100
AcDbEntity
8
Geo
100
AcDbLine
10
-69.6754775091385
20
1.84945235708890
30
0.000000000000000
11
-69.5754775091385
21
1.78250739394694
31
0.000000000000000
  0
LINE
  5
F102EE
330
F102EF
100
AcDbEntity
8
Geo
100
AcDbLine
10
-69.5754775091385
20
1.78250739394694
30
0.000000000000000
11
-69.4754775091385
21
1.71199196858955
31
0.000000000000000
  0
LINE
  5
F102F0
330
F102F1
100
AcDbEntity
8
Geo
100
AcDbLine
10
-69.4754775091385
20
1.71199196858955
30
0.000000000000000
11
-69.3754775091385
21
1.63801053541700
31
0.000000000000000
  0
LINE
  5
F102F2
330
F102F3
100
AcDbEntity
8
Geo
100
AcDbLine
10
-69.3754775091385
20
1.63801053541700
30
0.000000000000000
11
-69.2754775091385
21
1.56067268302206
31
0.000000000000000
  0
LINE
  5
F102F4
330
F102F5
100
AcDbEntity
8
Geo
100
AcDbLine
10
-69.2754775091385
20
1.56067268302206
30
0.000000000000000
11
-69.1754775091385
21
1.48009297185654
31
0.000000000000000
  0
LINE
  5
F102F6
330
F102F7
100
AcDbEntity
8
Geo
100
AcDbLine
10
-69.1754775091385
20
1.48009297185654
30
0.000000000000000
11
-69.0754775091385
21
1.39639076453311
31
0.000000000000000
  0
LINE
  5
F102F8
330
F102F9
100
AcDbEntity
8
Geo
100
AcDbLine
10
-69.0754775091385
20
1.39639076453311
30
0.000000000000000
11
-68.9754775091385
21
1.30969004901359
31
0.000000000000000
  0
LINE
  5
F102FA
330
F102FB
100
AcDbEntity
8
Geo
100
AcDbLine
10
-68.9754775091385
20
1.30969004901359
30
0.000000000000000
11
-68.8754775091385
21
1.22011925494575
31
0.000000000000000
  0
LINE
  5
F102FC
330
F102FD
100
AcDbEntity
8
Geo
100
AcDbLine
10
-68.8754775091385
20
1.22011925494575
30
0.000000000000000
11
-68.7754775091385
21
1.12781106342072
31
0.000000000000000
  0
LINE
  5
F102FE
330
F102FF
100
AcDbEntity
8
Geo
100
AcDbLine
10
-68.7754775091385
20
1.12781106342072
30
0.000000000000000
11
-68.6754775091385
21
1.03290221043256
31
0.000000000000000
  0
LINE
  5
F10300
330
F10301
100
AcDbEntity
8
Geo
100
AcDbLine
10
-68.6754775091385
20
1.03290221043256
30
0.000000000000000
11
-68.5754775091385
21
0.935533284331554
31
0.000000000000000
  0
LINE
  5
F10302
330
F10303
100
AcDbEntity
8
Geo
100
AcDbLine
10
-68.5754775091385
20
0.935533284331554
30
0.000000000000000
11
-68.4754775091385
21
0.835848517570788
31
0.000000000000000
  0
LINE
  5
F10304
330
F10305
100
AcDbEntity
8
Geo
100
AcDbLine
10
-68.4754775091385
20
0.835848517570788
30
0.000000000000000
11
-68.3754775091385
21
0.733995573054865
31
0.000000000000000
  0
LINE
  5
F10306
330
F10307
100
AcDbEntity
8
Geo
100
AcDbLine
10
-68.3754775091385
20
0.733995573054865
30
0.000000000000000
11
-68.2754775091385
21
0.630125325407044
31
0.000000000000000
  0
LINE
  5
F10308
330
F10309
100
AcDbEntity
8
Geo
100
AcDbLine
10
-68.2754775091385
20
0.630125325407044
30
0.000000000000000
11
-68.1754775091385
21
0.524391637478870
31
0.000000000000000
  0
LINE
  5
F1030A
330
F1030B
100
AcDbEntity
8
Geo
100
AcDbLine
10
-68.1754775091385
20
0.524391637478870
30
0.000000000000000
11
-68.0754775091385
21
0.416951132433355
31
0.000000000000000
  0
LINE
  5
F1030C
330
F1030D
100
AcDbEntity
8
Geo
100
AcDbLine
10
-68.0754775091385
20
0.416951132433355
30
0.000000000000000
11
-67.9754775091385
21
0.307962961739299
31
0.000000000000000
  0
LINE
  5
F1030E
330
F1030F
100
AcDbEntity
8
Geo
100
AcDbLine
10
-67.9754775091385
20
0.307962961739299
30
0.000000000000000
11
-67.8754775091385
21
0.197588569420448
31
0.000000000000000
  0
LINE
  5
F10310
330
F10311
100
AcDbEntity
8
Geo
100
AcDbLine
10
-67.8754775091385
20
0.197588569420448
30
0.000000000000000
11
-67.7754775091385
21
0.0859914529086878
31
0.000000000000000
  0
LINE
  5
F10312
330
F10313
100
AcDbEntity
8
Geo
100
AcDbLine
10
-67.7754775091385
20
0.0859914529086878
30
0.000000000000000
11
-67.6754775091385
21
-0.0266630791444691
31
0.000000000000000
  0
LINE
  5
F10314
330
F10315
100
AcDbEntity
8
Geo
100
AcDbLine
10
-67.6754775091385
20
-0.0266630791444691
30
0.000000000000000
11
-67.5754775091385
21
-0.140208151739359
31
0.000000000000000
  0
LINE
  5
F10316
330
F10317
100
AcDbEntity
8
Geo
100
AcDbLine
10
-67.5754775091385
20
-0.140208151739359
30
0.000000000000000
11
-67.4754775091384
21
-0.254475570719916
31
0.000000000000000
  0
LINE
  5
F10318
330
F10319
100
AcDbEntity
8
Geo
100
AcDbLine
10
-67.4754775091384
20
-0.254475570719916
30
0.000000000000000
11
-67.3754775091384
21
-0.237783118083434
31
0.000000000000000
  0
LINE
  5
F1031A
330
F1031B
100
AcDbEntity
8
Geo
100
AcDbLine
10
-67.3754775091384
20
-0.237783118083434
30
0.000000000000000
11
-67.2754775091384
21
-0.216508510124423
31
0.000000000000000
  0
LINE
  5
F1031C
330
F1031D
100
AcDbEntity
8
Geo
100
AcDbLine
10
-67.2754775091384
20
-0.216508510124423
30
0.000000000000000
11
-67.1754775091384
21
-0.190666210168380
31
0.000000000000000
  0
LINE
  5
F1031E
330
F1031F
100
AcDbEntity
8
Geo
100
AcDbLine
10
-67.1754775091384
20
-0.190666210168380
30
0.000000000000000
11
-67.0754775091384
21
-0.160275388734542
31
0.000000000000000
  0
LINE
  5
F10320
330
F10321
100
AcDbEntity
8
Geo
100
AcDbLine
10
-67.0754775091384
20
-0.160275388734542
30
0.000000000000000
11
-66.9754775091384
21
-0.125360845086707
31
0.000000000000000
  0
LINE
  5
F10322
330
F10323
100
AcDbEntity
8
Geo
100
AcDbLine
10
-66.9754775091384
20
-0.125360845086707
30
0.000000000000000
11
-66.8754775091384
21
-0.0859540883181127
31
0.000000000000000
  0
LINE
  5
F10324
330
F10325
100
AcDbEntity
8
Geo
100
AcDbLine
10
-66.8754775091384
20
-0.0859540883181127
30
0.000000000000000
11
-66.7754775091384
21
-0.0420945753280620
31
0.000000000000000
  0
LINE
  5
F10326
330
F10327
100
AcDbEntity
8
Geo
100
AcDbLine
10
-66.7754775091384
20
-0.0420945753280620
30
0.000000000000000
11
-66.6754775091384
21
0.00616889779470586
31
0.000000000000000
  0
LINE
  5
F10328
330
F10329
100
AcDbEntity
8
Geo
100
AcDbLine
10
-66.6754775091384
20
0.00616889779470586
30
0.000000000000000
11
-66.5754775091384
21
0.0587766554933833
31
0.000000000000000
  0
LINE
  5
F1032A
330
F1032B
100
AcDbEntity
8
Geo
100
AcDbLine
10
-66.5754775091384
20
0.0587766554933833
30
0.000000000000000
11
-66.4754775091384
21
0.115656459312461
31
0.000000000000000
  0
LINE
  5
F1032C
330
F1032D
100
AcDbEntity
8
Geo
100
AcDbLine
10
-83.4754775091384
20
-1.47764889655477
30
0.000000000000000
11
-83.3754775091384
21
-1.61220016910184
31
0.000000000000000
  0
LINE
  5
F1032E
330
F1032F
100
AcDbEntity
8
Geo
100
AcDbLine
10
-83.3754775091384
20
-1.61220016910184
30
0.000000000000000
11
-83.2754775091384
21
-1.75251582071496
31
0.000000000000000
  0
LINE
  5
F10330
330
F10331
100
AcDbEntity
8
Geo
100
AcDbLine
10
-83.2754775091384
20
-1.75251582071496
30
0.000000000000000
11
-83.1754775091384
21
-1.87745367495248
31
0.000000000000000
  0
LINE
  5
F10332
330
F10333
100
AcDbEntity
8
Geo
100
AcDbLine
10
-83.1754775091384
20
-1.87745367495248
30
0.000000000000000
11
-83.0754775091384
21
-1.98147840031886
31
0.000000000000000
  0
LINE
  5
F10334
330
F10335
100
AcDbEntity
8
Geo
100
AcDbLine
10
-83.0754775091384
20
-1.98147840031886
30
0.000000000000000
11
-82.9754775091384
21
-2.08349800104495
31
0.000000000000000
  0
LINE
  5
F10336
330
F10337
100
AcDbEntity
8
Geo
100
AcDbLine
10
-82.9754775091384
20
-2.08349800104495
30
0.000000000000000
11
-82.8754775091384
21
-2.18336135563988
31
0.000000000000000
  0
LINE
  5
F10338
330
F10339
100
AcDbEntity
8
Geo
100
AcDbLine
10
-82.8754775091384
20
-2.18336135563988
30
0.000000000000000
11
-82.7754775091384
21
-2.28092053665714
31
0.000000000000000
  0
LINE
  5
F1033A
330
F1033B
100
AcDbEntity
8
Geo
100
AcDbLine
10
-82.7754775091384
20
-2.28092053665714
30
0.000000000000000
11
-82.6754775091384
21
-2.37603102981929
31
0.000000000000000
  0
LINE
  5
F1033C
330
F1033D
100
AcDbEntity
8
Geo
100
AcDbLine
10
-82.6754775091384
20
-2.37603102981929
30
0.000000000000000
11
-82.5754775091384
21
-2.46855194808677
31
0.000000000000000
  0
LINE
  5
F1033E
330
F1033F
100
AcDbEntity
8
Geo
100
AcDbLine
10
-82.5754775091384
20
-2.46855194808677
30
0.000000000000000
11
-82.4754775091384
21
-2.55834624035367
31
0.000000000000000
  0
LINE
  5
F10340
330
F10341
100
AcDbEntity
8
Geo
100
AcDbLine
10
-82.4754775091384
20
-2.55834624035367
30
0.000000000000000
11
-82.3754775091384
21
-2.64528089446131
31
0.000000000000000
  0
LINE
  5
F10342
330
F10343
100
AcDbEntity
8
Geo
100
AcDbLine
10
-82.3754775091384
20
-2.64528089446131
30
0.000000000000000
11
-82.2754775091384
21
-2.72922713422901
31
0.000000000000000
  0
LINE
  5
F10344
330
F10345
100
AcDbEntity
8
Geo
100
AcDbLine
10
-82.2754775091384
20
-2.72922713422901
30
0.000000000000000
11
-82.1754775091384
21
-2.81006061021003
31
0.000000000000000
  0
LINE
  5
F10346
330
F10347
100
AcDbEntity
8
Geo
100
AcDbLine
10
-82.1754775091384
20
-2.81006061021003
30
0.000000000000000
11
-82.0754775091384
21
-2.88766158389025
31
0.000000000000000
  0
LINE
  5
F10348
330
F10349
100
AcDbEntity
8
Geo
100
AcDbLine
10
-82.0754775091384
20
-2.88766158389025
30
0.000000000000000
11
-81.9754775091384
21
-2.96191510505665
31
0.000000000000000
  0
LINE
  5
F1034A
330
F1034B
100
AcDbEntity
8
Geo
100
AcDbLine
10
-81.9754775091384
20
-2.96191510505665
30
0.000000000000000
11
-81.8754775091384
21
-3.03271118207292
31
0.000000000000000
  0
LINE
  5
F1034C
330
F1034D
100
AcDbEntity
8
Geo
100
AcDbLine
10
-81.8754775091384
20
-3.03271118207292
30
0.000000000000000
11
-81.7754775091384
21
-3.09994494480987
31
0.000000000000000
  0
LINE
  5
F1034E
330
F1034F
100
AcDbEntity
8
Geo
100
AcDbLine
10
-81.7754775091384
20
-3.09994494480987
30
0.000000000000000
11
-81.6754775091384
21
-3.16351679998946
31
0.000000000000000
  0
LINE
  5
F10350
330
F10351
100
AcDbEntity
8
Geo
100
AcDbLine
10
-81.6754775091384
20
-3.16351679998946
30
0.000000000000000
11
-81.5754775091384
21
-3.22333257871216
31
0.000000000000000
  0
LINE
  5
F10352
330
F10353
100
AcDbEntity
8
Geo
100
AcDbLine
10
-81.5754775091384
20
-3.22333257871216
30
0.000000000000000
11
-81.4754775091384
21
-3.27930367594918
31
0.000000000000000
  0
LINE
  5
F10354
330
F10355
100
AcDbEntity
8
Geo
100
AcDbLine
10
-81.4754775091384
20
-3.27930367594918
30
0.000000000000000
11
-81.3754775091384
21
-3.33134718179302
31
0.000000000000000
  0
LINE
  5
F10356
330
F10357
100
AcDbEntity
8
Geo
100
AcDbLine
10
-81.3754775091384
20
-3.33134718179302
30
0.000000000000000
11
-81.2754775091384
21
-3.37938600427177
31
0.000000000000000
  0
LINE
  5
F10358
330
F10359
100
AcDbEntity
8
Geo
100
AcDbLine
10
-81.2754775091384
20
-3.37938600427177
30
0.000000000000000
11
-81.1754775091384
21
-3.42334898354536
31
0.000000000000000
  0
LINE
  5
F1035A
330
F1035B
100
AcDbEntity
8
Geo
100
AcDbLine
10
-81.1754775091384
20
-3.42334898354536
30
0.000000000000000
11
-81.0754775091384
21
-3.46317099731450
31
0.000000000000000
  0
LINE
  5
F1035C
330
F1035D
100
AcDbEntity
8
Geo
100
AcDbLine
10
-81.0754775091384
20
-3.46317099731450
30
0.000000000000000
11
-80.9754775091384
21
-3.49879305728629
31
0.000000000000000
  0
LINE
  5
F1035E
330
F1035F
100
AcDbEntity
8
Geo
100
AcDbLine
10
-80.9754775091384
20
-3.49879305728629
30
0.000000000000000
11
-80.8754775091384
21
-3.53016239655346
31
0.000000000000000
  0
LINE
  5
F10360
330
F10361
100
AcDbEntity
8
Geo
100
AcDbLine
10
-80.8754775091384
20
-3.53016239655346
30
0.000000000000000
11
-80.7754775091384
21
-3.55723254775794
31
0.000000000000000
  0
LINE
  5
F10362
330
F10363
100
AcDbEntity
8
Geo
100
AcDbLine
10
-80.7754775091384
20
-3.55723254775794
30
0.000000000000000
11
-80.6754775091384
21
-3.57996341192286
31
0.000000000000000
  0
LINE
  5
F10364
330
F10365
100
AcDbEntity
8
Geo
100
AcDbLine
10
-80.6754775091384
20
-3.57996341192286
30
0.000000000000000
11
-80.5754775091384
21
-3.59832131785118
31
0.000000000000000
  0
LINE
  5
F10366
330
F10367
100
AcDbEntity
8
Geo
100
AcDbLine
10
-80.5754775091384
20
-3.59832131785118
30
0.000000000000000
11
-80.4754775091384
21
-3.61227907200267
31
0.000000000000000
  0
LINE
  5
F10368
330
F10369
100
AcDbEntity
8
Geo
100
AcDbLine
10
-80.4754775091384
20
-3.61227907200267
30
0.000000000000000
11
-80.3754775091384
21
-3.62181599877579
31
0.000000000000000
  0
LINE
  5
F1036A
330
F1036B
100
AcDbEntity
8
Geo
100
AcDbLine
10
-80.3754775091384
20
-3.62181599877579
30
0.000000000000000
11
-80.2754775091384
21
-3.62691797113433
31
0.000000000000000
  0
LINE
  5
F1036C
330
F1036D
100
AcDbEntity
8
Geo
100
AcDbLine
10
-72.0754775091385
20
2.37198660657407
30
0.000000000000000
11
-71.9754775091385
21
2.37096161640821
31
0.000000000000000
  0
LINE
  5
F1036E
330
F1036F
100
AcDbEntity
8
Geo
100
AcDbLine
10
-71.9754775091385
20
2.37096161640821
30
0.000000000000000
11
-71.8754775091385
21
2.36549448761599
31
0.000000000000000
  0
LINE
  5
F10370
330
F10371
100
AcDbEntity
8
Geo
100
AcDbLine
10
-71.8754775091385
20
2.36549448761599
30
0.000000000000000
11
-71.7754775091385
21
2.35559331864760
31
0.000000000000000
  0
LINE
  5
F10372
330
F10373
100
AcDbEntity
8
Geo
100
AcDbLine
10
-71.7754775091385
20
2.35559331864760
30
0.000000000000000
11
-71.6754775091385
21
2.34127277609068
31
0.000000000000000
  0
LINE
  5
F10374
330
F10375
100
AcDbEntity
8
Geo
100
AcDbLine
10
-71.6754775091385
20
2.34127277609068
30
0.000000000000000
11
-71.5754775091385
21
2.32255407294475
31
0.000000000000000
  0
LINE
  5
F10376
330
F10377
100
AcDbEntity
8
Geo
100
AcDbLine
10
-71.5754775091385
20
2.32255407294475
30
0.000000000000000
11
-71.4754775091385
21
2.29946493719841
31
0.000000000000000
  0
LINE
  5
F10378
330
F10379
100
AcDbEntity
8
Geo
100
AcDbLine
10
-71.4754775091385
20
2.29946493719841
30
0.000000000000000
11
-71.3754775091385
21
2.27203957075594
31
0.000000000000000
  0
LINE
  5
F1037A
330
F1037B
100
AcDbEntity
8
Geo
100
AcDbLine
10
-71.3754775091385
20
2.27203957075594
30
0.000000000000000
11
-71.2754775091385
21
2.24031859877400
31
0.000000000000000
  0
LINE
  5
F1037C
330
F1037D
100
AcDbEntity
8
Geo
100
AcDbLine
10
-71.2754775091385
20
2.24031859877400
30
0.000000000000000
11
-71.1754775091385
21
2.20434900948373
31
0.000000000000000
  0
LINE
  5
F1037E
330
F1037F
100
AcDbEntity
8
Geo
100
AcDbLine
10
-71.1754775091385
20
2.20434900948373
30
0.000000000000000
11
-71.0754775091385
21
2.16418408458708
31
0.000000000000000
  0
LINE
  5
F10380
330
F10381
100
AcDbEntity
8
Geo
100
AcDbLine
10
-71.0754775091385
20
2.16418408458708
30
0.000000000000000
11
-70.9754775091385
21
2.11988332033073
31
0.000000000000000
  0
LINE
  5
F10382
330
F10383
100
AcDbEntity
8
Geo
100
AcDbLine
10
-70.9754775091385
20
2.11988332033073
30
0.000000000000000
11
-70.8754775091385
21
2.07151233937437
31
0.000000000000000
  0
LINE
  5
F10384
330
F10385
100
AcDbEntity
8
Geo
100
AcDbLine
10
-70.8754775091385
20
2.07151233937437
30
0.000000000000000
11
-70.7754775091385
21
2.01914279358396
31
0.000000000000000
  0
LINE
  5
F10386
330
F10387
100
AcDbEntity
8
Geo
100
AcDbLine
10
-70.7754775091385
20
2.01914279358396
30
0.000000000000000
11
-70.6754775091385
21
1.96285225789394
31
0.000000000000000
  0
LINE
  5
F10388
330
F10389
100
AcDbEntity
8
Geo
100
AcDbLine
10
-70.6754775091385
20
1.96285225789394
30
0.000000000000000
11
-70.5754775091385
21
1.90272411539553
31
0.000000000000000
  0
LINE
  5
F1038A
330
F1038B
100
AcDbEntity
8
Geo
100
AcDbLine
10
-70.5754775091385
20
1.90272411539553
30
0.000000000000000
11
-70.4754775091385
21
1.83884743382154
31
0.000000000000000
  0
LINE
  5
F1038C
330
F1038D
100
AcDbEntity
8
Geo
100
AcDbLine
10
-70.4754775091385
20
1.83884743382154
30
0.000000000000000
11
-70.3754775091385
21
1.77131683361040
31
0.000000000000000
  0
LINE
  5
F1038E
330
F1038F
100
AcDbEntity
8
Geo
100
AcDbLine
10
-70.3754775091385
20
1.77131683361040
30
0.000000000000000
11
-70.2754775091385
21
1.70023234774511
31
0.000000000000000
  0
LINE
  5
F10390
330
F10391
100
AcDbEntity
8
Geo
100
AcDbLine
10
-70.2754775091385
20
1.70023234774511
30
0.000000000000000
11
-70.1754775091385
21
1.62569927357444
31
0.000000000000000
  0
LINE
  5
F10392
330
F10393
100
AcDbEntity
8
Geo
100
AcDbLine
10
-70.1754775091385
20
1.62569927357444
30
0.000000000000000
11
-70.0754775091385
21
1.54782801683622
31
0.000000000000000
  0
LINE
  5
F10394
330
F10395
100
AcDbEntity
8
Geo
100
AcDbLine
10
-70.0754775091385
20
1.54782801683622
30
0.000000000000000
11
-69.9754775091385
21
1.46673392811334
31
0.000000000000000
  0
LINE
  5
F10396
330
F10397
100
AcDbEntity
8
Geo
100
AcDbLine
10
-69.9754775091385
20
1.46673392811334
30
0.000000000000000
11
-69.8754775091385
21
1.38253713196524
31
0.000000000000000
  0
LINE
  5
F10398
330
F10399
100
AcDbEntity
8
Geo
100
AcDbLine
10
-69.8754775091385
20
1.38253713196524
30
0.000000000000000
11
-69.7754775091385
21
1.29536234898746
31
0.000000000000000
  0
LINE
  5
F1039A
330
F1039B
100
AcDbEntity
8
Geo
100
AcDbLine
10
-69.7754775091385
20
1.29536234898746
30
0.000000000000000
11
-69.6754775091385
21
1.20533871106323
31
0.000000000000000
  0
LINE
  5
F1039C
330
F1039D
100
AcDbEntity
8
Geo
100
AcDbLine
10
-69.6754775091385
20
1.20533871106323
30
0.000000000000000
11
-69.5754775091385
21
1.11259957008064
31
0.000000000000000
  0
LINE
  5
F1039E
330
F1039F
100
AcDbEntity
8
Geo
100
AcDbLine
10
-69.5754775091385
20
1.11259957008064
30
0.000000000000000
11
-69.4754775091385
21
1.01728230039859
31
0.000000000000000
  0
LINE
  5
F103A0
330
F103A1
100
AcDbEntity
8
Geo
100
AcDbLine
10
-69.4754775091385
20
1.01728230039859
30
0.000000000000000
11
-69.3754775091385
21
0.919528095354415
31
0.000000000000000
  0
LINE
  5
F103A2
330
F103A3
100
AcDbEntity
8
Geo
100
AcDbLine
10
-69.3754775091385
20
0.919528095354415
30
0.000000000000000
11
-69.2754775091385
21
0.819481758114375
31
0.000000000000000
  0
LINE
  5
F103A4
330
F103A5
100
AcDbEntity
8
Geo
100
AcDbLine
10
-69.2754775091385
20
0.819481758114375
30
0.000000000000000
11
-69.1754775091385
21
0.717291487176910
31
0.000000000000000
  0
LINE
  5
F103A6
330
F103A7
100
AcDbEntity
8
Geo
100
AcDbLine
10
-69.1754775091385
20
0.717291487176910
30
0.000000000000000
11
-69.0754775091385
21
0.613108656846432
31
0.000000000000000
  0
LINE
  5
F103A8
330
F103A9
100
AcDbEntity
8
Geo
100
AcDbLine
10
-69.0754775091385
20
0.613108656846432
30
0.000000000000000
11
-68.9754775091385
21
0.507087593002774
31
0.000000000000000
  0
LINE
  5
F103AA
330
F103AB
100
AcDbEntity
8
Geo
100
AcDbLine
10
-68.9754775091385
20
0.507087593002774
30
0.000000000000000
11
-68.8754775091385
21
0.399385344498484
31
0.000000000000000
  0
LINE
  5
F103AC
330
F103AD
100
AcDbEntity
8
Geo
100
AcDbLine
10
-68.8754775091385
20
0.399385344498484
30
0.000000000000000
11
-68.7754775091385
21
0.290161450522580
31
0.000000000000000
  0
LINE
  5
F103AE
330
F103AF
100
AcDbEntity
8
Geo
100
AcDbLine
10
-68.7754775091385
20
0.290161450522580
30
0.000000000000000
11
-68.6754775091385
21
0.179577704275375
31
0.000000000000000
  0
LINE
  5
F103B0
330
F103B1
100
AcDbEntity
8
Geo
100
AcDbLine
10
-68.6754775091385
20
0.179577704275375
30
0.000000000000000
11
-68.5754775091385
21
0.0677979133044329
31
0.000000000000000
  0
LINE
  5
F103B2
330
F103B3
100
AcDbEntity
8
Geo
100
AcDbLine
10
-68.5754775091385
20
0.0677979133044329
30
0.000000000000000
11
-68.4754775091385
21
-0.0450123431433147
31
0.000000000000000
  0
LINE
  5
F103B4
330
F103B5
100
AcDbEntity
8
Geo
100
AcDbLine
10
-68.4754775091385
20
-0.0450123431433147
30
0.000000000000000
11
-68.3754775091385
21
-0.158685959393878
31
0.000000000000000
  0
LINE
  5
F103B6
330
F103B7
100
AcDbEntity
8
Geo
100
AcDbLine
10
-68.3754775091385
20
-0.158685959393878
30
0.000000000000000
11
-68.2754775091385
21
-0.273054550879606
31
0.000000000000000
  0
LINE
  5
F103B8
330
F103B9
100
AcDbEntity
8
Geo
100
AcDbLine
10
-68.2754775091385
20
-0.273054550879606
30
0.000000000000000
11
-68.1754775091385
21
-0.387948703567018
31
0.000000000000000
  0
LINE
  5
F103BA
330
F103BB
100
AcDbEntity
8
Geo
100
AcDbLine
10
-68.1754775091385
20
-0.387948703567018
30
0.000000000000000
11
-68.0754775091385
21
-0.503198224909548
31
0.000000000000000
  0
LINE
  5
F103BC
330
F103BD
100
AcDbEntity
8
Geo
100
AcDbLine
10
-68.0754775091385
20
-0.503198224909548
30
0.000000000000000
11
-67.9754775091385
21
-0.618632395953559
31
0.000000000000000
  0
LINE
  5
F103BE
330
F103BF
100
AcDbEntity
8
Geo
100
AcDbLine
10
-67.9754775091385
20
-0.618632395953559
30
0.000000000000000
11
-67.8754775091385
21
-0.734080224224063
31
0.000000000000000
  0
LINE
  5
F103C0
330
F103C1
100
AcDbEntity
8
Geo
100
AcDbLine
10
-67.8754775091385
20
-0.734080224224063
30
0.000000000000000
11
-67.7754775091385
21
-0.849370697015646
31
0.000000000000000
  0
LINE
  5
F103C2
330
F103C3
100
AcDbEntity
8
Geo
100
AcDbLine
10
-67.7754775091385
20
-0.849370697015646
30
0.000000000000000
11
-67.6754775091385
21
-0.964333034713339
31
0.000000000000000
  0
LINE
  5
F103C4
330
F103C5
100
AcDbEntity
8
Geo
100
AcDbLine
10
-67.6754775091385
20
-0.964333034713339
30
0.000000000000000
11
-67.5754775091385
21
-1.07879694376823
31
0.000000000000000
  0
LINE
  5
F103C6
330
F103C7
100
AcDbEntity
8
Geo
100
AcDbLine
10
-67.5754775091385
20
-1.07879694376823
30
0.000000000000000
11
-67.4754775091384
21
-1.19259286895309
31
0.000000000000000
  0
LINE
  5
F103C8
330
F103C9
100
AcDbEntity
8
Geo
100
AcDbLine
10
-67.4754775091384
20
-1.19259286895309
30
0.000000000000000
11
-67.3754775091384
21
-1.34056556283013
31
0.000000000000000
  0
LINE
  5
F103CA
330
F103CB
100
AcDbEntity
8
Geo
100
AcDbLine
10
-67.3754775091384
20
-1.34056556283013
30
0.000000000000000
11
-67.2754775091384
21
-1.52663009911777
31
0.000000000000000
  0
LINE
  5
F103CC
330
F103CD
100
AcDbEntity
8
Geo
100
AcDbLine
10
-67.2754775091384
20
-1.52663009911777
30
0.000000000000000
11
-67.1754775091384
21
-1.74779749895070
31
0.000000000000000
  0
LINE
  5
F103CE
330
F103CF
100
AcDbEntity
8
Geo
100
AcDbLine
10
-67.1754775091384
20
-1.74779749895070
30
0.000000000000000
11
-67.0754775091384
21
-1.99935367082846
31
0.000000000000000
  0
LINE
  5
F103D0
330
F103D1
100
AcDbEntity
8
Geo
100
AcDbLine
10
-67.0754775091384
20
-1.99935367082846
30
0.000000000000000
11
-66.9754775091384
21
-2.27430245960311
31
0.000000000000000
  0
LINE
  5
F103D2
330
F103D3
100
AcDbEntity
8
Geo
100
AcDbLine
10
-66.9754775091384
20
-2.27430245960311
30
0.000000000000000
11
-66.8754775091384
21
-2.56280355405965
31
0.000000000000000
  0
LINE
  5
F103D4
330
F103D5
100
AcDbEntity
8
Geo
100
AcDbLine
10
-66.8754775091384
20
-2.56280355405965
30
0.000000000000000
11
-66.7754775091384
21
-2.85167980334326
31
0.000000000000000
  0
LINE
  5
F103D6
330
F103D7
100
AcDbEntity
8
Geo
100
AcDbLine
10
-66.7754775091384
20
-2.85167980334326
30
0.000000000000000
11
-66.6754775091384
21
-3.12409614632973
31
0.000000000000000
  0
LINE
  5
F103D8
330
F103D9
100
AcDbEntity
8
Geo
100
AcDbLine
10
-66.6754775091384
20
-3.12409614632973
30
0.000000000000000
11
-66.5754775091384
21
-3.35954031052731
31
0.000000000000000
  0
LINE
  5
F103DA
330
F103DB
100
AcDbEntity
8
Geo
100
AcDbLine
10
-66.5754775091384
20
-3.35954031052731
30
0.000000000000000
11
-66.4754775091384
21
-3.53425800601704
31
0.000000000000000
  0
LINE
  5
F103DC
330
F103DD
100
AcDbEntity
8
Geo
100
AcDbLine
10
-75.3754775091384
20
2.37129097772914
30
0.000000000000000
11
-75.2754775091385
21
2.37182859322347
31
0.000000000000000
  0
LINE
  5
F103DE
330
F103DF
100
AcDbEntity
8
Geo
100
AcDbLine
10
-75.2754775091385
20
2.37182859322347
30
0.000000000000000
11
-75.1754775091385
21
2.36792278583990
31
0.000000000000000
  0
LINE
  5
F103E0
330
F103E1
100
AcDbEntity
8
Geo
100
AcDbLine
10
-75.1754775091385
20
2.36792278583990
30
0.000000000000000
11
-75.0754775091385
21
2.35957934124542
31
0.000000000000000
  0
LINE
  5
F103E2
330
F103E3
100
AcDbEntity
8
Geo
100
AcDbLine
10
-75.0754775091385
20
2.35957934124542
30
0.000000000000000
11
-74.9754775091385
21
2.34681061857275
31
0.000000000000000
  0
LINE
  5
F103E4
330
F103E5
100
AcDbEntity
8
Geo
100
AcDbLine
10
-74.9754775091385
20
2.34681061857275
30
0.000000000000000
11
-74.8754775091385
21
2.32963553211281
31
0.000000000000000
  0
LINE
  5
F103E6
330
F103E7
100
AcDbEntity
8
Geo
100
AcDbLine
10
-74.8754775091385
20
2.32963553211281
30
0.000000000000000
11
-74.7754775091385
21
2.30807952329696
31
0.000000000000000
  0
LINE
  5
F103E8
330
F103E9
100
AcDbEntity
8
Geo
100
AcDbLine
10
-74.7754775091385
20
2.30807952329696
30
0.000000000000000
11
-74.6754775091385
21
2.28217452301072
31
0.000000000000000
  0
LINE
  5
F103EA
330
F103EB
100
AcDbEntity
8
Geo
100
AcDbLine
10
-74.6754775091385
20
2.28217452301072
30
0.000000000000000
11
-74.5754775091385
21
2.25195890429453
31
0.000000000000000
  0
LINE
  5
F103EC
330
F103ED
100
AcDbEntity
8
Geo
100
AcDbLine
10
-74.5754775091385
20
2.25195890429453
30
0.000000000000000
11
-74.4754775091385
21
2.21747742550182
31
0.000000000000000
  0
LINE
  5
F103EE
330
F103EF
100
AcDbEntity
8
Geo
100
AcDbLine
10
-74.4754775091385
20
2.21747742550182
30
0.000000000000000
11
-74.3754775091385
21
2.17878116399857
31
0.000000000000000
  0
LINE
  5
F103F0
330
F103F1
100
AcDbEntity
8
Geo
100
AcDbLine
10
-74.3754775091385
20
2.17878116399857
30
0.000000000000000
11
-74.2754775091385
21
2.13592744050245
31
0.000000000000000
  0
LINE
  5
F103F2
330
F103F3
100
AcDbEntity
8
Geo
100
AcDbLine
10
-74.2754775091385
20
2.13592744050245
30
0.000000000000000
11
-74.1754775091385
21
2.08897973417371
31
0.000000000000000
  0
LINE
  5
F103F4
330
F103F5
100
AcDbEntity
8
Geo
100
AcDbLine
10
-74.1754775091385
20
2.08897973417371
30
0.000000000000000
11
-74.0754775091385
21
2.03800758858361
31
0.000000000000000
  0
LINE
  5
F103F6
330
F103F7
100
AcDbEntity
8
Geo
100
AcDbLine
10
-74.0754775091385
20
2.03800758858361
30
0.000000000000000
11
-73.9754775091385
21
1.98308650869963
31
0.000000000000000
  0
LINE
  5
F103F8
330
F103F9
100
AcDbEntity
8
Geo
100
AcDbLine
10
-73.9754775091385
20
1.98308650869963
30
0.000000000000000
11
-73.8754775091385
21
1.92429784904005
31
0.000000000000000
  0
LINE
  5
F103FA
330
F103FB
100
AcDbEntity
8
Geo
100
AcDbLine
10
-73.8754775091385
20
1.92429784904005
30
0.000000000000000
11
-73.7754775091385
21
1.86172869316361
31
0.000000000000000
  0
LINE
  5
F103FC
330
F103FD
100
AcDbEntity
8
Geo
100
AcDbLine
10
-73.7754775091385
20
1.86172869316361
30
0.000000000000000
11
-73.6754775091385
21
1.79547172467279
31
0.000000000000000
  0
LINE
  5
F103FE
330
F103FF
100
AcDbEntity
8
Geo
100
AcDbLine
10
-73.6754775091385
20
1.79547172467279
30
0.000000000000000
11
-73.5754775091385
21
1.72562508992171
31
0.000000000000000
  0
LINE
  5
F10400
330
F10401
100
AcDbEntity
8
Geo
100
AcDbLine
10
-73.5754775091385
20
1.72562508992171
30
0.000000000000000
11
-73.4754775091385
21
1.65229225263204
31
0.000000000000000
  0
LINE
  5
F10402
330
F10403
100
AcDbEntity
8
Geo
100
AcDbLine
10
-73.4754775091385
20
1.65229225263204
30
0.000000000000000
11
-73.3754775091385
21
1.57558184063238
31
0.000000000000000
  0
LINE
  5
F10404
330
F10405
100
AcDbEntity
8
Geo
100
AcDbLine
10
-73.3754775091385
20
1.57558184063238
30
0.000000000000000
11
-73.2754775091385
21
1.49560748494797
31
0.000000000000000
  0
LINE
  5
F10406
330
F10407
100
AcDbEntity
8
Geo
100
AcDbLine
10
-73.2754775091385
20
1.49560748494797
30
0.000000000000000
11
-73.1754775091385
21
1.41248765147927
31
0.000000000000000
  0
LINE
  5
F10408
330
F10409
100
AcDbEntity
8
Geo
100
AcDbLine
10
-73.1754775091385
20
1.41248765147927
30
0.000000000000000
11
-73.0754775091385
21
1.32634546551850
31
0.000000000000000
  0
LINE
  5
F1040A
330
F1040B
100
AcDbEntity
8
Geo
100
AcDbLine
10
-73.0754775091385
20
1.32634546551850
30
0.000000000000000
11
-72.9754775091385
21
1.23730852936442
31
0.000000000000000
  0
LINE
  5
F1040C
330
F1040D
100
AcDbEntity
8
Geo
100
AcDbLine
10
-72.9754775091385
20
1.23730852936442
30
0.000000000000000
11
-72.8754775091385
21
1.14550873330514
31
0.000000000000000
  0
LINE
  5
F1040E
330
F1040F
100
AcDbEntity
8
Geo
100
AcDbLine
10
-72.8754775091385
20
1.14550873330514
30
0.000000000000000
11
-72.7754775091385
21
1.05108206024928
31
0.000000000000000
  0
LINE
  5
F10410
330
F10411
100
AcDbEntity
8
Geo
100
AcDbLine
10
-72.7754775091385
20
1.05108206024928
30
0.000000000000000
11
-72.6754775091385
21
0.954168384294632
31
0.000000000000000
  0
LINE
  5
F10412
330
F10413
100
AcDbEntity
8
Geo
100
AcDbLine
10
-72.6754775091385
20
0.954168384294632
30
0.000000000000000
11
-72.5754775091385
21
0.854911263532897
31
0.000000000000000
  0
LINE
  5
F10414
330
F10415
100
AcDbEntity
8
Geo
100
AcDbLine
10
-72.5754775091385
20
0.854911263532897
30
0.000000000000000
11
-72.4754775091385
21
0.753457727397261
31
0.000000000000000
  0
LINE
  5
F10416
330
F10417
100
AcDbEntity
8
Geo
100
AcDbLine
10
-72.4754775091385
20
0.753457727397261
30
0.000000000000000
11
-72.3754775091385
21
0.649958058867911
31
0.000000000000000
  0
LINE
  5
F10418
330
F10419
100
AcDbEntity
8
Geo
100
AcDbLine
10
-72.3754775091385
20
0.649958058867911
30
0.000000000000000
11
-72.2754775091385
21
0.544565571858067
31
0.000000000000000
  0
LINE
  5
F1041A
330
F1041B
100
AcDbEntity
8
Geo
100
AcDbLine
10
-72.2754775091385
20
0.544565571858067
30
0.000000000000000
11
-72.1754775091385
21
0.437436384110298
31
0.000000000000000
  0
LINE
  5
F1041C
330
F1041D
100
AcDbEntity
8
Geo
100
AcDbLine
10
-72.1754775091385
20
0.437436384110298
30
0.000000000000000
11
-72.0754775091385
21
0.328729185939528
31
0.000000000000000
  0
LINE
  5
F1041E
330
F1041F
100
AcDbEntity
8
Geo
100
AcDbLine
10
-72.0754775091385
20
0.328729185939528
30
0.000000000000000
11
-71.9754775091385
21
0.218605005165305
31
0.000000000000000
  0
LINE
  5
F10420
330
F10421
100
AcDbEntity
8
Geo
100
AcDbLine
10
-71.9754775091385
20
0.218605005165305
30
0.000000000000000
11
-71.8754775091385
21
0.107226968581505
31
0.000000000000000
  0
LINE
  5
F10422
330
F10423
100
AcDbEntity
8
Geo
100
AcDbLine
10
-71.8754775091385
20
0.107226968581505
30
0.000000000000000
11
-71.7754775091385
21
-0.00523993968314840
31
0.000000000000000
  0
LINE
  5
F10424
330
F10425
100
AcDbEntity
8
Geo
100
AcDbLine
10
-71.7754775091385
20
-0.00523993968314840
30
0.000000000000000
11
-71.6754775091385
21
-0.118629122555846
31
0.000000000000000
  0
LINE
  5
F10426
330
F10427
100
AcDbEntity
8
Geo
100
AcDbLine
10
-71.6754775091385
20
-0.118629122555846
30
0.000000000000000
11
-71.5754775091385
21
-0.232772616799701
31
0.000000000000000
  0
LINE
  5
F10428
330
F10429
100
AcDbEntity
8
Geo
100
AcDbLine
10
-71.5754775091385
20
-0.232772616799701
30
0.000000000000000
11
-71.4754775091385
21
-0.347501341817451
31
0.000000000000000
  0
LINE
  5
F1042A
330
F1042B
100
AcDbEntity
8
Geo
100
AcDbLine
10
-71.4754775091385
20
-0.347501341817451
30
0.000000000000000
11
-71.3754775091385
21
-0.462645350110317
31
0.000000000000000
  0
LINE
  5
F1042C
330
F1042D
100
AcDbEntity
8
Geo
100
AcDbLine
10
-71.3754775091385
20
-0.462645350110317
30
0.000000000000000
11
-71.2754775091385
21
-0.578034079020987
31
0.000000000000000
  0
LINE
  5
F1042E
330
F1042F
100
AcDbEntity
8
Geo
100
AcDbLine
10
-71.2754775091385
20
-0.578034079020987
30
0.000000000000000
11
-71.1754775091385
21
-0.693496603387847
31
0.000000000000000
  0
LINE
  5
F10430
330
F10431
100
AcDbEntity
8
Geo
100
AcDbLine
10
-71.1754775091385
20
-0.693496603387847
30
0.000000000000000
11
-71.0754775091385
21
-0.808861888736166
31
0.000000000000000
  0
LINE
  5
F10432
330
F10433
100
AcDbEntity
8
Geo
100
AcDbLine
10
-71.0754775091385
20
-0.808861888736166
30
0.000000000000000
11
-70.9754775091385
21
-0.923959044631248
31
0.000000000000000
  0
LINE
  5
F10434
330
F10435
100
AcDbEntity
8
Geo
100
AcDbLine
10
-70.9754775091385
20
-0.923959044631248
30
0.000000000000000
11
-70.8754775091385
21
-1.03861757781817
31
0.000000000000000
  0
LINE
  5
F10436
330
F10437
100
AcDbEntity
8
Geo
100
AcDbLine
10
-70.8754775091385
20
-1.03861757781817
30
0.000000000000000
11
-70.7754775091385
21
-1.15266764477321
31
0.000000000000000
  0
LINE
  5
F10438
330
F10439
100
AcDbEntity
8
Geo
100
AcDbLine
10
-70.7754775091385
20
-1.15266764477321
30
0.000000000000000
11
-70.6754775091385
21
-1.26594030329282
31
0.000000000000000
  0
LINE
  5
F1043A
330
F1043B
100
AcDbEntity
8
Geo
100
AcDbLine
10
-70.6754775091385
20
-1.26594030329282
30
0.000000000000000
11
-70.5754775091385
21
-1.37826776274748
31
0.000000000000000
  0
LINE
  5
F1043C
330
F1043D
100
AcDbEntity
8
Geo
100
AcDbLine
10
-70.5754775091385
20
-1.37826776274748
30
0.000000000000000
11
-70.4754775091385
21
-1.48948363262970
31
0.000000000000000
  0
LINE
  5
F1043E
330
F1043F
100
AcDbEntity
8
Geo
100
AcDbLine
10
-70.4754775091385
20
-1.48948363262970
30
0.000000000000000
11
-70.3754775091385
21
-1.59942316902806
31
0.000000000000000
  0
LINE
  5
F10440
330
F10441
100
AcDbEntity
8
Geo
100
AcDbLine
10
-70.3754775091385
20
-1.59942316902806
30
0.000000000000000
11
-70.2754775091385
21
-1.70792351866214
31
0.000000000000000
  0
LINE
  5
F10442
330
F10443
100
AcDbEntity
8
Geo
100
AcDbLine
10
-70.2754775091385
20
-1.70792351866214
30
0.000000000000000
11
-70.1754775091385
21
-1.81482396011684
31
0.000000000000000
  0
LINE
  5
F10444
330
F10445
100
AcDbEntity
8
Geo
100
AcDbLine
10
-70.1754775091385
20
-1.81482396011684
30
0.000000000000000
11
-70.0754775091385
21
-1.91996614191880
31
0.000000000000000
  0
LINE
  5
F10446
330
F10447
100
AcDbEntity
8
Geo
100
AcDbLine
10
-70.0754775091385
20
-1.91996614191880
30
0.000000000000000
11
-69.9754775091385
21
-2.02319431710219
31
0.000000000000000
  0
LINE
  5
F10448
330
F10449
100
AcDbEntity
8
Geo
100
AcDbLine
10
-69.9754775091385
20
-2.02319431710219
30
0.000000000000000
11
-69.8754775091385
21
-2.12435557391652
31
0.000000000000000
  0
LINE
  5
F1044A
330
F1044B
100
AcDbEntity
8
Geo
100
AcDbLine
10
-69.8754775091385
20
-2.12435557391652
30
0.000000000000000
11
-69.7754775091385
21
-2.22330006233454
31
0.000000000000000
  0
LINE
  5
F1044C
330
F1044D
100
AcDbEntity
8
Geo
100
AcDbLine
10
-69.7754775091385
20
-2.22330006233454
30
0.000000000000000
11
-69.6754775091385
21
-2.31988121602492
31
0.000000000000000
  0
LINE
  5
F1044E
330
F1044F
100
AcDbEntity
8
Geo
100
AcDbLine
10
-69.6754775091385
20
-2.31988121602492
30
0.000000000000000
11
-69.5754775091385
21
-2.41395596946071
31
0.000000000000000
  0
LINE
  5
F10450
330
F10451
100
AcDbEntity
8
Geo
100
AcDbLine
10
-69.5754775091385
20
-2.41395596946071
30
0.000000000000000
11
-69.4754775091385
21
-2.50538496984216
31
0.000000000000000
  0
LINE
  5
F10452
330
F10453
100
AcDbEntity
8
Geo
100
AcDbLine
10
-69.4754775091385
20
-2.50538496984216
30
0.000000000000000
11
-69.3754775091385
21
-2.59403278351977
31
0.000000000000000
  0
LINE
  5
F10454
330
F10455
100
AcDbEntity
8
Geo
100
AcDbLine
10
-69.3754775091385
20
-2.59403278351977
30
0.000000000000000
11
-69.2754775091385
21
-2.67976809661200
31
0.000000000000000
  0
LINE
  5
F10456
330
F10457
100
AcDbEntity
8
Geo
100
AcDbLine
10
-69.2754775091385
20
-2.67976809661200
30
0.000000000000000
11
-69.1754775091385
21
-2.76246390952032
31
0.000000000000000
  0
LINE
  5
F10458
330
F10459
100
AcDbEntity
8
Geo
100
AcDbLine
10
-69.1754775091385
20
-2.76246390952032
30
0.000000000000000
11
-69.0754775091385
21
-2.84199772505352
31
0.000000000000000
  0
LINE
  5
F1045A
330
F1045B
100
AcDbEntity
8
Geo
100
AcDbLine
10
-69.0754775091385
20
-2.84199772505352
30
0.000000000000000
11
-68.9754775091385
21
-2.91825172988269
31
0.000000000000000
  0
LINE
  5
F1045C
330
F1045D
100
AcDbEntity
8
Geo
100
AcDbLine
10
-68.9754775091385
20
-2.91825172988269
30
0.000000000000000
11
-68.8754775091385
21
-2.99111296905787
31
0.000000000000000
  0
LINE
  5
F1045E
330
F1045F
100
AcDbEntity
8
Geo
100
AcDbLine
10
-68.8754775091385
20
-2.99111296905787
30
0.000000000000000
11
-68.7754775091385
21
-3.06047351332809
31
0.000000000000000
  0
LINE
  5
F10460
330
F10461
100
AcDbEntity
8
Geo
100
AcDbLine
10
-68.7754775091385
20
-3.06047351332809
30
0.000000000000000
11
-68.6754775091385
21
-3.12623061901682
31
0.000000000000000
  0
LINE
  5
F10462
330
F10463
100
AcDbEntity
8
Geo
100
AcDbLine
10
-68.6754775091385
20
-3.12623061901682
30
0.000000000000000
11
-68.5754775091385
21
-3.18828688021600
31
0.000000000000000
  0
LINE
  5
F10464
330
F10465
100
AcDbEntity
8
Geo
100
AcDbLine
10
-68.5754775091385
20
-3.18828688021600
30
0.000000000000000
11
-68.4754775091385
21
-3.24655037307333
31
0.000000000000000
  0
LINE
  5
F10466
330
F10467
100
AcDbEntity
8
Geo
100
AcDbLine
10
-68.4754775091385
20
-3.24655037307333
30
0.000000000000000
11
-68.3754775091385
21
-3.30093479195889
31
0.000000000000000
  0
LINE
  5
F10468
330
F10469
100
AcDbEntity
8
Geo
100
AcDbLine
10
-68.3754775091385
20
-3.30093479195889
30
0.000000000000000
11
-68.2754775091385
21
-3.35135957730960
31
0.000000000000000
  0
LINE
  5
F1046A
330
F1046B
100
AcDbEntity
8
Geo
100
AcDbLine
10
-68.2754775091385
20
-3.35135957730960
30
0.000000000000000
11
-68.1754775091385
21
-3.39775003496193
31
0.000000000000000
  0
LINE
  5
F1046C
330
F1046D
100
AcDbEntity
8
Geo
100
AcDbLine
10
-68.1754775091385
20
-3.39775003496193
30
0.000000000000000
11
-68.0754775091385
21
-3.44003744679630
31
0.000000000000000
  0
LINE
  5
F1046E
330
F1046F
100
AcDbEntity
8
Geo
100
AcDbLine
10
-68.0754775091385
20
-3.44003744679630
30
0.000000000000000
11
-67.9754775091385
21
-3.47815917252911
31
0.000000000000000
  0
LINE
  5
F10470
330
F10471
100
AcDbEntity
8
Geo
100
AcDbLine
10
-67.9754775091385
20
-3.47815917252911
30
0.000000000000000
11
-67.8754775091385
21
-3.51205874250174
31
0.000000000000000
  0
LINE
  5
F10472
330
F10473
100
AcDbEntity
8
Geo
100
AcDbLine
10
-67.8754775091385
20
-3.51205874250174
30
0.000000000000000
11
-67.7754775091385
21
-3.54168594132891
31
0.000000000000000
  0
LINE
  5
F10474
330
F10475
100
AcDbEntity
8
Geo
100
AcDbLine
10
-67.7754775091385
20
-3.54168594132891
30
0.000000000000000
11
-67.6754775091385
21
-3.56699688228275
31
0.000000000000000
  0
LINE
  5
F10476
330
F10477
100
AcDbEntity
8
Geo
100
AcDbLine
10
-67.6754775091385
20
-3.56699688228275
30
0.000000000000000
11
-67.5754775091385
21
-3.58795407230207
31
0.000000000000000
  0
LINE
  5
F10478
330
F10479
100
AcDbEntity
8
Geo
100
AcDbLine
10
-67.5754775091385
20
-3.58795407230207
30
0.000000000000000
11
-67.4754775091384
21
-3.60452646753080
31
0.000000000000000
  0
LINE
  5
F1047A
330
F1047B
100
AcDbEntity
8
Geo
100
AcDbLine
10
-67.4754775091384
20
-3.60452646753080
30
0.000000000000000
11
-67.3754775091384
21
-3.60238509022593
31
0.000000000000000
  0
LINE
  5
F1047C
330
F1047D
100
AcDbEntity
8
Geo
100
AcDbLine
10
-67.3754775091384
20
-3.60238509022593
30
0.000000000000000
11
-67.2754775091384
21
-3.59951775559946
31
0.000000000000000
  0
LINE
  5
F1047E
330
F1047F
100
AcDbEntity
8
Geo
100
AcDbLine
10
-67.2754775091384
20
-3.59951775559946
30
0.000000000000000
11
-67.1754775091384
21
-3.59582595629820
31
0.000000000000000
  0
LINE
  5
F10480
330
F10481
100
AcDbEntity
8
Geo
100
AcDbLine
10
-67.1754775091384
20
-3.59582595629820
30
0.000000000000000
11
-67.0754775091384
21
-3.59119013820535
31
0.000000000000000
  0
LINE
  5
F10482
330
F10483
100
AcDbEntity
8
Geo
100
AcDbLine
10
-67.0754775091384
20
-3.59119013820535
30
0.000000000000000
11
-66.9754775091384
21
-3.58546986490600
31
0.000000000000000
  0
LINE
  5
F10484
330
F10485
100
AcDbEntity
8
Geo
100
AcDbLine
10
-66.9754775091384
20
-3.58546986490600
30
0.000000000000000
11
-66.8754775091384
21
-3.57850403537542
31
0.000000000000000
  0
LINE
  5
F10486
330
F10487
100
AcDbEntity
8
Geo
100
AcDbLine
10
-66.8754775091384
20
-3.57850403537542
30
0.000000000000000
11
-66.7754775091384
21
-3.57011116653509
31
0.000000000000000
  0
LINE
  5
F10488
330
F10489
100
AcDbEntity
8
Geo
100
AcDbLine
10
-66.7754775091384
20
-3.57011116653509
30
0.000000000000000
11
-66.6754775091384
21
-3.56008975398425
31
0.000000000000000
  0
LINE
  5
F1048A
330
F1048B
100
AcDbEntity
8
Geo
100
AcDbLine
10
-66.6754775091384
20
-3.56008975398425
30
0.000000000000000
11
-66.5754775091384
21
-3.54821872582266
31
0.000000000000000
  0
LINE
  5
F1048C
330
F1048D
100
AcDbEntity
8
Geo
100
AcDbLine
10
-66.5754775091384
20
-3.54821872582266
30
0.000000000000000
11
-66.4754775091384
21
-3.53425800601704
31
0.000000000000000
  0
LINE
  5
F1048E
330
F1048F
100
AcDbEntity
8
Geo
100
AcDbLine
10
-76.1754775091385
20
2.37167992663205
30
0.000000000000000
11
-76.0754775091385
21
2.37149715688645
31
0.000000000000000
  0
LINE
  5
F10490
330
F10491
100
AcDbEntity
8
Geo
100
AcDbLine
10
-76.0754775091385
20
2.37149715688645
30
0.000000000000000
11
-75.9754775091385
21
2.36687145521913
31
0.000000000000000
  0
LINE
  5
F10492
330
F10493
100
AcDbEntity
8
Geo
100
AcDbLine
10
-75.9754775091385
20
2.36687145521913
30
0.000000000000000
11
-75.8754775091384
21
2.35780967367547
31
0.000000000000000
  0
LINE
  5
F10494
330
F10495
100
AcDbEntity
8
Geo
100
AcDbLine
10
-75.8754775091384
20
2.35780967367547
30
0.000000000000000
11
-75.7754775091385
21
2.34432523545969
31
0.000000000000000
  0
LINE
  5
F10496
330
F10497
100
AcDbEntity
8
Geo
100
AcDbLine
10
-75.7754775091385
20
2.34432523545969
30
0.000000000000000
11
-75.6754775091385
21
2.32643811505114
31
0.000000000000000
  0
LINE
  5
F10498
330
F10499
100
AcDbEntity
8
Geo
100
AcDbLine
10
-75.6754775091385
20
2.32643811505114
30
0.000000000000000
11
-75.5754775091385
21
2.30417480861608
31
0.000000000000000
  0
LINE
  5
F1049A
330
F1049B
100
AcDbEntity
8
Geo
100
AcDbLine
10
-75.5754775091385
20
2.30417480861608
30
0.000000000000000
11
-75.4754775091385
21
2.27756829475899
31
0.000000000000000
  0
LINE
  5
F1049C
330
F1049D
100
AcDbEntity
8
Geo
100
AcDbLine
10
-75.4754775091385
20
2.27756829475899
30
0.000000000000000
11
-75.3754775091384
21
2.24665798567136
31
0.000000000000000
  0
LINE
  5
F1049E
330
F1049F
100
AcDbEntity
8
Geo
100
AcDbLine
10
-75.3754775091384
20
2.24665798567136
30
0.000000000000000
11
-75.2754775091385
21
2.21148966875051
31
0.000000000000000
  0
LINE
  5
F104A0
330
F104A1
100
AcDbEntity
8
Geo
100
AcDbLine
10
-75.2754775091385
20
2.21148966875051
30
0.000000000000000
11
-75.1754775091385
21
2.17211543877476
31
0.000000000000000
  0
LINE
  5
F104A2
330
F104A3
100
AcDbEntity
8
Geo
100
AcDbLine
10
-75.1754775091385
20
2.17211543877476
30
0.000000000000000
11
-75.0754775091385
21
2.12859362073553
31
0.000000000000000
  0
LINE
  5
F104A4
330
F104A5
100
AcDbEntity
8
Geo
100
AcDbLine
10
-75.0754775091385
20
2.12859362073553
30
0.000000000000000
11
-74.9754775091385
21
2.08098868344056
31
0.000000000000000
  0
LINE
  5
F104A6
330
F104A7
100
AcDbEntity
8
Geo
100
AcDbLine
10
-74.9754775091385
20
2.08098868344056
30
0.000000000000000
11
-74.8754775091385
21
2.02937114401644
31
0.000000000000000
  0
LINE
  5
F104A8
330
F104A9
100
AcDbEntity
8
Geo
100
AcDbLine
10
-74.8754775091385
20
2.02937114401644
30
0.000000000000000
11
-74.7754775091385
21
1.97381746345161
31
0.000000000000000
  0
LINE
  5
F104AA
330
F104AB
100
AcDbEntity
8
Geo
100
AcDbLine
10
-74.7754775091385
20
1.97381746345161
30
0.000000000000000
11
-74.6754775091385
21
1.91440993333484
31
0.000000000000000
  0
LINE
  5
F104AC
330
F104AD
100
AcDbEntity
8
Geo
100
AcDbLine
10
-74.6754775091385
20
1.91440993333484
30
0.000000000000000
11
-74.5754775091385
21
1.85123655395683
31
0.000000000000000
  0
LINE
  5
F104AE
330
F104AF
100
AcDbEntity
8
Geo
100
AcDbLine
10
-74.5754775091385
20
1.85123655395683
30
0.000000000000000
11
-74.4754775091385
21
1.78439090395547
31
0.000000000000000
  0
LINE
  5
F104B0
330
F104B1
100
AcDbEntity
8
Geo
100
AcDbLine
10
-74.4754775091385
20
1.78439090395547
30
0.000000000000000
11
-74.3754775091385
21
1.71397200169797
31
0.000000000000000
  0
LINE
  5
F104B2
330
F104B3
100
AcDbEntity
8
Geo
100
AcDbLine
10
-74.3754775091385
20
1.71397200169797
30
0.000000000000000
11
-74.2754775091385
21
1.64008415860505
31
0.000000000000000
  0
LINE
  5
F104B4
330
F104B5
100
AcDbEntity
8
Geo
100
AcDbLine
10
-74.2754775091385
20
1.64008415860505
30
0.000000000000000
11
-74.1754775091385
21
1.56283682463462
31
0.000000000000000
  0
LINE
  5
F104B6
330
F104B7
100
AcDbEntity
8
Geo
100
AcDbLine
10
-74.1754775091385
20
1.56283682463462
30
0.000000000000000
11
-74.0754775091385
21
1.48234442615370
31
0.000000000000000
  0
LINE
  5
F104B8
330
F104B9
100
AcDbEntity
8
Geo
100
AcDbLine
10
-74.0754775091385
20
1.48234442615370
30
0.000000000000000
11
-73.9754775091385
21
1.39872619643879
31
0.000000000000000
  0
LINE
  5
F104BA
330
F104BB
100
AcDbEntity
8
Geo
100
AcDbLine
10
-73.9754775091385
20
1.39872619643879
30
0.000000000000000
11
-73.8754775091385
21
1.31210599905580
31
0.000000000000000
  0
LINE
  5
F104BC
330
F104BD
100
AcDbEntity
8
Geo
100
AcDbLine
10
-73.8754775091385
20
1.31210599905580
30
0.000000000000000
11
-73.7754775091385
21
1.22261214438109
31
0.000000000000000
  0
LINE
  5
F104BE
330
F104BF
100
AcDbEntity
8
Geo
100
AcDbLine
10
-73.7754775091385
20
1.22261214438109
30
0.000000000000000
11
-73.6754775091385
21
1.13037719953558
31
0.000000000000000
  0
LINE
  5
F104C0
330
F104C1
100
AcDbEntity
8
Geo
100
AcDbLine
10
-73.6754775091385
20
1.13037719953558
30
0.000000000000000
11
-73.5754775091385
21
1.03553779201313
31
0.000000000000000
  0
LINE
  5
F104C2
330
F104C3
100
AcDbEntity
8
Geo
100
AcDbLine
10
-73.5754775091385
20
1.03553779201313
30
0.000000000000000
11
-73.4754775091385
21
0.938234407294552
31
0.000000000000000
  0
LINE
  5
F104C4
330
F104C5
100
AcDbEntity
8
Geo
100
AcDbLine
10
-73.4754775091385
20
0.938234407294552
30
0.000000000000000
11
-73.3754775091385
21
0.838611180746568
31
0.000000000000000
  0
LINE
  5
F104C6
330
F104C7
100
AcDbEntity
8
Geo
100
AcDbLine
10
-73.3754775091385
20
0.838611180746568
30
0.000000000000000
11
-73.2754775091385
21
0.736815684114359
31
0.000000000000000
  0
LINE
  5
F104C8
330
F104C9
100
AcDbEntity
8
Geo
100
AcDbLine
10
-73.2754775091385
20
0.736815684114359
30
0.000000000000000
11
-73.1754775091385
21
0.632998706923712
31
0.000000000000000
  0
LINE
  5
F104CA
330
F104CB
100
AcDbEntity
8
Geo
100
AcDbLine
10
-73.1754775091385
20
0.632998706923712
30
0.000000000000000
11
-73.0754775091385
21
0.527314033116720
31
0.000000000000000
  0
LINE
  5
F104CC
330
F104CD
100
AcDbEntity
8
Geo
100
AcDbLine
10
-73.0754775091385
20
0.527314033116720
30
0.000000000000000
11
-72.9754775091385
21
0.419918213251843
31
0.000000000000000
  0
LINE
  5
F104CE
330
F104CF
100
AcDbEntity
8
Geo
100
AcDbLine
10
-72.9754775091385
20
0.419918213251843
30
0.000000000000000
11
-72.8754775091385
21
0.310970332605787
31
0.000000000000000
  0
LINE
  5
F104D0
330
F104D1
100
AcDbEntity
8
Geo
100
AcDbLine
10
-72.8754775091385
20
0.310970332605787
30
0.000000000000000
11
-72.7754775091385
21
0.200631775520707
31
0.000000000000000
  0
LINE
  5
F104D2
330
F104D3
100
AcDbEntity
8
Geo
100
AcDbLine
10
-72.7754775091385
20
0.200631775520707
30
0.000000000000000
11
-72.6754775091385
21
0.0890659863458076
31
0.000000000000000
  0
LINE
  5
F104D4
330
F104D5
100
AcDbEntity
8
Geo
100
AcDbLine
10
-72.6754775091385
20
0.0890659863458076
30
0.000000000000000
11
-72.5754775091385
21
-0.0235617726725382
31
0.000000000000000
  0
LINE
  5
F104D6
330
F104D7
100
AcDbEntity
8
Geo
100
AcDbLine
10
-72.5754775091385
20
-0.0235617726725382
30
0.000000000000000
11
-72.4754775091385
21
-0.137084666193526
31
0.000000000000000
  0
LINE
  5
F104D8
330
F104D9
100
AcDbEntity
8
Geo
100
AcDbLine
10
-72.4754775091385
20
-0.137084666193526
30
0.000000000000000
11
-72.3754775091385
21
-0.251334532914873
31
0.000000000000000
  0
LINE
  5
F104DA
330
F104DB
100
AcDbEntity
8
Geo
100
AcDbLine
10
-72.3754775091385
20
-0.251334532914873
30
0.000000000000000
11
-72.2754775091385
21
-0.366142134669919
31
0.000000000000000
  0
LINE
  5
F104DC
330
F104DD
100
AcDbEntity
8
Geo
100
AcDbLine
10
-72.2754775091385
20
-0.366142134669919
30
0.000000000000000
11
-72.1754775091385
21
-0.481337407119881
31
0.000000000000000
  0
LINE
  5
F104DE
330
F104DF
100
AcDbEntity
8
Geo
100
AcDbLine
10
-72.1754775091385
20
-0.481337407119881
30
0.000000000000000
11
-72.0754775091385
21
-0.596749711669929
31
0.000000000000000
  0
LINE
  5
F104E0
330
F104E1
100
AcDbEntity
8
Geo
100
AcDbLine
10
-72.0754775091385
20
-0.596749711669929
30
0.000000000000000
11
-71.9754775091385
21
-0.712208088235878
31
0.000000000000000
  0
LINE
  5
F104E2
330
F104E3
100
AcDbEntity
8
Geo
100
AcDbLine
10
-71.9754775091385
20
-0.712208088235878
30
0.000000000000000
11
-71.8754775091385
21
-0.827541508487138
31
0.000000000000000
  0
LINE
  5
F104E4
330
F104E5
100
AcDbEntity
8
Geo
100
AcDbLine
10
-71.8754775091385
20
-0.827541508487138
30
0.000000000000000
11
-71.7754775091385
21
-0.942579129190732
31
0.000000000000000
  0
LINE
  5
F104E6
330
F104E7
100
AcDbEntity
8
Geo
100
AcDbLine
10
-71.7754775091385
20
-0.942579129190732
30
0.000000000000000
11
-71.6754775091385
21
-1.05715054528113
31
0.000000000000000
  0
LINE
  5
F104E8
330
F104E9
100
AcDbEntity
8
Geo
100
AcDbLine
10
-71.6754775091385
20
-1.05715054528113
30
0.000000000000000
11
-71.5754775091385
21
-1.17108604228105
31
0.000000000000000
  0
LINE
  5
F104EA
330
F104EB
100
AcDbEntity
8
Geo
100
AcDbLine
10
-71.5754775091385
20
-1.17108604228105
30
0.000000000000000
11
-71.4754775091385
21
-1.28421684769926
31
0.000000000000000
  0
LINE
  5
F104EC
330
F104ED
100
AcDbEntity
8
Geo
100
AcDbLine
10
-71.4754775091385
20
-1.28421684769926
30
0.000000000000000
11
-71.3754775091385
21
-1.39637538103302
31
0.000000000000000
  0
LINE
  5
F104EE
330
F104EF
100
AcDbEntity
8
Geo
100
AcDbLine
10
-71.3754775091385
20
-1.39637538103302
30
0.000000000000000
11
-71.2754775091385
21
-1.50739550200488
31
0.000000000000000
  0
LINE
  5
F104F0
330
F104F1
100
AcDbEntity
8
Geo
100
AcDbLine
10
-71.2754775091385
20
-1.50739550200488
30
0.000000000000000
11
-71.1754775091385
21
-1.61711275666600
31
0.000000000000000
  0
LINE
  5
F104F2
330
F104F3
100
AcDbEntity
8
Geo
100
AcDbLine
10
-71.1754775091385
20
-1.61711275666600
30
0.000000000000000
11
-71.0754775091385
21
-1.72536462100159
31
0.000000000000000
  0
LINE
  5
F104F4
330
F104F5
100
AcDbEntity
8
Geo
100
AcDbLine
10
-71.0754775091385
20
-1.72536462100159
30
0.000000000000000
11
-70.9754775091385
21
-1.83199074167747
31
0.000000000000000
  0
LINE
  5
F104F6
330
F104F7
100
AcDbEntity
8
Geo
100
AcDbLine
10
-70.9754775091385
20
-1.83199074167747
30
0.000000000000000
11
-70.8754775091385
21
-1.93683317357126
31
0.000000000000000
  0
LINE
  5
F104F8
330
F104F9
100
AcDbEntity
8
Geo
100
AcDbLine
10
-70.8754775091385
20
-1.93683317357126
30
0.000000000000000
11
-70.7754775091385
21
-2.03973661373626
31
0.000000000000000
  0
LINE
  5
F104FA
330
F104FB
100
AcDbEntity
8
Geo
100
AcDbLine
10
-70.7754775091385
20
-2.03973661373626
30
0.000000000000000
11
-70.6754775091385
21
-2.14054863145148
31
0.000000000000000
  0
LINE
  5
F104FC
330
F104FD
100
AcDbEntity
8
Geo
100
AcDbLine
10
-70.6754775091385
20
-2.14054863145148
30
0.000000000000000
11
-70.5754775091385
21
-2.23911989401708
31
0.000000000000000
  0
LINE
  5
F104FE
330
F104FF
100
AcDbEntity
8
Geo
100
AcDbLine
10
-70.5754775091385
20
-2.23911989401708
30
0.000000000000000
11
-70.4754775091385
21
-2.33530438796064
31
0.000000000000000
  0
LINE
  5
F10500
330
F10501
100
AcDbEntity
8
Geo
100
AcDbLine
10
-70.4754775091385
20
-2.33530438796064
30
0.000000000000000
11
-70.3754775091385
21
-2.42895963532676
31
0.000000000000000
  0
LINE
  5
F10502
330
F10503
100
AcDbEntity
8
Geo
100
AcDbLine
10
-70.3754775091385
20
-2.42895963532676
30
0.000000000000000
11
-70.2754775091385
21
-2.51994690472941
31
0.000000000000000
  0
LINE
  5
F10504
330
F10505
100
AcDbEntity
8
Geo
100
AcDbLine
10
-70.2754775091385
20
-2.51994690472941
30
0.000000000000000
11
-70.1754775091385
21
-2.60813141685459
31
0.000000000000000
  0
LINE
  5
F10506
330
F10507
100
AcDbEntity
8
Geo
100
AcDbLine
10
-70.1754775091385
20
-2.60813141685459
30
0.000000000000000
11
-70.0754775091385
21
-2.69338254410868
31
0.000000000000000
  0
LINE
  5
F10508
330
F10509
100
AcDbEntity
8
Geo
100
AcDbLine
10
-70.0754775091385
20
-2.69338254410868
30
0.000000000000000
11
-69.9754775091385
21
-2.77557400411695
31
0.000000000000000
  0
LINE
  5
F1050A
330
F1050B
100
AcDbEntity
8
Geo
100
AcDbLine
10
-69.9754775091385
20
-2.77557400411695
30
0.000000000000000
11
-69.8754775091385
21
-2.85458404678546
31
0.000000000000000
  0
LINE
  5
F1050C
330
F1050D
100
AcDbEntity
8
Geo
100
AcDbLine
10
-69.8754775091385
20
-2.85458404678546
30
0.000000000000000
11
-69.7754775091385
21
-2.93029563464928
31
0.000000000000000
  0
LINE
  5
F1050E
330
F1050F
100
AcDbEntity
8
Geo
100
AcDbLine
10
-69.7754775091385
20
-2.93029563464928
30
0.000000000000000
11
-69.6754775091385
21
-3.00259661623994
31
0.000000000000000
  0
LINE
  5
F10510
330
F10511
100
AcDbEntity
8
Geo
100
AcDbLine
10
-69.6754775091385
20
-3.00259661623994
30
0.000000000000000
11
-69.5754775091385
21
-3.07137989221524
31
0.000000000000000
  0
LINE
  5
F10512
330
F10513
100
AcDbEntity
8
Geo
100
AcDbLine
10
-69.5754775091385
20
-3.07137989221524
30
0.000000000000000
11
-69.4754775091385
21
-3.13654357400536
31
0.000000000000000
  0
LINE
  5
F10514
330
F10515
100
AcDbEntity
8
Geo
100
AcDbLine
10
-69.4754775091385
20
-3.13654357400536
30
0.000000000000000
11
-69.3754775091385
21
-3.19799113474024
31
0.000000000000000
  0
LINE
  5
F10516
330
F10517
100
AcDbEntity
8
Geo
100
AcDbLine
10
-69.3754775091385
20
-3.19799113474024
30
0.000000000000000
11
-69.2754775091385
21
-3.25563155223470
31
0.000000000000000
  0
LINE
  5
F10518
330
F10519
100
AcDbEntity
8
Geo
100
AcDbLine
10
-69.2754775091385
20
-3.25563155223470
30
0.000000000000000
11
-69.1754775091385
21
-3.30937944381951
31
0.000000000000000
  0
LINE
  5
F1051A
330
F1051B
100
AcDbEntity
8
Geo
100
AcDbLine
10
-69.1754775091385
20
-3.30937944381951
30
0.000000000000000
11
-69.0754775091385
21
-3.35915519281855
31
0.000000000000000
  0
LINE
  5
F1051C
330
F1051D
100
AcDbEntity
8
Geo
100
AcDbLine
10
-69.0754775091385
20
-3.35915519281855
30
0.000000000000000
11
-68.9754775091385
21
-3.40488506648493
31
0.000000000000000
  0
LINE
  5
F1051E
330
F1051F
100
AcDbEntity
8
Geo
100
AcDbLine
10
-68.9754775091385
20
-3.40488506648493
30
0.000000000000000
11
-68.8754775091385
21
-3.44650132522121
31
0.000000000000000
  0
LINE
  5
F10520
330
F10521
100
AcDbEntity
8
Geo
100
AcDbLine
10
-68.8754775091385
20
-3.44650132522121
30
0.000000000000000
11
-68.7754775091385
21
-3.48394232292192
31
0.000000000000000
  0
LINE
  5
F10522
330
F10523
100
AcDbEntity
8
Geo
100
AcDbLine
10
-68.7754775091385
20
-3.48394232292192
30
0.000000000000000
11
-68.6754775091385
21
-3.51715259828992
31
0.000000000000000
  0
LINE
  5
F10524
330
F10525
100
AcDbEntity
8
Geo
100
AcDbLine
10
-68.6754775091385
20
-3.51715259828992
30
0.000000000000000
11
-68.5754775091385
21
-3.54608295699106
31
0.000000000000000
  0
LINE
  5
F10526
330
F10527
100
AcDbEntity
8
Geo
100
AcDbLine
10
-68.5754775091385
20
-3.54608295699106
30
0.000000000000000
11
-68.4754775091385
21
-3.57069054452576
31
0.000000000000000
  0
LINE
  5
F10528
330
F10529
100
AcDbEntity
8
Geo
100
AcDbLine
10
-68.4754775091385
20
-3.57069054452576
30
0.000000000000000
11
-68.3754775091385
21
-3.59093890970926
31
0.000000000000000
  0
LINE
  5
F1052A
330
F1052B
100
AcDbEntity
8
Geo
100
AcDbLine
10
-68.3754775091385
20
-3.59093890970926
30
0.000000000000000
11
-68.2754775091385
21
-3.60679805866672
31
0.000000000000000
  0
LINE
  5
F1052C
330
F1052D
100
AcDbEntity
8
Geo
100
AcDbLine
10
-68.2754775091385
20
-3.60679805866672
30
0.000000000000000
11
-68.1754775091385
21
-3.61824449926314
31
0.000000000000000
  0
LINE
  5
F1052E
330
F1052F
100
AcDbEntity
8
Geo
100
AcDbLine
10
-68.1754775091385
20
-3.61824449926314
30
0.000000000000000
11
-68.0754775091385
21
-3.62526127590218
31
0.000000000000000
  0
LINE
  5
F10530
330
F10531
100
AcDbEntity
8
Geo
100
AcDbLine
10
-68.0754775091385
20
-3.62526127590218
30
0.000000000000000
11
-67.9754775091385
21
-3.62783799464249
31
0.000000000000000
  0
LINE
  5
F10532
330
F10533
100
AcDbEntity
8
Geo
100
AcDbLine
10
-79.4754775091384
20
2.37068820732681
30
0.000000000000000
11
-79.3754775091384
21
2.37206802572645
31
0.000000000000000
  0
LINE
  5
F10534
330
F10535
100
AcDbEntity
8
Geo
100
AcDbLine
10
-79.3754775091384
20
2.37206802572645
30
0.000000000000000
11
-79.2754775091384
21
2.36900406657717
31
0.000000000000000
  0
LINE
  5
F10536
330
F10537
100
AcDbEntity
8
Geo
100
AcDbLine
10
-79.2754775091384
20
2.36900406657717
30
0.000000000000000
11
-79.1754775091384
21
2.36150086851734
31
0.000000000000000
  0
LINE
  5
F10538
330
F10539
100
AcDbEntity
8
Geo
100
AcDbLine
10
-79.1754775091384
20
2.36150086851734
30
0.000000000000000
11
-79.0754775091384
21
2.34956954602368
31
0.000000000000000
  0
LINE
  5
F1053A
330
F1053B
100
AcDbEntity
8
Geo
100
AcDbLine
10
-79.0754775091384
20
2.34956954602368
30
0.000000000000000
11
-78.9754775091384
21
2.33322777294739
31
0.000000000000000
  0
LINE
  5
F1053C
330
F1053D
100
AcDbEntity
8
Geo
100
AcDbLine
10
-78.9754775091384
20
2.33322777294739
30
0.000000000000000
11
-78.8754775091384
21
2.31249975633392
31
0.000000000000000
  0
LINE
  5
F1053E
330
F1053F
100
AcDbEntity
8
Geo
100
AcDbLine
10
-78.8754775091384
20
2.31249975633392
30
0.000000000000000
11
-78.7754775091384
21
2.28741620056508
31
0.000000000000000
  0
LINE
  5
F10540
330
F10541
100
AcDbEntity
8
Geo
100
AcDbLine
10
-78.7754775091384
20
2.28741620056508
30
0.000000000000000
11
-78.6754775091384
21
2.25801426187671
31
0.000000000000000
  0
LINE
  5
F10542
330
F10543
100
AcDbEntity
8
Geo
100
AcDbLine
10
-78.6754775091384
20
2.25801426187671
30
0.000000000000000
11
-78.5754775091384
21
2.22433749331916
31
0.000000000000000
  0
LINE
  5
F10544
330
F10545
100
AcDbEntity
8
Geo
100
AcDbLine
10
-78.5754775091384
20
2.22433749331916
30
0.000000000000000
11
-78.4754775091384
21
2.18643578024228
31
0.000000000000000
  0
LINE
  5
F10546
330
F10547
100
AcDbEntity
8
Geo
100
AcDbLine
10
-78.4754775091384
20
2.18643578024228
30
0.000000000000000
11
-78.3754775091384
21
2.14436526640027
31
0.000000000000000
  0
LINE
  5
F10548
330
F10549
100
AcDbEntity
8
Geo
100
AcDbLine
10
-78.3754775091384
20
2.14436526640027
30
0.000000000000000
11
-78.2754775091384
21
2.09818827078602
31
0.000000000000000
  0
LINE
  5
F1054A
330
F1054B
100
AcDbEntity
8
Geo
100
AcDbLine
10
-78.2754775091384
20
2.09818827078602
30
0.000000000000000
11
-78.1754775091384
21
2.04797319531809
31
0.000000000000000
  0
LINE
  5
F1054C
330
F1054D
100
AcDbEntity
8
Geo
100
AcDbLine
10
-78.1754775091384
20
2.04797319531809
30
0.000000000000000
11
-78.0754775091385
21
1.99379442351707
31
0.000000000000000
  0
LINE
  5
F1054E
330
F1054F
100
AcDbEntity
8
Geo
100
AcDbLine
10
-78.0754775091385
20
1.99379442351707
30
0.000000000000000
11
-77.9754775091384
21
1.93573221032130
31
0.000000000000000
  0
LINE
  5
F10550
330
F10551
100
AcDbEntity
8
Geo
100
AcDbLine
10
-77.9754775091384
20
1.93573221032130
30
0.000000000000000
11
-77.8754775091384
21
1.87387256320542
31
0.000000000000000
  0
LINE
  5
F10552
330
F10553
100
AcDbEntity
8
Geo
100
AcDbLine
10
-77.8754775091384
20
1.87387256320542
30
0.000000000000000
11
-77.7754775091385
21
1.80830711477757
31
0.000000000000000
  0
LINE
  5
F10554
330
F10555
100
AcDbEntity
8
Geo
100
AcDbLine
10
-77.7754775091385
20
1.80830711477757
30
0.000000000000000
11
-77.6754775091384
21
1.73913298704417
31
0.000000000000000
  0
LINE
  5
F10556
330
F10557
100
AcDbEntity
8
Geo
100
AcDbLine
10
-77.6754775091384
20
1.73913298704417
30
0.000000000000000
11
-77.5754775091385
21
1.66645264754320
31
0.000000000000000
  0
LINE
  5
F10558
330
F10559
100
AcDbEntity
8
Geo
100
AcDbLine
10
-77.5754775091385
20
1.66645264754320
30
0.000000000000000
11
-77.4754775091384
21
1.59037375755920
31
0.000000000000000
  0
LINE
  5
F1055A
330
F1055B
100
AcDbEntity
8
Geo
100
AcDbLine
10
-77.4754775091384
20
1.59037375755920
30
0.000000000000000
11
-77.3754775091384
21
1.51100901264475
31
0.000000000000000
  0
LINE
  5
F1055C
330
F1055D
100
AcDbEntity
8
Geo
100
AcDbLine
10
-77.3754775091384
20
1.51100901264475
30
0.000000000000000
11
-77.2754775091385
21
1.42847597568471
31
0.000000000000000
  0
LINE
  5
F1055E
330
F1055F
100
AcDbEntity
8
Geo
100
AcDbLine
10
-77.2754775091385
20
1.42847597568471
30
0.000000000000000
11
-77.1754775091384
21
1.34289690275048
31
0.000000000000000
  0
LINE
  5
F10560
330
F10561
100
AcDbEntity
8
Geo
100
AcDbLine
10
-77.1754775091384
20
1.34289690275048
30
0.000000000000000
11
-77.0754775091385
21
1.25439856200228
31
0.000000000000000
  0
LINE
  5
F10562
330
F10563
100
AcDbEntity
8
Geo
100
AcDbLine
10
-77.0754775091385
20
1.25439856200228
30
0.000000000000000
11
-76.9754775091384
21
1.16311204590761
31
0.000000000000000
  0
LINE
  5
F10564
330
F10565
100
AcDbEntity
8
Geo
100
AcDbLine
10
-76.9754775091384
20
1.16311204590761
30
0.000000000000000
11
-76.8754775091384
21
1.06917257705418
31
0.000000000000000
  0
LINE
  5
F10566
330
F10567
100
AcDbEntity
8
Geo
100
AcDbLine
10
-76.8754775091384
20
1.06917257705418
30
0.000000000000000
11
-76.7754775091385
21
0.972719307844910
31
0.000000000000000
  0
LINE
  5
F10568
330
F10569
100
AcDbEntity
8
Geo
100
AcDbLine
10
-76.7754775091385
20
0.972719307844910
30
0.000000000000000
11
-76.6754775091384
21
0.873895114371622
31
0.000000000000000
  0
LINE
  5
F1056A
330
F1056B
100
AcDbEntity
8
Geo
100
AcDbLine
10
-76.6754775091384
20
0.873895114371622
30
0.000000000000000
11
-76.5754775091385
21
0.772846384772924
31
0.000000000000000
  0
LINE
  5
F1056C
330
F1056D
100
AcDbEntity
8
Geo
100
AcDbLine
10
-76.5754775091385
20
0.772846384772924
30
0.000000000000000
11
-76.4754775091385
21
0.669722802389648
31
0.000000000000000
  0
LINE
  5
F1056E
330
F1056F
100
AcDbEntity
8
Geo
100
AcDbLine
10
-76.4754775091385
20
0.669722802389648
30
0.000000000000000
11
-76.3754775091384
21
0.564677124039137
31
0.000000000000000
  0
LINE
  5
F10570
330
F10571
100
AcDbEntity
8
Geo
100
AcDbLine
10
-76.3754775091384
20
0.564677124039137
30
0.000000000000000
11
-76.2754775091385
21
0.457864953736782
31
0.000000000000000
  0
LINE
  5
F10572
330
F10573
100
AcDbEntity
8
Geo
100
AcDbLine
10
-76.2754775091385
20
0.457864953736782
30
0.000000000000000
11
-76.1754775091385
21
0.349444512200012
31
0.000000000000000
  0
LINE
  5
F10574
330
F10575
100
AcDbEntity
8
Geo
100
AcDbLine
10
-76.1754775091385
20
0.349444512200012
30
0.000000000000000
11
-76.0754775091385
21
0.239576402476174
31
0.000000000000000
  0
LINE
  5
F10576
330
F10577
100
AcDbEntity
8
Geo
100
AcDbLine
10
-76.0754775091385
20
0.239576402476174
30
0.000000000000000
11
-75.9754775091385
21
0.128423372041459
31
0.000000000000000
  0
LINE
  5
F10578
330
F10579
100
AcDbEntity
8
Geo
100
AcDbLine
10
-75.9754775091385
20
0.128423372041459
30
0.000000000000000
11
-75.8754775091384
21
0.0161500717232983
31
0.000000000000000
  0
LINE
  5
F1057A
330
F1057B
100
AcDbEntity
8
Geo
100
AcDbLine
10
-75.8754775091384
20
0.0161500717232983
30
0.000000000000000
11
-75.7754775091385
21
-0.0970771881966790
31
0.000000000000000
  0
LINE
  5
F1057C
330
F1057D
100
AcDbEntity
8
Geo
100
AcDbLine
10
-75.7754775091385
20
-0.0970771881966790
30
0.000000000000000
11
-75.6754775091385
21
-0.211090684337822
31
0.000000000000000
  0
LINE
  5
F1057E
330
F1057F
100
AcDbEntity
8
Geo
100
AcDbLine
10
-75.6754775091385
20
-0.211090684337822
30
0.000000000000000
11
-75.5754775091385
21
-0.325721528668879
31
0.000000000000000
  0
LINE
  5
F10580
330
F10581
100
AcDbEntity
8
Geo
100
AcDbLine
10
-75.5754775091385
20
-0.325721528668879
30
0.000000000000000
11
-75.4754775091385
21
-0.440799918681593
31
0.000000000000000
  0
LINE
  5
F10582
330
F10583
100
AcDbEntity
8
Geo
100
AcDbLine
10
-75.4754775091385
20
-0.440799918681593
30
0.000000000000000
11
-75.3754775091384
21
-0.556155388918919
31
0.000000000000000
  0
LINE
  5
F10584
330
F10585
100
AcDbEntity
8
Geo
100
AcDbLine
10
-75.3754775091384
20
-0.556155388918919
30
0.000000000000000
11
-75.2754775091385
21
-0.671617063485268
31
0.000000000000000
  0
LINE
  5
F10586
330
F10587
100
AcDbEntity
8
Geo
100
AcDbLine
10
-75.2754775091385
20
-0.671617063485268
30
0.000000000000000
11
-75.1754775091385
21
-0.787013909164718
31
0.000000000000000
  0
LINE
  5
F10588
330
F10589
100
AcDbEntity
8
Geo
100
AcDbLine
10
-75.1754775091385
20
-0.787013909164718
30
0.000000000000000
11
-75.0754775091385
21
-0.902174988772298
31
0.000000000000000
  0
LINE
  5
F1058A
330
F1058B
100
AcDbEntity
8
Geo
100
AcDbLine
10
-75.0754775091385
20
-0.902174988772298
30
0.000000000000000
11
-74.9754775091385
21
-1.01692971436298
31
0.000000000000000
  0
LINE
  5
F1058C
330
F1058D
100
AcDbEntity
8
Geo
100
AcDbLine
10
-74.9754775091385
20
-1.01692971436298
30
0.000000000000000
11
-74.8754775091385
21
-1.13110809992337
31
0.000000000000000
  0
LINE
  5
F1058E
330
F1058F
100
AcDbEntity
8
Geo
100
AcDbLine
10
-74.8754775091385
20
-1.13110809992337
30
0.000000000000000
11
-74.7754775091385
21
-1.24454101317176
31
0.000000000000000
  0
LINE
  5
F10590
330
F10591
100
AcDbEntity
8
Geo
100
AcDbLine
10
-74.7754775091385
20
-1.24454101317176
30
0.000000000000000
11
-74.6754775091385
21
-1.35706042609351
31
0.000000000000000
  0
LINE
  5
F10592
330
F10593
100
AcDbEntity
8
Geo
100
AcDbLine
10
-74.6754775091385
20
-1.35706042609351
30
0.000000000000000
11
-74.5754775091385
21
-1.46849966384073
31
0.000000000000000
  0
LINE
  5
F10594
330
F10595
100
AcDbEntity
8
Geo
100
AcDbLine
10
-74.5754775091385
20
-1.46849966384073
30
0.000000000000000
11
-74.4754775091385
21
-1.57869365162751
31
0.000000000000000
  0
LINE
  5
F10596
330
F10597
100
AcDbEntity
8
Geo
100
AcDbLine
10
-74.4754775091385
20
-1.57869365162751
30
0.000000000000000
11
-74.3754775091385
21
-1.68747915925493
31
0.000000000000000
  0
LINE
  5
F10598
330
F10599
100
AcDbEntity
8
Geo
100
AcDbLine
10
-74.3754775091385
20
-1.68747915925493
30
0.000000000000000
11
-74.2754775091385
21
-1.79469504290377
31
0.000000000000000
  0
LINE
  5
F1059A
330
F1059B
100
AcDbEntity
8
Geo
100
AcDbLine
10
-74.2754775091385
20
-1.79469504290377
30
0.000000000000000
11
-74.1754775091385
21
-1.90018248383659
31
0.000000000000000
  0
LINE
  5
F1059C
330
F1059D
100
AcDbEntity
8
Geo
100
AcDbLine
10
-74.1754775091385
20
-1.90018248383659
30
0.000000000000000
11
-74.0754775091385
21
-2.00378522365570
31
0.000000000000000
  0
LINE
  5
F1059E
330
F1059F
100
AcDbEntity
8
Geo
100
AcDbLine
10
-74.0754775091385
20
-2.00378522365570
30
0.000000000000000
11
-73.9754775091385
21
-2.10534979576853
31
0.000000000000000
  0
LINE
  5
F105A0
330
F105A1
100
AcDbEntity
8
Geo
100
AcDbLine
10
-73.9754775091385
20
-2.10534979576853
30
0.000000000000000
11
-73.8754775091385
21
-2.20472575271745
31
0.000000000000000
  0
LINE
  5
F105A2
330
F105A3
100
AcDbEntity
8
Geo
100
AcDbLine
10
-73.8754775091385
20
-2.20472575271745
30
0.000000000000000
11
-73.7754775091385
21
-2.30176588903741
31
0.000000000000000
  0
LINE
  5
F105A4
330
F105A5
100
AcDbEntity
8
Geo
100
AcDbLine
10
-73.7754775091385
20
-2.30176588903741
30
0.000000000000000
11
-73.6754775091385
21
-2.39632645931113
31
0.000000000000000
  0
LINE
  5
F105A6
330
F105A7
100
AcDbEntity
8
Geo
100
AcDbLine
10
-73.6754775091385
20
-2.39632645931113
30
0.000000000000000
11
-73.5754775091385
21
-2.48826739109906
31
0.000000000000000
  0
LINE
  5
F105A8
330
F105A9
100
AcDbEntity
8
Geo
100
AcDbLine
10
-73.5754775091385
20
-2.48826739109906
30
0.000000000000000
11
-73.4754775091385
21
-2.57745249242844
31
0.000000000000000
  0
LINE
  5
F105AA
330
F105AB
100
AcDbEntity
8
Geo
100
AcDbLine
10
-73.4754775091385
20
-2.57745249242844
30
0.000000000000000
11
-73.3754775091385
21
-2.66374965353428
31
0.000000000000000
  0
LINE
  5
F105AC
330
F105AD
100
AcDbEntity
8
Geo
100
AcDbLine
10
-73.3754775091385
20
-2.66374965353428
30
0.000000000000000
11
-73.2754775091385
21
-2.74703104255337
31
0.000000000000000
  0
LINE
  5
F105AE
330
F105AF
100
AcDbEntity
8
Geo
100
AcDbLine
10
-73.2754775091385
20
-2.74703104255337
30
0.000000000000000
11
-73.1754775091385
21
-2.82717329488145
31
0.000000000000000
  0
LINE
  5
F105B0
330
F105B1
100
AcDbEntity
8
Geo
100
AcDbLine
10
-73.1754775091385
20
-2.82717329488145
30
0.000000000000000
11
-73.0754775091385
21
-2.90405769591304
31
0.000000000000000
  0
LINE
  5
F105B2
330
F105B3
100
AcDbEntity
8
Geo
100
AcDbLine
10
-73.0754775091385
20
-2.90405769591304
30
0.000000000000000
11
-72.9754775091385
21
-2.97757035689316
31
0.000000000000000
  0
LINE
  5
F105B4
330
F105B5
100
AcDbEntity
8
Geo
100
AcDbLine
10
-72.9754775091385
20
-2.97757035689316
30
0.000000000000000
11
-72.8754775091385
21
-3.04760238362065
31
0.000000000000000
  0
LINE
  5
F105B6
330
F105B7
100
AcDbEntity
8
Geo
100
AcDbLine
10
-72.8754775091385
20
-3.04760238362065
30
0.000000000000000
11
-72.7754775091385
21
-3.11405003775295
31
0.000000000000000
  0
LINE
  5
F105B8
330
F105B9
100
AcDbEntity
8
Geo
100
AcDbLine
10
-72.7754775091385
20
-3.11405003775295
30
0.000000000000000
11
-72.6754775091385
21
-3.17681489047357
31
0.000000000000000
  0
LINE
  5
F105BA
330
F105BB
100
AcDbEntity
8
Geo
100
AcDbLine
10
-72.6754775091385
20
-3.17681489047357
30
0.000000000000000
11
-72.5754775091385
21
-3.23580396829460
31
0.000000000000000
  0
LINE
  5
F105BC
330
F105BD
100
AcDbEntity
8
Geo
100
AcDbLine
10
-72.5754775091385
20
-3.23580396829460
30
0.000000000000000
11
-72.4754775091385
21
-3.29092989077812
31
0.000000000000000
  0
LINE
  5
F105BE
330
F105BF
100
AcDbEntity
8
Geo
100
AcDbLine
10
-72.4754775091385
20
-3.29092989077812
30
0.000000000000000
11
-72.3754775091385
21
-3.34211099997281
31
0.000000000000000
  0
LINE
  5
F105C0
330
F105C1
100
AcDbEntity
8
Geo
100
AcDbLine
10
-72.3754775091385
20
-3.34211099997281
30
0.000000000000000
11
-72.2754775091385
21
-3.38927148137371
31
0.000000000000000
  0
LINE
  5
F105C2
330
F105C3
100
AcDbEntity
8
Geo
100
AcDbLine
10
-72.2754775091385
20
-3.38927148137371
30
0.000000000000000
11
-72.1754775091385
21
-3.43234147622613
31
0.000000000000000
  0
LINE
  5
F105C4
330
F105C5
100
AcDbEntity
8
Geo
100
AcDbLine
10
-72.1754775091385
20
-3.43234147622613
30
0.000000000000000
11
-72.0754775091385
21
-3.47125718500737
31
0.000000000000000
  0
LINE
  5
F105C6
330
F105C7
100
AcDbEntity
8
Geo
100
AcDbLine
10
-72.0754775091385
20
-3.47125718500737
30
0.000000000000000
11
-71.9754775091385
21
-3.50596096193281
31
0.000000000000000
  0
LINE
  5
F105C8
330
F105C9
100
AcDbEntity
8
Geo
100
AcDbLine
10
-71.9754775091385
20
-3.50596096193281
30
0.000000000000000
11
-71.8754775091385
21
-3.53640140034658
31
0.000000000000000
  0
LINE
  5
F105CA
330
F105CB
100
AcDbEntity
8
Geo
100
AcDbLine
10
-71.8754775091385
20
-3.53640140034658
30
0.000000000000000
11
-71.7754775091385
21
-3.56253340887012
31
0.000000000000000
  0
LINE
  5
F105CC
330
F105CD
100
AcDbEntity
8
Geo
100
AcDbLine
10
-71.7754775091385
20
-3.56253340887012
30
0.000000000000000
11
-71.6754775091385
21
-3.58431827819601
31
0.000000000000000
  0
LINE
  5
F105CE
330
F105CF
100
AcDbEntity
8
Geo
100
AcDbLine
10
-71.6754775091385
20
-3.58431827819601
30
0.000000000000000
11
-71.5754775091385
21
-3.60172373842801
31
0.000000000000000
  0
LINE
  5
F105D0
330
F105D1
100
AcDbEntity
8
Geo
100
AcDbLine
10
-71.5754775091385
20
-3.60172373842801
30
0.000000000000000
11
-71.4754775091385
21
-3.61472400688239
31
0.000000000000000
  0
LINE
  5
F105D2
330
F105D3
100
AcDbEntity
8
Geo
100
AcDbLine
10
-71.4754775091385
20
-3.61472400688239
30
0.000000000000000
11
-71.3754775091385
21
-3.62329982627979
31
0.000000000000000
  0
LINE
  5
F105D4
330
F105D5
100
AcDbEntity
8
Geo
100
AcDbLine
10
-71.3754775091385
20
-3.62329982627979
30
0.000000000000000
11
-71.2754775091385
21
-3.62743849327102
31
0.000000000000000
  0
LINE
  5
F105D6
330
F105D7
100
AcDbEntity
8
Geo
100
AcDbLine
10
-83.4754775091384
20
2.07005338467625
30
0.000000000000000
11
-83.3754775091384
21
2.15661234506705
31
0.000000000000000
  0
LINE
  5
F105D8
330
F105D9
100
AcDbEntity
8
Geo
100
AcDbLine
10
-83.4754775091384
20
-0.923294487927334
30
0.000000000000000
11
-83.3754775091384
21
-1.03074051497223
31
0.000000000000000
  0
LINE
  5
F105DA
330
F105DB
100
AcDbEntity
8
Geo
100
AcDbLine
10
-83.3754775091384
20
2.15661234506705
30
0.000000000000000
11
-83.2754775091384
21
2.23875053209919
31
0.000000000000000
  0
LINE
  5
F105DC
330
F105DD
100
AcDbEntity
8
Geo
100
AcDbLine
10
-83.3754775091384
20
-1.03074051497223
30
0.000000000000000
11
-83.2754775091384
21
-1.14528014694244
31
0.000000000000000
  0
LINE
  5
F105DE
330
F105DF
100
AcDbEntity
8
Geo
100
AcDbLine
10
-83.2754775091384
20
2.23875053209919
30
0.000000000000000
11
-83.1754775091384
21
2.26638352640000
31
0.000000000000000
  0
LINE
  5
F105E0
330
F105E1
100
AcDbEntity
8
Geo
100
AcDbLine
10
-83.2754775091384
20
-1.14528014694244
30
0.000000000000000
11
-83.1754775091384
21
-1.26096594330971
31
0.000000000000000
  0
LINE
  5
F105E2
330
F105E3
100
AcDbEntity
8
Geo
100
AcDbLine
10
-83.1754775091384
20
2.26638352640000
30
0.000000000000000
11
-83.0754775091384
21
2.23987736845490
31
0.000000000000000
  0
LINE
  5
F105E4
330
F105E5
100
AcDbEntity
8
Geo
100
AcDbLine
10
-83.1754775091384
20
-1.26096594330971
30
0.000000000000000
11
-83.0754775091384
21
-1.37186870768691
31
0.000000000000000
  0
LINE
  5
F105E6
330
F105E7
100
AcDbEntity
8
Geo
100
AcDbLine
10
-83.0754775091384
20
2.23987736845490
30
0.000000000000000
11
-82.9754775091384
21
2.20912324679533
31
0.000000000000000
  0
LINE
  5
F105E8
330
F105E9
100
AcDbEntity
8
Geo
100
AcDbLine
10
-83.0754775091384
20
-1.37186870768691
30
0.000000000000000
11
-82.9754775091384
21
-1.48166936140292
31
0.000000000000000
  0
LINE
  5
F105EA
330
F105EB
100
AcDbEntity
8
Geo
100
AcDbLine
10
-82.9754775091384
20
2.20912324679533
30
0.000000000000000
11
-82.8754775091384
21
2.17416671745836
31
0.000000000000000
  0
LINE
  5
F105EC
330
F105ED
100
AcDbEntity
8
Geo
100
AcDbLine
10
-82.9754775091384
20
-1.48166936140292
30
0.000000000000000
11
-82.8754775091384
21
-1.59020525690403
31
0.000000000000000
  0
LINE
  5
F105EE
330
F105EF
100
AcDbEntity
8
Geo
100
AcDbLine
10
-82.8754775091384
20
2.17416671745836
30
0.000000000000000
11
-82.7754775091384
21
2.13505956150168
31
0.000000000000000
  0
LINE
  5
F105F0
330
F105F1
100
AcDbEntity
8
Geo
100
AcDbLine
10
-82.8754775091384
20
-1.59020525690403
30
0.000000000000000
11
-82.7754775091384
21
-1.69731562012111
31
0.000000000000000
  0
LINE
  5
F105F2
330
F105F3
100
AcDbEntity
8
Geo
100
AcDbLine
10
-82.7754775091384
20
2.13505956150168
30
0.000000000000000
11
-82.6754775091384
21
2.09185970830032
31
0.000000000000000
  0
LINE
  5
F105F4
330
F105F5
100
AcDbEntity
8
Geo
100
AcDbLine
10
-82.7754775091384
20
-1.69731562012111
30
0.000000000000000
11
-82.6754775091384
21
-1.80284178862398
31
0.000000000000000
  0
LINE
  5
F105F6
330
F105F7
100
AcDbEntity
8
Geo
100
AcDbLine
10
-82.6754775091384
20
2.09185970830032
30
0.000000000000000
11
-82.5754775091384
21
2.04463114973599
31
0.000000000000000
  0
LINE
  5
F105F8
330
F105F9
100
AcDbEntity
8
Geo
100
AcDbLine
10
-82.6754775091384
20
-1.80284178862398
30
0.000000000000000
11
-82.5754775091384
21
-1.90662744664787
31
0.000000000000000
  0
LINE
  5
F105FA
330
F105FB
100
AcDbEntity
8
Geo
100
AcDbLine
10
-82.5754775091384
20
2.04463114973599
30
0.000000000000000
11
-82.4754775091384
21
1.99344384540596
31
0.000000000000000
  0
LINE
  5
F105FC
330
F105FD
100
AcDbEntity
8
Geo
100
AcDbLine
10
-82.5754775091384
20
-1.90662744664787
30
0.000000000000000
11
-82.4754775091384
21
-2.00851885664371
31
0.000000000000000
  0
LINE
  5
F105FE
330
F105FF
100
AcDbEntity
8
Geo
100
AcDbLine
10
-82.4754775091384
20
1.99344384540596
30
0.000000000000000
11
-82.3754775091384
21
1.93837361899206
31
0.000000000000000
  0
LINE
  5
F10600
330
F10601
100
AcDbEntity
8
Geo
100
AcDbLine
10
-82.4754775091384
20
-2.00851885664371
30
0.000000000000000
11
-82.3754775091384
21
-2.10836508700939
31
0.000000000000000
  0
LINE
  5
F10602
330
F10603
100
AcDbEntity
8
Geo
100
AcDbLine
10
-82.3754775091384
20
1.93837361899206
30
0.000000000000000
11
-82.2754775091384
21
1.87950204594310
31
0.000000000000000
  0
LINE
  5
F10604
330
F10605
100
AcDbEntity
8
Geo
100
AcDbLine
10
-82.3754775091384
20
-2.10836508700939
30
0.000000000000000
11
-82.2754775091384
21
-2.20601823566449
31
0.000000000000000
  0
LINE
  5
F10606
330
F10607
100
AcDbEntity
8
Geo
100
AcDbLine
10
-82.2754775091384
20
1.87950204594310
30
0.000000000000000
11
-82.1754775091384
21
1.81691633263732
31
0.000000000000000
  0
LINE
  5
F10608
330
F10609
100
AcDbEntity
8
Geo
100
AcDbLine
10
-82.2754775091384
20
-2.20601823566449
30
0.000000000000000
11
-82.1754775091384
21
-2.30133364913746
31
0.000000000000000
  0
LINE
  5
F1060A
330
F1060B
100
AcDbEntity
8
Geo
100
AcDbLine
10
-82.1754775091384
20
1.81691633263732
30
0.000000000000000
11
-82.0754775091384
21
1.75070918720371
31
0.000000000000000
  0
LINE
  5
F1060C
330
F1060D
100
AcDbEntity
8
Geo
100
AcDbLine
10
-82.1754775091384
20
-2.30133364913746
30
0.000000000000000
11
-82.0754775091384
21
-2.39417013684055
31
0.000000000000000
  0
LINE
  5
F1060E
330
F1060F
100
AcDbEntity
8
Geo
100
AcDbLine
10
-82.0754775091384
20
1.75070918720371
30
0.000000000000000
11
-81.9754775091384
21
1.68097868219353
31
0.000000000000000
  0
LINE
  5
F10610
330
F10611
100
AcDbEntity
8
Geo
100
AcDbLine
10
-82.0754775091384
20
-2.39417013684055
30
0.000000000000000
11
-81.9754775091384
21
-2.48439018021529
31
0.000000000000000
  0
LINE
  5
F10612
330
F10613
100
AcDbEntity
8
Geo
100
AcDbLine
10
-81.9754775091384
20
1.68097868219353
30
0.000000000000000
11
-81.8754775091384
21
1.60782810930564
31
0.000000000000000
  0
LINE
  5
F10614
330
F10615
100
AcDbEntity
8
Geo
100
AcDbLine
10
-81.9754775091384
20
-2.48439018021529
30
0.000000000000000
11
-81.8754775091384
21
-2.57186013643850
31
0.000000000000000
  0
LINE
  5
F10616
330
F10617
100
AcDbEntity
8
Geo
100
AcDbLine
10
-81.8754775091384
20
1.60782810930564
30
0.000000000000000
11
-81.7754775091384
21
1.53136582638065
31
0.000000000000000
  0
LINE
  5
F10618
330
F10619
100
AcDbEntity
8
Geo
100
AcDbLine
10
-81.8754775091384
20
-2.57186013643850
30
0.000000000000000
11
-81.7754775091384
21
-2.65645043638721
31
0.000000000000000
  0
LINE
  5
F1061A
330
F1061B
100
AcDbEntity
8
Geo
100
AcDbLine
10
-81.7754775091384
20
1.53136582638065
30
0.000000000000000
11
-81.6754775091384
21
1.45170509689056
31
0.000000000000000
  0
LINE
  5
F1061C
330
F1061D
100
AcDbEntity
8
Geo
100
AcDbLine
10
-81.7754775091384
20
-2.65645043638721
30
0.000000000000000
11
-81.6754775091384
21
-2.73803577656926
31
0.000000000000000
  0
LINE
  5
F1061E
330
F1061F
100
AcDbEntity
8
Geo
100
AcDbLine
10
-81.6754775091384
20
1.45170509689056
30
0.000000000000000
11
-81.5754775091384
21
1.36896392216175
31
0.000000000000000
  0
LINE
  5
F10620
330
F10621
100
AcDbEntity
8
Geo
100
AcDbLine
10
-81.6754775091384
20
-2.73803577656926
30
0.000000000000000
11
-81.5754775091384
21
-2.81649530473514
31
0.000000000000000
  0
LINE
  5
F10622
330
F10623
100
AcDbEntity
8
Geo
100
AcDbLine
10
-81.5754775091384
20
1.36896392216175
30
0.000000000000000
11
-81.4754775091384
21
1.28326486657983
31
0.000000000000000
  0
LINE
  5
F10624
330
F10625
100
AcDbEntity
8
Geo
100
AcDbLine
10
-81.5754775091384
20
-2.81649530473514
30
0.000000000000000
11
-81.4754775091384
21
-2.89171279889628
31
0.000000000000000
  0
LINE
  5
F10626
330
F10627
100
AcDbEntity
8
Geo
100
AcDbLine
10
-81.4754775091384
20
1.28326486657983
30
0.000000000000000
11
-81.3754775091384
21
1.19473487603512
31
0.000000000000000
  0
LINE
  5
F10628
330
F10629
100
AcDbEntity
8
Geo
100
AcDbLine
10
-81.4754775091384
20
-2.89171279889628
30
0.000000000000000
11
-81.3754775091384
21
-2.96357683948453
31
0.000000000000000
  0
LINE
  5
F1062A
330
F1062B
100
AcDbEntity
8
Geo
100
AcDbLine
10
-81.3754775091384
20
1.19473487603512
30
0.000000000000000
11
-81.2754775091384
21
1.10350508987793
31
0.000000000000000
  0
LINE
  5
F1062C
330
F1062D
100
AcDbEntity
8
Geo
100
AcDbLine
10
-81.3754775091384
20
-2.96357683948453
30
0.000000000000000
11
-81.2754775091384
21
-3.03198097439777
31
0.000000000000000
  0
LINE
  5
F1062E
330
F1062F
100
AcDbEntity
8
Geo
100
AcDbLine
10
-81.2754775091384
20
1.10350508987793
30
0.000000000000000
11
-81.1754775091384
21
1.00971064666201
31
0.000000000000000
  0
LINE
  5
F10630
330
F10631
100
AcDbEntity
8
Geo
100
AcDbLine
10
-81.2754775091384
20
-3.03198097439777
30
0.000000000000000
11
-81.1754775091384
21
-3.09682387668729
31
0.000000000000000
  0
LINE
  5
F10632
330
F10633
100
AcDbEntity
8
Geo
100
AcDbLine
10
-81.1754775091384
20
1.00971064666201
30
0.000000000000000
11
-81.0754775091384
21
0.913490483963975
31
0.000000000000000
  0
LINE
  5
F10634
330
F10635
100
AcDbEntity
8
Geo
100
AcDbLine
10
-81.1754775091384
20
-3.09682387668729
30
0.000000000000000
11
-81.0754775091384
21
-3.15800949465328
31
0.000000000000000
  0
LINE
  5
F10636
330
F10637
100
AcDbEntity
8
Geo
100
AcDbLine
10
-81.0754775091384
20
0.913490483963975
30
0.000000000000000
11
-80.9754775091384
21
0.814987132575323
31
0.000000000000000
  0
LINE
  5
F10638
330
F10639
100
AcDbEntity
8
Geo
100
AcDbLine
10
-81.0754775091384
20
-3.15800949465328
30
0.000000000000000
11
-80.9754775091384
21
-3.21544719412600
31
0.000000000000000
  0
LINE
  5
F1063A
330
F1063B
100
AcDbEntity
8
Geo
100
AcDbLine
10
-80.9754775091384
20
0.814987132575323
30
0.000000000000000
11
-80.8754775091384
21
0.714346505371726
31
0.000000000000000
  0
LINE
  5
F1063C
330
F1063D
100
AcDbEntity
8
Geo
100
AcDbLine
10
-80.9754775091384
20
-3.21544719412600
30
0.000000000000000
11
-80.8754775091384
21
-3.26905189272212
31
0.000000000000000
  0
LINE
  5
F1063E
330
F1063F
100
AcDbEntity
8
Geo
100
AcDbLine
10
-80.8754775091384
20
0.714346505371726
30
0.000000000000000
11
-80.7754775091384
21
0.611717681172516
31
0.000000000000000
  0
LINE
  5
F10640
330
F10641
100
AcDbEntity
8
Geo
100
AcDbLine
10
-80.8754775091384
20
-3.26905189272212
30
0.000000000000000
11
-80.7754775091384
21
-3.31874418587712
31
0.000000000000000
  0
LINE
  5
F10642
330
F10643
100
AcDbEntity
8
Geo
100
AcDbLine
10
-80.7754775091384
20
0.611717681172516
30
0.000000000000000
11
-80.6754775091384
21
0.507252683910433
31
0.000000000000000
  0
LINE
  5
F10644
330
F10645
100
AcDbEntity
8
Geo
100
AcDbLine
10
-80.7754775091384
20
-3.31874418587712
30
0.000000000000000
11
-80.6754775091384
21
-3.36445046446714
31
0.000000000000000
  0
LINE
  5
F10646
330
F10647
100
AcDbEntity
8
Geo
100
AcDbLine
10
-80.6754775091384
20
0.507252683910433
30
0.000000000000000
11
-80.5754775091384
21
0.401106257438789
31
0.000000000000000
  0
LINE
  5
F10648
330
F10649
100
AcDbEntity
8
Geo
100
AcDbLine
10
-80.6754775091384
20
-3.36445046446714
30
0.000000000000000
11
-80.5754775091384
21
-3.40610302384606
31
0.000000000000000
  0
LINE
  5
F1064A
330
F1064B
100
AcDbEntity
8
Geo
100
AcDbLine
10
-80.5754775091384
20
0.401106257438789
30
0.000000000000000
11
-80.4754775091384
21
0.293435636309617
31
0.000000000000000
  0
LINE
  5
F1064C
330
F1064D
100
AcDbEntity
8
Geo
100
AcDbLine
10
-80.5754775091384
20
-3.40610302384606
30
0.000000000000000
11
-80.4754775091384
21
-3.44364016413636
31
0.000000000000000
  0
LINE
  5
F1064E
330
F1064F
100
AcDbEntity
8
Geo
100
AcDbLine
10
-80.4754775091384
20
0.293435636309617
30
0.000000000000000
11
-80.3754775091384
21
0.184400312862347
31
0.000000000000000
  0
LINE
  5
F10650
330
F10651
100
AcDbEntity
8
Geo
100
AcDbLine
10
-80.4754775091384
20
-3.44364016413636
30
0.000000000000000
11
-80.3754775091384
21
-3.47700628162498
31
0.000000000000000
  0
LINE
  5
F10652
330
F10653
100
AcDbEntity
8
Geo
100
AcDbLine
10
-80.3754775091384
20
0.184400312862347
30
0.000000000000000
11
-80.2754775091384
21
0.0741618009680344
31
0.000000000000000
  0
LINE
  5
F10654
330
F10655
100
AcDbEntity
8
Geo
100
AcDbLine
10
-80.3754775091384
20
-3.47700628162498
30
0.000000000000000
11
-80.2754775091384
21
-3.50615195112908
31
0.000000000000000
  0
LINE
  5
F10656
330
F10657
100
AcDbEntity
8
Geo
100
AcDbLine
10
-80.2754775091384
20
0.0741618009680344
30
0.000000000000000
11
-80.1754775091384
21
-0.0371166032209180
31
0.000000000000000
  0
LINE
  5
F10658
330
F10659
100
AcDbEntity
8
Geo
100
AcDbLine
10
-80.2754775091384
20
-3.50615195112908
30
0.000000000000000
11
-80.1754775091384
21
-3.53103399920947
31
0.000000000000000
  0
LINE
  5
F1065A
330
F1065B
100
AcDbEntity
8
Geo
100
AcDbLine
10
-80.1754775091384
20
-0.0371166032209180
30
0.000000000000000
11
-80.0754775091384
21
-0.149270063161112
31
0.000000000000000
  0
LINE
  5
F1065C
330
F1065D
100
AcDbEntity
8
Geo
100
AcDbLine
10
-80.1754775091384
20
-3.53103399920947
30
0.000000000000000
11
-80.0754775091384
21
-3.55161556812339
31
0.000000000000000
  0
LINE
  5
F1065E
330
F1065F
100
AcDbEntity
8
Geo
100
AcDbLine
10
-80.0754775091384
20
-0.149270063161112
30
0.000000000000000
11
-79.9754775091384
21
-0.262132446090298
31
0.000000000000000
  0
LINE
  5
F10660
330
F10661
100
AcDbEntity
8
Geo
100
AcDbLine
10
-80.0754775091384
20
-3.55161556812339
30
0.000000000000000
11
-79.9754775091384
21
-3.56786617042179
31
0.000000000000000
  0
LINE
  5
F10662
330
F10663
100
AcDbEntity
8
Geo
100
AcDbLine
10
-79.9754775091384
20
-0.262132446090298
30
0.000000000000000
11
-79.8754775091384
21
-0.375536569119605
31
0.000000000000000
  0
LINE
  5
F10664
330
F10665
100
AcDbEntity
8
Geo
100
AcDbLine
10
-79.9754775091384
20
-3.56786617042179
30
0.000000000000000
11
-79.8754775091384
21
-3.57976173411036
31
0.000000000000000
  0
LINE
  5
F10666
330
F10667
100
AcDbEntity
8
Geo
100
AcDbLine
10
-79.8754775091384
20
-0.375536569119605
30
0.000000000000000
11
-79.7754775091384
21
-0.489314446881310
31
0.000000000000000
  0
LINE
  5
F10668
330
F10669
100
AcDbEntity
8
Geo
100
AcDbLine
10
-79.8754775091384
20
-3.57976173411036
30
0.000000000000000
11
-79.7754775091384
21
-3.58728463830737
31
0.000000000000000
  0
LINE
  5
F1066A
330
F1066B
100
AcDbEntity
8
Geo
100
AcDbLine
10
-79.7754775091384
20
-0.489314446881310
30
0.000000000000000
11
-79.6754775091384
21
-0.603297540365334
31
0.000000000000000
  0
LINE
  5
F1066C
330
F1066D
100
AcDbEntity
8
Geo
100
AcDbLine
10
-79.7754775091384
20
-3.58728463830737
30
0.000000000000000
11
-79.6754775091384
21
-3.59042373934543
31
0.000000000000000
  0
LINE
  5
F1066E
330
F1066F
100
AcDbEntity
8
Geo
100
AcDbLine
10
-79.6754775091384
20
-0.603297540365334
30
0.000000000000000
11
-79.5754775091384
21
-0.717317006575838
31
0.000000000000000
  0
LINE
  5
F10670
330
F10671
100
AcDbEntity
8
Geo
100
AcDbLine
10
-79.5754775091384
20
-0.717317006575838
30
0.000000000000000
11
-79.4754775091384
21
-0.831203948638111
31
0.000000000000000
  0
LINE
  5
F10672
330
F10673
100
AcDbEntity
8
Geo
100
AcDbLine
10
-79.5754775091384
20
2.33347006323125
30
0.000000000000000
11
-79.4754775091384
21
2.32783410872298
31
0.000000000000000
  0
LINE
  5
F10674
330
F10675
100
AcDbEntity
8
Geo
100
AcDbLine
10
-79.4754775091384
20
-0.831203948638111
30
0.000000000000000
11
-79.3754775091384
21
-0.944789665985279
31
0.000000000000000
  0
LINE
  5
F10676
330
F10677
100
AcDbEntity
8
Geo
100
AcDbLine
10
-79.4754775091384
20
2.32783410872298
30
0.000000000000000
11
-79.3754775091384
21
2.31781990030474
31
0.000000000000000
  0
LINE
  5
F10678
330
F10679
100
AcDbEntity
8
Geo
100
AcDbLine
10
-79.3754775091384
20
-0.944789665985279
30
0.000000000000000
11
-79.2754775091384
21
-1.05790590425422
31
0.000000000000000
  0
LINE
  5
F1067A
330
F1067B
100
AcDbEntity
8
Geo
100
AcDbLine
10
-79.3754775091384
20
2.31781990030474
30
0.000000000000000
11
-79.2754775091384
21
2.30344227200936
31
0.000000000000000
  0
LINE
  5
F1067C
330
F1067D
100
AcDbEntity
8
Geo
100
AcDbLine
10
-79.2754775091384
20
-1.05790590425422
30
0.000000000000000
11
-79.1754775091384
21
-1.17038510452049
31
0.000000000000000
  0
LINE
  5
F1067E
330
F1067F
100
AcDbEntity
8
Geo
100
AcDbLine
10
-79.2754775091384
20
2.30344227200936
30
0.000000000000000
11
-79.1754775091384
21
2.28472252139739
31
0.000000000000000
  0
LINE
  5
F10680
330
F10681
100
AcDbEntity
8
Geo
100
AcDbLine
10
-79.1754775091384
20
-1.17038510452049
30
0.000000000000000
11
-79.0754775091384
21
-1.28206065150316
31
0.000000000000000
  0
LINE
  5
F10682
330
F10683
100
AcDbEntity
8
Geo
100
AcDbLine
10
-79.1754775091384
20
2.28472252139739
30
0.000000000000000
11
-79.0754775091384
21
2.26168837800903
31
0.000000000000000
  0
LINE
  5
F10684
330
F10685
100
AcDbEntity
8
Geo
100
AcDbLine
10
-79.0754775091384
20
-1.28206065150316
30
0.000000000000000
11
-78.9754775091384
21
-1.39276712037178
31
0.000000000000000
  0
LINE
  5
F10686
330
F10687
100
AcDbEntity
8
Geo
100
AcDbLine
10
-79.0754775091384
20
2.26168837800903
30
0.000000000000000
11
-78.9754775091384
21
2.23437396228846
31
0.000000000000000
  0
LINE
  5
F10688
330
F10689
100
AcDbEntity
8
Geo
100
AcDbLine
10
-78.9754775091384
20
-1.39276712037178
30
0.000000000000000
11
-78.8754775091384
21
-1.50234052178993
31
0.000000000000000
  0
LINE
  5
F1068A
330
F1068B
100
AcDbEntity
8
Geo
100
AcDbLine
10
-78.9754775091384
20
2.23437396228846
30
0.000000000000000
11
-78.8754775091384
21
2.20281973504120
31
0.000000000000000
  0
LINE
  5
F1068C
330
F1068D
100
AcDbEntity
8
Geo
100
AcDbLine
10
-78.8754775091384
20
-1.50234052178993
30
0.000000000000000
11
-78.7754775091384
21
-1.61061854483242
31
0.000000000000000
  0
LINE
  5
F1068E
330
F1068F
100
AcDbEntity
8
Geo
100
AcDbLine
10
-78.8754775091384
20
2.20281973504120
30
0.000000000000000
11
-78.7754775091384
21
2.16707243749964
31
0.000000000000000
  0
LINE
  5
F10690
330
F10691
100
AcDbEntity
8
Geo
100
AcDbLine
10
-78.7754775091384
20
-1.61061854483242
30
0.000000000000000
11
-78.6754775091384
21
-1.71744079741622
31
0.000000000000000
  0
LINE
  5
F10692
330
F10693
100
AcDbEntity
8
Geo
100
AcDbLine
10
-78.7754775091384
20
2.16707243749964
30
0.000000000000000
11
-78.6754775091384
21
2.12718502208527
31
0.000000000000000
  0
LINE
  5
F10694
330
F10695
100
AcDbEntity
8
Geo
100
AcDbLine
10
-78.6754775091384
20
-1.71744079741622
30
0.000000000000000
11
-78.5754775091384
21
-1.82264904388903
31
0.000000000000000
  0
LINE
  5
F10696
330
F10697
100
AcDbEntity
8
Geo
100
AcDbLine
10
-78.6754775091384
20
2.12718502208527
30
0.000000000000000
11
-78.5754775091384
21
2.08321657397037
31
0.000000000000000
  0
LINE
  5
F10698
330
F10699
100
AcDbEntity
8
Geo
100
AcDbLine
10
-78.5754775091384
20
-1.82264904388903
30
0.000000000000000
11
-78.4754775091384
21
-1.92608743942352
31
0.000000000000000
  0
LINE
  5
F1069A
330
F1069B
100
AcDbEntity
8
Geo
100
AcDbLine
10
-78.5754775091384
20
2.08321657397037
30
0.000000000000000
11
-78.4754775091384
21
2.03523222355521
31
0.000000000000000
  0
LINE
  5
F1069C
330
F1069D
100
AcDbEntity
8
Geo
100
AcDbLine
10
-78.4754775091384
20
-1.92608743942352
30
0.000000000000000
11
-78.3754775091384
21
-2.02760276087008
31
0.000000000000000
  0
LINE
  5
F1069E
330
F1069F
100
AcDbEntity
8
Geo
100
AcDbLine
10
-78.4754775091384
20
2.03523222355521
30
0.000000000000000
11
-78.3754775091384
21
1.98330304999048
31
0.000000000000000
  0
LINE
  5
F106A0
330
F106A1
100
AcDbEntity
8
Geo
100
AcDbLine
10
-78.3754775091384
20
-2.02760276087008
30
0.000000000000000
11
-78.2754775091384
21
-2.12704463372602
31
0.000000000000000
  0
LINE
  5
F106A2
330
F106A3
100
AcDbEntity
8
Geo
100
AcDbLine
10
-78.3754775091384
20
1.98330304999048
30
0.000000000000000
11
-78.2754775091384
21
1.92750597588783
31
0.000000000000000
  0
LINE
  5
F106A4
330
F106A5
100
AcDbEntity
8
Geo
100
AcDbLine
10
-78.2754775091384
20
-2.12704463372602
30
0.000000000000000
11
-78.1754775091384
21
-2.22426575488515
31
0.000000000000000
  0
LINE
  5
F106A6
330
F106A7
100
AcDbEntity
8
Geo
100
AcDbLine
10
-78.2754775091384
20
1.92750597588783
30
0.000000000000000
11
-78.1754775091384
21
1.86792365337454
31
0.000000000000000
  0
LINE
  5
F106A8
330
F106A9
100
AcDbEntity
8
Geo
100
AcDbLine
10
-78.1754775091384
20
-2.22426575488515
30
0.000000000000000
11
-78.0754775091385
21
-2.31912211083762
31
0.000000000000000
  0
LINE
  5
F106AA
330
F106AB
100
AcDbEntity
8
Geo
100
AcDbLine
10
-78.1754775091384
20
1.86792365337454
30
0.000000000000000
11
-78.0754775091385
21
1.80464434166105
31
0.000000000000000
  0
LINE
  5
F106AC
330
F106AD
100
AcDbEntity
8
Geo
100
AcDbLine
10
-78.0754775091385
20
-2.31912211083762
30
0.000000000000000
11
-77.9754775091384
21
-2.41147319099695
31
0.000000000000000
  0
LINE
  5
F106AE
330
F106AF
100
AcDbEntity
8
Geo
100
AcDbLine
10
-78.0754775091385
20
1.80464434166105
30
0.000000000000000
11
-77.9754775091384
21
1.73776177630266
31
0.000000000000000
  0
LINE
  5
F106B0
330
F106B1
100
AcDbEntity
8
Geo
100
AcDbLine
10
-77.9754775091384
20
-2.41147319099695
30
0.000000000000000
11
-77.8754775091384
21
-2.50118219583818
31
0.000000000000000
  0
LINE
  5
F106B2
330
F106B3
100
AcDbEntity
8
Geo
100
AcDbLine
10
-77.9754775091384
20
1.73776177630266
30
0.000000000000000
11
-77.8754775091384
21
1.66737503034924
31
0.000000000000000
  0
LINE
  5
F106B4
330
F106B5
100
AcDbEntity
8
Geo
100
AcDbLine
10
-77.8754775091384
20
-2.50118219583818
30
0.000000000000000
11
-77.7754775091385
21
-2.58811623953879
31
0.000000000000000
  0
LINE
  5
F106B6
330
F106B7
100
AcDbEntity
8
Geo
100
AcDbLine
10
-77.8754775091384
20
1.66737503034924
30
0.000000000000000
11
-77.7754775091385
21
1.59358836758844
31
0.000000000000000
  0
LINE
  5
F106B8
330
F106B9
100
AcDbEntity
8
Geo
100
AcDbLine
10
-77.7754775091385
20
-2.58811623953879
30
0.000000000000000
11
-77.6754775091384
21
-2.67214654682227
31
0.000000000000000
  0
LINE
  5
F106BA
330
F106BB
100
AcDbEntity
8
Geo
100
AcDbLine
10
-77.7754775091385
20
1.59358836758844
30
0.000000000000000
11
-77.6754775091384
21
1.51651108809988
31
0.000000000000000
  0
LINE
  5
F106BC
330
F106BD
100
AcDbEntity
8
Geo
100
AcDbLine
10
-77.6754775091384
20
-2.67214654682227
30
0.000000000000000
11
-77.5754775091385
21
-2.75314864371281
31
0.000000000000000
  0
LINE
  5
F106BE
330
F106BF
100
AcDbEntity
8
Geo
100
AcDbLine
10
-77.6754775091384
20
1.51651108809988
30
0.000000000000000
11
-77.5754775091385
21
1.43625736634910
31
0.000000000000000
  0
LINE
  5
F106C0
330
F106C1
100
AcDbEntity
8
Geo
100
AcDbLine
10
-77.5754775091385
20
-2.75314864371281
30
0.000000000000000
11
-77.4754775091384
21
-2.83100254191837
31
0.000000000000000
  0
LINE
  5
F106C2
330
F106C3
100
AcDbEntity
8
Geo
100
AcDbLine
10
-77.5754775091385
20
1.43625736634910
30
0.000000000000000
11
-77.4754775091384
21
1.35294608206112
31
0.000000000000000
  0
LINE
  5
F106C4
330
F106C5
100
AcDbEntity
8
Geo
100
AcDbLine
10
-77.4754775091384
20
-2.83100254191837
30
0.000000000000000
11
-77.3754775091384
21
-2.90559291656918
31
0.000000000000000
  0
LINE
  5
F106C6
330
F106C7
100
AcDbEntity
8
Geo
100
AcDbLine
10
-77.4754775091384
20
1.35294608206112
30
0.000000000000000
11
-77.3754775091384
21
1.26670064412399
31
0.000000000000000
  0
LINE
  5
F106C8
330
F106C9
100
AcDbEntity
8
Geo
100
AcDbLine
10
-77.3754775091384
20
-2.90559291656918
30
0.000000000000000
11
-77.2754775091385
21
-2.97680927704833
31
0.000000000000000
  0
LINE
  5
F106CA
330
F106CB
100
AcDbEntity
8
Geo
100
AcDbLine
10
-77.3754775091384
20
1.26670064412399
30
0.000000000000000
11
-77.2754775091385
21
1.17764880778347
31
0.000000000000000
  0
LINE
  5
F106CC
330
F106CD
100
AcDbEntity
8
Geo
100
AcDbLine
10
-77.2754775091385
20
-2.97680927704833
30
0.000000000000000
11
-77.1754775091384
21
-3.04454613066135
31
0.000000000000000
  0
LINE
  5
F106CE
330
F106CF
100
AcDbEntity
8
Geo
100
AcDbLine
10
-77.2754775091385
20
1.17764880778347
30
0.000000000000000
11
-77.1754775091384
21
1.08592248539931
31
0.000000000000000
  0
LINE
  5
F106D0
330
F106D1
100
AcDbEntity
8
Geo
100
AcDbLine
10
-77.1754775091384
20
-3.04454613066135
30
0.000000000000000
11
-77.0754775091385
21
-3.10870313890239
31
0.000000000000000
  0
LINE
  5
F106D2
330
F106D3
100
AcDbEntity
8
Geo
100
AcDbLine
10
-77.1754775091384
20
1.08592248539931
30
0.000000000000000
11
-77.0754775091385
21
0.991657551043664
31
0.000000000000000
  0
LINE
  5
F106D4
330
F106D5
100
AcDbEntity
8
Geo
100
AcDbLine
10
-77.0754775091385
20
-3.10870313890239
30
0.000000000000000
11
-76.9754775091384
21
-3.16918526608549
31
0.000000000000000
  0
LINE
  5
F106D6
330
F106D7
100
AcDbEntity
8
Geo
100
AcDbLine
10
-77.0754775091385
20
0.991657551043664
30
0.000000000000000
11
-76.9754775091384
21
0.894993639231023
31
0.000000000000000
  0
LINE
  5
F106D8
330
F106D9
100
AcDbEntity
8
Geo
100
AcDbLine
10
-76.9754775091384
20
-3.16918526608549
30
0.000000000000000
11
-76.8754775091384
21
-3.22590292012085
31
0.000000000000000
  0
LINE
  5
F106DA
330
F106DB
100
AcDbEntity
8
Geo
100
AcDbLine
10
-76.9754775091384
20
0.894993639231023
30
0.000000000000000
11
-76.8754775091384
21
0.796073938077813
31
0.000000000000000
  0
LINE
  5
F106DC
330
F106DD
100
AcDbEntity
8
Geo
100
AcDbLine
10
-76.8754775091384
20
-3.22590292012085
30
0.000000000000000
11
-76.7754775091385
21
-3.27877208522742
31
0.000000000000000
  0
LINE
  5
F106DE
330
F106DF
100
AcDbEntity
8
Geo
100
AcDbLine
10
-76.8754775091384
20
0.796073938077813
30
0.000000000000000
11
-76.7754775091385
21
0.695044977198030
31
0.000000000000000
  0
LINE
  5
F106E0
330
F106E1
100
AcDbEntity
8
Geo
100
AcDbLine
10
-76.7754775091385
20
-3.27877208522742
30
0.000000000000000
11
-76.6754775091384
21
-3.32771444638540
31
0.000000000000000
  0
LINE
  5
F106E2
330
F106E3
100
AcDbEntity
8
Geo
100
AcDbLine
10
-76.7754775091385
20
0.695044977198030
30
0.000000000000000
11
-76.6754775091384
21
0.592056410649133
31
0.000000000000000
  0
LINE
  5
F106E4
330
F106E5
100
AcDbEntity
8
Geo
100
AcDbLine
10
-76.6754775091384
20
-3.32771444638540
30
0.000000000000000
11
-76.5754775091385
21
-3.37265750534414
31
0.000000000000000
  0
LINE
  5
F106E6
330
F106E7
100
AcDbEntity
8
Geo
100
AcDbLine
10
-76.6754775091384
20
0.592056410649133
30
0.000000000000000
11
-76.5754775091385
21
0.487260795249698
31
0.000000000000000
  0
LINE
  5
F106E8
330
F106E9
100
AcDbEntity
8
Geo
100
AcDbLine
10
-76.5754775091385
20
-3.37265750534414
30
0.000000000000000
11
-76.4754775091385
21
-3.41353468801369
31
0.000000000000000
  0
LINE
  5
F106EA
330
F106EB
100
AcDbEntity
8
Geo
100
AcDbLine
10
-76.5754775091385
20
0.487260795249698
30
0.000000000000000
11
-76.4754775091385
21
0.380813364597218
31
0.000000000000000
  0
LINE
  5
F106EC
330
F106ED
100
AcDbEntity
8
Geo
100
AcDbLine
10
-76.4754775091385
20
-3.41353468801369
30
0.000000000000000
11
-76.3754775091384
21
-3.45028544308095
31
0.000000000000000
  0
LINE
  5
F106EE
330
F106EF
100
AcDbEntity
8
Geo
100
AcDbLine
10
-76.4754775091385
20
0.380813364597218
30
0.000000000000000
11
-76.3754775091384
21
0.272871799120793
31
0.000000000000000
  0
LINE
  5
F106F0
330
F106F1
100
AcDbEntity
8
Geo
100
AcDbLine
10
-76.3754775091384
20
-3.45028544308095
30
0.000000000000000
11
-76.2754775091385
21
-3.48285533170419
31
0.000000000000000
  0
LINE
  5
F106F2
330
F106F3
100
AcDbEntity
8
Geo
100
AcDbLine
10
-76.3754775091384
20
0.272871799120793
30
0.000000000000000
11
-76.2754775091385
21
0.163595992509337
31
0.000000000000000
  0
LINE
  5
F106F4
330
F106F5
100
AcDbEntity
8
Geo
100
AcDbLine
10
-76.2754775091385
20
-3.48285533170419
30
0.000000000000000
11
-76.1754775091385
21
-3.51119610815327
31
0.000000000000000
  0
LINE
  5
F106F6
330
F106F7
100
AcDbEntity
8
Geo
100
AcDbLine
10
-76.2754775091385
20
0.163595992509337
30
0.000000000000000
11
-76.1754775091385
21
0.0531478148612753
31
0.000000000000000
  0
LINE
  5
F106F8
330
F106F9
100
AcDbEntity
8
Geo
100
AcDbLine
10
-76.1754775091385
20
-3.51119610815327
30
0.000000000000000
11
-76.0754775091385
21
-3.53526579127596
31
0.000000000000000
  0
LINE
  5
F106FA
330
F106FB
100
AcDbEntity
8
Geo
100
AcDbLine
10
-76.1754775091385
20
0.0531478148612753
30
0.000000000000000
11
-76.0754775091385
21
-0.0583091270934032
31
0.000000000000000
  0
LINE
  5
F106FC
330
F106FD
100
AcDbEntity
8
Geo
100
AcDbLine
10
-76.0754775091385
20
-3.53526579127596
30
0.000000000000000
11
-75.9754775091385
21
-3.55502872668453
31
0.000000000000000
  0
LINE
  5
F106FE
330
F106FF
100
AcDbEntity
8
Geo
100
AcDbLine
10
-76.0754775091385
20
-0.0583091270934032
30
0.000000000000000
11
-75.9754775091385
21
-0.170609732343559
31
0.000000000000000
  0
LINE
  5
F10700
330
F10701
100
AcDbEntity
8
Geo
100
AcDbLine
10
-75.9754775091385
20
-3.55502872668453
30
0.000000000000000
11
-75.8754775091384
21
-3.57045563957061
31
0.000000000000000
  0
LINE
  5
F10702
330
F10703
100
AcDbEntity
8
Geo
100
AcDbLine
10
-75.9754775091385
20
-0.170609732343559
30
0.000000000000000
11
-75.8754775091384
21
-0.283587650160804
31
0.000000000000000
  0
LINE
  5
F10704
330
F10705
100
AcDbEntity
8
Geo
100
AcDbLine
10
-75.8754775091384
20
-3.57045563957061
30
0.000000000000000
11
-75.7754775091385
21
-3.58152367806987
31
0.000000000000000
  0
LINE
  5
F10706
330
F10707
100
AcDbEntity
8
Geo
100
AcDbLine
10
-75.8754775091384
20
-0.283587650160804
30
0.000000000000000
11
-75.7754775091385
21
-0.397075526514599
31
0.000000000000000
  0
LINE
  5
F10708
330
F10709
100
AcDbEntity
8
Geo
100
AcDbLine
10
-75.7754775091385
20
-3.58152367806987
30
0.000000000000000
11
-75.6754775091385
21
-3.58821644711246
31
0.000000000000000
  0
LINE
  5
F1070A
330
F1070B
100
AcDbEntity
8
Geo
100
AcDbLine
10
-75.7754775091385
20
-0.397075526514599
30
0.000000000000000
11
-75.6754775091385
21
-0.510905251973538
31
0.000000000000000
  0
LINE
  5
F1070C
330
F1070D
100
AcDbEntity
8
Geo
100
AcDbLine
10
-75.6754775091385
20
-3.58821644711246
30
0.000000000000000
11
-75.5754775091385
21
-3.59052403270903
31
0.000000000000000
  0
LINE
  5
F1070E
330
F1070F
100
AcDbEntity
8
Geo
100
AcDbLine
10
-75.6754775091385
20
-0.510905251973538
30
0.000000000000000
11
-75.5754775091385
21
-0.624908210725622
31
0.000000000000000
  0
LINE
  5
F10710
330
F10711
100
AcDbEntity
8
Geo
100
AcDbLine
10
-75.5754775091385
20
-0.624908210725622
30
0.000000000000000
11
-75.4754775091385
21
-0.738915530348617
31
0.000000000000000
  0
LINE
  5
F10712
330
F10713
100
AcDbEntity
8
Geo
100
AcDbLine
10
-75.4754775091385
20
2.33273869258894
30
0.000000000000000
11
-75.3754775091384
21
2.32627215745306
31
0.000000000000000
  0
LINE
  5
F10714
330
F10715
100
AcDbEntity
8
Geo
100
AcDbLine
10
-75.4754775091385
20
-0.738915530348617
30
0.000000000000000
11
-75.3754775091384
21
-0.852758331960538
31
0.000000000000000
  0
LINE
  5
F10716
330
F10717
100
AcDbEntity
8
Geo
100
AcDbLine
10
-75.3754775091384
20
2.32627215745306
30
0.000000000000000
11
-75.2754775091385
21
2.31542968212343
31
0.000000000000000
  0
LINE
  5
F10718
330
F10719
100
AcDbEntity
8
Geo
100
AcDbLine
10
-75.3754775091384
20
-0.852758331960538
30
0.000000000000000
11
-75.2754775091385
21
-0.966267980379700
31
0.000000000000000
  0
LINE
  5
F1071A
330
F1071B
100
AcDbEntity
8
Geo
100
AcDbLine
10
-75.2754775091385
20
2.31542968212343
30
0.000000000000000
11
-75.1754775091385
21
2.30022732754348
31
0.000000000000000
  0
LINE
  5
F1071C
330
F1071D
100
AcDbEntity
8
Geo
100
AcDbLine
10
-75.2754775091385
20
-0.966267980379700
30
0.000000000000000
11
-75.1754775091385
21
-1.07927633392376
31
0.000000000000000
  0
LINE
  5
F1071E
330
F1071F
100
AcDbEntity
8
Geo
100
AcDbLine
10
-75.1754775091385
20
2.30022732754348
30
0.000000000000000
11
-75.0754775091385
21
2.28068761293965
31
0.000000000000000
  0
LINE
  5
F10720
330
F10721
100
AcDbEntity
8
Geo
100
AcDbLine
10
-75.1754775091385
20
-1.07927633392376
30
0.000000000000000
11
-75.0754775091385
21
-1.19161599347780
31
0.000000000000000
  0
LINE
  5
F10722
330
F10723
100
AcDbEntity
8
Geo
100
AcDbLine
10
-75.0754775091385
20
2.28068761293965
30
0.000000000000000
11
-74.9754775091385
21
2.25683948246366
31
0.000000000000000
  0
LINE
  5
F10724
330
F10725
100
AcDbEntity
8
Geo
100
AcDbLine
10
-75.0754775091385
20
-1.19161599347780
30
0.000000000000000
11
-74.9754775091385
21
-1.30312055046232
31
0.000000000000000
  0
LINE
  5
F10726
330
F10727
100
AcDbEntity
8
Geo
100
AcDbLine
10
-74.9754775091385
20
2.25683948246366
30
0.000000000000000
11
-74.8754775091385
21
2.22871826231758
31
0.000000000000000
  0
LINE
  5
F10728
330
F10729
100
AcDbEntity
8
Geo
100
AcDbLine
10
-74.9754775091385
20
-1.30312055046232
30
0.000000000000000
11
-74.8754775091385
21
-1.41362483333412
31
0.000000000000000
  0
LINE
  5
F1072A
330
F1072B
100
AcDbEntity
8
Geo
100
AcDbLine
10
-74.8754775091385
20
2.22871826231758
30
0.000000000000000
11
-74.7754775091385
21
2.19636560842523
31
0.000000000000000
  0
LINE
  5
F1072C
330
F1072D
100
AcDbEntity
8
Geo
100
AcDbLine
10
-74.8754775091385
20
-1.41362483333412
30
0.000000000000000
11
-74.7754775091385
21
-1.52296515225462
31
0.000000000000000
  0
LINE
  5
F1072E
330
F1072F
100
AcDbEntity
8
Geo
100
AcDbLine
10
-74.7754775091385
20
2.19636560842523
30
0.000000000000000
11
-74.6754775091385
21
2.15982944472723
31
0.000000000000000
  0
LINE
  5
F10730
330
F10731
100
AcDbEntity
8
Geo
100
AcDbLine
10
-74.7754775091385
20
-1.52296515225462
30
0.000000000000000
11
-74.6754775091385
21
-1.63097954156339
31
0.000000000000000
  0
LINE
  5
F10732
330
F10733
100
AcDbEntity
8
Geo
100
AcDbLine
10
-74.6754775091385
20
2.15982944472723
30
0.000000000000000
11
-74.5754775091385
21
2.11916389219143
31
0.000000000000000
  0
LINE
  5
F10734
330
F10735
100
AcDbEntity
8
Geo
100
AcDbLine
10
-74.6754775091385
20
-1.63097954156339
30
0.000000000000000
11
-74.5754775091385
21
-1.73750799969770
31
0.000000000000000
  0
LINE
  5
F10736
330
F10737
100
AcDbEntity
8
Geo
100
AcDbLine
10
-74.5754775091385
20
2.11916389219143
30
0.000000000000000
11
-74.4754775091385
21
2.07442918864351
31
0.000000000000000
  0
LINE
  5
F10738
330
F10739
100
AcDbEntity
8
Geo
100
AcDbLine
10
-74.5754775091385
20
-1.73750799969770
30
0.000000000000000
11
-74.4754775091385
21
-1.84239272620254
31
0.000000000000000
  0
LINE
  5
F1073A
330
F1073B
100
AcDbEntity
8
Geo
100
AcDbLine
10
-74.4754775091385
20
2.07442918864351
30
0.000000000000000
11
-74.3754775091385
21
2.02569159953683
31
0.000000000000000
  0
LINE
  5
F1073C
330
F1073D
100
AcDbEntity
8
Geo
100
AcDbLine
10
-74.4754775091385
20
-1.84239272620254
30
0.000000000000000
11
-74.3754775091385
21
-1.94547835548026
31
0.000000000000000
  0
LINE
  5
F1073E
330
F1073F
100
AcDbEntity
8
Geo
100
AcDbLine
10
-74.3754775091385
20
2.02569159953683
30
0.000000000000000
11
-74.2754775091385
21
1.97302331979350
31
0.000000000000000
  0
LINE
  5
F10740
330
F10741
100
AcDbEntity
8
Geo
100
AcDbLine
10
-74.3754775091385
20
-1.94547835548026
30
0.000000000000000
11
-74.2754775091385
21
-2.04661218693340
31
0.000000000000000
  0
LINE
  5
F10742
330
F10743
100
AcDbEntity
8
Geo
100
AcDbLine
10
-74.2754775091385
20
1.97302331979350
30
0.000000000000000
11
-74.1754775091385
21
1.91650236686211
31
0.000000000000000
  0
LINE
  5
F10744
330
F10745
100
AcDbEntity
8
Geo
100
AcDbLine
10
-74.2754775091385
20
-2.04661218693340
30
0.000000000000000
11
-74.1754775091385
21
-2.14564441115988
31
0.000000000000000
  0
LINE
  5
F10746
330
F10747
100
AcDbEntity
8
Geo
100
AcDbLine
10
-74.1754775091385
20
1.91650236686211
30
0.000000000000000
11
-74.0754775091385
21
1.85621246515065
31
0.000000000000000
  0
LINE
  5
F10748
330
F10749
100
AcDbEntity
8
Geo
100
AcDbLine
10
-74.1754775091385
20
-2.14564441115988
30
0.000000000000000
11
-74.0754775091385
21
-2.24242833186542
31
0.000000000000000
  0
LINE
  5
F1074A
330
F1074B
100
AcDbEntity
8
Geo
100
AcDbLine
10
-74.0754775091385
20
1.85621246515065
30
0.000000000000000
11
-73.9754775091385
21
1.79224292200560
31
0.000000000000000
  0
LINE
  5
F1074C
330
F1074D
100
AcDbEntity
8
Geo
100
AcDbLine
10
-74.0754775091385
20
-2.24242833186542
30
0.000000000000000
11
-73.9754775091385
21
-2.33682058316460
31
0.000000000000000
  0
LINE
  5
F1074E
330
F1074F
100
AcDbEntity
8
Geo
100
AcDbLine
10
-73.9754775091385
20
1.79224292200560
30
0.000000000000000
11
-73.8754775091385
21
1.72468849542112
31
0.000000000000000
  0
LINE
  5
F10750
330
F10751
100
AcDbEntity
8
Geo
100
AcDbLine
10
-73.9754775091385
20
-2.33682058316460
30
0.000000000000000
11
-73.8754775091385
21
-2.42868134194852
31
0.000000000000000
  0
LINE
  5
F10752
330
F10753
100
AcDbEntity
8
Geo
100
AcDbLine
10
-73.8754775091385
20
1.72468849542112
30
0.000000000000000
11
-73.7754775091385
21
1.65364925367416
31
0.000000000000000
  0
LINE
  5
F10754
330
F10755
100
AcDbEntity
8
Geo
100
AcDbLine
10
-73.8754775091385
20
-2.42868134194852
30
0.000000000000000
11
-73.7754775091385
21
-2.51787453500457
31
0.000000000000000
  0
LINE
  5
F10756
330
F10757
100
AcDbEntity
8
Geo
100
AcDbLine
10
-73.7754775091385
20
1.65364925367416
30
0.000000000000000
11
-73.6754775091385
21
1.57923042709348
31
0.000000000000000
  0
LINE
  5
F10758
330
F10759
100
AcDbEntity
8
Geo
100
AcDbLine
10
-73.7754775091385
20
-2.51787453500457
30
0.000000000000000
11
-73.6754775091385
21
-2.60426804058149
31
0.000000000000000
  0
LINE
  5
F1075A
330
F1075B
100
AcDbEntity
8
Geo
100
AcDbLine
10
-73.6754775091385
20
1.57923042709348
30
0.000000000000000
11
-73.5754775091385
21
1.50154225218208
31
0.000000000000000
  0
LINE
  5
F1075C
330
F1075D
100
AcDbEntity
8
Geo
100
AcDbLine
10
-73.6754775091385
20
-2.60426804058149
30
0.000000000000000
11
-73.5754775091385
21
-2.68773388410116
31
0.000000000000000
  0
LINE
  5
F1075E
330
F1075F
100
AcDbEntity
8
Geo
100
AcDbLine
10
-73.5754775091385
20
1.50154225218208
30
0.000000000000000
11
-73.4754775091385
21
1.42069980832402
31
0.000000000000000
  0
LINE
  5
F10760
330
F10761
100
AcDbEntity
8
Geo
100
AcDbLine
10
-73.5754775091385
20
-2.68773388410116
30
0.000000000000000
11
-73.4754775091385
21
-2.76814842772712
31
0.000000000000000
  0
LINE
  5
F10762
330
F10763
100
AcDbEntity
8
Geo
100
AcDbLine
10
-73.4754775091385
20
1.42069980832402
30
0.000000000000000
11
-73.3754775091385
21
1.33682284731755
31
0.000000000000000
  0
LINE
  5
F10764
330
F10765
100
AcDbEntity
8
Geo
100
AcDbLine
10
-73.4754775091385
20
-2.76814842772712
30
0.000000000000000
11
-73.3754775091385
21
-2.84539255350917
31
0.000000000000000
  0
LINE
  5
F10766
330
F10767
100
AcDbEntity
8
Geo
100
AcDbLine
10
-73.3754775091385
20
1.33682284731755
30
0.000000000000000
11
-73.2754775091385
21
1.25003561598685
31
0.000000000000000
  0
LINE
  5
F10768
330
F10769
100
AcDbEntity
8
Geo
100
AcDbLine
10
-73.3754775091385
20
-2.84539255350917
30
0.000000000000000
11
-73.2754775091385
21
-2.91935183983257
31
0.000000000000000
  0
LINE
  5
F1076A
330
F1076B
100
AcDbEntity
8
Geo
100
AcDbLine
10
-73.2754775091385
20
1.25003561598685
30
0.000000000000000
11
-73.1754775091385
21
1.16046667213547
31
0.000000000000000
  0
LINE
  5
F1076C
330
F1076D
100
AcDbEntity
8
Geo
100
AcDbLine
10
-73.2754775091385
20
-2.91935183983257
30
0.000000000000000
11
-73.1754775091385
21
-2.98991673091066
31
0.000000000000000
  0
LINE
  5
F1076E
330
F1076F
100
AcDbEntity
8
Geo
100
AcDbLine
10
-73.1754775091385
20
1.16046667213547
30
0.000000000000000
11
-73.0754775091385
21
1.06824869411377
31
0.000000000000000
  0
LINE
  5
F10770
330
F10771
100
AcDbEntity
8
Geo
100
AcDbLine
10
-73.1754775091385
20
-2.98991673091066
30
0.000000000000000
11
-73.0754775091385
21
-3.05698269906967
31
0.000000000000000
  0
LINE
  5
F10772
330
F10773
100
AcDbEntity
8
Geo
100
AcDbLine
10
-73.0754775091385
20
1.06824869411377
30
0.000000000000000
11
-72.9754775091385
21
0.973518284282735
31
0.000000000000000
  0
LINE
  5
F10774
330
F10775
100
AcDbEntity
8
Geo
100
AcDbLine
10
-73.0754775091385
20
-3.05698269906967
30
0.000000000000000
11
-72.9754775091385
21
-3.12045039958543
31
0.000000000000000
  0
LINE
  5
F10776
330
F10777
100
AcDbEntity
8
Geo
100
AcDbLine
10
-72.9754775091385
20
0.973518284282735
30
0.000000000000000
11
-72.8754775091385
21
0.876415766665009
31
0.000000000000000
  0
LINE
  5
F10778
330
F10779
100
AcDbEntity
8
Geo
100
AcDbLine
10
-72.9754775091385
20
-3.12045039958543
30
0.000000000000000
11
-72.8754775091385
21
-3.18022581784255
31
0.000000000000000
  0
LINE
  5
F1077A
330
F1077B
100
AcDbEntity
8
Geo
100
AcDbLine
10
-72.8754775091385
20
0.876415766665009
30
0.000000000000000
11
-72.7754775091385
21
0.777084979083178
31
0.000000000000000
  0
LINE
  5
F1077C
330
F1077D
100
AcDbEntity
8
Geo
100
AcDbLine
10
-72.8754775091385
20
-3.18022581784255
30
0.000000000000000
11
-72.7754775091385
21
-3.23622040859816
31
0.000000000000000
  0
LINE
  5
F1077E
330
F1077F
100
AcDbEntity
8
Geo
100
AcDbLine
10
-72.7754775091385
20
0.777084979083178
30
0.000000000000000
11
-72.6754775091385
21
0.675673060092990
31
0.000000000000000
  0
LINE
  5
F10780
330
F10781
100
AcDbEntity
8
Geo
100
AcDbLine
10
-72.7754775091385
20
-3.23622040859816
30
0.000000000000000
11
-72.6754775091385
21
-3.28835122714383
31
0.000000000000000
  0
LINE
  5
F10782
330
F10783
100
AcDbEntity
8
Geo
100
AcDbLine
10
-72.6754775091385
20
0.675673060092990
30
0.000000000000000
11
-72.5754775091385
21
0.572330231027210
31
0.000000000000000
  0
LINE
  5
F10784
330
F10785
100
AcDbEntity
8
Geo
100
AcDbLine
10
-72.6754775091385
20
-3.28835122714383
30
0.000000000000000
11
-72.5754775091385
21
-3.33654105217149
31
0.000000000000000
  0
LINE
  5
F10786
330
F10787
100
AcDbEntity
8
Geo
100
AcDbLine
10
-72.5754775091385
20
0.572330231027210
30
0.000000000000000
11
-72.4754775091385
21
0.467209573472984
31
0.000000000000000
  0
LINE
  5
F10788
330
F10789
100
AcDbEntity
8
Geo
100
AcDbLine
10
-72.5754775091385
20
-3.33654105217149
30
0.000000000000000
11
-72.4754775091385
21
-3.38071850016118
31
0.000000000000000
  0
LINE
  5
F1078A
330
F1078B
100
AcDbEntity
8
Geo
100
AcDbLine
10
-72.4754775091385
20
0.467209573472984
30
0.000000000000000
11
-72.3754775091385
21
0.360466802512289
31
0.000000000000000
  0
LINE
  5
F1078C
330
F1078D
100
AcDbEntity
8
Geo
100
AcDbLine
10
-72.4754775091385
20
-3.38071850016118
30
0.000000000000000
11
-72.3754775091385
21
-3.42081813112142
31
0.000000000000000
  0
LINE
  5
F1078E
330
F1078F
100
AcDbEntity
8
Geo
100
AcDbLine
10
-72.3754775091385
20
0.360466802512289
30
0.000000000000000
11
-72.2754775091385
21
0.252260036061411
31
0.000000000000000
  0
LINE
  5
F10790
330
F10791
100
AcDbEntity
8
Geo
100
AcDbLine
10
-72.3754775091385
20
-3.42081813112142
30
0.000000000000000
11
-72.2754775091385
21
-3.45678054552534
31
0.000000000000000
  0
LINE
  5
F10792
330
F10793
100
AcDbEntity
8
Geo
100
AcDbLine
10
-72.2754775091385
20
0.252260036061411
30
0.000000000000000
11
-72.1754775091385
21
0.142749560651089
31
0.000000000000000
  0
LINE
  5
F10794
330
F10795
100
AcDbEntity
8
Geo
100
AcDbLine
10
-72.2754775091385
20
-3.45678054552534
30
0.000000000000000
11
-72.1754775091385
21
-3.48855247229915
31
0.000000000000000
  0
LINE
  5
F10796
330
F10797
100
AcDbEntity
8
Geo
100
AcDbLine
10
-72.1754775091385
20
0.142749560651089
30
0.000000000000000
11
-72.0754775091385
21
0.0320975939943070
31
0.000000000000000
  0
LINE
  5
F10798
330
F10799
100
AcDbEntity
8
Geo
100
AcDbLine
10
-72.1754775091385
20
-3.48855247229915
30
0.000000000000000
11
-72.0754775091385
21
-3.51608684773246
31
0.000000000000000
  0
LINE
  5
F1079A
330
F1079B
100
AcDbEntity
8
Geo
100
AcDbLine
10
-72.0754775091385
20
0.0320975939943070
30
0.000000000000000
11
-71.9754775091385
21
-0.0795319553065632
31
0.000000000000000
  0
LINE
  5
F1079C
330
F1079D
100
AcDbEntity
8
Geo
100
AcDbLine
10
-72.0754775091385
20
-3.51608684773246
30
0.000000000000000
11
-71.9754775091385
21
-3.53934288519372
31
0.000000000000000
  0
LINE
  5
F1079E
330
F1079F
100
AcDbEntity
8
Geo
100
AcDbLine
10
-71.9754775091385
20
-0.0795319553065632
30
0.000000000000000
11
-71.8754775091385
21
-0.191973730557370
31
0.000000000000000
  0
LINE
  5
F107A0
330
F107A1
100
AcDbEntity
8
Geo
100
AcDbLine
10
-71.9754775091385
20
-3.53934288519372
30
0.000000000000000
11
-71.8754775091385
21
-3.55828613554739
31
0.000000000000000
  0
LINE
  5
F107A2
330
F107A3
100
AcDbEntity
8
Geo
100
AcDbLine
10
-71.8754775091385
20
-0.191973730557370
30
0.000000000000000
11
-71.7754775091385
21
-0.305061171914801
31
0.000000000000000
  0
LINE
  5
F107A4
330
F107A5
100
AcDbEntity
8
Geo
100
AcDbLine
10
-71.8754775091385
20
-3.55828613554739
30
0.000000000000000
11
-71.7754775091385
21
-3.57288853818341
31
0.000000000000000
  0
LINE
  5
F107A6
330
F107A7
100
AcDbEntity
8
Geo
100
AcDbLine
10
-71.7754775091385
20
-0.305061171914801
30
0.000000000000000
11
-71.6754775091385
21
-0.418626763111250
31
0.000000000000000
  0
LINE
  5
F107A8
330
F107A9
100
AcDbEntity
8
Geo
100
AcDbLine
10
-71.7754775091385
20
-3.57288853818341
30
0.000000000000000
11
-71.6754775091385
21
-3.58312846258331
31
0.000000000000000
  0
LINE
  5
F107AA
330
F107AB
100
AcDbEntity
8
Geo
100
AcDbLine
10
-71.6754775091385
20
-0.418626763111250
30
0.000000000000000
11
-71.5754775091385
21
-0.532502279596428
31
0.000000000000000
  0
LINE
  5
F107AC
330
F107AD
100
AcDbEntity
8
Geo
100
AcDbLine
10
-71.6754775091385
20
-3.58312846258331
30
0.000000000000000
11
-71.5754775091385
21
-3.58899074036151
31
0.000000000000000
  0
LINE
  5
F107AE
330
F107AF
100
AcDbEntity
8
Geo
100
AcDbLine
10
-71.5754775091385
20
-0.532502279596428
30
0.000000000000000
11
-71.4754775091385
21
-0.646519037728152
31
0.000000000000000
  0
LINE
  5
F107B0
330
F107B1
100
AcDbEntity
8
Geo
100
AcDbLine
10
-71.4754775091385
20
2.33476236368685
30
0.000000000000000
11
-71.3754775091385
21
2.33184979433524
31
0.000000000000000
  0
LINE
  5
F107B2
330
F107B3
100
AcDbEntity
8
Geo
100
AcDbLine
10
-71.4754775091385
20
-0.646519037728152
30
0.000000000000000
11
-71.3754775091385
21
-0.760508144643185
31
0.000000000000000
  0
LINE
  5
F107B4
330
F107B5
100
AcDbEntity
8
Geo
100
AcDbLine
10
-71.3754775091385
20
2.33184979433524
30
0.000000000000000
11
-71.2754775091385
21
2.32455302264423
31
0.000000000000000
  0
LINE
  5
F107B6
330
F107B7
100
AcDbEntity
8
Geo
100
AcDbLine
10
-71.3754775091385
20
-0.760508144643185
30
0.000000000000000
11
-71.2754775091385
21
-0.874300748438001
31
0.000000000000000
  0
LINE
  5
F107B8
330
F107B9
100
AcDbEntity
8
Geo
100
AcDbLine
10
-71.2754775091385
20
2.32455302264423
30
0.000000000000000
11
-71.1754775091385
21
2.31288285731144
31
0.000000000000000
  0
LINE
  5
F107BA
330
F107BB
100
AcDbEntity
8
Geo
100
AcDbLine
10
-71.2754775091385
20
-0.874300748438001
30
0.000000000000000
11
-71.1754775091385
21
-0.987728288288869
31
0.000000000000000
  0
LINE
  5
F107BC
330
F107BD
100
AcDbEntity
8
Geo
100
AcDbLine
10
-71.1754775091385
20
2.31288285731144
30
0.000000000000000
11
-71.0754775091385
21
2.29685658533634
31
0.000000000000000
  0
LINE
  5
F107BE
330
F107BF
100
AcDbEntity
8
Geo
100
AcDbLine
10
-71.1754775091385
20
-0.987728288288869
30
0.000000000000000
11
-71.0754775091385
21
-1.10062274414076
31
0.000000000000000
  0
LINE
  5
F107C0
330
F107C1
100
AcDbEntity
8
Geo
100
AcDbLine
10
-71.0754775091385
20
2.29685658533634
30
0.000000000000000
11
-70.9754775091385
21
2.27649794641304
31
0.000000000000000
  0
LINE
  5
F107C2
330
F107C3
100
AcDbEntity
8
Geo
100
AcDbLine
10
-71.0754775091385
20
-1.10062274414076
30
0.000000000000000
11
-70.9754775091385
21
-1.21281688559523
31
0.000000000000000
  0
LINE
  5
F107C4
330
F107C5
100
AcDbEntity
8
Geo
100
AcDbLine
10
-70.9754775091385
20
2.27649794641304
30
0.000000000000000
11
-70.8754775091385
21
2.25183709776470
31
0.000000000000000
  0
LINE
  5
F107C6
330
F107C7
100
AcDbEntity
8
Geo
100
AcDbLine
10
-70.9754775091385
20
-1.21281688559523
30
0.000000000000000
11
-70.8754775091385
21
-1.32414451962856
31
0.000000000000000
  0
LINE
  5
F107C8
330
F107C9
100
AcDbEntity
8
Geo
100
AcDbLine
10
-70.8754775091385
20
2.25183709776470
30
0.000000000000000
11
-70.7754775091385
21
2.22291056947170
31
0.000000000000000
  0
LINE
  5
F107CA
330
F107CB
100
AcDbEntity
8
Geo
100
AcDbLine
10
-70.8754775091385
20
-1.32414451962856
30
0.000000000000000
11
-70.7754775091385
21
-1.43444073677325
31
0.000000000000000
  0
LINE
  5
F107CC
330
F107CD
100
AcDbEntity
8
Geo
100
AcDbLine
10
-70.7754775091385
20
2.22291056947170
30
0.000000000000000
11
-70.6754775091385
21
2.18976121035964
31
0.000000000000000
  0
LINE
  5
F107CE
330
F107CF
100
AcDbEntity
8
Geo
100
AcDbLine
10
-70.7754775091385
20
-1.43444073677325
30
0.000000000000000
11
-70.6754775091385
21
-1.54354215539819
31
0.000000000000000
  0
LINE
  5
F107D0
330
F107D1
100
AcDbEntity
8
Geo
100
AcDbLine
10
-70.6754775091385
20
2.18976121035964
30
0.000000000000000
11
-70.5754775091385
21
2.15243812452750
31
0.000000000000000
  0
LINE
  5
F107D2
330
F107D3
100
AcDbEntity
8
Geo
100
AcDbLine
10
-70.6754775091385
20
-1.54354215539819
30
0.000000000000000
11
-70.5754775091385
21
-1.65128716372564
31
0.000000000000000
  0
LINE
  5
F107D4
330
F107D5
100
AcDbEntity
8
Geo
100
AcDbLine
10
-70.5754775091385
20
2.15243812452750
30
0.000000000000000
11
-70.4754775091385
21
2.11099659860974
31
0.000000000000000
  0
LINE
  5
F107D6
330
F107D7
100
AcDbEntity
8
Geo
100
AcDbLine
10
-70.5754775091385
20
-1.65128716372564
30
0.000000000000000
11
-70.4754775091385
21
-1.75751615922650
31
0.000000000000000
  0
LINE
  5
F107D8
330
F107D9
100
AcDbEntity
8
Geo
100
AcDbLine
10
-70.4754775091385
20
2.11099659860974
30
0.000000000000000
11
-70.3754775091385
21
2.06549801988036
31
0.000000000000000
  0
LINE
  5
F107DA
330
F107DB
100
AcDbEntity
8
Geo
100
AcDbLine
10
-70.4754775091385
20
-1.75751615922650
30
0.000000000000000
11
-70.3754775091385
21
-1.86207178503937
31
0.000000000000000
  0
LINE
  5
F107DC
330
F107DD
100
AcDbEntity
8
Geo
100
AcDbLine
10
-70.3754775091385
20
2.06549801988036
30
0.000000000000000
11
-70.2754775091385
21
2.01600978531992
31
0.000000000000000
  0
LINE
  5
F107DE
330
F107DF
100
AcDbEntity
8
Geo
100
AcDbLine
10
-70.3754775091385
20
-1.86207178503937
30
0.000000000000000
11
-70.2754775091385
21
-1.96479916306299
31
0.000000000000000
  0
LINE
  5
F107E0
330
F107E1
100
AcDbEntity
8
Geo
100
AcDbLine
10
-70.2754775091385
20
2.01600978531992
30
0.000000000000000
11
-70.1754775091385
21
1.96260520178059
31
0.000000000000000
  0
LINE
  5
F107E2
330
F107E3
100
AcDbEntity
8
Geo
100
AcDbLine
10
-70.2754775091385
20
-1.96479916306299
30
0.000000000000000
11
-70.1754775091385
21
-2.06554612337697
31
0.000000000000000
  0
LINE
  5
F107E4
330
F107E5
100
AcDbEntity
8
Geo
100
AcDbLine
10
-70.1754775091385
20
1.96260520178059
30
0.000000000000000
11
-70.0754775091385
21
1.90536337739676
31
0.000000000000000
  0
LINE
  5
F107E6
330
F107E7
100
AcDbEntity
8
Geo
100
AcDbLine
10
-70.1754775091385
20
-2.06554612337697
30
0.000000000000000
11
-70.0754775091385
21
-2.16416342965089
31
0.000000000000000
  0
LINE
  5
F107E8
330
F107E9
100
AcDbEntity
8
Geo
100
AcDbLine
10
-70.0754775091385
20
1.90536337739676
30
0.000000000000000
11
-69.9754775091385
21
1.84436910440224
31
0.000000000000000
  0
LINE
  5
F107EA
330
F107EB
100
AcDbEntity
8
Geo
100
AcDbLine
10
-70.0754775091385
20
-2.16416342965089
30
0.000000000000000
11
-69.9754775091385
21
-2.26050500020787
31
0.000000000000000
  0
LINE
  5
F107EC
330
F107ED
100
AcDbEntity
8
Geo
100
AcDbLine
10
-69.9754775091385
20
1.84436910440224
30
0.000000000000000
11
-69.8754775091385
21
1.77971273352774
31
0.000000000000000
  0
LINE
  5
F107EE
330
F107EF
100
AcDbEntity
8
Geo
100
AcDbLine
10
-69.9754775091385
20
-2.26050500020787
30
0.000000000000000
11
-69.8754775091385
21
-2.35442812441514
31
0.000000000000000
  0
LINE
  5
F107F0
330
F107F1
100
AcDbEntity
8
Geo
100
AcDbLine
10
-69.8754775091385
20
1.77971273352774
30
0.000000000000000
11
-69.7754775091385
21
1.71149004016435
31
0.000000000000000
  0
LINE
  5
F107F2
330
F107F3
100
AcDbEntity
8
Geo
100
AcDbLine
10
-69.8754775091385
20
-2.35442812441514
30
0.000000000000000
11
-69.7754775091385
21
-2.44579367408108
31
0.000000000000000
  0
LINE
  5
F107F4
330
F107F5
100
AcDbEntity
8
Geo
100
AcDbLine
10
-69.7754775091385
20
1.71149004016435
30
0.000000000000000
11
-69.6754775091385
21
1.63980208249167
31
0.000000000000000
  0
LINE
  5
F107F6
330
F107F7
100
AcDbEntity
8
Geo
100
AcDbLine
10
-69.7754775091385
20
-2.44579367408108
30
0.000000000000000
11
-69.6754775091385
21
-2.53446630954566
31
0.000000000000000
  0
LINE
  5
F107F8
330
F107F9
100
AcDbEntity
8
Geo
100
AcDbLine
10
-69.6754775091385
20
1.63980208249167
30
0.000000000000000
11
-69.5754775091385
21
1.56475505178044
31
0.000000000000000
  0
LINE
  5
F107FA
330
F107FB
100
AcDbEntity
8
Geo
100
AcDbLine
10
-69.6754775091385
20
-2.53446630954566
30
0.000000000000000
11
-69.5754775091385
21
-2.62031468015887
31
0.000000000000000
  0
LINE
  5
F107FC
330
F107FD
100
AcDbEntity
8
Geo
100
AcDbLine
10
-69.5754775091385
20
1.56475505178044
30
0.000000000000000
11
-69.4754775091385
21
1.48646011509154
31
0.000000000000000
  0
LINE
  5
F107FE
330
F107FF
100
AcDbEntity
8
Geo
100
AcDbLine
10
-69.5754775091385
20
-2.62031468015887
30
0.000000000000000
11
-69.4754775091385
21
-2.70321161885021
31
0.000000000000000
  0
LINE
  5
F10800
330
F10801
100
AcDbEntity
8
Geo
100
AcDbLine
10
-69.4754775091385
20
1.48646011509154
30
0.000000000000000
11
-69.3754775091385
21
1.40503325060442
31
0.000000000000000
  0
LINE
  5
F10802
330
F10803
100
AcDbEntity
8
Geo
100
AcDbLine
10
-69.4754775091385
20
-2.70321161885021
30
0.000000000000000
11
-69.3754775091385
21
-2.78303433050117
31
0.000000000000000
  0
LINE
  5
F10804
330
F10805
100
AcDbEntity
8
Geo
100
AcDbLine
10
-69.3754775091385
20
1.40503325060442
30
0.000000000000000
11
-69.2754775091385
21
1.32059507581877
31
0.000000000000000
  0
LINE
  5
F10806
330
F10807
100
AcDbEntity
8
Geo
100
AcDbLine
10
-69.3754775091385
20
-2.78303433050117
30
0.000000000000000
11
-69.2754775091385
21
-2.85966457384139
31
0.000000000000000
  0
LINE
  5
F10808
330
F10809
100
AcDbEntity
8
Geo
100
AcDbLine
10
-69.2754775091385
20
1.32059507581877
30
0.000000000000000
11
-69.1754775091385
21
1.23327066888396
31
0.000000000000000
  0
LINE
  5
F1080A
330
F1080B
100
AcDbEntity
8
Geo
100
AcDbLine
10
-69.2754775091385
20
-2.85966457384139
30
0.000000000000000
11
-69.1754775091385
21
-2.93298883659935
31
0.000000000000000
  0
LINE
  5
F1080C
330
F1080D
100
AcDbEntity
8
Geo
100
AcDbLine
10
-69.1754775091385
20
1.23327066888396
30
0.000000000000000
11
-69.0754775091385
21
1.14318938332099
31
0.000000000000000
  0
LINE
  5
F1080E
330
F1080F
100
AcDbEntity
8
Geo
100
AcDbLine
10
-69.1754775091385
20
-2.93298883659935
30
0.000000000000000
11
-69.0754775091385
21
-3.00289850364790
31
0.000000000000000
  0
LINE
  5
F10810
330
F10811
100
AcDbEntity
8
Geo
100
AcDbLine
10
-69.0754775091385
20
1.14318938332099
30
0.000000000000000
11
-68.9754775091385
21
1.05048465641131
31
0.000000000000000
  0
LINE
  5
F10812
330
F10813
100
AcDbEntity
8
Geo
100
AcDbLine
10
-69.0754775091385
20
-3.00289850364790
30
0.000000000000000
11
-68.9754775091385
21
-3.06929001789570
31
0.000000000000000
  0
LINE
  5
F10814
330
F10815
100
AcDbEntity
8
Geo
100
AcDbLine
10
-68.9754775091385
20
1.05048465641131
30
0.000000000000000
11
-68.8754775091385
21
0.955293811536305
31
0.000000000000000
  0
LINE
  5
F10816
330
F10817
100
AcDbEntity
8
Geo
100
AcDbLine
10
-68.9754775091385
20
-3.06929001789570
30
0.000000000000000
11
-68.8754775091385
21
-3.13206503368620
31
0.000000000000000
  0
LINE
  5
F10818
330
F10819
100
AcDbEntity
8
Geo
100
AcDbLine
10
-68.8754775091385
20
0.955293811536305
30
0.000000000000000
11
-68.7754775091385
21
0.857757854760425
31
0.000000000000000
  0
LINE
  5
F1081A
330
F1081B
100
AcDbEntity
8
Geo
100
AcDbLine
10
-68.8754775091385
20
-3.13206503368620
30
0.000000000000000
11
-68.7754775091385
21
-3.19113056247693
31
0.000000000000000
  0
LINE
  5
F1081C
330
F1081D
100
AcDbEntity
8
Geo
100
AcDbLine
10
-68.7754775091385
20
0.857757854760425
30
0.000000000000000
11
-68.6754775091385
21
0.758021265959067
31
0.000000000000000
  0
LINE
  5
F1081E
330
F1081F
100
AcDbEntity
8
Geo
100
AcDbLine
10
-68.7754775091385
20
-3.19113056247693
30
0.000000000000000
11
-68.6754775091385
21
-3.24639911058328
31
0.000000000000000
  0
LINE
  5
F10820
330
F10821
100
AcDbEntity
8
Geo
100
AcDbLine
10
-68.6754775091385
20
0.758021265959067
30
0.000000000000000
11
-68.5754775091385
21
0.656231784800752
31
0.000000000000000
  0
LINE
  5
F10822
330
F10823
100
AcDbEntity
8
Geo
100
AcDbLine
10
-68.6754775091385
20
-3.24639911058328
30
0.000000000000000
11
-68.5754775091385
21
-3.29778880878278
31
0.000000000000000
  0
LINE
  5
F10824
330
F10825
100
AcDbEntity
8
Geo
100
AcDbLine
10
-68.5754775091385
20
0.656231784800752
30
0.000000000000000
11
-68.4754775091385
21
0.552540191900554
31
0.000000000000000
  0
LINE
  5
F10826
330
F10827
100
AcDbEntity
8
Geo
100
AcDbLine
10
-68.5754775091385
20
-3.29778880878278
30
0.000000000000000
11
-68.4754775091385
21
-3.34522353358787
31
0.000000000000000
  0
LINE
  5
F10828
330
F10829
100
AcDbEntity
8
Geo
100
AcDbLine
10
-68.4754775091385
20
0.552540191900554
30
0.000000000000000
11
-68.3754775091385
21
0.447100085468994
31
0.000000000000000
  0
LINE
  5
F1082A
330
F1082B
100
AcDbEntity
8
Geo
100
AcDbLine
10
-68.4754775091385
20
-3.34522353358787
30
0.000000000000000
11
-68.3754775091385
21
-3.38863302000750
31
0.000000000000000
  0
LINE
  5
F1082C
330
F1082D
100
AcDbEntity
8
Geo
100
AcDbLine
10
-68.3754775091385
20
0.447100085468994
30
0.000000000000000
11
-68.2754775091385
21
0.340067653787224
31
0.000000000000000
  0
LINE
  5
F1082E
330
F1082F
100
AcDbEntity
8
Geo
100
AcDbLine
10
-68.3754775091385
20
-3.38863302000750
30
0.000000000000000
11
-68.2754775091385
21
-3.42795296563059
31
0.000000000000000
  0
LINE
  5
F10830
330
F10831
100
AcDbEntity
8
Geo
100
AcDbLine
10
-68.2754775091385
20
0.340067653787224
30
0.000000000000000
11
-68.1754775091385
21
0.231601443845543
31
0.000000000000000
  0
LINE
  5
F10832
330
F10833
100
AcDbEntity
8
Geo
100
AcDbLine
10
-68.2754775091385
20
-3.42795296563059
30
0.000000000000000
11
-68.1754775091385
21
-3.46312512587705
31
0.000000000000000
  0
LINE
  5
F10834
330
F10835
100
AcDbEntity
8
Geo
100
AcDbLine
10
-68.1754775091385
20
0.231601443845543
30
0.000000000000000
11
-68.0754775091385
21
0.121862126487975
31
0.000000000000000
  0
LINE
  5
F10836
330
F10837
100
AcDbEntity
8
Geo
100
AcDbLine
10
-68.1754775091385
20
-3.46312512587705
30
0.000000000000000
11
-68.0754775091385
21
-3.49409740027545
31
0.000000000000000
  0
LINE
  5
F10838
330
F10839
100
AcDbEntity
8
Geo
100
AcDbLine
10
-68.0754775091385
20
0.121862126487975
30
0.000000000000000
11
-67.9754775091385
21
0.0110122584107586
31
0.000000000000000
  0
LINE
  5
F1083A
330
F1083B
100
AcDbEntity
8
Geo
100
AcDbLine
10
-68.0754775091385
20
-3.49409740027545
30
0.000000000000000
11
-67.9754775091385
21
-3.52082390963934
31
0.000000000000000
  0
LINE
  5
F1083C
330
F1083D
100
AcDbEntity
8
Geo
100
AcDbLine
10
-67.9754775091385
20
0.0110122584107586
30
0.000000000000000
11
-67.8754775091385
21
-0.100783958632648
31
0.000000000000000
  0
LINE
  5
F1083E
330
F1083F
100
AcDbEntity
8
Geo
100
AcDbLine
10
-67.9754775091385
20
-3.52082390963934
30
0.000000000000000
11
-67.8754775091385
21
-3.54326506402806
31
0.000000000000000
  0
LINE
  5
F10840
330
F10841
100
AcDbEntity
8
Geo
100
AcDbLine
10
-67.8754775091385
20
-0.100783958632648
30
0.000000000000000
11
-67.7754775091385
21
-0.213360921063397
31
0.000000000000000
  0
LINE
  5
F10842
330
F10843
100
AcDbEntity
8
Geo
100
AcDbLine
10
-67.8754775091385
20
-3.54326506402806
30
0.000000000000000
11
-67.7754775091385
21
-3.56138762139121
31
0.000000000000000
  0
LINE
  5
F10844
330
F10845
100
AcDbEntity
8
Geo
100
AcDbLine
10
-67.7754775091385
20
-0.213360921063397
30
0.000000000000000
11
-67.6754775091385
21
-0.326551868785596
31
0.000000000000000
  0
LINE
  5
F10846
330
F10847
100
AcDbEntity
8
Geo
100
AcDbLine
10
-67.7754775091385
20
-3.56138762139121
30
0.000000000000000
11
-67.6754775091385
21
-3.57516473681009
31
0.000000000000000
  0
LINE
  5
F10848
330
F10849
100
AcDbEntity
8
Geo
100
AcDbLine
10
-67.6754775091385
20
-0.326551868785596
30
0.000000000000000
11
-67.5754775091385
21
-0.440189132207807
31
0.000000000000000
  0
LINE
  5
F1084A
330
F1084B
100
AcDbEntity
8
Geo
100
AcDbLine
10
-67.6754775091385
20
-3.57516473681009
30
0.000000000000000
11
-67.5754775091385
21
-3.58457600226304
31
0.000000000000000
  0
LINE
  5
F1084C
330
F1084D
100
AcDbEntity
8
Geo
100
AcDbLine
10
-67.5754775091385
20
-0.440189132207807
30
0.000000000000000
11
-67.4754775091385
21
-0.554104380611773
31
0.000000000000000
  0
LINE
  5
F1084E
330
F1084F
100
AcDbEntity
8
Geo
100
AcDbLine
10
-67.5754775091385
20
-3.58457600226304
30
0.000000000000000
11
-67.4754775091385
21
-3.58960747685580
31
0.000000000000000
  0
LINE
  5
F10850
330
F10851
100
AcDbEntity
8
Geo
100
AcDbLine
10
-83.4754775091384
20
-0.627852162023672
30
0.000000000000000
11
-83.4754775091384
21
-0.627852162023672
31
0.000000000000000
  0
LINE
  5
F10852
330
F10853
100
AcDbEntity
8
Geo
100
AcDbLine
10
-83.4754775091384
20
-0.627852162023672
30
0.000000000000000
11
-83.4754775091384
21
-0.627852162023672
31
0.000000000000000
  0
LINE
  5
F10854
330
F10855
100
AcDbEntity
8
Geo
100
AcDbLine
10
-84.4754775091384
20
-0.627852162023672
30
0.000000000000000
11
-84.1754775091384
21
-0.627852162023672
31
0.000000000000000
  0
LINE
  5
F10856
330
F10857
100
AcDbEntity
8
Geo
100
AcDbLine
10
-84.0479775091384
20
-0.627852162023672
30
0.000000000000000
11
-83.9629775091384
21
-0.627852162023672
31
0.000000000000000
  0
LINE
  5
F10858
330
F10859
100
AcDbEntity
8
Geo
100
AcDbLine
10
-83.7504775091384
20
-0.627852162023672
30
0.000000000000000
11
-83.3254775091384
21
-0.627852162023672
31
0.000000000000000
  0
LINE
  5
F1085A
330
F1085B
100
AcDbEntity
8
Geo
100
AcDbLine
10
-83.1979775091384
20
-0.627852162023672
30
0.000000000000000
11
-83.1129775091384
21
-0.627852162023672
31
0.000000000000000
  0
LINE
  5
F1085C
330
F1085D
100
AcDbEntity
8
Geo
100
AcDbLine
10
-82.9004775091384
20
-0.627852162023672
30
0.000000000000000
11
-82.4754775091384
21
-0.627852162023672
31
0.000000000000000
  0
LINE
  5
F1085E
330
F1085F
100
AcDbEntity
8
Geo
100
AcDbLine
10
-19.4754775091384
20
1.87214783797633
30
0.000000000000000
11
-19.4754775091384
21
-0.627852162023672
31
0.000000000000000
  0
LINE
  5
F10860
330
F10861
100
AcDbEntity
8
Geo
100
AcDbLine
10
-83.3794453930361
20
-0.627852162023672
30
0.000000000000000
11
-83.4754775091384
21
-3.37785216202367
31
0.000000000000000
  0
LINE
  5
F10862
330
F10863
100
AcDbEntity
8
Geo
100
AcDbLine
10
-83.4754775091384
20
-3.37785216202367
30
0.000000000000000
11
-83.2254775091384
21
-3.62785216202367
31
0.000000000000000
  0
LINE
  5
F10864
330
F10865
100
AcDbEntity
8
Geo
100
AcDbLine
10
-83.2254775091384
20
-3.62785216202367
30
0.000000000000000
11
-67.4754775091384
21
-3.62785216202367
31
0.000000000000000
  0
LINE
  5
F10866
330
F10867
100
AcDbEntity
8
Geo
100
AcDbLine
10
-67.4754775091384
20
-3.62785216202367
30
0.000000000000000
11
-19.9754775091384
21
-3.62785216202367
31
0.000000000000000
  0
LINE
  5
F10868
330
F10869
100
AcDbEntity
8
Geo
100
AcDbLine
10
-19.9754775091384
20
-3.62785216202367
30
0.000000000000000
11
-19.4754775091384
21
-3.12785216202367
31
0.000000000000000
  0
LINE
  5
F1086A
330
F1086B
100
AcDbEntity
8
Geo
100
AcDbLine
10
-83.4754775091384
20
2.12214783797633
30
0.000000000000000
11
-83.4754775091384
21
-3.37785216202367
31
0.000000000000000
  0
LINE
  5
F1086C
330
F1086D
100
AcDbEntity
8
Geo
100
AcDbLine
10
-83.2254775091384
20
2.37214783797633
30
0.000000000000000
11
-83.2254775091384
21
-3.62785216202367
31
0.000000000000000
  0
LINE
  5
F1086E
330
F1086F
100
AcDbEntity
8
Geo
100
AcDbLine
10
-83.2254775091384
20
2.37214783797633
30
0.000000000000000
11
-83.2254775091384
21
-3.62785216202367
31
0.000000000000000
  0
LINE
  5
F10870
330
F10871
100
AcDbEntity
8
Geo
100
AcDbLine
10
-67.4754775091384
20
2.37214783797633
30
0.000000000000000
11
-67.4754775091384
21
-3.62785216202367
31
0.000000000000000
  0
LINE
  5
F10872
330
F10873
100
AcDbEntity
8
Geo
100
AcDbLine
10
-67.4754775091384
20
2.37214783797633
30
0.000000000000000
11
-67.4754775091384
21
-3.62785216202367
31
0.000000000000000
  0
LINE
  5
F10874
330
F10875
100
AcDbEntity
8
Geo
100
AcDbLine
10
-19.9754775091384
20
2.37214783797633
30
0.000000000000000
11
-19.9754775091384
21
-3.62785216202367
31
0.000000000000000
  0
LINE
  5
F10876
330
F10877
100
AcDbEntity
8
Geo
100
AcDbLine
10
-19.4754775091384
20
1.87214783797633
30
0.000000000000000
11
-19.4754775091384
21
-3.12785216202367
31
0.000000000000000
  0
LWPOLYLINE
  5
F10878
330
F10879
100
AcDbEntity
8
Rahmen
100
AcDbPolyline
90
   4
70
   1
43
   0.0
 10
-125.688441052115
 20
102.994852221025
 10
134.379139869447
 20
102.994852221025
 10
134.379139869447
 20
-103.161922335125
 10
-125.688441052115
 20
-103.161922335125
  0
TEXT
  5
F1087A
330
F1087B
 100
AcDbEntity
8
Text
100
AcDbText
10
-124.531556795347
20
-102.661922335125
30
0.000000000000000
40
1.00000000000000
1
ISBESketcher
100
AcDbText
  0
LWPOLYLINE
  5
F1087C
330
F1087D
100
AcDbEntity
8
Rahmen
100
AcDbPolyline
90
   4
70
   1
43
   0.0
 10
94.3509445852565
 20
-100.154023267527
 10
134.379139869447
 20
-100.154023267527
 10
134.379139869447
 20
-103.161922335125
 10
94.3509445852565
 20
-103.161922335125
  0
TEXT
  5
F1087E
330
F1087F
 100
AcDbEntity
8
Text
100
AcDbText
10
95.5000000000000
20
-101.944130554061
30
0.000000000000000
40
0.750000000000000
1
Created by:
100
AcDbText
  0
TEXT
  5
F10880
330
F10881
 100
AcDbEntity
8
Text
100
AcDbText
10
120.301919912140
20
-101.944130554061
30
0.000000000000000
40
0.750000000000000
1
nsarkol
100
AcDbText
  0
LWPOLYLINE
  5
F10882
330
F10883
100
AcDbEntity
8
Rahmen
100
AcDbPolyline
90
   4
70
   1
43
   0.0
 10
54.3227493010658
 20
-100.154023267527
 10
94.3509445852565
 20
-100.154023267527
 10
94.3509445852565
 20
-103.161922335125
 10
54.3227493010658
 20
-103.161922335125
  0
TEXT
  5
F10884
330
F10885
 100
AcDbEntity
8
Text
100
AcDbText
10
55.5000000000000
20
-101.944130554061
30
0.000000000000000
40
0.750000000000000
1
Created for:
100
AcDbText
  0
TEXT
  5
F10886
330
F10887
 100
AcDbEntity
8
Text
100
AcDbText
10
0.000000000000000
20
0.250000000000000
30
0.000000000000000
40
0.750000000000000
1

100
AcDbText
  0
LWPOLYLINE
  5
F10888
330
F10889
100
AcDbEntity
8
Rahmen
100
AcDbPolyline
90
   4
70
   1
43
   0.0
 10
120.959282490932
 20
-97.1461241999287
 10
134.379139869447
 20
-97.1461241999287
 10
134.379139869447
 20
-100.154023267527
 10
120.959282490932
 20
-100.154023267527
  0
TEXT
  5
F1088A
330
F1088B
 100
AcDbEntity
8
Text
100
AcDbText
10
122.166666666667
20
-98.9441305540611
30
0.000000000000000
40
0.750000000000000
1
Pages
100
AcDbText
  0
TEXT
  5
F1088C
330
F1088D
 100
AcDbEntity
8
Text
100
AcDbText
10
0.000000000000000
20
0.250000000000000
30
0.000000000000000
40
0.750000000000000
1

100
AcDbText
  0
LWPOLYLINE
  5
F1088E
330
F1088F
100
AcDbEntity
8
Rahmen
100
AcDbPolyline
90
   4
70
   1
43
   0.0
 10
120.959282490932
 20
-94.1382251323305
 10
134.379139869447
 20
-94.1382251323305
 10
134.379139869447
 20
-97.1461241999287
 10
120.959282490932
 20
-97.1461241999287
  0
TEXT
  5
F10890
330
F10891
 100
AcDbEntity
8
Text
100
AcDbText
10
122.166666666667
20
-95.9441305540611
30
0.000000000000000
40
0.750000000000000
1
Page
100
AcDbText
  0
TEXT
  5
F10892
330
F10893
 100
AcDbEntity
8
Text
100
AcDbText
10
0.000000000000000
20
0.250000000000000
30
0.000000000000000
40
0.750000000000000
1

100
AcDbText
  0
LWPOLYLINE
  5
F10894
330
F10895
100
AcDbEntity
8
Rahmen
100
AcDbPolyline
90
   4
70
   1
43
   0.0
 10
54.3227493010658
 20
-94.1382251323305
 10
120.959282490932
 20
-94.1382251323305
 10
120.959282490932
 20
-100.154023267527
 10
54.3227493010658
 20
-100.154023267527
  0
TEXT
  5
F10896
330
F10897
 100
AcDbEntity
8
Text
100
AcDbText
10
55.5000000000000
20
-95.9441305540611
30
0.000000000000000
40
0.750000000000000
1
Date:
100
AcDbText
  0
TEXT
  5
F10898
330
F10899
 100
AcDbEntity
8
Text
100
AcDbText
10
84.7097458400583
20
-98.9441305540611
30
0.000000000000000
40
0.750000000000000
1
05.07.2016
100
AcDbText
  0
LWPOLYLINE
  5
F1089A
330
F1089B
100
AcDbEntity
8
Rahmen
100
AcDbPolyline
90
   4
70
   1
43
   0.0
 10
54.3227493010658
 20
-88.1224269971343
 10
134.379139869447
 20
-88.1224269971343
 10
134.379139869447
 20
-94.1382251323305
 10
54.3227493010658
 20
-94.1382251323305
  0
TEXT
  5
F1089C
330
F1089D
 100
AcDbEntity
8
Text
100
AcDbText
10
0.000000000000000
20
0.500000000000000
30
0.000000000000000
40
1.50000000000000
1

100
AcDbText
  0
TEXT
  5
F1089E
330
F1089F
 100
AcDbEntity
8
Text
100
AcDbText
10
65.6935820064640
20
-92.7118120315574
30
0.000000000000000
40
2.50000000000000
1
VHRFF 3 060 064 06 03 025
100
AcDbText
  0
LWPOLYLINE
  5
F108A0
330
F108A1
100
AcDbEntity
8
Rahmen
100
AcDbPolyline
90
   4
70
   1
43
   0.0
 10
94.3509445852565
 20
-82.1066288619380
 10
134.379139869447
 20
-82.1066288619380
 10
134.379139869447
 20
-88.1224269971343
 10
94.3509445852565
 20
-88.1224269971343
  0
TEXT
  5
F108A2
330
F108A3
 100
AcDbEntity
8
Text
100
AcDbText
10
95.5000000000000
20
-83.9441305540611
30
0.000000000000000
40
0.750000000000000
1
Work piece material:
100
AcDbText
  0
TEXT
  5
F108A4
330
F108A5
 100
AcDbEntity
8
Text
100
AcDbText
10
0.000000000000000
20
0.250000000000000
30
0.000000000000000
40
0.750000000000000
1

100
AcDbText
  0
LWPOLYLINE
  5
F108A6
330
F108A7
100
AcDbEntity
8
Rahmen
100
AcDbPolyline
90
   4
70
   1
43
   0.0
 10
54.3227493010658
 20
-82.1066288619380
 10
94.3509445852565
 20
-82.1066288619380
 10
94.3509445852565
 20
-88.1224269971343
 10
54.3227493010658
 20
-88.1224269971343
  0
TEXT
  5
F108A8
330
F108A9
 100
AcDbEntity
8
Text
100
AcDbText
10
55.5000000000000
20
-83.9441305540611
30
0.000000000000000
40
0.750000000000000
1
Tool material:
100
AcDbText
  0
TEXT
  5
F108AA
330
F108AB
 100
AcDbEntity
8
Text
100
AcDbText
10
0.000000000000000
20
0.250000000000000
30
0.000000000000000
40
0.750000000000000
1

100
AcDbText
  0
LWPOLYLINE
  5
F108AC
330
F108AD
100
AcDbEntity
8
Rahmen
100
AcDbPolyline
90
   4
70
   1
43
   0.0
 10
94.3509445852565
 20
-79.0987297943398
 10
134.379139869447
 20
-79.0987297943398
 10
134.379139869447
 20
-82.1066288619380
 10
94.3509445852565
 20
-82.1066288619380
  0
TEXT
  5
F108AE
330
F108AF
 100
AcDbEntity
8
Text
100
AcDbText
10
0.000000000000000
20
0.500000000000000
30
0.000000000000000
40
1.50000000000000
1

100
AcDbText
  0
TEXT
  5
F108B0
330
F108B1
 100
AcDbEntity
8
Text
100
AcDbText
10
0.000000000000000
20
0.250000000000000
30
0.000000000000000
40
0.750000000000000
1

100
AcDbText
  0
LWPOLYLINE
  5
F108B2
330
F108B3
100
AcDbEntity
8
Rahmen
100
AcDbPolyline
90
   4
70
   1
43
   0.0
 10
54.3227493010658
 20
-79.0987297943398
 10
94.3509445852565
 20
-79.0987297943398
 10
94.3509445852565
 20
-82.1066288619380
 10
54.3227493010658
 20
-82.1066288619380
  0
TEXT
  5
F108B4
330
F108B5
 100
AcDbEntity
8
Text
100
AcDbText
10
55.5000000000000
20
-80.9441305540611
30
0.000000000000000
40
0.750000000000000
1
Scale:
100
AcDbText
  0
TEXT
  5
F108B6
330
F108B7
 100
AcDbEntity
8
Text
100
AcDbText
10
81.3431157432315
20
-80.9441305540611
30
0.000000000000000
40
0.750000000000000
1
2 : 1
100
AcDbText
0
VIEWPORT
5
294
102
{ACAD_XDICTIONARY
360
58A
102
}
330
25D
100
AcDbEntity
67
1
8
0
60
1
100
AcDbViewport
10
0.0
20
0.0
30
0.0
40
10.0
41
10.0
68
-1
69
1
12
0.0
22
0.0
13
0.0
23
0.0
14
1.0
24
1.0
15
0.0
25
0.0
16
0.0
26
0.0
36
1.0
17
0.0
27
0.0
37
0.0
42
0.0
43
0.0
44
0.0
45
10.0
50
0.0
51
0.0000000000007958
72
100
90
32800
1

281
0
71
0
74
0
110
0.0
120
0.0
130
0.0
111
1.0
121
0.0
131
0.0
112
0.0
122
1.0
132
0.0
79
0
146
0.0
1001
VD_INVISIBLE_NOT_FOR_READ
1000
VD_INVISIBLE_NOT_FOR_READ
0
VIEWPORT
5
295
102
{ACAD_XDICTIONARY
360
58C
102
}
330
25D
100
AcDbEntity
67
1
8
0
60
1
100
AcDbViewport
10
0.0
20
0.0
30
0.0
40
10.0
41
10.0
68
0
69
2
12
0.0
22
0.0
13
0.0
23
0.0
14
1.0
24
1.0
15
0.0
25
0.0
16
0.0
26
0.0
36
1.0
17
0.0
27
0.0
37
0.0
42
0.0
43
0.0
44
0.0
45
10.0
50
0.0
51
0.0000000000007958
72
100
90
163872
1

281
0
71
0
74
0
110
0.0
120
0.0
130
0.0
111
1.0
121
0.0
131
0.0
112
0.0
122
1.0
132
0.0
79
0
146
0.0
1001
VD_INVISIBLE_NOT_FOR_READ
1000
VD_INVISIBLE_NOT_FOR_READ
0
ENDSEC
0
SECTION
2
OBJECTS
0
DICTIONARY
5
13
330
0
100
AcDbDictionary
281
1
3
ACAD_COLOR
350
FA7
3
ACAD_GROUP
350
14
3
ACAD_LAYOUT
350
FCF
3
ACAD_MATERIAL
350
F7A
3
ACAD_MLEADERSTYLE
350
FCD
3
ACAD_MLINESTYLE
350
16
3
ACAD_PLOTSETTINGS
350
17
3
ACAD_PLOTSTYLENAME
350
18
3
ACAD_SCALELIST
350
FAB
3
ACAD_TABLESTYLE
350
FA8
3
ACAD_VISUALSTYLE
350
F93
3
ACDB_RECOMPOSE_DATA
350
107E
3
AcDbVariableDictionary
350
FF0
3
DWGPROPS
350
107F
0
DICTIONARY
5
F1000A
330
F10009
100
AcDbDictionary
280
1
281
1
3
ACAD_MTEXT_2008_RT
360
F1000B
0
DICTIONARY
5
F10014
330
F10013
100
AcDbDictionary
280
1
281
1
3
ACAD_MTEXT_2008_RT
360
F10015
0
DICTIONARY
5
F1001E
330
F1001D
100
AcDbDictionary
280
1
281
1
3
ACAD_MTEXT_2008_RT
360
F1001F
0
DICTIONARY
5
F10023
330
F10022
100
AcDbDictionary
280
1
281
1
3
ACAD_MTEXT_2008_RT
360
F10024
0
DICTIONARY
5
F10028
330
F10027
100
AcDbDictionary
280
1
281
1
3
ACAD_MTEXT_2008_RT
360
F10029
0
DICTIONARY
5
F10005
330
F10004
100
AcDbDictionary
280
1
281
1
3
ACAD_MTEXT_2008_RT
360
F10006
0
DICTIONARY
5
F1000F
330
F1000E
100
AcDbDictionary
280
1
281
1
3
ACAD_MTEXT_2008_RT
360
F10010
0
DICTIONARY
5
F10019
330
F10018
100
AcDbDictionary
280
1
281
1
3
ACAD_MTEXT_2008_RT
360
F1001A
0
DICTIONARY
5
FA7
102
{ACAD_REACTORS
330
13
102
}
330
13
100
AcDbDictionary
281
1
0
DICTIONARY
5
14
330
13
100
AcDbDictionary
281
1
0
DICTIONARY
5
FCF
102
{ACAD_REACTORS
330
13
102
}
330
13
100
AcDbDictionary
281
1
3
Layout1
350
FD1
3
Model
350
FD0
0
DICTIONARY
5
F7A
102
{ACAD_REACTORS
330
13
102
}
330
13
100
AcDbDictionary
281
1
3
ByBlock
350
F83
3
ByLayer
350
F7B
3
Global
350
F8B
0
DICTIONARY
5
FCD
102
{ACAD_REACTORS
330
13
102
}
330
13
100
AcDbDictionary
281
1
3
Standard
350
FCE
0
DICTIONARY
5
16
330
13
100
AcDbDictionary
281
1
3
Standard
350
FAA
0
DICTIONARY
5
17
102
{ACAD_REACTORS
330
13
102
}
330
13
100
AcDbDictionary
281
1
0
ACDBDICTIONARYWDFLT
5
18
102
{ACAD_REACTORS
330
13
102
}
330
13
100
AcDbDictionary
281
1
3
Normal
350
19
100
AcDbDictionaryWithDefault
340
19
0
DICTIONARY
5
FAB
102
{ACAD_REACTORS
330
13
102
}
330
13
100
AcDbDictionary
281
1
3
A0
350
FAC
3
A1
350
FAD
3
A2
350
FAE
3
A3
350
FAF
3
A4
350
FB0
3
A5
350
FB1
3
A6
350
FB2
3
A7
350
FB3
3
A8
350
FB4
3
A9
350
FB5
3
B0
350
FB6
3
B1
350
FB7
3
B2
350
FB8
3
B3
350
FB9
3
B4
350
FBA
3
B5
350
FBB
3
B6
350
FBC
3
B7
350
FBD
3
B8
350
FBE
3
B9
350
FBF
3
C0
350
FC0
3
C1
350
FC1
3
C2
350
FC2
3
C3
350
FC3
3
C4
350
FC4
3
C5
350
FC5
3
C6
350
FC6
3
C7
350
FC7
3
C8
350
FC8
3
C9
350
FC9
3
D0
350
FCA
3
D1
350
FCB
3
D2
350
FCC
0
DICTIONARY
5
FA8
102
{ACAD_REACTORS
330
13
102
}
330
13
100
AcDbDictionary
281
1
3
Standard
350
FA9
0
DICTIONARY
5
F93
102
{ACAD_REACTORS
330
13
102
}
330
13
100
AcDbDictionary
281
1
3
2dWireframe
350
F99
3
3D Hidden
350
F9B
3
3dWireframe
350
F9A
3
Basic
350
F98
3
Brighten
350
F9F
3
ColorChange
350
FA3
3
Conceptual
350
F9C
3
Dim
350
F9E
3
EdgeColorOff
350
FA6
3
Facepattern
350
FA2
3
Flat
350
F94
3
FlatWithEdges
350
F95
3
Gouraud
350
F96
3
GouraudWithEdges
350
F97
3
JitterOff
350
FA4
3
Linepattern
350
FA1
3
OverhangOff
350
FA5
3
Realistic
350
F9D
3
Thicken
350
FA0
0
XRECORD
5
107E
102
{ACAD_REACTORS
330
13
102
}
330
13
100
AcDbXrecord
280
1
90
1
330
FA9
330
F10009
330
F10013
330
F1001D
330
F10022
330
F10027
330
F10004
330
F1000E
330
F10018
0
XRECORD
5
F1000B
102
{ACAD_REACTORS
330
F1000A
102
}
330
F1000A
100
AcDbXrecord
280
1
40
48458.0
1
0.25 x 45°
0
XRECORD
5
F10015
102
{ACAD_REACTORS
330
F10014
102
}
330
F10014
100
AcDbXrecord
280
1
40
48458.0
1
48
0
XRECORD
5
F1001F
102
{ACAD_REACTORS
330
F1001E
102
}
330
F1001E
100
AcDbXrecord
280
1
40
48458.0
1
16
0
XRECORD
5
F10024
102
{ACAD_REACTORS
330
F10023
102
}
330
F10023
100
AcDbXrecord
280
1
40
48458.0
1
17
0
XRECORD
5
F10029
102
{ACAD_REACTORS
330
F10028
102
}
330
F10028
100
AcDbXrecord
280
1
40
48458.0
1
64
0
XRECORD
5
F10006
102
{ACAD_REACTORS
330
F10005
102
}
330
F10005
100
AcDbXrecord
280
1
40
48458.0
1
2°
0
XRECORD
5
F10010
102
{ACAD_REACTORS
330
F1000F
102
}
330
F1000F
100
AcDbXrecord
280
1
40
48458.0
1
6
0
LAYOUT
5
FD1
102
{ACAD_XDICTIONARY
360
10A9
102
}
102
{ACAD_REACTORS
330
FCF
102
}
330
FCF
100
AcDbPlotSettings
1

2
Microsoft XPS Document Writer
4

6

40
0.0
41
0.0
42
0.0
43
0.0
44
0.0
45
0.0
46
0.0
47
0.0
48
0.0
49
0.0
140
0.0
141
0.0
142
1.0
143
1.0
70
688
72
0
73
0
74
5
7

75
16
147
1.0
148
0.0
149
0.0
100
AcDbLayout
1
Layout1
70
1
71
1
10
0.0
20
0.0
11
12.0
21
9.0
12
0.0
22
0.0
32
0.0
14
1.000000000000000E+20
24
1.000000000000000E+20
34
1.000000000000000E+20
15
-1.000000000000000E+20
25
-1.000000000000000E+20
35
-1.000000000000000E+20
146
0.0
13
0.0
23
0.0
33
0.0
16
1.0
26
0.0
36
0.0
17
0.0
27
1.0
37
0.0
76
0
330
25D
0
LAYOUT
5
FD0
102
{ACAD_XDICTIONARY
360
10A7
102
}
102
{ACAD_REACTORS
330
FCF
102
}
330
FCF
100
AcDbPlotSettings
1

2
Microsoft XPS Document Writer
4

6

40
0.0
41
0.0
42
0.0
43
0.0
44
0.0
45
0.0
46
0.0
47
0.0
48
0.0
49
0.0
140
0.0
141
0.0
142
1.0
143
1.0
70
1712
72
0
73
0
74
0
7

75
0
147
1.0
148
0.0
149
0.0
100
AcDbLayout
1
Model
70
1
71
0
10
0.0
20
0.0
11
12.0
21
9.0
12
0.0
22
0.0
32
0.0
14
0.0
24
0.0
34
0.0
15
0.0
25
0.0
35
0.0
146
0.0
13
0.0
23
0.0
33
0.0
16
1.0
26
0.0
36
0.0
17
0.0
27
1.0
37
0.0
76
0
330
261
331
26B
0
MATERIAL
5
F83
102
{ACAD_XDICTIONARY
360
F84
102
}
102
{ACAD_REACTORS
330
F7A
102
}
330
F7A
100
AcDbMaterial
1
ByBlock
72
0
43
0.0208333333333333
43
0.0
43
0.0
43
0.0
43
0.0
43
0.0208333333333333
43
0.0
43
0.0
43
0.0
43
0.0
43
1.0
43
0.0
43
0.0
43
0.0
43
0.0
43
1.0
77
0
47
0.0208333333333333
47
0.0
47
0.0
47
0.0
47
0.0
47
0.0208333333333333
47
0.0
47
0.0
47
0.0
47
0.0
47
1.0
47
0.0
47
0.0
47
0.0
47
0.0
47
1.0
171
0
49
0.0208333333333333
49
0.0
49
0.0
49
0.0
49
0.0
49
0.0208333333333333
49
0.0
49
0.0
49
0.0
49
0.0
49
1.0
49
0.0
49
0.0
49
0.0
49
0.0
49
1.0
175
0
142
0.0208333333333333
142
0.0
142
0.0
142
0.0
142
0.0
142
0.0208333333333333
142
0.0
142
0.0
142
0.0
142
0.0
142
1.0
142
0.0
142
0.0
142
0.0
142
0.0
142
1.0
179
0
144
0.0208333333333333
144
0.0
144
0.0
144
0.0
144
0.0
144
0.0208333333333333
144
0.0
144
0.0
144
0.0
144
0.0
144
1.0
144
0.0
144
0.0
144
0.0
144
0.0
144
1.0
147
0.0208333333333333
147
0.0
147
0.0
147
0.0
147
0.0
147
0.0208333333333333
147
0.0
147
0.0
147
0.0
147
0.0
147
1.0
147
0.0
147
0.0
147
0.0
147
0.0
147
1.0
0
MATERIAL
5
F7B
102
{ACAD_XDICTIONARY
360
F7C
102
}
102
{ACAD_REACTORS
330
F7A
102
}
330
F7A
100
AcDbMaterial
1
ByLayer
72
0
43
0.0208333333333333
43
0.0
43
0.0
43
0.0
43
0.0
43
0.0208333333333333
43
0.0
43
0.0
43
0.0
43
0.0
43
1.0
43
0.0
43
0.0
43
0.0
43
0.0
43
1.0
77
0
47
0.0208333333333333
47
0.0
47
0.0
47
0.0
47
0.0
47
0.0208333333333333
47
0.0
47
0.0
47
0.0
47
0.0
47
1.0
47
0.0
47
0.0
47
0.0
47
0.0
47
1.0
171
0
49
0.0208333333333333
49
0.0
49
0.0
49
0.0
49
0.0
49
0.0208333333333333
49
0.0
49
0.0
49
0.0
49
0.0
49
1.0
49
0.0
49
0.0
49
0.0
49
0.0
49
1.0
175
0
142
0.0208333333333333
142
0.0
142
0.0
142
0.0
142
0.0
142
0.0208333333333333
142
0.0
142
0.0
142
0.0
142
0.0
142
1.0
142
0.0
142
0.0
142
0.0
142
0.0
142
1.0
179
0
144
0.0208333333333333
144
0.0
144
0.0
144
0.0
144
0.0
144
0.0208333333333333
144
0.0
144
0.0
144
0.0
144
0.0
144
1.0
144
0.0
144
0.0
144
0.0
144
0.0
144
1.0
147
0.0208333333333333
147
0.0
147
0.0
147
0.0
147
0.0
147
0.0208333333333333
147
0.0
147
0.0
147
0.0
147
0.0
147
1.0
147
0.0
147
0.0
147
0.0
147
0.0
147
1.0
0
MATERIAL
5
F8B
102
{ACAD_XDICTIONARY
360
F8C
102
}
102
{ACAD_REACTORS
330
F7A
102
}
330
F7A
100
AcDbMaterial
1
Global
72
0
43
0.0208333333333333
43
0.0
43
0.0
43
0.0
43
0.0
43
0.0208333333333333
43
0.0
43
0.0
43
0.0
43
0.0
43
1.0
43
0.0
43
0.0
43
0.0
43
0.0
43
1.0
77
0
47
0.0208333333333333
47
0.0
47
0.0
47
0.0
47
0.0
47
0.0208333333333333
47
0.0
47
0.0
47
0.0
47
0.0
47
1.0
47
0.0
47
0.0
47
0.0
47
0.0
47
1.0
171
0
49
0.0208333333333333
49
0.0
49
0.0
49
0.0
49
0.0
49
0.0208333333333333
49
0.0
49
0.0
49
0.0
49
0.0
49
1.0
49
0.0
49
0.0
49
0.0
49
0.0
49
1.0
175
0
142
0.0208333333333333
142
0.0
142
0.0
142
0.0
142
0.0
142
0.0208333333333333
142
0.0
142
0.0
142
0.0
142
0.0
142
1.0
142
0.0
142
0.0
142
0.0
142
0.0
142
1.0
179
0
144
0.0208333333333333
144
0.0
144
0.0
144
0.0
144
0.0
144
0.0208333333333333
144
0.0
144
0.0
144
0.0
144
0.0
144
1.0
144
0.0
144
0.0
144
0.0
144
0.0
144
1.0
147
0.0208333333333333
147
0.0
147
0.0
147
0.0
147
0.0
147
0.0208333333333333
147
0.0
147
0.0
147
0.0
147
0.0
147
1.0
147
0.0
147
0.0
147
0.0
147
0.0
147
1.0
0
MLEADERSTYLE
5
FCE
102
{ACAD_REACTORS
330
FCD
102
}
330
FCD
100
AcDbMLeaderStyle
170
2
171
1
172
0
90
2
40
0.0
41
0.0
173
1
91
-1056964608
340
256
92
-2
290
1
42
0.09
291
1
43
0.36
3
Standard
44
0.18
300

342
253
174
1
178
6
175
1
176
0
93
-1056964608
45
0.18
292
0
297
0
46
0.18
94
-1056964608
47
1.0
49
1.0
140
1.0
293
1
141
0.0
294
1
177
0
142
1.0
295
0
296
0
143
0.125
1001
ACAD_MLEADERVER
1070
2
0
MLINESTYLE
5
FAA
102
{ACAD_REACTORS
330
16
102
}
330
16
100
AcDbMlineStyle
2
STANDARD
70
0
3

62
256
51
90.0
52
90.0
71
2
49
0.5
62
256
6
BYLAYER
49
-0.5
62
256
6
BYLAYER
0
ACDBPLACEHOLDER
5
19
102
{ACAD_REACTORS
330
18
102
}
330
18
0
SCALE
5
FAC
102
{ACAD_REACTORS
330
FAB
102
}
330
FAB
100
AcDbScale
70
0
300
1:1
140
1.0
141
1.0
290
1
0
SCALE
5
FAD
102
{ACAD_REACTORS
330
FAB
102
}
330
FAB
100
AcDbScale
70
0
300
1:2
140
1.0
141
2.0
290
0
0
SCALE
5
FAE
102
{ACAD_REACTORS
330
FAB
102
}
330
FAB
100
AcDbScale
70
0
300
1:4
140
1.0
141
4.0
290
0
0
SCALE
5
FAF
102
{ACAD_REACTORS
330
FAB
102
}
330
FAB
100
AcDbScale
70
0
300
1:5
140
1.0
141
5.0
290
0
0
SCALE
5
FB0
102
{ACAD_REACTORS
330
FAB
102
}
330
FAB
100
AcDbScale
70
0
300
1:8
140
1.0
141
8.0
290
0
0
SCALE
5
FB1
102
{ACAD_REACTORS
330
FAB
102
}
330
FAB
100
AcDbScale
70
0
300
1:10
140
1.0
141
10.0
290
0
0
SCALE
5
FB2
102
{ACAD_REACTORS
330
FAB
102
}
330
FAB
100
AcDbScale
70
0
300
1:16
140
1.0
141
16.0
290
0
0
SCALE
5
FB3
102
{ACAD_REACTORS
330
FAB
102
}
330
FAB
100
AcDbScale
70
0
300
1:20
140
1.0
141
20.0
290
0
0
SCALE
5
FB4
102
{ACAD_REACTORS
330
FAB
102
}
330
FAB
100
AcDbScale
70
0
300
1:30
140
1.0
141
30.0
290
0
0
SCALE
5
FB5
102
{ACAD_REACTORS
330
FAB
102
}
330
FAB
100
AcDbScale
70
0
300
1:40
140
1.0
141
40.0
290
0
0
SCALE
5
FB6
102
{ACAD_REACTORS
330
FAB
102
}
330
FAB
100
AcDbScale
70
0
300
1:50
140
1.0
141
50.0
290
0
0
SCALE
5
FB7
102
{ACAD_REACTORS
330
FAB
102
}
330
FAB
100
AcDbScale
70
0
300
1:100
140
1.0
141
100.0
290
0
0
SCALE
5
FB8
102
{ACAD_REACTORS
330
FAB
102
}
330
FAB
100
AcDbScale
70
0
300
2:1
140
2.0
141
1.0
290
0
0
SCALE
5
FB9
102
{ACAD_REACTORS
330
FAB
102
}
330
FAB
100
AcDbScale
70
0
300
4:1
140
4.0
141
1.0
290
0
0
SCALE
5
FBA
102
{ACAD_REACTORS
330
FAB
102
}
330
FAB
100
AcDbScale
70
0
300
8:1
140
8.0
141
1.0
290
0
0
SCALE
5
FBB
102
{ACAD_REACTORS
330
FAB
102
}
330
FAB
100
AcDbScale
70
0
300
10:1
140
10.0
141
1.0
290
0
0
SCALE
5
FBC
102
{ACAD_REACTORS
330
FAB
102
}
330
FAB
100
AcDbScale
70
0
300
100:1
140
100.0
141
1.0
290
0
0
SCALE
5
FBD
102
{ACAD_REACTORS
330
FAB
102
}
330
FAB
100
AcDbScale
70
0
300
1/128" = 1'-0"
140
0.0078125
141
12.0
290
0
0
SCALE
5
FBE
102
{ACAD_REACTORS
330
FAB
102
}
330
FAB
100
AcDbScale
70
0
300
1/64" = 1'-0"
140
0.015625
141
12.0
290
0
0
SCALE
5
FBF
102
{ACAD_REACTORS
330
FAB
102
}
330
FAB
100
AcDbScale
70
0
300
1/32" = 1'-0"
140
0.03125
141
12.0
290
0
0
SCALE
5
FC0
102
{ACAD_REACTORS
330
FAB
102
}
330
FAB
100
AcDbScale
70
0
300
1/16" = 1'-0"
140
0.0625
141
12.0
290
0
0
SCALE
5
FC1
102
{ACAD_REACTORS
330
FAB
102
}
330
FAB
100
AcDbScale
70
0
300
3/32" = 1'-0"
140
0.09375
141
12.0
290
0
0
SCALE
5
FC2
102
{ACAD_REACTORS
330
FAB
102
}
330
FAB
100
AcDbScale
70
0
300
1/8" = 1'-0"
140
0.125
141
12.0
290
0
0
SCALE
5
FC3
102
{ACAD_REACTORS
330
FAB
102
}
330
FAB
100
AcDbScale
70
0
300
3/16" = 1'-0"
140
0.1875
141
12.0
290
0
0
SCALE
5
FC4
102
{ACAD_REACTORS
330
FAB
102
}
330
FAB
100
AcDbScale
70
0
300
1/4" = 1'-0"
140
0.25
141
12.0
290
0
0
SCALE
5
FC5
102
{ACAD_REACTORS
330
FAB
102
}
330
FAB
100
AcDbScale
70
0
300
3/8" = 1'-0"
140
0.375
141
12.0
290
0
0
SCALE
5
FC6
102
{ACAD_REACTORS
330
FAB
102
}
330
FAB
100
AcDbScale
70
0
300
1/2" = 1'-0"
140
0.5
141
12.0
290
0
0
SCALE
5
FC7
102
{ACAD_REACTORS
330
FAB
102
}
330
FAB
100
AcDbScale
70
0
300
3/4" = 1'-0"
140
0.75
141
12.0
290
0
0
SCALE
5
FC8
102
{ACAD_REACTORS
330
FAB
102
}
330
FAB
100
AcDbScale
70
0
300
1" = 1'-0"
140
1.0
141
12.0
290
0
0
SCALE
5
FC9
102
{ACAD_REACTORS
330
FAB
102
}
330
FAB
100
AcDbScale
70
0
300
1-1/2" = 1'-0"
140
1.5
141
12.0
290
0
0
SCALE
5
FCA
102
{ACAD_REACTORS
330
FAB
102
}
330
FAB
100
AcDbScale
70
0
300
3" = 1'-0"
140
3.0
141
12.0
290
0
0
SCALE
5
FCB
102
{ACAD_REACTORS
330
FAB
102
}
330
FAB
100
AcDbScale
70
0
300
6" = 1'-0"
140
6.0
141
12.0
290
0
0
SCALE
5
FCC
102
{ACAD_REACTORS
330
FAB
102
}
330
FAB
100
AcDbScale
70
0
300
1'-0" = 1'-0"
140
12.0
141
12.0
290
0
0
TABLESTYLE
5
FA9
102
{ACAD_XDICTIONARY
360
FF8
102
}
102
{ACAD_REACTORS
330
FA8
102
}
330
FA8
100
AcDbTableStyle
3
Standard
70
0
71
0
40
0.06
41
0.06
280
0
281
0
7
Standard
140
0.18
170
2
62
0
63
7
283
0
274
-2
284
1
64
0
275
-2
285
1
65
0
276
-2
286
1
66
0
277
-2
287
1
67
0
278
-2
288
1
68
0
279
-2
289
1
69
0
7
Standard
140
0.25
170
5
62
0
63
7
283
0
274
-2
284
1
64
0
275
-2
285
1
65
0
276
-2
286
1
66
0
277
-2
287
1
67
0
278
-2
288
1
68
0
279
-2
289
1
69
0
7
Standard
140
0.18
170
5
62
0
63
7
283
0
274
-2
284
1
64
0
275
-2
285
1
65
0
276
-2
286
1
66
0
277
-2
287
1
67
0
278
-2
288
1
68
0
279
-2
289
1
69
0
0
VISUALSTYLE
5
F99
102
{ACAD_XDICTIONARY
360
108A
102
}
102
{ACAD_REACTORS
330
F93
102
}
330
F93
100
AcDbVisualStyle
2

70
4
71
0
72
2
73
0
90
0
40
-0.6
41
-30.0
62
5
63
7
74
1
91
4
64
7
65
257
75
1
175
1
42
1.0
92
0
66
257
43
1.0
76
1
77
6
78
2
67
7
79
5
170
0
171
0
290
0
174
0
93
1
44
0.0
173
0
291
0
45
0.0
1001
ACAD
1000
AcDbSavedByObjectVersion
1070
0
0
VISUALSTYLE
5
F9B
102
{ACAD_XDICTIONARY
360
108E
102
}
102
{ACAD_REACTORS
330
F93
102
}
330
F93
100
AcDbVisualStyle
2

70
6
71
1
72
2
73
2
90
0
40
-0.6
41
-30.0
62
5
63
7
74
2
91
2
64
7
65
257
75
2
175
1
42
179.0
92
0
66
257
43
1.0
76
1
77
6
78
2
67
7
79
3
170
0
171
0
290
0
174
0
93
1
44
0.0
173
0
291
0
45
0.0
1001
ACAD
1000
AcDbSavedByObjectVersion
1070
0
0
VISUALSTYLE
5
F9A
102
{ACAD_XDICTIONARY
360
108C
102
}
102
{ACAD_REACTORS
330
F93
102
}
330
F93
100
AcDbVisualStyle
2

70
5
71
0
72
2
73
0
90
0
40
-0.6
41
-30.0
62
5
63
7
74
1
91
4
64
7
65
257
75
1
175
1
42
1.0
92
0
66
257
43
1.0
76
1
77
6
78
2
67
7
79
5
170
0
171
0
290
0
174
0
93
1
44
0.0
173
0
291
0
45
0.0
1001
ACAD
1000
AcDbSavedByObjectVersion
1070
0
0
VISUALSTYLE
5
F98
102
{ACAD_XDICTIONARY
360
1088
102
}
102
{ACAD_REACTORS
330
F93
102
}
330
F93
100
AcDbVisualStyle
2

70
7
71
1
72
0
73
1
90
0
40
-0.6
41
-30.0
62
5
63
7
74
0
91
4
64
7
65
257
75
1
175
1
42
1.0
92
8
66
7
43
1.0
76
1
77
6
78
2
67
7
79
5
170
0
171
0
290
0
174
0
93
1
44
0.0
173
0
291
1
45
0.0
1001
ACAD
1000
AcDbSavedByObjectVersion
1070
0
0
VISUALSTYLE
5
F9F
102
{ACAD_XDICTIONARY
360
1096
102
}
102
{ACAD_REACTORS
330
F93
102
}
330
F93
100
AcDbVisualStyle
2

70
12
71
2
72
2
73
0
90
0
40
-0.6
41
-30.0
62
5
63
7
74
1
91
4
64
7
65
257
75
1
175
1
42
1.0
92
8
66
7
43
1.0
76
1
77
6
78
2
67
7
79
5
170
0
171
0
290
0
174
0
93
1
44
50.0
173
0
291
1
45
0.0
1001
ACAD
1000
AcDbSavedByObjectVersion
1070
0
0
VISUALSTYLE
5
FA3
102
{ACAD_XDICTIONARY
360
109E
102
}
102
{ACAD_REACTORS
330
F93
102
}
330
F93
100
AcDbVisualStyle
2

70
16
71
2
72
2
73
3
90
0
40
-0.6
41
-30.0
62
5
63
8
74
1
91
4
64
7
65
257
75
1
175
1
42
1.0
92
8
66
8
43
1.0
76
1
77
6
78
2
67
7
79
5
170
0
171
0
290
0
174
0
93
1
44
0.0
173
0
291
1
45
0.0
1001
ACAD
1000
AcDbSavedByObjectVersion
1070
0
0
VISUALSTYLE
5
F9C
102
{ACAD_XDICTIONARY
360
1090
102
}
102
{ACAD_REACTORS
330
F93
102
}
330
F93
100
AcDbVisualStyle
2

70
9
71
3
72
2
73
0
90
0
40
-0.6
41
-30.0
62
5
63
7
74
2
91
2
64
7
65
257
75
1
175
1
42
179.0
92
8
66
7
43
1.0
76
1
77
6
78
2
67
7
79
3
170
0
171
0
290
0
174
0
93
1
44
0.0
173
0
291
0
45
0.0
1001
ACAD
1000
AcDbSavedByObjectVersion
1070
0
0
VISUALSTYLE
5
F9E
102
{ACAD_XDICTIONARY
360
1094
102
}
102
{ACAD_REACTORS
330
F93
102
}
330
F93
100
AcDbVisualStyle
2

70
11
71
2
72
2
73
0
90
0
40
-0.6
41
-30.0
62
5
63
7
74
1
91
4
64
7
65
257
75
1
175
1
42
1.0
92
8
66
7
43
1.0
76
1
77
6
78
2
67
7
79
5
170
0
171
0
290
0
174
0
93
1
44
-50.0
173
0
291
1
45
0.0
1001
ACAD
1000
AcDbSavedByObjectVersion
1070
0
0
VISUALSTYLE
5
FA6
102
{ACAD_XDICTIONARY
360
10A4
102
}
102
{ACAD_REACTORS
330
F93
102
}
330
F93
100
AcDbVisualStyle
2

70
22
71
2
72
2
73
0
90
0
40
-0.6
41
-30.0
62
5
63
7
74
1
91
4
64
7
65
257
75
1
175
1
42
1.0
92
8
66
7
43
1.0
76
1
77
6
78
2
67
7
79
5
170
0
171
0
290
0
174
0
93
1
44
0.0
173
0
291
1
45
0.0
1001
ACAD
1000
AcDbSavedByObjectVersion
1070
0
0
VISUALSTYLE
5
FA2
102
{ACAD_XDICTIONARY
360
109C
102
}
102
{ACAD_REACTORS
330
F93
102
}
330
F93
100
AcDbVisualStyle
2

70
15
71
2
72
2
73
0
90
0
40
-0.6
41
-30.0
62
5
63
7
74
1
91
4
64
7
65
257
75
1
175
1
42
1.0
92
8
66
7
43
1.0
76
1
77
6
78
2
67
7
79
5
170
0
171
0
290
0
174
0
93
1
44
0.0
173
0
291
1
45
0.0
1001
ACAD
1000
AcDbSavedByObjectVersion
1070
0
0
VISUALSTYLE
5
F94
102
{ACAD_XDICTIONARY
360
1080
102
}
102
{ACAD_REACTORS
330
F93
102
}
330
F93
100
AcDbVisualStyle
2

70
0
71
2
72
1
73
1
90
2
40
-0.6
41
30.0
62
5
63
7
74
0
91
4
64
7
65
257
75
1
175
1
42
1.0
92
8
66
7
43
1.0
76
1
77
6
78
2
67
7
79
5
170
0
171
0
290
0
174
0
93
13
44
0.0
173
0
291
1
45
0.0
1001
ACAD
1000
AcDbSavedByObjectVersion
1070
0
0
VISUALSTYLE
5
F95
102
{ACAD_XDICTIONARY
360
1082
102
}
102
{ACAD_REACTORS
330
F93
102
}
330
F93
100
AcDbVisualStyle
2

70
1
71
2
72
1
73
1
90
2
40
-0.6
41
30.0
62
5
63
7
74
1
91
4
64
7
65
257
75
1
175
1
42
1.0
92
0
66
257
43
1.0
76
1
77
6
78
2
67
7
79
5
170
0
171
0
290
0
174
0
93
13
44
0.0
173
0
291
1
45
0.0
1001
ACAD
1000
AcDbSavedByObjectVersion
1070
0
0
VISUALSTYLE
5
F96
102
{ACAD_XDICTIONARY
360
1084
102
}
102
{ACAD_REACTORS
330
F93
102
}
330
F93
100
AcDbVisualStyle
2

70
2
71
2
72
2
73
1
90
2
40
-0.6
41
30.0
62
5
63
7
74
0
91
4
64
7
65
257
75
1
175
1
42
1.0
92
0
66
7
43
1.0
76
1
77
6
78
2
67
7
79
5
170
0
171
0
290
0
174
0
93
13
44
0.0
173
0
291
1
45
0.0
1001
ACAD
1000
AcDbSavedByObjectVersion
1070
0
0
VISUALSTYLE
5
F97
102
{ACAD_XDICTIONARY
360
1086
102
}
102
{ACAD_REACTORS
330
F93
102
}
330
F93
100
AcDbVisualStyle
2

70
3
71
2
72
2
73
1
90
2
40
-0.6
41
30.0
62
5
63
7
74
1
91
4
64
7
65
257
75
1
175
1
42
1.0
92
0
66
257
43
1.0
76
1
77
6
78
2
67
7
79
5
170
0
171
0
290
0
174
0
93
13
44
0.0
173
0
291
1
45
0.0
1001
ACAD
1000
AcDbSavedByObjectVersion
1070
0
0
VISUALSTYLE
5
FA4
102
{ACAD_XDICTIONARY
360
10A0
102
}
102
{ACAD_REACTORS
330
F93
102
}
330
F93
100
AcDbVisualStyle
2

70
20
71
2
72
2
73
0
90
0
40
-0.6
41
-30.0
62
5
63
7
74
1
91
4
64
7
65
257
75
1
175
1
42
1.0
92
10
66
7
43
1.0
76
1
77
6
78
2
67
7
79
5
170
0
171
0
290
0
174
0
93
1
44
0.0
173
0
291
1
45
0.0
1001
ACAD
1000
AcDbSavedByObjectVersion
1070
0
0
VISUALSTYLE
5
FA1
102
{ACAD_XDICTIONARY
360
109A
102
}
102
{ACAD_REACTORS
330
F93
102
}
330
F93
100
AcDbVisualStyle
2

70
14
71
2
72
2
73
0
90
0
40
-0.6
41
-30.0
62
5
63
7
74
1
91
4
64
7
65
257
75
7
175
7
42
1.0
92
8
66
7
43
1.0
76
1
77
6
78
2
67
7
79
5
170
0
171
0
290
0
174
0
93
1
44
0.0
173
0
291
1
45
0.0
1001
ACAD
1000
AcDbSavedByObjectVersion
1070
0
0
VISUALSTYLE
5
FA5
102
{ACAD_XDICTIONARY
360
10A2
102
}
102
{ACAD_REACTORS
330
F93
102
}
330
F93
100
AcDbVisualStyle
2

70
21
71
2
72
2
73
0
90
0
40
-0.6
41
-30.0
62
5
63
7
74
1
91
4
64
7
65
257
75
1
175
1
42
1.0
92
9
66
7
43
1.0
76
1
77
6
78
2
67
7
79
5
170
0
171
0
290
0
174
0
93
1
44
0.0
173
0
291
1
45
0.0
1001
ACAD
1000
AcDbSavedByObjectVersion
1070
0
0
VISUALSTYLE
5
F9D
102
{ACAD_XDICTIONARY
360
1092
102
}
102
{ACAD_REACTORS
330
F93
102
}
330
F93
100
AcDbVisualStyle
2

70
8
71
2
72
2
73
0
90
0
40
-0.6
41
-30.0
62
5
63
7
74
1
91
0
64
7
65
257
75
1
175
1
42
1.0
92
8
66
8
43
1.0
76
1
77
6
78
2
67
7
79
5
170
0
171
0
290
0
174
0
93
13
44
0.0
173
0
291
0
45
0.0
1001
ACAD
1000
AcDbSavedByObjectVersion
1070
0
0
VISUALSTYLE
5
FA0
102
{ACAD_XDICTIONARY
360
1098
102
}
102
{ACAD_REACTORS
330
F93
102
}
330
F93
100
AcDbVisualStyle
2

70
13
71
2
72
2
73
0
90
0
40
-0.6
41
-30.0
62
5
63
7
74
1
91
4
64
7
65
257
75
1
175
1
42
1.0
92
12
66
7
43
1.0
76
1
77
6
78
2
67
7
79
5
170
0
171
0
290
0
174
0
93
1
44
0.0
173
0
291
1
45
0.0
1001
ACAD
1000
AcDbSavedByObjectVersion
1070
0
0
DICTIONARYVAR
5
FF3
102
{ACAD_REACTORS
330
FF0
102
}
330
FF0
100
DictionaryVariables
280
0
1
1:1
0
DICTIONARYVAR
5
FF2
102
{ACAD_REACTORS
330
FF0
102
}
330
FF0
100
DictionaryVariables
280
0
1
STANDARD
0
DICTIONARYVAR
5
FF1
102
{ACAD_REACTORS
330
FF0
102
}
330
FF0
100
DictionaryVariables
280
0
1
STANDARD
0
DICTIONARYVAR
5
FF6
102
{ACAD_REACTORS
330
FF0
102
}
330
FF0
100
DictionaryVariables
280
0
1
1
0
DICTIONARYVAR
5
FF5
102
{ACAD_REACTORS
330
FF0
102
}
330
FF0
100
DictionaryVariables
280
0
1
0
0
DICTIONARYVAR
5
FF4
102
{ACAD_REACTORS
330
FF0
102
}
330
FF0
100
DictionaryVariables
280
0
1
127
0
DICTIONARYVAR
5
1078
102
{ACAD_REACTORS
330
FF0
102
}
330
FF0
100
DictionaryVariables
280
0
1
2
0
DICTIONARY
5
10A9
330
FD1
100
AcDbDictionary
280
1
281
1
3
ACAD_XREC_ROUNDTRIP
360
10AA
0
DICTIONARY
5
10A7
330
FD0
100
AcDbDictionary
280
1
281
1
3
ACAD_XREC_ROUNDTRIP
360
10A8
0
DICTIONARY
5
F84
330
F83
100
AcDbDictionary
280
1
281
1
3
ACAD_XREC_ROUNDTRIP
360
FFF
3
BUMPTILE
360
F86
3
DIFFUSETILE
360
F85
3
OPACITYTILE
360
F89
3
REFLECTIONTILE
360
F88
3
REFRACTIONTILE
360
F8A
3
SPECULARTILE
360
F87
0
DICTIONARY
5
F7C
330
F7B
100
AcDbDictionary
280
1
281
1
3
ACAD_XREC_ROUNDTRIP
360
FFE
3
BUMPTILE
360
F7E
3
DIFFUSETILE
360
F7D
3
OPACITYTILE
360
F81
3
REFLECTIONTILE
360
F80
3
REFRACTIONTILE
360
F82
3
SPECULARTILE
360
F7F
0
DICTIONARY
5
F8C
330
F8B
100
AcDbDictionary
280
1
281
1
3
ACAD_XREC_ROUNDTRIP
360
1000
3
BUMPTILE
360
F8E
3
DIFFUSETILE
360
F8D
3
OPACITYTILE
360
F91
3
REFLECTIONTILE
360
F90
3
REFRACTIONTILE
360
F92
3
SPECULARTILE
360
F8F
0
DICTIONARY
5
FF8
330
FA9
100
AcDbDictionary
280
1
281
1
3
ACAD_ROUNDTRIP_2008_TABLESTYLE_CELLSTYLEMAP
360
1079
3
ACAD_XREC_ROUNDTRIP
360
10A6
0
DICTIONARY
5
108A
330
F99
100
AcDbDictionary
280
1
281
1
3
ACAD_XREC_ROUNDTRIP
360
108B
0
DICTIONARY
5
108E
330
F9B
100
AcDbDictionary
280
1
281
1
3
ACAD_XREC_ROUNDTRIP
360
108F
0
DICTIONARY
5
108C
330
F9A
100
AcDbDictionary
280
1
281
1
3
ACAD_XREC_ROUNDTRIP
360
108D
0
DICTIONARY
5
1088
330
F98
100
AcDbDictionary
280
1
281
1
3
ACAD_XREC_ROUNDTRIP
360
1089
0
DICTIONARY
5
1096
330
F9F
100
AcDbDictionary
280
1
281
1
3
ACAD_XREC_ROUNDTRIP
360
1097
0
DICTIONARY
5
109E
330
FA3
100
AcDbDictionary
280
1
281
1
3
ACAD_XREC_ROUNDTRIP
360
109F
0
DICTIONARY
5
1090
330
F9C
100
AcDbDictionary
280
1
281
1
3
ACAD_XREC_ROUNDTRIP
360
1091
0
DICTIONARY
5
1094
330
F9E
100
AcDbDictionary
280
1
281
1
3
ACAD_XREC_ROUNDTRIP
360
1095
0
DICTIONARY
5
10A4
330
FA6
100
AcDbDictionary
280
1
281
1
3
ACAD_XREC_ROUNDTRIP
360
10A5
0
DICTIONARY
5
109C
330
FA2
100
AcDbDictionary
280
1
281
1
3
ACAD_XREC_ROUNDTRIP
360
109D
0
DICTIONARY
5
1080
330
F94
100
AcDbDictionary
280
1
281
1
3
ACAD_XREC_ROUNDTRIP
360
1081
0
DICTIONARY
5
1082
330
F95
100
AcDbDictionary
280
1
281
1
3
ACAD_XREC_ROUNDTRIP
360
1083
0
DICTIONARY
5
1084
330
F96
100
AcDbDictionary
280
1
281
1
3
ACAD_XREC_ROUNDTRIP
360
1085
0
DICTIONARY
5
1086
330
F97
100
AcDbDictionary
280
1
281
1
3
ACAD_XREC_ROUNDTRIP
360
1087
0
DICTIONARY
5
10A0
330
FA4
100
AcDbDictionary
280
1
281
1
3
ACAD_XREC_ROUNDTRIP
360
10A1
0
DICTIONARY
5
109A
330
FA1
100
AcDbDictionary
280
1
281
1
3
ACAD_XREC_ROUNDTRIP
360
109B
0
DICTIONARY
5
10A2
330
FA5
100
AcDbDictionary
280
1
281
1
3
ACAD_XREC_ROUNDTRIP
360
10A3
0
DICTIONARY
5
1092
330
F9D
100
AcDbDictionary
280
1
281
1
3
ACAD_XREC_ROUNDTRIP
360
1093
0
DICTIONARY
5
1098
330
FA0
100
AcDbDictionary
280
1
281
1
3
ACAD_XREC_ROUNDTRIP
360
1099
0
XRECORD
5
10AA
102
{ACAD_REACTORS
330
10A9
102
}
330
10A9
100
AcDbXrecord
280
1
102
SHADEPLOT
70
0
102
SHADEPLOTRESLEVEL
70
2
102
SHADEPLOTCUSTOMDPI
70
300
0
XRECORD
5
10A8
102
{ACAD_REACTORS
330
10A7
102
}
330
10A7
100
AcDbXrecord
280
1
102
SHADEPLOT
70
0
102
SHADEPLOTRESLEVEL
70
2
102
SHADEPLOTCUSTOMDPI
70
300
0
XRECORD
5
FFF
102
{ACAD_REACTORS
330
F84
102
}
330
F84
100
AcDbXrecord
280
1
102
MATERIAL
148
0.0
149
0.0
149
0.0
93
0
94
127
282
0
72
0
77
0
171
0
175
0
179
0
273
0
0
XRECORD
5
F86
102
{ACAD_REACTORS
330
F84
102
}
330
F84
100
AcDbXrecord
280
1
270
1
271
1
0
XRECORD
5
F85
102
{ACAD_REACTORS
330
F84
102
}
330
F84
100
AcDbXrecord
280
1
270
1
271
1
0
XRECORD
5
F89
102
{ACAD_REACTORS
330
F84
102
}
330
F84
100
AcDbXrecord
280
1
270
1
271
1
0
XRECORD
5
F88
102
{ACAD_REACTORS
330
F84
102
}
330
F84
100
AcDbXrecord
280
1
270
1
271
1
0
XRECORD
5
F8A
102
{ACAD_REACTORS
330
F84
102
}
330
F84
100
AcDbXrecord
280
1
270
1
271
1
0
XRECORD
5
F87
102
{ACAD_REACTORS
330
F84
102
}
330
F84
100
AcDbXrecord
280
1
270
1
271
1
0
XRECORD
5
FFE
102
{ACAD_REACTORS
330
F7C
102
}
330
F7C
100
AcDbXrecord
280
1
102
MATERIAL
148
0.0
149
0.0
149
0.0
93
0
94
127
282
0
72
0
77
0
171
0
175
0
179
0
273
0
0
XRECORD
5
F7E
102
{ACAD_REACTORS
330
F7C
102
}
330
F7C
100
AcDbXrecord
280
1
270
1
271
1
0
XRECORD
5
F7D
102
{ACAD_REACTORS
330
F7C
102
}
330
F7C
100
AcDbXrecord
280
1
270
1
271
1
0
XRECORD
5
F81
102
{ACAD_REACTORS
330
F7C
102
}
330
F7C
100
AcDbXrecord
280
1
270
1
271
1
0
XRECORD
5
F80
102
{ACAD_REACTORS
330
F7C
102
}
330
F7C
100
AcDbXrecord
280
1
270
1
271
1
0
XRECORD
5
F82
102
{ACAD_REACTORS
330
F7C
102
}
330
F7C
100
AcDbXrecord
280
1
270
1
271
1
0
XRECORD
5
F7F
102
{ACAD_REACTORS
330
F7C
102
}
330
F7C
100
AcDbXrecord
280
1
270
1
271
1
0
XRECORD
5
1000
102
{ACAD_REACTORS
330
F8C
102
}
330
F8C
100
AcDbXrecord
280
1
102
MATERIAL
148
0.0
149
0.0
149
0.0
93
0
94
127
282
0
72
0
77
0
171
0
175
0
179
0
273
0
0
XRECORD
5
F8E
102
{ACAD_REACTORS
330
F8C
102
}
330
F8C
100
AcDbXrecord
280
1
270
1
271
1
0
XRECORD
5
F8D
102
{ACAD_REACTORS
330
F8C
102
}
330
F8C
100
AcDbXrecord
280
1
270
1
271
1
0
XRECORD
5
F91
102
{ACAD_REACTORS
330
F8C
102
}
330
F8C
100
AcDbXrecord
280
1
270
1
271
1
0
XRECORD
5
F90
102
{ACAD_REACTORS
330
F8C
102
}
330
F8C
100
AcDbXrecord
280
1
270
1
271
1
0
XRECORD
5
F92
102
{ACAD_REACTORS
330
F8C
102
}
330
F8C
100
AcDbXrecord
280
1
270
1
271
1
0
XRECORD
5
F8F
102
{ACAD_REACTORS
330
F8C
102
}
330
F8C
100
AcDbXrecord
280
1
270
1
271
1
0
CELLSTYLEMAP
5
1079
102
{ACAD_REACTORS
330
FF8
102
}
330
FF8
100
AcDbCellStyleMap
90
3
300
CELLSTYLE
1
TABLEFORMAT_BEGIN
90
5
170
1
91
0
92
32768
62
257
93
1
300
CONTENTFORMAT
1
CONTENTFORMAT_BEGIN
90
0
91
0
92
512
93
0
300

40
0.0
140
1.0
94
5
62
0
340
253
144
0.25
309
CONTENTFORMAT_END
171
1
301
MARGIN
1
CELLMARGIN_BEGIN
40
0.06
40
0.06
40
0.06
40
0.06
40
0.18
40
0.18
309
CELLMARGIN_END
94
6
95
1
302
GRIDFORMAT
1
GRIDFORMAT_BEGIN
90
0
91
1
62
0
92
-2
340
0
93
0
40
0.045
309
GRIDFORMAT_END
95
2
302
GRIDFORMAT
1
GRIDFORMAT_BEGIN
90
0
91
1
62
0
92
-2
340
0
93
0
40
0.045
309
GRIDFORMAT_END
95
4
302
GRIDFORMAT
1
GRIDFORMAT_BEGIN
90
0
91
1
62
0
92
-2
340
0
93
0
40
0.045
309
GRIDFORMAT_END
95
8
302
GRIDFORMAT
1
GRIDFORMAT_BEGIN
90
0
91
1
62
0
92
-2
340
0
93
0
40
0.045
309
GRIDFORMAT_END
95
16
302
GRIDFORMAT
1
GRIDFORMAT_BEGIN
90
0
91
1
62
0
92
-2
340
0
93
0
40
0.045
309
GRIDFORMAT_END
95
32
302
GRIDFORMAT
1
GRIDFORMAT_BEGIN
90
0
91
1
62
0
92
-2
340
0
93
0
40
0.045
309
GRIDFORMAT_END
309
TABLEFORMAT_END
1
CELLSTYLE_BEGIN
90
1
91
1
300
_TITLE
309
CELLSTYLE_END
300
CELLSTYLE
1
TABLEFORMAT_BEGIN
90
5
170
1
91
0
92
0
62
257
93
1
300
CONTENTFORMAT
1
CONTENTFORMAT_BEGIN
90
0
91
0
92
512
93
0
300

40
0.0
140
1.0
94
5
62
0
340
253
144
0.18
309
CONTENTFORMAT_END
171
1
301
MARGIN
1
CELLMARGIN_BEGIN
40
0.06
40
0.06
40
0.06
40
0.06
40
0.18
40
0.18
309
CELLMARGIN_END
94
6
95
1
302
GRIDFORMAT
1
GRIDFORMAT_BEGIN
90
0
91
1
62
0
92
-2
340
0
93
0
40
0.045
309
GRIDFORMAT_END
95
2
302
GRIDFORMAT
1
GRIDFORMAT_BEGIN
90
0
91
1
62
0
92
-2
340
0
93
0
40
0.045
309
GRIDFORMAT_END
95
4
302
GRIDFORMAT
1
GRIDFORMAT_BEGIN
90
0
91
1
62
0
92
-2
340
0
93
0
40
0.045
309
GRIDFORMAT_END
95
8
302
GRIDFORMAT
1
GRIDFORMAT_BEGIN
90
0
91
1
62
0
92
-2
340
0
93
0
40
0.045
309
GRIDFORMAT_END
95
16
302
GRIDFORMAT
1
GRIDFORMAT_BEGIN
90
0
91
1
62
0
92
-2
340
0
93
0
40
0.045
309
GRIDFORMAT_END
95
32
302
GRIDFORMAT
1
GRIDFORMAT_BEGIN
90
0
91
1
62
0
92
-2
340
0
93
0
40
0.045
309
GRIDFORMAT_END
309
TABLEFORMAT_END
1
CELLSTYLE_BEGIN
90
2
91
1
300
_HEADER
309
CELLSTYLE_END
300
CELLSTYLE
1
TABLEFORMAT_BEGIN
90
5
170
1
91
0
92
0
62
257
93
1
300
CONTENTFORMAT
1
CONTENTFORMAT_BEGIN
90
0
91
0
92
512
93
0
300

40
0.0
140
1.0
94
2
62
0
340
253
144
0.18
309
CONTENTFORMAT_END
171
1
301
MARGIN
1
CELLMARGIN_BEGIN
40
0.06
40
0.06
40
0.06
40
0.06
40
0.18
40
0.18
309
CELLMARGIN_END
94
6
95
1
302
GRIDFORMAT
1
GRIDFORMAT_BEGIN
90
0
91
1
62
0
92
-2
340
0
93
0
40
0.045
309
GRIDFORMAT_END
95
2
302
GRIDFORMAT
1
GRIDFORMAT_BEGIN
90
0
91
1
62
0
92
-2
340
0
93
0
40
0.045
309
GRIDFORMAT_END
95
4
302
GRIDFORMAT
1
GRIDFORMAT_BEGIN
90
0
91
1
62
0
92
-2
340
0
93
0
40
0.045
309
GRIDFORMAT_END
95
8
302
GRIDFORMAT
1
GRIDFORMAT_BEGIN
90
0
91
1
62
0
92
-2
340
0
93
0
40
0.045
309
GRIDFORMAT_END
95
16
302
GRIDFORMAT
1
GRIDFORMAT_BEGIN
90
0
91
1
62
0
92
-2
340
0
93
0
40
0.045
309
GRIDFORMAT_END
95
32
302
GRIDFORMAT
1
GRIDFORMAT_BEGIN
90
0
91
1
62
0
92
-2
340
0
93
0
40
0.045
309
GRIDFORMAT_END
309
TABLEFORMAT_END
1
CELLSTYLE_BEGIN
90
3
91
2
300
_DATA
309
CELLSTYLE_END
0
XRECORD
5
10A6
102
{ACAD_REACTORS
330
FF8
102
}
330
FF8
100
AcDbXrecord
280
1
102
ACAD_ROUNDTRIP_PRE2007_TABLESTYLE
90
512
91
0
1

92
512
93
0
2

94
512
95
0
3

0
XRECORD
5
108B
102
{ACAD_REACTORS
330
108A
102
}
330
108A
100
AcDbXrecord
280
1
102
RTVSPropertyOp0
70
1
102
RTVSPropertyOp1
70
1
102
RTVSPropertyOp2
70
1
102
RTVSPropertyOp3
70
1
102
RTVSPropertyOp4
70
1
102
RTVSPropertyOp5
70
1
102
RTVSPropertyOp6
70
1
102
RTVSPropertyOp7
70
1
102
RTVSPropertyOp8
70
1
102
RTVSPropertyOp9
70
1
102
RTVSPropertyOp10
70
1
102
RTVSPropertyOp11
70
1
102
RTVSPropertyOp12
70
1
102
RTVSPropertyOp13
70
1
102
RTVSPropertyOp14
70
1
102
RTVSPropertyOp15
70
1
102
RTVSPropertyOp16
70
1
102
RTVSPropertyOp17
70
1
102
RTVSPropertyOp18
70
1
102
RTVSPropertyOp19
70
1
102
RTVSPropertyOp20
70
1
102
RTVSPropertyOp21
70
1
102
RTVSPropertyOp22
70
1
102
RTVSPropertyOp23
70
1
102
RTVSPropertyOp24
70
1
102
RTVSPropertyOp25
70
1
102
RTVSPropertyOp26
70
1
102
RTVSPropertyOp27
70
1
0
XRECORD
5
108F
102
{ACAD_REACTORS
330
108E
102
}
330
108E
100
AcDbXrecord
280
1
102
RTVSPropertyOp0
70
1
102
RTVSPropertyOp1
70
1
102
RTVSPropertyOp2
70
1
102
RTVSPropertyOp3
70
1
102
RTVSPropertyOp4
70
1
102
RTVSPropertyOp5
70
1
102
RTVSPropertyOp6
70
1
102
RTVSPropertyOp7
70
1
102
RTVSPropertyOp8
70
1
102
RTVSPropertyOp9
70
1
102
RTVSPropertyOp10
70
1
102
RTVSPropertyOp11
70
1
102
RTVSPropertyOp12
70
1
102
RTVSPropertyOp13
70
1
102
RTVSPropertyOp14
70
1
102
RTVSPropertyOp15
70
1
102
RTVSPropertyOp16
70
1
102
RTVSPropertyOp17
70
1
102
RTVSPropertyOp18
70
1
102
RTVSPropertyOp19
70
1
102
RTVSPropertyOp20
70
1
102
RTVSPropertyOp21
70
1
102
RTVSPropertyOp22
70
1
102
RTVSPropertyOp23
70
1
102
RTVSPropertyOp24
70
1
102
RTVSPropertyOp25
70
1
102
RTVSPropertyOp26
70
1
102
RTVSPropertyOp27
70
1
0
XRECORD
5
108D
102
{ACAD_REACTORS
330
108C
102
}
330
108C
100
AcDbXrecord
280
1
102
RTVSPropertyOp0
70
1
102
RTVSPropertyOp1
70
1
102
RTVSPropertyOp2
70
1
102
RTVSPropertyOp3
70
1
102
RTVSPropertyOp4
70
1
102
RTVSPropertyOp5
70
1
102
RTVSPropertyOp6
70
1
102
RTVSPropertyOp7
70
1
102
RTVSPropertyOp8
70
1
102
RTVSPropertyOp9
70
1
102
RTVSPropertyOp10
70
1
102
RTVSPropertyOp11
70
1
102
RTVSPropertyOp12
70
1
102
RTVSPropertyOp13
70
1
102
RTVSPropertyOp14
70
1
102
RTVSPropertyOp15
70
1
102
RTVSPropertyOp16
70
1
102
RTVSPropertyOp17
70
1
102
RTVSPropertyOp18
70
1
102
RTVSPropertyOp19
70
1
102
RTVSPropertyOp20
70
1
102
RTVSPropertyOp21
70
1
102
RTVSPropertyOp22
70
1
102
RTVSPropertyOp23
70
1
102
RTVSPropertyOp24
70
1
102
RTVSPropertyOp25
70
1
102
RTVSPropertyOp26
70
1
102
RTVSPropertyOp27
70
1
0
XRECORD
5
1089
102
{ACAD_REACTORS
330
1088
102
}
330
1088
100
AcDbXrecord
280
1
102
RTVSPropertyOp0
70
1
102
RTVSPropertyOp1
70
1
102
RTVSPropertyOp2
70
1
102
RTVSPropertyOp3
70
1
102
RTVSPropertyOp4
70
1
102
RTVSPropertyOp5
70
1
102
RTVSPropertyOp6
70
1
102
RTVSPropertyOp7
70
1
102
RTVSPropertyOp8
70
1
102
RTVSPropertyOp9
70
1
102
RTVSPropertyOp10
70
1
102
RTVSPropertyOp11
70
1
102
RTVSPropertyOp12
70
1
102
RTVSPropertyOp13
70
1
102
RTVSPropertyOp14
70
1
102
RTVSPropertyOp15
70
1
102
RTVSPropertyOp16
70
1
102
RTVSPropertyOp17
70
1
102
RTVSPropertyOp18
70
1
102
RTVSPropertyOp19
70
1
102
RTVSPropertyOp20
70
1
102
RTVSPropertyOp21
70
1
102
RTVSPropertyOp22
70
1
102
RTVSPropertyOp23
70
1
102
RTVSPropertyOp24
70
1
102
RTVSPropertyOp25
70
1
102
RTVSPropertyOp26
70
1
102
RTVSPropertyOp27
70
1
0
XRECORD
5
1097
102
{ACAD_REACTORS
330
1096
102
}
330
1096
100
AcDbXrecord
280
1
102
RTVSPropertyOp0
70
1
102
RTVSPropertyOp1
70
1
102
RTVSPropertyOp2
70
1
102
RTVSPropertyOp3
70
1
102
RTVSPropertyOp4
70
1
102
RTVSPropertyOp5
70
1
102
RTVSPropertyOp6
70
1
102
RTVSPropertyOp7
70
1
102
RTVSPropertyOp8
70
1
102
RTVSPropertyOp9
70
1
102
RTVSPropertyOp10
70
1
102
RTVSPropertyOp11
70
1
102
RTVSPropertyOp12
70
1
102
RTVSPropertyOp13
70
1
102
RTVSPropertyOp14
70
1
102
RTVSPropertyOp15
70
1
102
RTVSPropertyOp16
70
1
102
RTVSPropertyOp17
70
1
102
RTVSPropertyOp18
70
1
102
RTVSPropertyOp19
70
1
102
RTVSPropertyOp20
70
1
102
RTVSPropertyOp21
70
1
102
RTVSPropertyOp22
70
1
102
RTVSPropertyOp23
70
1
102
RTVSPropertyOp24
70
1
102
RTVSPropertyOp25
70
1
102
RTVSPropertyOp26
70
1
102
RTVSPropertyOp27
70
1
0
XRECORD
5
109F
102
{ACAD_REACTORS
330
109E
102
}
330
109E
100
AcDbXrecord
280
1
102
RTVSPropertyOp0
70
1
102
RTVSPropertyOp1
70
1
102
RTVSPropertyOp2
70
1
102
RTVSPropertyOp3
70
1
102
RTVSPropertyOp4
70
1
102
RTVSPropertyOp5
70
1
102
RTVSPropertyOp6
70
1
102
RTVSPropertyOp7
70
1
102
RTVSPropertyOp8
70
1
102
RTVSPropertyOp9
70
1
102
RTVSPropertyOp10
70
1
102
RTVSPropertyOp11
70
1
102
RTVSPropertyOp12
70
1
102
RTVSPropertyOp13
70
1
102
RTVSPropertyOp14
70
1
102
RTVSPropertyOp15
70
1
102
RTVSPropertyOp16
70
1
102
RTVSPropertyOp17
70
1
102
RTVSPropertyOp18
70
1
102
RTVSPropertyOp19
70
1
102
RTVSPropertyOp20
70
1
102
RTVSPropertyOp21
70
1
102
RTVSPropertyOp22
70
1
102
RTVSPropertyOp23
70
1
102
RTVSPropertyOp24
70
1
102
RTVSPropertyOp25
70
1
102
RTVSPropertyOp26
70
1
102
RTVSPropertyOp27
70
1
0
XRECORD
5
1091
102
{ACAD_REACTORS
330
1090
102
}
330
1090
100
AcDbXrecord
280
1
102
RTVSPropertyOp0
70
1
102
RTVSPropertyOp1
70
1
102
RTVSPropertyOp2
70
1
102
RTVSPropertyOp3
70
1
102
RTVSPropertyOp4
70
1
102
RTVSPropertyOp5
70
1
102
RTVSPropertyOp6
70
1
102
RTVSPropertyOp7
70
1
102
RTVSPropertyOp8
70
1
102
RTVSPropertyOp9
70
1
102
RTVSPropertyOp10
70
1
102
RTVSPropertyOp11
70
1
102
RTVSPropertyOp12
70
1
102
RTVSPropertyOp13
70
1
102
RTVSPropertyOp14
70
1
102
RTVSPropertyOp15
70
1
102
RTVSPropertyOp16
70
1
102
RTVSPropertyOp17
70
1
102
RTVSPropertyOp18
70
1
102
RTVSPropertyOp19
70
1
102
RTVSPropertyOp20
70
1
102
RTVSPropertyOp21
70
1
102
RTVSPropertyOp22
70
1
102
RTVSPropertyOp23
70
1
102
RTVSPropertyOp24
70
1
102
RTVSPropertyOp25
70
1
102
RTVSPropertyOp26
70
1
102
RTVSPropertyOp27
70
1
0
XRECORD
5
1095
102
{ACAD_REACTORS
330
1094
102
}
330
1094
100
AcDbXrecord
280
1
102
RTVSPropertyOp0
70
1
102
RTVSPropertyOp1
70
1
102
RTVSPropertyOp2
70
1
102
RTVSPropertyOp3
70
1
102
RTVSPropertyOp4
70
1
102
RTVSPropertyOp5
70
1
102
RTVSPropertyOp6
70
1
102
RTVSPropertyOp7
70
1
102
RTVSPropertyOp8
70
1
102
RTVSPropertyOp9
70
1
102
RTVSPropertyOp10
70
1
102
RTVSPropertyOp11
70
1
102
RTVSPropertyOp12
70
1
102
RTVSPropertyOp13
70
1
102
RTVSPropertyOp14
70
1
102
RTVSPropertyOp15
70
1
102
RTVSPropertyOp16
70
1
102
RTVSPropertyOp17
70
1
102
RTVSPropertyOp18
70
1
102
RTVSPropertyOp19
70
1
102
RTVSPropertyOp20
70
1
102
RTVSPropertyOp21
70
1
102
RTVSPropertyOp22
70
1
102
RTVSPropertyOp23
70
1
102
RTVSPropertyOp24
70
1
102
RTVSPropertyOp25
70
1
102
RTVSPropertyOp26
70
1
102
RTVSPropertyOp27
70
1
0
XRECORD
5
10A5
102
{ACAD_REACTORS
330
10A4
102
}
330
10A4
100
AcDbXrecord
280
1
102
RTVSPropertyOp0
70
0
102
RTVSPropertyOp1
70
0
102
RTVSPropertyOp2
70
0
102
RTVSPropertyOp3
70
0
102
RTVSPropertyOp4
70
0
102
RTVSPropertyOp5
70
0
102
RTVSPropertyOp6
70
0
102
RTVSPropertyOp7
70
0
102
RTVSPropertyOp8
70
0
102
RTVSPropertyOp9
70
0
102
RTVSPropertyOp10
70
0
102
RTVSPropertyOp11
70
0
102
RTVSPropertyOp12
70
0
102
RTVSPropertyOp13
70
0
102
RTVSPropertyOp14
70
2
102
RTVSPropertyOp15
70
0
102
RTVSPropertyOp16
70
0
102
RTVSPropertyOp17
70
0
102
RTVSPropertyOp18
70
0
102
RTVSPropertyOp19
70
0
102
RTVSPropertyOp20
70
0
102
RTVSPropertyOp21
70
0
102
RTVSPropertyOp22
70
0
102
RTVSPropertyOp23
70
0
102
RTVSPropertyOp24
70
0
102
RTVSPropertyOp25
70
0
102
RTVSPropertyOp26
70
0
102
RTVSPropertyOp27
70
0
0
XRECORD
5
109D
102
{ACAD_REACTORS
330
109C
102
}
330
109C
100
AcDbXrecord
280
1
102
RTVSPropertyOp0
70
1
102
RTVSPropertyOp1
70
1
102
RTVSPropertyOp2
70
1
102
RTVSPropertyOp3
70
1
102
RTVSPropertyOp4
70
1
102
RTVSPropertyOp5
70
1
102
RTVSPropertyOp6
70
1
102
RTVSPropertyOp7
70
1
102
RTVSPropertyOp8
70
1
102
RTVSPropertyOp9
70
1
102
RTVSPropertyOp10
70
1
102
RTVSPropertyOp11
70
1
102
RTVSPropertyOp12
70
1
102
RTVSPropertyOp13
70
1
102
RTVSPropertyOp14
70
1
102
RTVSPropertyOp15
70
1
102
RTVSPropertyOp16
70
1
102
RTVSPropertyOp17
70
1
102
RTVSPropertyOp18
70
1
102
RTVSPropertyOp19
70
1
102
RTVSPropertyOp20
70
1
102
RTVSPropertyOp21
70
1
102
RTVSPropertyOp22
70
1
102
RTVSPropertyOp23
70
1
102
RTVSPropertyOp24
70
1
102
RTVSPropertyOp25
70
1
102
RTVSPropertyOp26
70
1
102
RTVSPropertyOp27
70
1
0
XRECORD
5
1081
102
{ACAD_REACTORS
330
1080
102
}
330
1080
100
AcDbXrecord
280
1
102
RTVSPropertyOp0
70
1
102
RTVSPropertyOp1
70
1
102
RTVSPropertyOp2
70
1
102
RTVSPropertyOp3
70
1
102
RTVSPropertyOp4
70
1
102
RTVSPropertyOp5
70
1
102
RTVSPropertyOp6
70
1
102
RTVSPropertyOp7
70
1
102
RTVSPropertyOp8
70
1
102
RTVSPropertyOp9
70
1
102
RTVSPropertyOp10
70
1
102
RTVSPropertyOp11
70
1
102
RTVSPropertyOp12
70
1
102
RTVSPropertyOp13
70
1
102
RTVSPropertyOp14
70
1
102
RTVSPropertyOp15
70
1
102
RTVSPropertyOp16
70
1
102
RTVSPropertyOp17
70
1
102
RTVSPropertyOp18
70
1
102
RTVSPropertyOp19
70
1
102
RTVSPropertyOp20
70
1
102
RTVSPropertyOp21
70
1
102
RTVSPropertyOp22
70
1
102
RTVSPropertyOp23
70
1
102
RTVSPropertyOp24
70
1
102
RTVSPropertyOp25
70
1
102
RTVSPropertyOp26
70
1
102
RTVSPropertyOp27
70
1
0
XRECORD
5
1083
102
{ACAD_REACTORS
330
1082
102
}
330
1082
100
AcDbXrecord
280
1
102
RTVSPropertyOp0
70
1
102
RTVSPropertyOp1
70
1
102
RTVSPropertyOp2
70
1
102
RTVSPropertyOp3
70
1
102
RTVSPropertyOp4
70
1
102
RTVSPropertyOp5
70
1
102
RTVSPropertyOp6
70
1
102
RTVSPropertyOp7
70
1
102
RTVSPropertyOp8
70
1
102
RTVSPropertyOp9
70
1
102
RTVSPropertyOp10
70
1
102
RTVSPropertyOp11
70
1
102
RTVSPropertyOp12
70
1
102
RTVSPropertyOp13
70
1
102
RTVSPropertyOp14
70
1
102
RTVSPropertyOp15
70
1
102
RTVSPropertyOp16
70
1
102
RTVSPropertyOp17
70
1
102
RTVSPropertyOp18
70
1
102
RTVSPropertyOp19
70
1
102
RTVSPropertyOp20
70
1
102
RTVSPropertyOp21
70
1
102
RTVSPropertyOp22
70
1
102
RTVSPropertyOp23
70
1
102
RTVSPropertyOp24
70
1
102
RTVSPropertyOp25
70
1
102
RTVSPropertyOp26
70
1
102
RTVSPropertyOp27
70
1
0
XRECORD
5
1085
102
{ACAD_REACTORS
330
1084
102
}
330
1084
100
AcDbXrecord
280
1
102
RTVSPropertyOp0
70
1
102
RTVSPropertyOp1
70
1
102
RTVSPropertyOp2
70
1
102
RTVSPropertyOp3
70
1
102
RTVSPropertyOp4
70
1
102
RTVSPropertyOp5
70
1
102
RTVSPropertyOp6
70
1
102
RTVSPropertyOp7
70
1
102
RTVSPropertyOp8
70
1
102
RTVSPropertyOp9
70
1
102
RTVSPropertyOp10
70
1
102
RTVSPropertyOp11
70
1
102
RTVSPropertyOp12
70
1
102
RTVSPropertyOp13
70
1
102
RTVSPropertyOp14
70
1
102
RTVSPropertyOp15
70
1
102
RTVSPropertyOp16
70
1
102
RTVSPropertyOp17
70
1
102
RTVSPropertyOp18
70
1
102
RTVSPropertyOp19
70
1
102
RTVSPropertyOp20
70
1
102
RTVSPropertyOp21
70
1
102
RTVSPropertyOp22
70
1
102
RTVSPropertyOp23
70
1
102
RTVSPropertyOp24
70
1
102
RTVSPropertyOp25
70
1
102
RTVSPropertyOp26
70
1
102
RTVSPropertyOp27
70
1
0
XRECORD
5
1087
102
{ACAD_REACTORS
330
1086
102
}
330
1086
100
AcDbXrecord
280
1
102
RTVSPropertyOp0
70
1
102
RTVSPropertyOp1
70
1
102
RTVSPropertyOp2
70
1
102
RTVSPropertyOp3
70
1
102
RTVSPropertyOp4
70
1
102
RTVSPropertyOp5
70
1
102
RTVSPropertyOp6
70
1
102
RTVSPropertyOp7
70
1
102
RTVSPropertyOp8
70
1
102
RTVSPropertyOp9
70
1
102
RTVSPropertyOp10
70
1
102
RTVSPropertyOp11
70
1
102
RTVSPropertyOp12
70
1
102
RTVSPropertyOp13
70
1
102
RTVSPropertyOp14
70
1
102
RTVSPropertyOp15
70
1
102
RTVSPropertyOp16
70
1
102
RTVSPropertyOp17
70
1
102
RTVSPropertyOp18
70
1
102
RTVSPropertyOp19
70
1
102
RTVSPropertyOp20
70
1
102
RTVSPropertyOp21
70
1
102
RTVSPropertyOp22
70
1
102
RTVSPropertyOp23
70
1
102
RTVSPropertyOp24
70
1
102
RTVSPropertyOp25
70
1
102
RTVSPropertyOp26
70
1
102
RTVSPropertyOp27
70
1
0
XRECORD
5
10A1
102
{ACAD_REACTORS
330
10A0
102
}
330
10A0
100
AcDbXrecord
280
1
102
RTVSPropertyOp0
70
0
102
RTVSPropertyOp1
70
0
102
RTVSPropertyOp2
70
0
102
RTVSPropertyOp3
70
0
102
RTVSPropertyOp4
70
0
102
RTVSPropertyOp5
70
0
102
RTVSPropertyOp6
70
0
102
RTVSPropertyOp7
70
0
102
RTVSPropertyOp8
70
0
102
RTVSPropertyOp9
70
0
102
RTVSPropertyOp10
70
0
102
RTVSPropertyOp11
70
0
102
RTVSPropertyOp12
70
0
102
RTVSPropertyOp13
70
0
102
RTVSPropertyOp14
70
2
102
RTVSPropertyOp15
70
0
102
RTVSPropertyOp16
70
0
102
RTVSPropertyOp17
70
0
102
RTVSPropertyOp18
70
0
102
RTVSPropertyOp19
70
0
102
RTVSPropertyOp20
70
0
102
RTVSPropertyOp21
70
0
102
RTVSPropertyOp22
70
0
102
RTVSPropertyOp23
70
0
102
RTVSPropertyOp24
70
0
102
RTVSPropertyOp25
70
0
102
RTVSPropertyOp26
70
0
102
RTVSPropertyOp27
70
0
0
XRECORD
5
109B
102
{ACAD_REACTORS
330
109A
102
}
330
109A
100
AcDbXrecord
280
1
102
RTVSPropertyOp0
70
1
102
RTVSPropertyOp1
70
1
102
RTVSPropertyOp2
70
1
102
RTVSPropertyOp3
70
1
102
RTVSPropertyOp4
70
1
102
RTVSPropertyOp5
70
1
102
RTVSPropertyOp6
70
1
102
RTVSPropertyOp7
70
1
102
RTVSPropertyOp8
70
1
102
RTVSPropertyOp9
70
1
102
RTVSPropertyOp10
70
1
102
RTVSPropertyOp11
70
1
102
RTVSPropertyOp12
70
1
102
RTVSPropertyOp13
70
1
102
RTVSPropertyOp14
70
1
102
RTVSPropertyOp15
70
1
102
RTVSPropertyOp16
70
1
102
RTVSPropertyOp17
70
1
102
RTVSPropertyOp18
70
1
102
RTVSPropertyOp19
70
1
102
RTVSPropertyOp20
70
1
102
RTVSPropertyOp21
70
1
102
RTVSPropertyOp22
70
1
102
RTVSPropertyOp23
70
1
102
RTVSPropertyOp24
70
1
102
RTVSPropertyOp25
70
1
102
RTVSPropertyOp26
70
1
102
RTVSPropertyOp27
70
1
0
XRECORD
5
10A3
102
{ACAD_REACTORS
330
10A2
102
}
330
10A2
100
AcDbXrecord
280
1
102
RTVSPropertyOp0
70
0
102
RTVSPropertyOp1
70
0
102
RTVSPropertyOp2
70
0
102
RTVSPropertyOp3
70
0
102
RTVSPropertyOp4
70
0
102
RTVSPropertyOp5
70
0
102
RTVSPropertyOp6
70
0
102
RTVSPropertyOp7
70
0
102
RTVSPropertyOp8
70
0
102
RTVSPropertyOp9
70
0
102
RTVSPropertyOp10
70
0
102
RTVSPropertyOp11
70
0
102
RTVSPropertyOp12
70
0
102
RTVSPropertyOp13
70
0
102
RTVSPropertyOp14
70
2
102
RTVSPropertyOp15
70
0
102
RTVSPropertyOp16
70
0
102
RTVSPropertyOp17
70
0
102
RTVSPropertyOp18
70
0
102
RTVSPropertyOp19
70
0
102
RTVSPropertyOp20
70
0
102
RTVSPropertyOp21
70
0
102
RTVSPropertyOp22
70
0
102
RTVSPropertyOp23
70
0
102
RTVSPropertyOp24
70
0
102
RTVSPropertyOp25
70
0
102
RTVSPropertyOp26
70
0
102
RTVSPropertyOp27
70
0
0
XRECORD
5
1093
102
{ACAD_REACTORS
330
1092
102
}
330
1092
100
AcDbXrecord
280
1
102
RTVSPropertyOp0
70
1
102
RTVSPropertyOp1
70
1
102
RTVSPropertyOp2
70
1
102
RTVSPropertyOp3
70
1
102
RTVSPropertyOp4
70
1
102
RTVSPropertyOp5
70
1
102
RTVSPropertyOp6
70
1
102
RTVSPropertyOp7
70
1
102
RTVSPropertyOp8
70
1
102
RTVSPropertyOp9
70
1
102
RTVSPropertyOp10
70
1
102
RTVSPropertyOp11
70
1
102
RTVSPropertyOp12
70
1
102
RTVSPropertyOp13
70
1
102
RTVSPropertyOp14
70
1
102
RTVSPropertyOp15
70
1
102
RTVSPropertyOp16
70
1
102
RTVSPropertyOp17
70
1
102
RTVSPropertyOp18
70
1
102
RTVSPropertyOp19
70
1
102
RTVSPropertyOp20
70
1
102
RTVSPropertyOp21
70
1
102
RTVSPropertyOp22
70
1
102
RTVSPropertyOp23
70
1
102
RTVSPropertyOp24
70
1
102
RTVSPropertyOp25
70
1
102
RTVSPropertyOp26
70
1
102
RTVSPropertyOp27
70
1
0
XRECORD
5
1099
102
{ACAD_REACTORS
330
1098
102
}
330
1098
100
AcDbXrecord
280
1
102
RTVSPropertyOp0
70
1
102
RTVSPropertyOp1
70
1
102
RTVSPropertyOp2
70
1
102
RTVSPropertyOp3
70
1
102
RTVSPropertyOp4
70
1
102
RTVSPropertyOp5
70
1
102
RTVSPropertyOp6
70
1
102
RTVSPropertyOp7
70
1
102
RTVSPropertyOp8
70
1
102
RTVSPropertyOp9
70
1
102
RTVSPropertyOp10
70
1
102
RTVSPropertyOp11
70
1
102
RTVSPropertyOp12
70
1
102
RTVSPropertyOp13
70
1
102
RTVSPropertyOp14
70
1
102
RTVSPropertyOp15
70
1
102
RTVSPropertyOp16
70
1
102
RTVSPropertyOp17
70
1
102
RTVSPropertyOp18
70
1
102
RTVSPropertyOp19
70
1
102
RTVSPropertyOp20
70
1
102
RTVSPropertyOp21
70
1
102
RTVSPropertyOp22
70
1
102
RTVSPropertyOp23
70
1
102
RTVSPropertyOp24
70
1
102
RTVSPropertyOp25
70
1
102
RTVSPropertyOp26
70
1
102
RTVSPropertyOp27
70
1
0
ENDSEC
0
EOF
