0
SECTION
2
HEADER
9
$ACADVER
1
AC1015
9
$ACADMAINTVER
70
20
9
$DWGCODEPAGE
3
ANSI_1252
9
$INSBASE
10
0.0
20
0.0
30
0.0
9
$EXTMIN
10
-150.000000000000
20
-105.000000000000
30
0.0
9
$EXTMAX
10
150.000000000000
20
105.000000000000
30
0.0
9
$LIMMIN
10
0.0
20
0.0
9
$LIMMAX
10
12.0
20
9.0
9
$ORTHOMODE
70
0
9
$REGENMODE
70
1
9
$FILLMODE
70
1
9
$QTEXTMODE
70
0
9
$MIRRTEXT
70
1
9
$LTSCALE
40
1.0
9
$ATTMODE
70
1
9
$TEXTSIZE
40
0.2
9
$TRACEWID
40
0.05
9
$TEXTSTYLE
7
Standard
9
$CLAYER
8
0
9
$CELTYPE
6
ByLayer
9
$CECOLOR
62
256
9
$CELTSCALE
40
1.0
9
$DISPSILH
70
0
9
$DIMSCALE
40
1.0
9
$DIMASZ
40
2.5
9
$DIMEXO
40
0.625
9
$DIMDLI
40
0.38
9
$DIMRND
40
0.0
9
$DIMDLE
40
0.0
9
$DIMEXE
40
1.25
9
$DIMTP
40
0.0
9
$DIMTM
40
0.000000001
9
$DIMTXT
40
2.5
9
$DIMCEN
40
0.09
9
$DIMTSZ
40
0.0
9
$DIMTOL
70
1
9
$DIMLIM
70
0
9
$DIMTIH
70
0
9
$DIMTOH
70
0
9
$DIMSE1
70
0
9
$DIMSE2
70
0
9
$DIMTAD
70
1
9
$DIMZIN
70
0
9
$DIMBLK
1
VDDIM_DEFAULT
9
$DIMASO
70
1
9
$DIMSHO
70
1
9
$DIMPOST
1

9
$DIMAPOST
1

9
$DIMALT
70
0
9
$DIMALTD
70
2
9
$DIMALTF
40
25.4
9
$DIMLFAC
40
1.00000000000000
9
$DIMTOFL
70
0
9
$DIMTVP
40
0.0
9
$DIMTIX
70
0
9
$DIMSOXD
70
0
9
$DIMSAH
70
0
9
$DIMBLK1
1

9
$DIMBLK2
1

9
$DIMSTYLE
2
BEM-ISBE
9
$DIMCLRD
70
0
9
$DIMCLRE
70
0
9
$DIMCLRT
70
0
9
$DIMTFAC
40
0.5
9
$DIMGAP
40
0.625
9
$DIMJUST
70
0
9
$DIMSD1
70
0
9
$DIMSD2
70
0
9
$DIMTOLJ
70
1
9
$DIMTZIN
70
0
9
$DIMALTZ
70
0
9
$DIMALTTZ
70
0
9
$DIMUPT
70
0
9
$DIMDEC
70
3
9
$DIMTDEC
70
3
9
$DIMALTU
70
2
9
$DIMALTTD
70
2
9
$DIMTXSTY
7
Standard
9
$DIMAUNIT
70
0
9
$DIMADEC
70
3
9
$DIMALTRND
40
0.0
9
$DIMAZIN
70
0
9
$DIMDSEP
70
46
9
$DIMATFIT
70
3
9
$DIMFRAC
70
0
9
$DIMLDRBLK
1

9
$DIMLUNIT
70
2
9
$DIMLWD
70
-2
9
$DIMLWE
70
-2
9
$DIMTMOVE
70
0
9
$LUNITS
70
2
9
$LUPREC
70
4
9
$SKETCHINC
40
0.1
9
$FILLETRAD
40
0.5
9
$AUNITS
70
0
9
$AUPREC
70
0
9
$MENU
1
.
9
$ELEVATION
40
0.0
9
$PELEVATION
40
0.0
9
$THICKNESS
40
0.0
9
$LIMCHECK
70
0
9
$CHAMFERA
40
0.5
9
$CHAMFERB
40
0.5
9
$CHAMFERC
40
1.0
9
$CHAMFERD
40
0.0
9
$SKPOLY
70
0
9
$TDCREATE
40
0.0
9
$TDUCREATE
40
0.0
9
$TDUPDATE
40
0.0
9
$TDUUPDATE
40
0.0
9
$TDINDWG
40
0.0
9
$TDUSRTIMER
40
0.0
9
$USRTIMER
70
1
9
$ANGBASE
50
0.0
9
$ANGDIR
70
0
9
$PDMODE
70
0
9
$PDSIZE
40
0.0
9
$PLINEWID
40
0.0
9
$SPLFRAME
70
0
9
$SPLINETYPE
70
6
9
$SPLINESEGS
70
8
9
$HANDSEED
5
10AB
9
$SURFTAB1
70
6
9
$SURFTAB2
70
6
9
$SURFTYPE
70
6
9
$SURFU
70
6
9
$SURFV
70
6
9
$UCSBASE
2

9
$UCSNAME
2

9
$UCSORG
10
0.0
20
0.0
30
0.0
9
$UCSXDIR
10
1.0
20
0.0
30
0.0
9
$UCSYDIR
10
0.0
20
1.0
30
0.0
9
$UCSORTHOREF
2

9
$UCSORTHOVIEW
70
0
9
$UCSORGTOP
10
0.0
20
0.0
30
0.0
9
$UCSORGBOTTOM
10
0.0
20
0.0
30
0.0
9
$UCSORGLEFT
10
0.0
20
0.0
30
0.0
9
$UCSORGRIGHT
10
0.0
20
0.0
30
0.0
9
$UCSORGFRONT
10
0.0
20
0.0
30
0.0
9
$UCSORGBACK
10
0.0
20
0.0
30
0.0
9
$PUCSBASE
2

9
$PUCSNAME
2

9
$PUCSORG
10
0.0
20
0.0
30
0.0
9
$PUCSXDIR
10
1.0
20
0.0
30
0.0
9
$PUCSYDIR
10
0.0
20
1.0
30
0.0
9
$PUCSORTHOREF
2

9
$PUCSORTHOVIEW
70
0
9
$PUCSORGTOP
10
0.0
20
0.0
30
0.0
9
$PUCSORGBOTTOM
10
0.0
20
0.0
30
0.0
9
$PUCSORGLEFT
10
0.0
20
0.0
30
0.0
9
$PUCSORGRIGHT
10
0.0
20
0.0
30
0.0
9
$PUCSORGFRONT
10
0.0
20
0.0
30
0.0
9
$PUCSORGBACK
10
0.0
20
0.0
30
0.0
9
$USERI1
70
0
9
$USERI2
70
0
9
$USERI3
70
0
9
$USERI4
70
0
9
$USERI5
70
0
9
$USERR1
40
0.0
9
$USERR2
40
0.0
9
$USERR3
40
0.0
9
$USERR4
40
0.0
9
$USERR5
40
0.0
9
$WORLDVIEW
70
1
9
$SHADEDGE
70
3
9
$SHADEDIF
70
70
9
$TILEMODE
70
1
9
$MAXACTVP
70
64
9
$PINSBASE
10
0.0
20
0.0
30
0.0
9
$PLIMCHECK
70
0
9
$PEXTMIN
10
1.000000000000000E+20
20
1.000000000000000E+20
30
1.000000000000000E+20
9
$PEXTMAX
10
-1.000000000000000E+20
20
-1.000000000000000E+20
30
-1.000000000000000E+20
9
$PLIMMIN
10
0.0
20
0.0
9
$PLIMMAX
10
12.0
20
9.0
9
$UNITMODE
70
0
9
$VISRETAIN
70
1
9
$PLINEGEN
70
0
9
$PSLTSCALE
70
1
9
$TREEDEPTH
70
3020
9
$CMLSTYLE
2
Standard
9
$CMLJUST
70
0
9
$CMLSCALE
40
1.0
9
$PROXYGRAPHICS
70
1
9
$MEASUREMENT
70
0
9
$CELWEIGHT
370
-1
9
$ENDCAPS
280
0
9
$JOINSTYLE
280
0
9
$LWDISPLAY
290
0
9
$INSUNITS
70
4
9
$HYPERLINKBASE
1

9
$STYLESHEET
1

9
$XEDIT
290
1
9
$CEPSNTYPE
380
0
9
$PSTYLEMODE
290
0
9
$FINGERPRINTGUID
2
{FAEB1C30-E019-11D5-929B-00C0DF256EC4}
9
$VERSIONGUID
2
{04C5C4E4-4947-4D90-8812-D401569E61F7}
9
$EXTNAMES
290
1
9
$PSVPSCALE
40
0.0
9
$OLESTARTUP
290
0
0
ENDSEC
0
SECTION
2
TABLES
0
TABLE
2
VPORT
5
24A
330
0
100
AcDbSymbolTable
70
1
0
VPORT
5
26B
330
24A
100
AcDbSymbolTableRecord
100
AcDbViewportTableRecord
2
*Active
70
0
10
0.0
20
0.0
11
1.0
21
1.0
12
0.000000000000000
22
0.000000000000000
13
0.0
23
0.0
14
10.0
24
10.0
15
10.0
25
10.0
16
0.0
26
0.0
36
1.0
17
0.0
27
0.0
37
0.0
40
210.000000000000
41
1.42857142857143
42
1.0
43
0.0
44
0.0
50
0.0
51
0.0000000000007958
71
0
72
100
73
1
74
3
75
0
76
0
77
0
78
1
281
0
65
1
110
0.0
120
0.0
130
0.0
111
1.0
121
0.0
131
0.0
112
0.0
122
1.0
132
0.0
79
0
146
0.0
0
ENDTAB
0
TABLE
2
LTYPE
5
247
330
0
100
AcDbSymbolTable
70
25
0
LTYPE
5
256
330
247
100
AcDbSymbolTableRecord
100
AcDbLinetypeTableRecord
2
ByBlock
70
0
3

72
65
73
0
40
0.0
0
LTYPE
5
257
330
247
100
AcDbSymbolTableRecord
100
AcDbLinetypeTableRecord
2
ByLayer
70
0
3

72
65
73
0
40
0.0
0
LTYPE
5
258
330
247
100
AcDbSymbolTableRecord
100
AcDbLinetypeTableRecord
2
Continuous
70
0
3
Solid line
72
65
73
0
40
0.0
0
LTYPE
5
273
330
247
100
AcDbSymbolTableRecord
100
AcDbLinetypeTableRecord
2
CENTER
70
0
3
Center ____ _ ____ _ ____ _ ____ _ ____ _ ____
72
65
73
4
40
2.0
49
1.25
74
0
49
-0.25
74
0
49
0.25
74
0
49
-0.25
74
0
0
LTYPE
5
274
330
247
100
AcDbSymbolTableRecord
100
AcDbLinetypeTableRecord
2
DASHDOT
70
0
3
Dashdot __ . __ . __ . __ . __ . __ . __ . __
72
65
73
4
40
1.0
49
0.5
74
0
49
-0.25
74
0
49
0.0
74
0
49
-0.25
74
0
0
LTYPE
5
275
330
247
100
AcDbSymbolTableRecord
100
AcDbLinetypeTableRecord
2
DASHED
70
0
3
Dashed __ __ __ __ __ __ __ __ __ __ __ __ __ _
72
65
73
2
40
0.75
49
0.5
74
0
49
-0.25
74
0
0
LTYPE
5
276
330
247
100
AcDbSymbolTableRecord
100
AcDbLinetypeTableRecord
2
HIDDEN
70
0
3
Hidden __ __ __ __ __ __ __ __ __ __ __ __ __ __
72
65
73
2
40
0.375
49
0.25
74
0
49
-0.125
74
0
0
LTYPE
5
277
330
247
100
AcDbSymbolTableRecord
100
AcDbLinetypeTableRecord
2
HIDDEN2
70
0
3
Hidden2 _ _ _ _ _ _ _ _ _ _ _ _ _ _ _ _ _
72
65
73
2
40
0.1875
49
0.125
74
0
49
-0.0625
74
0
0
LTYPE
5
278
330
247
100
AcDbSymbolTableRecord
100
AcDbLinetypeTableRecord
2
BORDER
70
0
3
Border __ __ . __ __ . __ __ . __ __ . __ __ .
72
65
73
6
40
1.75
49
0.5
74
0
49
-0.25
74
0
49
0.5
74
0
49
-0.25
74
0
49
0.0
74
0
49
-0.25
74
0
0
LTYPE
5
279
330
247
100
AcDbSymbolTableRecord
100
AcDbLinetypeTableRecord
2
BORDER2
70
0
3
Border2 __.__.__.__.__.__.__.__.__.__.__.
72
65
73
6
40
0.875
49
0.25
74
0
49
-0.125
74
0
49
0.25
74
0
49
-0.125
74
0
49
0.0
74
0
49
-0.125
74
0
0
LTYPE
5
27A
330
247
100
AcDbSymbolTableRecord
100
AcDbLinetypeTableRecord
2
BORDERX2
70
0
3
Borderx2  ____  ____  .  ____  ____  .  ___
72
65
73
6
40
3.5
49
1.0
74
0
49
-0.5
74
0
49
1.0
74
0
49
-0.5
74
0
49
0.0
74
0
49
-0.5
74
0
0
LTYPE
5
27B
330
247
100
AcDbSymbolTableRecord
100
AcDbLinetypeTableRecord
2
CENTER2
70
0
3
Center2  ___ _ ___ _ ___ _ ___ _ ___ _ ___
72
65
73
4
40
1.125
49
0.75
74
0
49
-0.125
74
0
49
0.125
74
0
49
-0.125
74
0
0
LTYPE
5
27C
330
247
100
AcDbSymbolTableRecord
100
AcDbLinetypeTableRecord
2
CENTERX2
70
0
3
Centerx2  ________  __  ________  __  _____
72
65
73
4
40
4.0
49
2.5
74
0
49
-0.5
74
0
49
0.5
74
0
49
-0.5
74
0
0
LTYPE
5
27D
330
247
100
AcDbSymbolTableRecord
100
AcDbLinetypeTableRecord
2
DASHDOT2
70
0
3
Dashdot2  _._._._._._._._._._._._._._._.
72
65
73
4
40
0.5
49
0.25
74
0
49
-0.125
74
0
49
0.0
74
0
49
-0.125
74
0
0
LTYPE
5
27E
330
247
100
AcDbSymbolTableRecord
100
AcDbLinetypeTableRecord
2
DASHDOTX2
70
0
3
Dashdotx2 ____  .  ____  .  ____  .  ___
72
65
73
4
40
2.0
49
1.0
74
0
49
-0.5
74
0
49
0.0
74
0
49
-0.5
74
0
0
LTYPE
5
27F
330
247
100
AcDbSymbolTableRecord
100
AcDbLinetypeTableRecord
2
DASHED2
70
0
3
Dashed2 _ _ _ _ _ _ _ _ _ _ _ _ _ _ _ _ _
72
65
73
2
40
0.375
49
0.25
74
0
49
-0.125
74
0
0
LTYPE
5
280
330
247
100
AcDbSymbolTableRecord
100
AcDbLinetypeTableRecord
2
DASHEDX2
70
0
3
Dashedx2 ____  ____  ____  ____  ____  ___
72
65
73
2
40
1.5
49
1.0
74
0
49
-0.5
74
0
0
LTYPE
5
281
330
247
100
AcDbSymbolTableRecord
100
AcDbLinetypeTableRecord
2
DIVIDE
70
0
3
Divide ____ . . ____ . . ____ . . ____ . . ____
72
65
73
6
40
1.25
49
0.5
74
0
49
-0.25
74
0
49
0.0
74
0
49
-0.25
74
0
49
0.0
74
0
49
-0.25
74
0
0
LTYPE
5
282
330
247
100
AcDbSymbolTableRecord
100
AcDbLinetypeTableRecord
2
DIVIDE2
70
0
3
Divide2 __..__..__..__..__..__..__..__.._
72
65
73
6
40
0.625
49
0.25
74
0
49
-0.125
74
0
49
0.0
74
0
49
-0.125
74
0
49
0.0
74
0
49
-0.125
74
0
0
LTYPE
5
283
330
247
100
AcDbSymbolTableRecord
100
AcDbLinetypeTableRecord
2
DIVIDEX2
70
0
3
Dividex2 ________  .  .  ________  .  .  _
72
65
73
6
40
2.5
49
1.0
74
0
49
-0.5
74
0
49
0.0
74
0
49
-0.5
74
0
49
0.0
74
0
49
-0.5
74
0
0
LTYPE
5
284
330
247
100
AcDbSymbolTableRecord
100
AcDbLinetypeTableRecord
2
DOT
70
0
3
Dot . . . . . . . . . . . . . . . . . . . . . . . .
72
65
73
2
40
0.25
49
0.0
74
0
49
-0.25
74
0
0
LTYPE
5
285
330
247
100
AcDbSymbolTableRecord
100
AcDbLinetypeTableRecord
2
DOT2
70
0
3
Dot2 ........................................
72
65
73
2
40
0.125
49
0.0
74
0
49
-0.125
74
0
0
LTYPE
5
286
330
247
100
AcDbSymbolTableRecord
100
AcDbLinetypeTableRecord
2
DOTX2
70
0
3
Dotx2 .  .  .  .  .  .  .  .  .  .  .  .  .  .
72
65
73
2
40
0.5
49
0.0
74
0
49
-0.5
74
0
0
LTYPE
5
287
330
247
100
AcDbSymbolTableRecord
100
AcDbLinetypeTableRecord
2
HIDDENX2
70
0
3
Hiddenx2 ____ ____ ____ ____ ____ ____ ____
72
65
73
2
40
0.75
49
0.5
74
0
49
-0.25
74
0
0
LTYPE
5
288
330
247
100
AcDbSymbolTableRecord
100
AcDbLinetypeTableRecord
2
PHANTOM
70
0
3
Phantom ______  __  __  ______  __  __  ______
72
65
73
6
40
2.5
49
1.25
74
0
49
-0.25
74
0
49
0.25
74
0
49
-0.25
74
0
49
0.25
74
0
49
-0.25
74
0
0
LTYPE
5
289
330
247
100
AcDbSymbolTableRecord
100
AcDbLinetypeTableRecord
2
PHANTOM2
70
0
3
Phantom2 ___ _ _ ___ _ _ ___ _ _ ___ _ _
72
65
73
6
40
1.25
49
0.625
74
0
49
-0.125
74
0
49
0.125
74
0
49
-0.125
74
0
49
0.125
74
0
49
-0.125
74
0
0
LTYPE
5
28A
330
247
100
AcDbSymbolTableRecord
100
AcDbLinetypeTableRecord
2
PHANTOMX2
70
0
3
Phantomx2 ____________    ____    ____   _
72
65
73
6
40
5.0
49
2.5
74
0
49
-0.5
74
0
49
0.5
74
0
49
-0.5
74
0
49
0.5
74
0
49
-0.5
74
0
0
ENDTAB
0
TABLE
2
LAYER
5
244
330
0
100
AcDbSymbolTable
70
6
0
LAYER
5
252
330
244
100
AcDbSymbolTableRecord
100
AcDbLayerTableRecord
2
0
70
0
62
7
6
Continuous
370
0
390
251
0
LAYER
5
23F
330
244
100
AcDbSymbolTableRecord
100
AcDbLayerTableRecord
2
Bemassung
70
0
 62
   7
6
Continuous
370
0
390
251
0
LAYER
5
240
330
244
100
AcDbSymbolTableRecord
100
AcDbLayerTableRecord
2
Rahmen
70
0
 62
   7
6
Continuous
370
0
390
251
0
LAYER
5
241
330
244
100
AcDbSymbolTableRecord
100
AcDbLayerTableRecord
2
Geo
70
0
 62
   7
6
Continuous
370
0
390
251
0
LAYER
5
33A
330
244
100
AcDbSymbolTableRecord
100
AcDbLayerTableRecord
2
Defpoints
70
0
62
7
6
Continuous
290
0
370
-3
390
251
0
LAYER
5
57E
330
244
100
AcDbSymbolTableRecord
100
AcDbLayerTableRecord
2
Text
70
0
 62
   7
6
Continuous
370
0
390
251
1001
AcAecLayerStandard
1000

1000

0
ENDTAB
0
TABLE
2
STYLE
5
245
330
0
100
AcDbSymbolTable
70
2
0
STYLE
5
253
330
245
100
AcDbSymbolTableRecord
100
AcDbTextStyleTableRecord
2
Standard
70
0
40
0.0
41
1.0
50
0.0
71
0
42
0.2
3
Arial
4

1001
ACAD
1000
Arial
1071
0
0
STYLE
5
132
330
245
100
AcDbSymbolTableRecord
100
AcDbTextStyleTableRecord
2
Beschriftung
70
0
40
0.0
41
1.0
50
0.0
71
0
42
0.2
3
Arial
4

1001
ACAD
1000
Arial
1071
0
1001
AcadAnnotative
1000
AnnotativeData
1070
1
1070
1
0
ENDTAB
0
TABLE
2
VIEW
5
248
330
0
100
AcDbSymbolTable
70
0
0
ENDTAB
0
TABLE
2
UCS
5
249
330
0
100
AcDbSymbolTable
70
0
0
ENDTAB
0
TABLE
2
APPID
5
24B
330
0
100
AcDbSymbolTable
70
13
0
APPID
5
254
330
24B
100
AcDbSymbolTableRecord
100
AcDbRegAppTableRecord
2
ACAD
70
0
0
APPID
5
26C
330
24B
100
AcDbSymbolTableRecord
100
AcDbRegAppTableRecord
2
VD_INVISIBLE_NOT_FOR_READ
70
0
0
APPID
5
26D
330
24B
100
AcDbSymbolTableRecord
100
AcDbRegAppTableRecord
2
VD_TEMPHATCH
70
0
0
APPID
5
26E
330
24B
100
AcDbSymbolTableRecord
100
AcDbRegAppTableRecord
2
VDEXTRAPARAM
70
0
0
APPID
5
26F
330
24B
100
AcDbSymbolTableRecord
100
AcDbRegAppTableRecord
2
PE_URL
70
0
0
APPID
5
270
330
24B
100
AcDbSymbolTableRecord
100
AcDbRegAppTableRecord
2
VD_UNKNOWN
70
0
0
APPID
5
28F
330
24B
100
AcDbSymbolTableRecord
100
AcDbRegAppTableRecord
2
AcadAnnotative
70
0
0
APPID
5
290
330
24B
100
AcDbSymbolTableRecord
100
AcDbRegAppTableRecord
2
ACAD_DSTYLE_DIMJAG
70
0
0
APPID
5
291
330
24B
100
AcDbSymbolTableRecord
100
AcDbRegAppTableRecord
2
ACAD_DSTYLE_DIMTALN
70
0
0
APPID
5
293
330
24B
100
AcDbSymbolTableRecord
100
AcDbRegAppTableRecord
2
ACAD_PSEXT
70
0
0
APPID
5
42A
330
24B
100
AcDbSymbolTableRecord
100
AcDbRegAppTableRecord
2
ACAD_MLEADERVER
70
0
0
APPID
5
532
330
24B
100
AcDbSymbolTableRecord
100
AcDbRegAppTableRecord
2
ACAD_EXEMPT_FROM_CAD_STANDARDS
70
0
0
APPID
5
57F
330
24B
100
AcDbSymbolTableRecord
100
AcDbRegAppTableRecord
2
AcAecLayerStandard
70
0
0
ENDTAB
0
TABLE
2
DIMSTYLE
5
24C
330
0
100
AcDbSymbolTable
70
3
100
AcDbDimStyleTable
71
2
340
27
340
269
0
DIMSTYLE
105
269
330
24C
100
AcDbSymbolTableRecord
100
AcDbDimStyleTableRecord
2
Standard
70
0
172
1
174
1
288
1
340
253
342
23C
0
DIMSTYLE
105
137
330
24C
100
AcDbSymbolTableRecord
100
AcDbDimStyleTableRecord
2
Beschriftung
70
0
41
2.5
42
0.625
44
1.25
73
0
74
0
77
1
140
2.5
147
0.625
172
1
174
1
271
2
288
1
340
253
342
23C
1001
AcadAnnotative
1000
AnnotativeData
1070
1
1070
1
1001
ACAD_DSTYLE_DIMJAG
1070
388
1040
1.5
1001
ACAD_DSTYLE_DIMTALN
1070
392
1070
0
0
DIMSTYLE
105
27
102
{ACAD_REACTORS
330
F10017
330
F1001C
330
F10026
330
F1002B
330
F10003
330
F1000D
330
F10008
330
F10012
330
F10021
102
}
330
24C
100
AcDbSymbolTableRecord
100
AcDbDimStyleTableRecord
2
BEM-ISBE
70
0
41
2.5
42
0.625
44
1.25
48
0.000000001
71
1
73
0
74
0
77
1
140
2.5
144
1.00000000000000
146
0.5
147
0.625
171
 3
172
 1
179
 3
271
 3
272
 3
274
 3
340
253
342
23C
1001
ACAD_DSTYLE_DIMJAG
1070
388
1040
1.5
1001
ACAD_DSTYLE_DIMTALN
1070
392
1070
1
0
ENDTAB
0
TABLE
2
BLOCK_RECORD
5
243
330
0
100
AcDbSymbolTable
70
5
0
BLOCK_RECORD
5
261
330
243
100
AcDbSymbolTableRecord
100
AcDbBlockTableRecord
2
*Model_Space
340
FD0
0
BLOCK_RECORD
5
25D
330
243
100
AcDbSymbolTableRecord
100
AcDbBlockTableRecord
2
*Paper_Space
340
FD1
0
BLOCK_RECORD
5
265
330
243
100
AcDbSymbolTableRecord
100
AcDbBlockTableRecord
2
*Paper_Space0
340
0
0
BLOCK_RECORD
5
23C
330
243
100
AcDbSymbolTableRecord
100
AcDbBlockTableRecord
2
VDDIM_DEFAULT
340
0
102
{BLKREFS
102
}
0
BLOCK_RECORD
5
23E
330
243
100
AcDbSymbolTableRecord
100
AcDbBlockTableRecord
2
VDDIM_NONE
340
0
0
BLOCK_RECORD
5
F10016
330
243
100
AcDbSymbolTableRecord
100
AcDbBlockTableRecord
2
*D7
340
0
0
BLOCK_RECORD
5
F1001B
330
243
100
AcDbSymbolTableRecord
100
AcDbBlockTableRecord
2
*D8
340
0
0
BLOCK_RECORD
5
F10025
330
243
100
AcDbSymbolTableRecord
100
AcDbBlockTableRecord
2
*D10
340
0
0
BLOCK_RECORD
5
F1002A
330
243
100
AcDbSymbolTableRecord
100
AcDbBlockTableRecord
2
*D11
340
0
0
BLOCK_RECORD
5
F10002
330
243
100
AcDbSymbolTableRecord
100
AcDbBlockTableRecord
2
*D3
340
0
0
BLOCK_RECORD
5
F1000C
330
243
100
AcDbSymbolTableRecord
100
AcDbBlockTableRecord
2
*D5
340
0
0
BLOCK_RECORD
5
F10007
330
243
100
AcDbSymbolTableRecord
100
AcDbBlockTableRecord
2
*D4
340
0
0
BLOCK_RECORD
5
F10011
330
243
100
AcDbSymbolTableRecord
100
AcDbBlockTableRecord
2
*D6
340
0
0
BLOCK_RECORD
5
F10020
330
243
100
AcDbSymbolTableRecord
100
AcDbBlockTableRecord
2
*D9
340
0
0
ENDTAB
0
ENDSEC
0
SECTION
2
BLOCKS
0
BLOCK
5
262
330
261
100
AcDbEntity
8
0
100
AcDbBlockBegin
2
*Model_Space
70
0
10
0.0
20
0.0
30
0.0
3
*Model_Space
1

0
ENDBLK
5
263
330
261
100
AcDbEntity
8
0
100
AcDbBlockEnd
0
BLOCK
5
25E
330
25D
100
AcDbEntity
67
1
8
0
100
AcDbBlockBegin
2
*Paper_Space
70
0
10
0.0
20
0.0
30
0.0
3
*Paper_Space
1

0
ENDBLK
5
25F
330
25D
100
AcDbEntity
67
1
8
0
100
AcDbBlockEnd
0
BLOCK
5
266
330
265
100
AcDbEntity
8
0
100
AcDbBlockBegin
2
*Paper_Space0
70
0
10
0.0
20
0.0
30
0.0
3
*Paper_Space0
1

0
VIEWPORT
5
296
102
{ACAD_XDICTIONARY
360
58E
102
}
330
265
100
AcDbEntity
8
0
60
1
100
AcDbViewport
10
0.0
20
0.0
30
0.0
40
10.0
41
10.0
69
0
12
0.0
22
0.0
13
0.0
23
0.0
14
1.0
24
1.0
15
0.0
25
0.0
16
0.0
26
0.0
36
1.0
17
0.0
27
0.0
37
0.0
42
0.0
43
0.0
44
0.0
45
10.0
50
0.0
51
0.0000000000007958
72
100
90
163872
1

281
0
71
0
74
0
110
0.0
120
0.0
130
0.0
111
1.0
121
0.0
131
0.0
112
0.0
122
1.0
132
0.0
79
0
146
0.0
1001
VD_INVISIBLE_NOT_FOR_READ
1000
VD_INVISIBLE_NOT_FOR_READ
0
VIEWPORT
5
297
102
{ACAD_XDICTIONARY
360
590
102
}
330
265
100
AcDbEntity
8
0
60
1
100
AcDbViewport
10
0.0
20
0.0
30
0.0
40
10.0
41
10.0
69
0
12
0.0
22
0.0
13
0.0
23
0.0
14
1.0
24
1.0
15
0.0
25
0.0
16
0.0
26
0.0
36
1.0
17
0.0
27
0.0
37
0.0
42
0.0
43
0.0
44
0.0
45
10.0
50
0.0
51
0.0000000000007958
72
100
90
163872
1

281
0
71
0
74
0
110
0.0
120
0.0
130
0.0
111
1.0
121
0.0
131
0.0
112
0.0
122
1.0
132
0.0
79
0
146
0.0
1001
VD_INVISIBLE_NOT_FOR_READ
1000
VD_INVISIBLE_NOT_FOR_READ
0
ENDBLK
5
267
330
265
100
AcDbEntity
8
0
100
AcDbBlockEnd
0
BLOCK
5
28B
330
23C
100
AcDbEntity
8
0
100
AcDbBlockBegin
2
VDDIM_DEFAULT
70
0
10
0.0
20
0.0
30
0.0
3
VDDIM_DEFAULT
1

0
LWPOLYLINE
5
23D
330
23C
100
AcDbEntity
8
0
6
Continuous
62
0
100
AcDbPolyline
90
4
70
0
43
0.0
10
0.0
20
0.0
10
-1.0
20
-0.1665
10
-1.0
20
0.1665
10
0.0
20
0.0
1001
VDEXTRAPARAM
1071
1
1071
0
1071
0
1040
1.0
1000

1000

1040
0.0
1040
0.0
0
HATCH
5
292
330
23C
100
AcDbEntity
8
0
6
Continuous
62
0
100
AcDbHatch
10
0.0
20
0.0
30
0.0
210
0.0
220
0.0
230
1.0
2
SOLID
70
1
71
0
91
1
92
2
72
0
73
1
93
3
10
0.0
20
0.0
10
-1.0
20
-0.1665
10
-1.0
20
0.1665
97
0
75
0
76
1
98
1
10
0.0
20
0.0
1001
VDEXTRAPARAM
1071
1
1071
0
1071
0
1040
1.0
1000

1000

1040
0.0
1040
0.0
1001
VD_TEMPHATCH
1000
VD_TEMPHATCH
0
ENDBLK
5
28C
330
23C
100
AcDbEntity
8
0
100
AcDbBlockEnd
0
BLOCK
5
28D
330
23E
100
AcDbEntity
8
0
100
AcDbBlockBegin
2
VDDIM_NONE
70
0
10
0.0
20
0.0
30
0.0
3
VDDIM_NONE
1

0
ENDBLK
5
28E
330
23E
100
AcDbEntity
8
0
100
AcDbBlockEnd
  0
BLOCK
  5
F1002F
330
F10016
100
AcDbEntity
  8
0
100
AcDbBlockBegin
  2
*D7
 70
     1
 10
0.0
 20
0.0
 30
0.0
  3
*D7
  1

  0
LINE
  5
F10030
330
F10016
100
AcDbEntity
  8
Bemassung
 62
     0
370
    -2
100
AcDbLine
10
-89.0811529847386
20
-15.4919570649109
30
0.000000000000000
11
-89.0811529847386
21
29.5080429350891
31
0.000000000000000
  0
LINE
  5
F10031
330
F10016
100
AcDbEntity
  8
Bemassung
 62
     0
370
    -2
100
AcDbLine
10
-54.0811529847386
20
7.20804293508912
30
0.000000000000000
11
-54.0811529847386
21
19.5080429350891
31
0.000000000000000
  0
LINE
  5
F10032
330
F10016
100
AcDbEntity
  8
Bemassung
 62
     0
370
    -2
100
AcDbLine
10
-89.0811529847386
20
17.5080429350891
30
0.000000000000000
11
-53.4638241504402
21
17.5080429350891
31
0.000000000000000
  0
INSERT
  5
F10033
330
F10016
100
AcDbEntity
  8
Bemassung
 62
     0
370
    -2
100
AcDbBlockReference
  2
VDDIM_DEFAULT
10
-89.0811529847386
20
17.5080429350891
30
0.000000000000000
 41
2.50000000000000
 42
2.50000000000000
 43
2.50000000000000
 50
180.000000000000
  0
INSERT
  5
F10034
330
F10016
100
AcDbEntity
  8
Bemassung
 62
     0
370
    -2
100
AcDbBlockReference
  2
VDDIM_DEFAULT
10
-54.0811529847386
20
17.5080429350891
30
0.000000000000000
 41
2.50000000000000
 42
2.50000000000000
 43
2.50000000000000
  0
MTEXT
  5
F10035
330
F10016
100
AcDbEntity
  8
Bemassung
 62
     0
100
AcDbMText
10
-71.5811529847386
20
18.1747096017558
30
0.000000000000000
 40
2.50000000000000
 41
0.0
 71
     8
 72
     1
  1
35
 11
1.00000000000000
 21
0.000000000000000
 31
0.0
 73
     1
 44
1.0
1001
ACAD
1000
MTEXTBEGIN
1070
73
1070
1
1070
44
1040
1.0
1070
74
1070
0
1000
MTEXTEND
  0
POINT
  5
F10036
330
F10016
100
AcDbEntity
  8
Bemassung
 62
     0
100
AcDbPoint
10
-89.0811529847386
20
-15.4919570649109
30
0.000000000000000
  0
POINT
  5
F10037
330
F10016
100
AcDbEntity
  8
Bemassung
 62
     0
100
AcDbPoint
10
-54.0811529847386
20
7.20804293508912
30
0.000000000000000
  0
ENDBLK
  5
F10038
330
F10016
100
AcDbEntity
  8
0
100
AcDbBlockEnd
  0
BLOCK
  5
F10039
330
F1001B
100
AcDbEntity
  8
0
100
AcDbBlockBegin
  2
*D8
 70
     1
 10
0.0
 20
0.0
 30
0.0
  3
*D8
  1

  0
LINE
  5
F1003A
330
F1001B
100
AcDbEntity
  8
Bemassung
 62
     0
370
    -2
100
AcDbLine
10
-54.0811529847386
20
7.20804293508912
30
0.000000000000000
11
-54.0811529847386
21
24.5080429350891
31
0.000000000000000
  0
LINE
  5
F1003B
330
F1001B
100
AcDbEntity
  8
Bemassung
 62
     0
370
    -2
100
AcDbLine
10
-0.0811529847385515
20
6.50804293508912
30
0.000000000000000
11
-0.0811529847385515
21
29.5080429350891
31
0.000000000000000
  0
LINE
  5
F1003C
330
F1001B
100
AcDbEntity
  8
Bemassung
 62
     0
370
    -2
100
AcDbLine
10
-54.0811529847386
20
22.5080429350891
30
0.000000000000000
11
35.5355259243992
21
22.5080429350891
31
0.000000000000000
  0
INSERT
  5
F1003D
330
F1001B
100
AcDbEntity
  8
Bemassung
 62
     0
370
    -2
100
AcDbBlockReference
  2
VDDIM_DEFAULT
10
-54.0811529847386
20
22.5080429350891
30
0.000000000000000
 41
2.50000000000000
 42
2.50000000000000
 43
2.50000000000000
 50
180.000000000000
  0
INSERT
  5
F1003E
330
F1001B
100
AcDbEntity
  8
Bemassung
 62
     0
370
    -2
100
AcDbBlockReference
  2
VDDIM_DEFAULT
10
-0.0811529847385515
20
22.5080429350891
30
0.000000000000000
 41
2.50000000000000
 42
2.50000000000000
 43
2.50000000000000
  0
MTEXT
  5
F1003F
330
F1001B
100
AcDbEntity
  8
Bemassung
 62
     0
100
AcDbMText
10
-27.0811529847386
20
23.1747096017558
30
0.000000000000000
 40
2.50000000000000
 41
0.0
 71
     8
 72
     1
  1
54
 11
1.00000000000000
 21
0.000000000000000
 31
0.0
 73
     1
 44
1.0
1001
ACAD
1000
MTEXTBEGIN
1070
73
1070
1
1070
44
1040
1.0
1070
74
1070
0
1000
MTEXTEND
  0
POINT
  5
F10040
330
F1001B
100
AcDbEntity
  8
Bemassung
 62
     0
100
AcDbPoint
10
-54.0811529847386
20
7.20804293508912
30
0.000000000000000
  0
POINT
  5
F10041
330
F1001B
100
AcDbEntity
  8
Bemassung
 62
     0
100
AcDbPoint
10
-0.0811529847385515
20
6.50804293508912
30
0.000000000000000
  0
ENDBLK
  5
F10042
330
F1001B
100
AcDbEntity
  8
0
100
AcDbBlockEnd
  0
BLOCK
  5
F10043
330
F10025
100
AcDbEntity
  8
0
100
AcDbBlockBegin
  2
*D10
 70
     1
 10
0.0
 20
0.0
 30
0.0
  3
*D10
  1

  0
LINE
  5
F10044
330
F10025
100
AcDbEntity
  8
Bemassung
 62
     0
370
    -2
100
AcDbLine
10
-70.0811529847386
20
-8.19195706491088
30
0.000000000000000
11
-70.0811529847386
21
-15.4919570649109
31
0.000000000000000
  0
LINE
  5
F10045
330
F10025
100
AcDbEntity
  8
Bemassung
 62
     0
370
    -2
100
AcDbLine
10
-89.0811529847386
20
-15.4919570649109
30
0.000000000000000
11
-89.0811529847386
21
29.5080429350891
31
0.000000000000000
  0
LINE
  5
F10046
330
F10025
100
AcDbEntity
  8
Bemassung
 62
     0
370
    -2
100
AcDbLine
10
-69.4696361204212
20
-13.4919570649109
30
0.000000000000000
11
-89.0811529847386
21
-13.4919570649109
31
0.000000000000000
  0
INSERT
  5
F10047
330
F10025
100
AcDbEntity
  8
Bemassung
 62
     0
370
    -2
100
AcDbBlockReference
  2
VDDIM_DEFAULT
10
-70.0811529847386
20
-13.4919570649109
30
0.000000000000000
 41
2.50000000000000
 42
2.50000000000000
 43
2.50000000000000
  0
INSERT
  5
F10048
330
F10025
100
AcDbEntity
  8
Bemassung
 62
     0
370
    -2
100
AcDbBlockReference
  2
VDDIM_DEFAULT
10
-89.0811529847386
20
-13.4919570649109
30
0.000000000000000
 41
2.50000000000000
 42
2.50000000000000
 43
2.50000000000000
 50
180.000000000000
  0
MTEXT
  5
F10049
330
F10025
100
AcDbEntity
  8
Bemassung
 62
     0
100
AcDbMText
10
-79.5811529847386
20
-12.8252903982442
30
0.000000000000000
 40
2.50000000000000
 41
0.0
 71
     8
 72
     1
  1
19
 11
1.00000000000000
 21
0.000000000000000
 31
0.0
 73
     1
 44
1.0
1001
ACAD
1000
MTEXTBEGIN
1070
73
1070
1
1070
44
1040
1.0
1070
74
1070
0
1000
MTEXTEND
  0
POINT
  5
F1004A
330
F10025
100
AcDbEntity
  8
Bemassung
 62
     0
100
AcDbPoint
10
-70.0811529847386
20
-8.19195706491088
30
0.000000000000000
  0
POINT
  5
F1004B
330
F10025
100
AcDbEntity
  8
Bemassung
 62
     0
100
AcDbPoint
10
-89.0811529847386
20
-15.4919570649109
30
0.000000000000000
  0
ENDBLK
  5
F1004C
330
F10025
100
AcDbEntity
  8
0
100
AcDbBlockEnd
  0
BLOCK
  5
F1004D
330
F1002A
100
AcDbEntity
  8
0
100
AcDbBlockBegin
  2
*D11
 70
     1
 10
0.0
 20
0.0
 30
0.0
  3
*D11
  1

  0
LINE
  5
F1004E
330
F1002A
100
AcDbEntity
  8
Bemassung
 62
     0
370
    -2
100
AcDbLine
10
-0.0811529847385515
20
6.50804293508912
30
0.000000000000000
11
-0.0811529847385515
21
29.5080429350891
31
0.000000000000000
  0
LINE
  5
F1004F
330
F1002A
100
AcDbEntity
  8
Bemassung
 62
     0
370
    -2
100
AcDbLine
10
-89.0811529847386
20
-15.4919570649109
30
0.000000000000000
11
-89.0811529847386
21
29.5080429350891
31
0.000000000000000
  0
LINE
  5
F10050
330
F1002A
100
AcDbEntity
  8
Bemassung
 62
     0
370
    -2
100
AcDbLine
10
0.533805242792369
20
27.5080429350891
30
0.000000000000000
11
-89.0811529847386
21
27.5080429350891
31
0.000000000000000
  0
INSERT
  5
F10051
330
F1002A
100
AcDbEntity
  8
Bemassung
 62
     0
370
    -2
100
AcDbBlockReference
  2
VDDIM_DEFAULT
10
-0.0811529847385515
20
27.5080429350891
30
0.000000000000000
 41
2.50000000000000
 42
2.50000000000000
 43
2.50000000000000
  0
INSERT
  5
F10052
330
F1002A
100
AcDbEntity
  8
Bemassung
 62
     0
370
    -2
100
AcDbBlockReference
  2
VDDIM_DEFAULT
10
-89.0811529847386
20
27.5080429350891
30
0.000000000000000
 41
2.50000000000000
 42
2.50000000000000
 43
2.50000000000000
 50
180.000000000000
  0
MTEXT
  5
F10053
330
F1002A
100
AcDbEntity
  8
Bemassung
 62
     0
100
AcDbMText
10
-44.5811529847386
20
28.1747096017558
30
0.000000000000000
 40
2.50000000000000
 41
0.0
 71
     8
 72
     1
  1
89
 11
1.00000000000000
 21
0.000000000000000
 31
0.0
 73
     1
 44
1.0
1001
ACAD
1000
MTEXTBEGIN
1070
73
1070
1
1070
44
1040
1.0
1070
74
1070
0
1000
MTEXTEND
  0
POINT
  5
F10054
330
F1002A
100
AcDbEntity
  8
Bemassung
 62
     0
100
AcDbPoint
10
-0.0811529847385515
20
6.50804293508912
30
0.000000000000000
  0
POINT
  5
F10055
330
F1002A
100
AcDbEntity
  8
Bemassung
 62
     0
100
AcDbPoint
10
-89.0811529847386
20
-15.4919570649109
30
0.000000000000000
  0
ENDBLK
  5
F10056
330
F1002A
100
AcDbEntity
  8
0
100
AcDbBlockEnd
  0
BLOCK
  5
F10057
330
F10002
100
AcDbEntity
  8
0
100
AcDbBlockBegin
  2
*D3
 70
     1
 10
0.0
 20
0.0
 30
0.0
  3
*D3
  1

 0
ARC
  5
F10058
330
F10002
100
AcDbEntity
  8
Bemassung
 62
     0
370
   -2
100
AcDbCircle
10
-89.0808483982481
20
6.99059318673787
30
0.000000000000000
 40
18.9091232513799
100
AcDbArc
 50
90.0000000000000
 51
101.648380913643
  0
LINE
  5
F10059
330
F10002
100
AcDbEntity
  8
Bemassung
 62
     0
370
    -2
100
AcDbLine
10
-89.0808483982481
20
6.99059318673787
30
0.000000000000000
11
-89.0808483982481
21
27.8997164381178
31
0.000000000000000
  0
LINE
  5
F1005A
330
F10002
100
AcDbEntity
  8
Bemassung
 62
     0
370
    -2
100
AcDbLine
10
-89.0808483982481
20
6.99059318673787
30
0.000000000000000
11
-89.8105662762118
21
27.8869791651786
31
0.000000000000000
  0
INSERT
  5
F1005B
330
F10002
100
AcDbEntity
  8
Bemassung
 62
     0
370
    -2
100
AcDbBlockReference
  2
VDDIM_DEFAULT
10
-89.0808483982481
20
25.8997164381178
30
0.000000000000000
 41
2.50000000000000
 42
2.50000000000000
 43
2.50000000000000
 50
179.848496819447
  0
INSERT
  5
F1005C
330
F10002
100
AcDbEntity
  8
Bemassung
 62
     0
370
    -2
100
AcDbBlockReference
  2
VDDIM_DEFAULT
10
-89.7407672828068
20
25.8881975111405
30
0.000000000000000
 41
2.50000000000000
 42
2.50000000000000
 43
2.50000000000000
 50
2.15150318055596
  0
MTEXT
  5
F1005D
330
F10002
100
AcDbEntity
  8
Bemassung
 62
     0
100
AcDbMText
10
-93.5771201789171
20
25.3573697741044
30
0.000000000000000
 40
2.50000000000000
 41
0.0
 71
     8
 72
     1
  1
2°
 11
0.970142500145332
 21
0.242535625036333
 31
0.0
 73
     1
 44
1.0
1001
ACAD
1000
MTEXTBEGIN
1070
73
1070
1
1070
44
1040
1.0
1070
74
1070
0
1000
MTEXTEND
  0
POINT
  5
F1005E
330
F10002
100
AcDbEntity
  8
Bemassung
 62
     0
100
AcDbPoint
10
-89.0808483982481
20
6.99059318673787
30
0.000000000000000
  0
POINT
  5
F1005F
330
F10002
100
AcDbEntity
  8
Bemassung
 62
     0
100
AcDbPoint
10
-89.0808483982481
20
25.8997164381178
30
0.000000000000000
  0
POINT
  5
F10060
330
F10002
100
AcDbEntity
  8
Bemassung
 62
     0
100
AcDbPoint
10
-89.7407672828068
20
25.8881975111405
30
0.000000000000000
  0
POINT
  5
F10061
330
F10002
100
AcDbEntity
  8
Bemassung
 62
     0
100
AcDbPoint
10
-89.4108581026039
20
25.8968364870582
30
0.000000000000000
  0
ENDBLK
  5
F10062
330
F10002
100
AcDbEntity
  8
0
100
AcDbBlockEnd
  0
BLOCK
  5
F10063
330
F1000C
100
AcDbEntity
  8
0
100
AcDbBlockBegin
  2
*D5
 70
     1
 10
0.0
 20
0.0
 30
0.0
  3
*D5
  1

  0
LINE
  5
F10064
330
F1000C
100
AcDbEntity
  8
Bemassung
 62
     0
370
    -2
100
AcDbLine
10
-88.9408228849079
20
7.35537212031862
30
0.000000000000000
11
-101.051406519345
21
19.0504267924565
31
0.000000000000000
  0
INSERT
  5
F10065
330
F1000C
100
AcDbEntity
  8
Bemassung
 62
     0
370
    -2
100
AcDbBlockReference
  2
VDDIM_DEFAULT
10
-88.9408228849079
20
7.35537212031862
30
0.000000000000000
 41
2.50000000000000
 42
2.50000000000000
 43
2.50000000000000
 50
316.000000000000
  0
MTEXT
  5
F10066
330
F1000C
100
AcDbEntity
  8
Bemassung
 62
     0
100
AcDbMText
10
-96.1342208882944
20
14.3019558249086
30
0.000000000000000
 40
2.50000000000000
 41
0.0
 71
     8
 72
     1
  1
R0.5
 11
0.719339800338653
 21
-0.694658370458996
 31
0.0
 73
     1
 44
1.0
1001
ACAD
1000
MTEXTBEGIN
1070
73
1070
1
1070
44
1040
1.0
1070
74
1070
0
1000
MTEXTEND
  0
POINT
  5
F10067
330
F1000C
100
AcDbEntity
  8
Bemassung
 62
     0
100
AcDbPoint
10
-88.9408228849079
20
7.35537212031862
30
0.000000000000000
  0
POINT
  5
F10068
330
F1000C
100
AcDbEntity
  8
Bemassung
 62
     0
100
AcDbPoint
10
-88.5811529847386
20
7.00804293508912
30
0.000000000000000
  0
ENDBLK
  5
F10069
330
F1000C
100
AcDbEntity
  8
0
100
AcDbBlockEnd
  0
BLOCK
  5
F1006A
330
F10007
100
AcDbEntity
  8
0
100
AcDbBlockBegin
  2
*D4
 70
     1
 10
0.0
 20
0.0
 30
0.0
  3
*D4
  1

  0
LINE
  5
F1006B
330
F10007
100
AcDbEntity
  8
Bemassung
 62
     0
370
    -2
100
AcDbLine
10
-88.5811529847386
20
-8.49195706491088
30
0.000000000000000
11
-101.081152984739
21
-8.49195706491088
31
0.000000000000000
  0
LINE
  5
F1006C
330
F10007
100
AcDbEntity
  8
Bemassung
 62
     0
370
    -2
100
AcDbLine
10
-88.5811529847386
20
7.50804293508912
30
0.000000000000000
11
-101.081152984739
21
7.50804293508912
31
0.000000000000000
  0
LINE
  5
F1006D
330
F10007
100
AcDbEntity
  8
Bemassung
 62
     0
370
    -2
100
AcDbLine
10
-99.0811529847386
20
-8.49195706491088
30
0.000000000000000
11
-99.0811529847386
21
7.50804293508912
31
0.000000000000000
  0
INSERT
  5
F1006E
330
F10007
100
AcDbEntity
  8
Bemassung
 62
     0
370
    -2
100
AcDbBlockReference
  2
VDDIM_DEFAULT
10
-99.0811529847386
20
-8.49195706491088
30
0.000000000000000
 41
2.50000000000000
 42
2.50000000000000
 43
2.50000000000000
 50
270.000000000000
  0
INSERT
  5
F1006F
330
F10007
100
AcDbEntity
  8
Bemassung
 62
     0
370
    -2
100
AcDbBlockReference
  2
VDDIM_DEFAULT
10
-99.0811529847386
20
7.50804293508912
30
0.000000000000000
 41
2.50000000000000
 42
2.50000000000000
 43
2.50000000000000
 50
90.0000000000000
  0
MTEXT
  5
F10070
330
F10007
100
AcDbEntity
  8
Bemassung
 62
     0
100
AcDbMText
10
-98.4144863180719
20
-0.491957064910878
30
0.000000000000000
 40
2.50000000000000
 41
0.0
 71
     8
 72
     1
  1
16
 11
6.12323399573677e-017
 21
1.00000000000000
 31
0.0
 73
     1
 44
1.0
1001
ACAD
1000
MTEXTBEGIN
1070
73
1070
1
1070
44
1040
1.0
1070
74
1070
0
1000
MTEXTEND
  0
POINT
  5
F10071
330
F10007
100
AcDbEntity
  8
Bemassung
 62
     0
100
AcDbPoint
10
-88.5811529847386
20
-8.49195706491088
30
0.000000000000000
  0
POINT
  5
F10072
330
F10007
100
AcDbEntity
  8
Bemassung
 62
     0
100
AcDbPoint
10
-88.5811529847386
20
7.50804293508912
30
0.000000000000000
  0
ENDBLK
  5
F10073
330
F10007
100
AcDbEntity
  8
0
100
AcDbBlockEnd
  0
BLOCK
  5
F10074
330
F10011
100
AcDbEntity
  8
0
100
AcDbBlockBegin
  2
*D6
 70
     1
 10
0.0
 20
0.0
 30
0.0
  3
*D6
  1

  0
LINE
  5
F10075
330
F10011
100
AcDbEntity
  8
Bemassung
 62
     0
370
    -2
100
AcDbLine
10
-70.0811529847386
20
-8.19195706491088
30
0.000000000000000
11
-66.0811529847386
21
-8.19195706491088
31
0.000000000000000
  0
LINE
  5
F10076
330
F10011
100
AcDbEntity
  8
Bemassung
 62
     0
370
    -2
100
AcDbLine
10
-70.0811529847386
20
7.20804293508912
30
0.000000000000000
11
-66.0811529847386
21
7.20804293508912
31
0.000000000000000
  0
LINE
  5
F10077
330
F10011
100
AcDbEntity
  8
Bemassung
 62
     0
370
    -2
100
AcDbLine
10
-68.0811529847386
20
-30.8326445904243
30
0.000000000000000
11
-68.0811529847386
21
7.20804293508912
31
0.000000000000000
  0
INSERT
  5
F10078
330
F10011
100
AcDbEntity
  8
Bemassung
 62
     0
370
    -2
100
AcDbBlockReference
  2
VDDIM_DEFAULT
10
-68.0811529847386
20
-8.19195706491088
30
0.000000000000000
 41
2.50000000000000
 42
2.50000000000000
 43
2.50000000000000
 50
270.000000000000
  0
INSERT
  5
F10079
330
F10011
100
AcDbEntity
  8
Bemassung
 62
     0
370
    -2
100
AcDbBlockReference
  2
VDDIM_DEFAULT
10
-68.0811529847386
20
7.20804293508912
30
0.000000000000000
 41
2.50000000000000
 42
2.50000000000000
 43
2.50000000000000
 50
90.0000000000000
  0
MTEXT
  5
F1007A
330
F10011
100
AcDbEntity
  8
Bemassung
 62
     0
100
AcDbMText
10
-67.4144863180719
20
-13.8179196414192
30
0.000000000000000
 40
2.50000000000000
 41
0.0
 71
     8
 72
     1
  1
15.4
 11
6.12323399573677e-017
 21
1.00000000000000
 31
0.0
 73
     1
 44
1.0
1001
ACAD
1000
MTEXTBEGIN
1070
73
1070
1
1070
44
1040
1.0
1070
74
1070
0
1000
MTEXTEND
  0
POINT
  5
F1007B
330
F10011
100
AcDbEntity
  8
Bemassung
 62
     0
100
AcDbPoint
10
-70.0811529847386
20
-8.19195706491088
30
0.000000000000000
  0
POINT
  5
F1007C
330
F10011
100
AcDbEntity
  8
Bemassung
 62
     0
100
AcDbPoint
10
-70.0811529847386
20
7.20804293508912
30
0.000000000000000
  0
ENDBLK
  5
F1007D
330
F10011
100
AcDbEntity
  8
0
100
AcDbBlockEnd
  0
BLOCK
  5
F1007E
330
F10020
100
AcDbEntity
  8
0
100
AcDbBlockBegin
  2
*D9
 70
     1
 10
0.0
 20
0.0
 30
0.0
  3
*D9
  1

  0
LINE
  5
F1007F
330
F10020
100
AcDbEntity
  8
Bemassung
 62
     0
370
    -2
100
AcDbLine
10
-1.08115298473855
20
-8.49195706491088
30
0.000000000000000
11
11.9188470152614
21
-8.49195706491088
31
0.000000000000000
  0
LINE
  5
F10080
330
F10020
100
AcDbEntity
  8
Bemassung
 62
     0
370
    -2
100
AcDbLine
10
-1.08115298473855
20
7.50804293508912
30
0.000000000000000
11
11.9188470152614
21
7.50804293508912
31
0.000000000000000
  0
LINE
  5
F10081
330
F10020
100
AcDbEntity
  8
Bemassung
 62
     0
370
    -2
100
AcDbLine
10
9.91884701526145
20
-8.49195706491088
30
0.000000000000000
11
9.91884701526145
21
7.50804293508912
31
0.000000000000000
  0
INSERT
  5
F10082
330
F10020
100
AcDbEntity
  8
Bemassung
 62
     0
370
    -2
100
AcDbBlockReference
  2
VDDIM_DEFAULT
10
9.91884701526145
20
-8.49195706491088
30
0.000000000000000
 41
2.50000000000000
 42
2.50000000000000
 43
2.50000000000000
 50
270.000000000000
  0
INSERT
  5
F10083
330
F10020
100
AcDbEntity
  8
Bemassung
 62
     0
370
    -2
100
AcDbBlockReference
  2
VDDIM_DEFAULT
10
9.91884701526145
20
7.50804293508912
30
0.000000000000000
 41
2.50000000000000
 42
2.50000000000000
 43
2.50000000000000
 50
90.0000000000000
  0
MTEXT
  5
F10084
330
F10020
100
AcDbEntity
  8
Bemassung
 62
     0
100
AcDbMText
10
10.5855136819281
20
-0.491957064910878
30
0.000000000000000
 40
2.50000000000000
 41
0.0
 71
     8
 72
     1
  1
16h6
 11
6.12323399573677e-017
 21
1.00000000000000
 31
0.0
 73
     1
 44
1.0
  0
POINT
  5
F10085
330
F10020
100
AcDbEntity
  8
Bemassung
 62
     0
100
AcDbPoint
10
-1.08115298473855
20
-8.49195706491088
30
0.000000000000000
  0
POINT
  5
F10086
330
F10020
100
AcDbEntity
  8
Bemassung
 62
     0
100
AcDbPoint
10
-1.08115298473855
20
7.50804293508912
30
0.000000000000000
  0
ENDBLK
  5
F10087
330
F10020
100
AcDbEntity
  8
0
100
AcDbBlockEnd
0
ENDSEC
0
SECTION
2
ENTITIES
  0
DIMENSION
  5
F10017
330
261
100
AcDbEntity
  8
Bemassung
100
AcDbDimension
  2
*D7
10
-54.0811529847386
20
17.5080429350891
30
0.000000000000000
11
-71.5811529847386
21
18.1747096017558
31
0.000000000000000
 70
32
 1
35
 71
     8
  3
BEM-ISBE
100
AcDbAlignedDimension
13
-89.0811529847386
23
-15.4919570649109
33
0.000000000000000
14
-54.0811529847386
24
7.20804293508912
34
0.000000000000000
100
AcDbRotatedDimension
1001
ACAD
1000
DSTYLE
1002
{
1070
284
1070
8
1070
78
1070
8
1070
144
1040
1.00000000000000
1070
147
1040
0.625
1070
 72
1070
 0
1070
 71
1070
 0
1002
}
  0
DIMENSION
  5
F1001C
330
261
100
AcDbEntity
  8
Bemassung
100
AcDbDimension
  2
*D8
10
-0.0811529847385515
20
22.5080429350891
30
0.000000000000000
11
-27.0811529847386
21
23.1747096017558
31
0.000000000000000
 70
32
 1
54
 71
     8
  3
BEM-ISBE
100
AcDbAlignedDimension
13
-54.0811529847386
23
7.20804293508912
33
0.000000000000000
14
-0.0811529847385515
24
6.50804293508912
34
0.000000000000000
100
AcDbRotatedDimension
1001
ACAD
1000
DSTYLE
1002
{
1070
284
1070
8
1070
78
1070
8
1070
144
1040
1.00000000000000
1070
147
1040
0.625
1070
 72
1070
 0
1070
 71
1070
 0
1002
}
  0
DIMENSION
  5
F10026
330
261
100
AcDbEntity
  8
Bemassung
100
AcDbDimension
  2
*D10
10
-89.0811529847386
20
-13.4919570649109
30
0.000000000000000
11
-79.5811529847386
21
-12.8252903982442
31
0.000000000000000
 70
32
 1
19
 71
     8
  3
BEM-ISBE
100
AcDbAlignedDimension
13
-70.0811529847386
23
-8.19195706491088
33
0.000000000000000
14
-89.0811529847386
24
-15.4919570649109
34
0.000000000000000
100
AcDbRotatedDimension
1001
ACAD
1000
DSTYLE
1002
{
1070
284
1070
8
1070
78
1070
8
1070
144
1040
1.00000000000000
1070
147
1040
0.625
1070
 72
1070
 0
1070
 71
1070
 0
1002
}
  0
DIMENSION
  5
F1002B
330
261
100
AcDbEntity
  8
Bemassung
100
AcDbDimension
  2
*D11
10
-89.0811529847386
20
27.5080429350891
30
0.000000000000000
11
-44.5811529847386
21
28.1747096017558
31
0.000000000000000
 70
32
 1
89
 71
     8
  3
BEM-ISBE
100
AcDbAlignedDimension
13
-0.0811529847385515
23
6.50804293508912
33
0.000000000000000
14
-89.0811529847386
24
-15.4919570649109
34
0.000000000000000
100
AcDbRotatedDimension
1001
ACAD
1000
DSTYLE
1002
{
1070
284
1070
8
1070
78
1070
8
1070
144
1040
1.00000000000000
1070
147
1040
0.625
1070
 72
1070
 0
1070
 71
1070
 0
1002
}
  0
DIMENSION
  5
F10003
330
261
100
AcDbEntity
  8
Bemassung
100
AcDbDimension
  2
*D3
10
-89.0808483982481
20
6.99059318673787
30
0.000000000000000
11
-93.5771201789171
21
25.3573697741044
31
0.000000000000000
 70
34
 1
2°
 71
     8
  3
BEM-ISBE
100
AcDb2LineAngularDimension
13
-89.0808483982481
23
6.99059318673787
33
0.000000000000000
14
-92.8986950949589
24
25.5102851047016
34
0.000000000000000
15
-89.0808483982481
25
25.8997164381178
35
0.000000000000000
16
-89.4108581026039
26
25.8968364870582
36
0.000000000000000
1001
ACAD
1000
DSTYLE
1002
{
1070
284
1070
8
1070
79
1070
2
1070
147
1040
0.625
1070
 72
1070
 0
1070
 71
1070
 0
1002
}
  0
DIMENSION
  5
F1000D
330
261
100
AcDbEntity
  8
Bemassung
100
AcDbDimension
  2
*D5
10
-88.5811529847386
20
7.00804293508912
30
0.000000000000000
11
-96.1342208882944
21
14.3019558249086
31
0.000000000000000
 70
164
 1
R0.5
 71
     8
  3
BEM-ISBE
100
AcDbRadialDimension
15
-88.9408228849079
25
7.35537212031862
35
0.000000000000000
40
0.0
1001
ACAD
1000
DSTYLE
1002
{
1070
284
1070
8
1070
78
1070
8
1070
144
1040
1.00000000000000
1070
147
1040
0.625
1070
 72
1070
 0
1070
 71
1070
 0
1002
}
  0
DIMENSION
  5
F10008
330
261
100
AcDbEntity
  8
Bemassung
100
AcDbDimension
  2
*D4
10
-99.0811529847386
20
7.50804293508912
30
0.000000000000000
11
-98.4144863180719
21
-0.491957064910878
31
0.000000000000000
 70
32
 1
16
 71
     8
  3
BEM-ISBE
100
AcDbAlignedDimension
13
-88.5811529847386
23
-8.49195706491088
33
0.000000000000000
14
-88.5811529847386
24
7.50804293508912
34
0.000000000000000
50
90.0000000000000
100
AcDbRotatedDimension
1001
ACAD
1000
DSTYLE
1002
{
1070
284
1070
8
1070
78
1070
8
1070
144
1040
1.00000000000000
1070
147
1040
0.625
1070
 72
1070
 0
1070
 71
1070
 0
1002
}
  0
DIMENSION
  5
F10012
330
261
100
AcDbEntity
  8
Bemassung
100
AcDbDimension
  2
*D6
10
-68.0811529847386
20
7.20804293508912
30
0.000000000000000
11
-67.4144863180719
21
-13.8179196414192
31
0.000000000000000
 70
32
 1
15.4
 71
     8
  3
BEM-ISBE
100
AcDbAlignedDimension
13
-70.0811529847386
23
-8.19195706491088
33
0.000000000000000
14
-70.0811529847386
24
7.20804293508912
34
0.000000000000000
50
90.0000000000000
100
AcDbRotatedDimension
1001
ACAD
1000
DSTYLE
1002
{
1070
284
1070
8
1070
78
1070
8
1070
144
1040
1.00000000000000
1070
147
1040
0.625
1070
 72
1070
 0
1070
 71
1070
 0
1002
}
  0
DIMENSION
  5
F10021
330
261
100
AcDbEntity
  8
Bemassung
100
AcDbDimension
  2
*D9
10
9.91884701526145
20
7.50804293508912
30
0.000000000000000
11
10.5855136819281
21
-0.491957064910878
31
0.000000000000000
 70
32
 1
16h6
 71
     8
  3
BEM-ISBE
100
AcDbAlignedDimension
13
-1.08115298473855
23
-8.49195706491088
33
0.000000000000000
14
-1.08115298473855
24
7.50804293508912
34
0.000000000000000
50
90.0000000000000
100
AcDbRotatedDimension
1001
ACAD
1000
DSTYLE
1002
{
1070
284
1070
8
1070
78
1070
8
1070
144
1040
1.00000000000000
1070
147
1040
0.625
1070
 72
1070
 0
1070
 71
1070
 0
1002
}
  0
LINE
  5
F10088
330
F10089
100
AcDbEntity
8
Geo
100
AcDbLine
10
-88.8195519856998
20
-0.491957064910878
30
0.000000000000000
11
-89.0808483982481
21
6.99059318673787
31
0.000000000000000
  0
ARC
  5
F1008A
330
F1008B
100
AcDbEntity
8
Geo
100
AcDbCircle
10
-88.5811529847386
20
7.00804293508912
30
0.000000000000000
 40
0.500000000000000
100
AcDbArc
 50
90.0000000000000
 51
182.000000000000
  0
LINE
  5
F1008C
330
F1008D
100
AcDbEntity
8
Geo
100
AcDbLine
10
-88.5811529847386
20
7.50804293508912
30
0.000000000000000
11
-70.0811529847386
21
7.50804293508912
31
0.000000000000000
  0
LINE
  5
F1008E
330
F1008F
100
AcDbEntity
8
Geo
100
AcDbLine
10
-70.0811529847386
20
7.50804293508912
30
0.000000000000000
11
-70.0811529847386
21
7.20804293508912
31
0.000000000000000
  0
LINE
  5
F10090
330
F10091
100
AcDbEntity
8
Geo
100
AcDbLine
10
-70.0811529847386
20
7.20804293508912
30
0.000000000000000
11
-54.0811529847386
21
7.20804293508912
31
0.000000000000000
  0
LINE
  5
F10092
330
F10093
100
AcDbEntity
8
Geo
100
AcDbLine
10
-54.0811529847386
20
7.20804293508912
30
0.000000000000000
11
-54.0811529847386
21
7.50804293508912
31
0.000000000000000
  0
LINE
  5
F10094
330
F10095
100
AcDbEntity
8
Geo
100
AcDbLine
10
-54.0811529847386
20
7.50804293508912
30
0.000000000000000
11
-1.08115298473855
21
7.50804293508912
31
0.000000000000000
  0
LINE
  5
F10096
330
F10097
100
AcDbEntity
8
Geo
100
AcDbLine
10
-1.08115298473855
20
7.50804293508912
30
0.000000000000000
11
-0.0811529847385515
21
6.50804293508912
31
0.000000000000000
  0
LINE
  5
F10098
330
F10099
100
AcDbEntity
8
Geo
100
AcDbLine
10
-85.8811529847385
20
7.50555175938421
30
0.000000000000000
11
-85.7811529847386
21
7.50731032044952
31
0.000000000000000
  0
LINE
  5
F1009A
330
F1009B
100
AcDbEntity
8
Geo
100
AcDbLine
10
-85.7811529847386
20
7.50731032044952
30
0.000000000000000
11
-85.6811529847385
21
7.49721957800335
31
0.000000000000000
  0
LINE
  5
F1009C
330
F1009D
100
AcDbEntity
8
Geo
100
AcDbLine
10
-85.6811529847385
20
7.49721957800335
30
0.000000000000000
11
-85.5811529847386
21
7.47529447944826
31
0.000000000000000
  0
LINE
  5
F1009E
330
F1009F
100
AcDbEntity
8
Geo
100
AcDbLine
10
-85.5811529847386
20
7.47529447944826
30
0.000000000000000
11
-85.4811529847385
21
7.44156750240187
31
0.000000000000000
  0
LINE
  5
F100A0
330
F100A1
100
AcDbEntity
8
Geo
100
AcDbLine
10
-85.4811529847385
20
7.44156750240187
30
0.000000000000000
11
-85.3811529847385
21
7.39608860658778
31
0.000000000000000
  0
LINE
  5
F100A2
330
F100A3
100
AcDbEntity
8
Geo
100
AcDbLine
10
-85.3811529847385
20
7.39608860658778
30
0.000000000000000
11
-85.2811529847386
21
7.33892515983029
31
0.000000000000000
  0
LINE
  5
F100A4
330
F100A5
100
AcDbEntity
8
Geo
100
AcDbLine
10
-85.2811529847386
20
7.33892515983029
30
0.000000000000000
11
-85.1811529847385
21
7.27016183826259
31
0.000000000000000
  0
LINE
  5
F100A6
330
F100A7
100
AcDbEntity
8
Geo
100
AcDbLine
10
-85.1811529847385
20
7.27016183826259
30
0.000000000000000
11
-85.0811529847386
21
7.18990050089605
31
0.000000000000000
  0
LINE
  5
F100A8
330
F100A9
100
AcDbEntity
8
Geo
100
AcDbLine
10
-85.0811529847386
20
7.18990050089605
30
0.000000000000000
11
-84.9811529847385
21
7.09826003873668
31
0.000000000000000
  0
LINE
  5
F100AA
330
F100AB
100
AcDbEntity
8
Geo
100
AcDbLine
10
-84.9811529847385
20
7.09826003873668
30
0.000000000000000
11
-84.8811529847385
21
6.99537619867201
31
0.000000000000000
  0
LINE
  5
F100AC
330
F100AD
100
AcDbEntity
8
Geo
100
AcDbLine
10
-84.8811529847385
20
6.99537619867201
30
0.000000000000000
11
-84.7811529847386
21
6.88140138238941
31
0.000000000000000
  0
LINE
  5
F100AE
330
F100AF
100
AcDbEntity
8
Geo
100
AcDbLine
10
-84.7811529847386
20
6.88140138238941
30
0.000000000000000
11
-84.6811529847385
21
6.75650442062372
31
0.000000000000000
  0
LINE
  5
F100B0
330
F100B1
100
AcDbEntity
8
Geo
100
AcDbLine
10
-84.6811529847385
20
6.75650442062372
30
0.000000000000000
11
-84.5811529847386
21
6.62087032306850
31
0.000000000000000
  0
LINE
  5
F100B2
330
F100B3
100
AcDbEntity
8
Geo
100
AcDbLine
10
-84.5811529847386
20
6.62087032306850
30
0.000000000000000
11
-84.4811529847386
21
6.47470000432142
31
0.000000000000000
  0
LINE
  5
F100B4
330
F100B5
100
AcDbEntity
8
Geo
100
AcDbLine
10
-84.4811529847386
20
6.47470000432142
30
0.000000000000000
11
-84.3811529847385
21
6.31820998626977
31
0.000000000000000
  0
LINE
  5
F100B6
330
F100B7
100
AcDbEntity
8
Geo
100
AcDbLine
10
-84.3811529847385
20
6.31820998626977
30
0.000000000000000
11
-84.2811529847386
21
6.15163207735689
31
0.000000000000000
  0
LINE
  5
F100B8
330
F100B9
100
AcDbEntity
8
Geo
100
AcDbLine
10
-84.2811529847386
20
6.15163207735689
30
0.000000000000000
11
-84.1811529847386
21
5.97521302920462
31
0.000000000000000
  0
LINE
  5
F100BA
330
F100BB
100
AcDbEntity
8
Geo
100
AcDbLine
10
-84.1811529847386
20
5.97521302920462
30
0.000000000000000
11
-84.0811529847386
21
5.78921417110054
31
0.000000000000000
  0
LINE
  5
F100BC
330
F100BD
100
AcDbEntity
8
Geo
100
AcDbLine
10
-84.0811529847386
20
5.78921417110054
30
0.000000000000000
11
-83.9811529847386
21
5.59391102289117
31
0.000000000000000
  0
LINE
  5
F100BE
330
F100BF
100
AcDbEntity
8
Geo
100
AcDbLine
10
-83.9811529847386
20
5.59391102289117
30
0.000000000000000
11
-83.8811529847385
21
5.38959288685489
31
0.000000000000000
  0
LINE
  5
F100C0
330
F100C1
100
AcDbEntity
8
Geo
100
AcDbLine
10
-83.8811529847385
20
5.38959288685489
30
0.000000000000000
11
-83.7811529847386
21
5.17656241915884
31
0.000000000000000
  0
LINE
  5
F100C2
330
F100C3
100
AcDbEntity
8
Geo
100
AcDbLine
10
-83.7811529847386
20
5.17656241915884
30
0.000000000000000
11
-83.6811529847386
21
4.95513518153478
31
0.000000000000000
  0
LINE
  5
F100C4
330
F100C5
100
AcDbEntity
8
Geo
100
AcDbLine
10
-83.6811529847386
20
4.95513518153478
30
0.000000000000000
11
-83.5811529847386
21
4.72563917383793
31
0.000000000000000
  0
LINE
  5
F100C6
330
F100C7
100
AcDbEntity
8
Geo
100
AcDbLine
10
-83.5811529847386
20
4.72563917383793
30
0.000000000000000
11
-83.4811529847386
21
4.48841434818127
31
0.000000000000000
  0
LINE
  5
F100C8
330
F100C9
100
AcDbEntity
8
Geo
100
AcDbLine
10
-83.4811529847386
20
4.48841434818127
30
0.000000000000000
11
-83.3811529847385
21
4.24381210536493
31
0.000000000000000
  0
LINE
  5
F100CA
330
F100CB
100
AcDbEntity
8
Geo
100
AcDbLine
10
-83.3811529847385
20
4.24381210536493
30
0.000000000000000
11
-83.2811529847386
21
3.99219477434668
31
0.000000000000000
  0
LINE
  5
F100CC
330
F100CD
100
AcDbEntity
8
Geo
100
AcDbLine
10
-83.2811529847386
20
3.99219477434668
30
0.000000000000000
11
-83.1811529847386
21
3.73393507552458
31
0.000000000000000
  0
LINE
  5
F100CE
330
F100CF
100
AcDbEntity
8
Geo
100
AcDbLine
10
-83.1811529847386
20
3.73393507552458
30
0.000000000000000
11
-83.0811529847386
21
3.46941556862674
31
0.000000000000000
  0
LINE
  5
F100D0
330
F100D1
100
AcDbEntity
8
Geo
100
AcDbLine
10
-83.0811529847386
20
3.46941556862674
30
0.000000000000000
11
-82.9811529847386
21
3.19902808602618
31
0.000000000000000
  0
LINE
  5
F100D2
330
F100D3
100
AcDbEntity
8
Geo
100
AcDbLine
10
-82.9811529847386
20
3.19902808602618
30
0.000000000000000
11
-82.8811529847386
21
2.92317315232005
31
0.000000000000000
  0
LINE
  5
F100D4
330
F100D5
100
AcDbEntity
8
Geo
100
AcDbLine
10
-82.8811529847386
20
2.92317315232005
30
0.000000000000000
11
-82.7811529847386
21
2.64225939103313
31
0.000000000000000
  0
LINE
  5
F100D6
330
F100D7
100
AcDbEntity
8
Geo
100
AcDbLine
10
-82.7811529847386
20
2.64225939103313
30
0.000000000000000
11
-82.6811529847386
21
2.35670291932435
31
0.000000000000000
  0
LINE
  5
F100D8
330
F100D9
100
AcDbEntity
8
Geo
100
AcDbLine
10
-82.6811529847386
20
2.35670291932435
30
0.000000000000000
11
-82.5811529847386
21
2.06692673159308
31
0.000000000000000
  0
LINE
  5
F100DA
330
F100DB
100
AcDbEntity
8
Geo
100
AcDbLine
10
-82.5811529847386
20
2.06692673159308
30
0.000000000000000
11
-82.4811529847386
21
1.77336007289808
31
0.000000000000000
  0
LINE
  5
F100DC
330
F100DD
100
AcDbEntity
8
Geo
100
AcDbLine
10
-82.4811529847386
20
1.77336007289808
30
0.000000000000000
11
-82.3811529847386
21
1.47643780311738
31
0.000000000000000
  0
LINE
  5
F100DE
330
F100DF
100
AcDbEntity
8
Geo
100
AcDbLine
10
-82.3811529847386
20
1.47643780311738
30
0.000000000000000
11
-82.2811529847386
21
1.17659975279103
31
0.000000000000000
  0
LINE
  5
F100E0
330
F100E1
100
AcDbEntity
8
Geo
100
AcDbLine
10
-82.2811529847386
20
1.17659975279103
30
0.000000000000000
11
-82.1811529847386
21
0.874290071600677
31
0.000000000000000
  0
LINE
  5
F100E2
330
F100E3
100
AcDbEntity
8
Geo
100
AcDbLine
10
-82.1811529847386
20
0.874290071600677
30
0.000000000000000
11
-82.0811529847386
21
0.569956570451278
31
0.000000000000000
  0
LINE
  5
F100E4
330
F100E5
100
AcDbEntity
8
Geo
100
AcDbLine
10
-82.0811529847386
20
0.569956570451278
30
0.000000000000000
11
-81.9811529847386
21
0.264050058129454
31
0.000000000000000
  0
LINE
  5
F100E6
330
F100E7
100
AcDbEntity
8
Geo
100
AcDbLine
10
-81.9811529847386
20
0.264050058129454
30
0.000000000000000
11
-81.8811529847386
21
-0.0429763264789471
31
0.000000000000000
  0
LINE
  5
F100E8
330
F100E9
100
AcDbEntity
8
Geo
100
AcDbLine
10
-81.8811529847386
20
-0.0429763264789471
30
0.000000000000000
11
-81.7811529847386
21
-0.350667785622823
31
0.000000000000000
  0
LINE
  5
F100EA
330
F100EB
100
AcDbEntity
8
Geo
100
AcDbLine
10
-81.7811529847386
20
-0.350667785622823
30
0.000000000000000
11
-81.6811529847386
21
-0.658568536377112
31
0.000000000000000
  0
LINE
  5
F100EC
330
F100ED
100
AcDbEntity
8
Geo
100
AcDbLine
10
-81.6811529847386
20
-0.658568536377112
30
0.000000000000000
11
-81.5811529847386
21
-0.966222485793380
31
0.000000000000000
  0
LINE
  5
F100EE
330
F100EF
100
AcDbEntity
8
Geo
100
AcDbLine
10
-81.5811529847386
20
-0.966222485793380
30
0.000000000000000
11
-81.4811529847386
21
-1.27317390650967
31
0.000000000000000
  0
LINE
  5
F100F0
330
F100F1
100
AcDbEntity
8
Geo
100
AcDbLine
10
-81.4811529847386
20
-1.27317390650967
30
0.000000000000000
11
-81.3811529847386
21
-1.57896811181879
31
0.000000000000000
  0
LINE
  5
F100F2
330
F100F3
100
AcDbEntity
8
Geo
100
AcDbLine
10
-81.3811529847386
20
-1.57896811181879
30
0.000000000000000
11
-81.2811529847386
21
-1.88315212919511
31
0.000000000000000
  0
LINE
  5
F100F4
330
F100F5
100
AcDbEntity
8
Geo
100
AcDbLine
10
-81.2811529847386
20
-1.88315212919511
30
0.000000000000000
11
-81.1811529847386
21
-2.18527537128211
31
0.000000000000000
  0
LINE
  5
F100F6
330
F100F7
100
AcDbEntity
8
Geo
100
AcDbLine
10
-81.1811529847386
20
-2.18527537128211
30
0.000000000000000
11
-81.0811529847386
21
-2.48489030334681
31
0.000000000000000
  0
LINE
  5
F100F8
330
F100F9
100
AcDbEntity
8
Geo
100
AcDbLine
10
-81.0811529847386
20
-2.48489030334681
30
0.000000000000000
11
-80.9811529847386
21
-2.78155310621234
31
0.000000000000000
  0
LINE
  5
F100FA
330
F100FB
100
AcDbEntity
8
Geo
100
AcDbLine
10
-80.9811529847386
20
-2.78155310621234
30
0.000000000000000
11
-80.8811529847386
21
-3.07482433368664
31
0.000000000000000
  0
LINE
  5
F100FC
330
F100FD
100
AcDbEntity
8
Geo
100
AcDbLine
10
-80.8811529847386
20
-3.07482433368664
30
0.000000000000000
11
-80.7811529847386
21
-3.36426956351349
31
0.000000000000000
  0
LINE
  5
F100FE
330
F100FF
100
AcDbEntity
8
Geo
100
AcDbLine
10
-80.7811529847386
20
-3.36426956351349
30
0.000000000000000
11
-80.6811529847386
21
-3.64946004088163
31
0.000000000000000
  0
LINE
  5
F10100
330
F10101
100
AcDbEntity
8
Geo
100
AcDbLine
10
-80.6811529847386
20
-3.64946004088163
30
0.000000000000000
11
-80.5811529847386
21
-3.92997331353861
31
0.000000000000000
  0
LINE
  5
F10102
330
F10103
100
AcDbEntity
8
Geo
100
AcDbLine
10
-80.5811529847386
20
-3.92997331353861
30
0.000000000000000
11
-80.4811529847386
21
-4.20539385756871
31
0.000000000000000
  0
LINE
  5
F10104
330
F10105
100
AcDbEntity
8
Geo
100
AcDbLine
10
-80.4811529847386
20
-4.20539385756871
30
0.000000000000000
11
-80.3811529847386
21
-4.47531369290799
31
0.000000000000000
  0
LINE
  5
F10106
330
F10107
100
AcDbEntity
8
Geo
100
AcDbLine
10
-80.3811529847386
20
-4.47531369290799
30
0.000000000000000
11
-80.2811529847386
21
-4.73933298768451
31
0.000000000000000
  0
LINE
  5
F10108
330
F10109
100
AcDbEntity
8
Geo
100
AcDbLine
10
-80.2811529847386
20
-4.73933298768451
30
0.000000000000000
11
-80.1811529847386
21
-4.99706065048878
31
0.000000000000000
  0
LINE
  5
F1010A
330
F1010B
100
AcDbEntity
8
Geo
100
AcDbLine
10
-80.1811529847386
20
-4.99706065048878
30
0.000000000000000
11
-80.0811529847386
21
-5.24811490969688
31
0.000000000000000
  0
LINE
  5
F1010C
330
F1010D
100
AcDbEntity
8
Geo
100
AcDbLine
10
-80.0811529847386
20
-5.24811490969688
30
0.000000000000000
11
-79.9811529847386
21
-5.49212387898824
31
0.000000000000000
  0
LINE
  5
F1010E
330
F1010F
100
AcDbEntity
8
Geo
100
AcDbLine
10
-79.9811529847386
20
-5.49212387898824
30
0.000000000000000
11
-79.8811529847386
21
-5.72872610822032
31
0.000000000000000
  0
LINE
  5
F10110
330
F10111
100
AcDbEntity
8
Geo
100
AcDbLine
10
-79.8811529847386
20
-5.72872610822032
30
0.000000000000000
11
-79.7811529847386
21
-5.95757111884419
31
0.000000000000000
  0
LINE
  5
F10112
330
F10113
100
AcDbEntity
8
Geo
100
AcDbLine
10
-79.7811529847386
20
-5.95757111884419
30
0.000000000000000
11
-79.6811529847386
21
-6.17831992306793
31
0.000000000000000
  0
LINE
  5
F10114
330
F10115
100
AcDbEntity
8
Geo
100
AcDbLine
10
-79.6811529847386
20
-6.17831992306793
30
0.000000000000000
11
-79.5811529847386
21
-6.39064552599876
31
0.000000000000000
  0
LINE
  5
F10116
330
F10117
100
AcDbEntity
8
Geo
100
AcDbLine
10
-79.5811529847386
20
-6.39064552599876
30
0.000000000000000
11
-79.4811529847386
21
-6.59423341002009
31
0.000000000000000
  0
LINE
  5
F10118
330
F10119
100
AcDbEntity
8
Geo
100
AcDbLine
10
-79.4811529847386
20
-6.59423341002009
30
0.000000000000000
11
-79.3811529847386
21
-6.78878200068608
31
0.000000000000000
  0
LINE
  5
F1011A
330
F1011B
100
AcDbEntity
8
Geo
100
AcDbLine
10
-79.3811529847386
20
-6.78878200068608
30
0.000000000000000
11
-79.2811529847386
21
-6.97400311344337
31
0.000000000000000
  0
LINE
  5
F1011C
330
F1011D
100
AcDbEntity
8
Geo
100
AcDbLine
10
-79.2811529847386
20
-6.97400311344337
30
0.000000000000000
11
-79.1811529847386
21
-7.14962238051851
31
0.000000000000000
  0
LINE
  5
F1011E
330
F1011F
100
AcDbEntity
8
Geo
100
AcDbLine
10
-79.1811529847386
20
-7.14962238051851
30
0.000000000000000
11
-79.0811529847386
21
-7.31537965733853
31
0.000000000000000
  0
LINE
  5
F10120
330
F10121
100
AcDbEntity
8
Geo
100
AcDbLine
10
-79.0811529847386
20
-7.31537965733853
30
0.000000000000000
11
-78.9811529847386
21
-7.47102940788274
31
0.000000000000000
  0
LINE
  5
F10122
330
F10123
100
AcDbEntity
8
Geo
100
AcDbLine
10
-78.9811529847386
20
-7.47102940788274
30
0.000000000000000
11
-78.8811529847386
21
-7.61634106839487
31
0.000000000000000
  0
LINE
  5
F10124
330
F10125
100
AcDbEntity
8
Geo
100
AcDbLine
10
-78.8811529847386
20
-7.61634106839487
30
0.000000000000000
11
-78.7811529847386
21
-7.75109938891687
31
0.000000000000000
  0
LINE
  5
F10126
330
F10127
100
AcDbEntity
8
Geo
100
AcDbLine
10
-78.7811529847386
20
-7.75109938891687
30
0.000000000000000
11
-78.6811529847386
21
-7.87510475213835
31
0.000000000000000
  0
LINE
  5
F10128
330
F10129
100
AcDbEntity
8
Geo
100
AcDbLine
10
-78.6811529847386
20
-7.87510475213835
30
0.000000000000000
11
-78.5811529847386
21
-7.98817346908943
31
0.000000000000000
  0
LINE
  5
F1012A
330
F1012B
100
AcDbEntity
8
Geo
100
AcDbLine
10
-78.5811529847386
20
-7.98817346908943
30
0.000000000000000
11
-78.4811529847386
21
-8.09013805123893
31
0.000000000000000
  0
LINE
  5
F1012C
330
F1012D
100
AcDbEntity
8
Geo
100
AcDbLine
10
-78.4811529847386
20
-8.09013805123893
30
0.000000000000000
11
-78.3811529847386
21
-8.18084745859493
31
0.000000000000000
  0
LINE
  5
F1012E
330
F1012F
100
AcDbEntity
8
Geo
100
AcDbLine
10
-78.3811529847386
20
-8.18084745859493
30
0.000000000000000
11
-78.2811529847386
21
-8.26016732344006
31
0.000000000000000
  0
LINE
  5
F10130
330
F10131
100
AcDbEntity
8
Geo
100
AcDbLine
10
-78.2811529847386
20
-8.26016732344006
30
0.000000000000000
11
-78.1811529847386
21
-8.32798014937026
31
0.000000000000000
  0
LINE
  5
F10132
330
F10133
100
AcDbEntity
8
Geo
100
AcDbLine
10
-78.1811529847386
20
-8.32798014937026
30
0.000000000000000
11
-78.0811529847386
21
-8.38418548534198
31
0.000000000000000
  0
LINE
  5
F10134
330
F10135
100
AcDbEntity
8
Geo
100
AcDbLine
10
-78.0811529847386
20
-8.38418548534198
30
0.000000000000000
11
-77.9811529847386
21
-8.42870007447020
31
0.000000000000000
  0
LINE
  5
F10136
330
F10137
100
AcDbEntity
8
Geo
100
AcDbLine
10
-77.9811529847386
20
-8.42870007447020
30
0.000000000000000
11
-77.8811529847386
21
-8.46145797735675
31
0.000000000000000
  0
LINE
  5
F10138
330
F10139
100
AcDbEntity
8
Geo
100
AcDbLine
10
-77.8811529847386
20
-8.46145797735675
30
0.000000000000000
11
-77.7811529847386
21
-8.48241066976621
31
0.000000000000000
  0
LINE
  5
F1013A
330
F1013B
100
AcDbEntity
8
Geo
100
AcDbLine
10
-77.7811529847386
20
-8.48241066976621
30
0.000000000000000
11
-77.6811529847386
21
-8.49152711450485
31
0.000000000000000
  0
LINE
  5
F1013C
330
F1013D
100
AcDbEntity
8
Geo
100
AcDbLine
10
-89.0811529847386
20
7.00804293508912
30
0.000000000000000
11
-88.9811529847386
21
7.30226587058203
31
0.000000000000000
  0
LINE
  5
F1013E
330
F1013F
100
AcDbEntity
8
Geo
100
AcDbLine
10
-88.9811529847386
20
7.30226587058203
30
0.000000000000000
11
-88.8811529847385
21
7.38464708461219
31
0.000000000000000
  0
LINE
  5
F10140
330
F10141
100
AcDbEntity
8
Geo
100
AcDbLine
10
-88.8811529847385
20
7.38464708461219
30
0.000000000000000
11
-88.7811529847386
21
7.41330437798369
31
0.000000000000000
  0
LINE
  5
F10142
330
F10143
100
AcDbEntity
8
Geo
100
AcDbLine
10
-88.7811529847386
20
7.41330437798369
30
0.000000000000000
11
-88.6811529847385
21
7.40343270113971
31
0.000000000000000
  0
LINE
  5
F10144
330
F10145
100
AcDbEntity
8
Geo
100
AcDbLine
10
-88.6811529847385
20
7.40343270113971
30
0.000000000000000
11
-88.5811529847386
21
7.36035147018207
31
0.000000000000000
  0
LINE
  5
F10146
330
F10147
100
AcDbEntity
8
Geo
100
AcDbLine
10
-88.5811529847386
20
7.36035147018207
30
0.000000000000000
11
-88.4811529847386
21
7.29565606591161
31
0.000000000000000
  0
LINE
  5
F10148
330
F10149
100
AcDbEntity
8
Geo
100
AcDbLine
10
-88.4811529847386
20
7.29565606591161
30
0.000000000000000
11
-88.3811529847385
21
7.21942488127881
31
0.000000000000000
  0
LINE
  5
F1014A
330
F1014B
100
AcDbEntity
8
Geo
100
AcDbLine
10
-88.3811529847385
20
7.21942488127881
30
0.000000000000000
11
-88.2811529847386
21
7.13177083743010
31
0.000000000000000
  0
LINE
  5
F1014C
330
F1014D
100
AcDbEntity
8
Geo
100
AcDbLine
10
-88.2811529847386
20
7.13177083743010
30
0.000000000000000
11
-88.1811529847385
21
7.03282377617717
31
0.000000000000000
  0
LINE
  5
F1014E
330
F1014F
100
AcDbEntity
8
Geo
100
AcDbLine
10
-88.1811529847385
20
7.03282377617717
30
0.000000000000000
11
-88.0811529847386
21
6.92273026766251
31
0.000000000000000
  0
LINE
  5
F10150
330
F10151
100
AcDbEntity
8
Geo
100
AcDbLine
10
-88.0811529847386
20
6.92273026766251
30
0.000000000000000
11
-87.9811529847386
21
6.80165339324521
31
0.000000000000000
  0
LINE
  5
F10152
330
F10153
100
AcDbEntity
8
Geo
100
AcDbLine
10
-87.9811529847386
20
6.80165339324521
30
0.000000000000000
11
-87.8811529847385
21
6.66977250392882
31
0.000000000000000
  0
LINE
  5
F10154
330
F10155
100
AcDbEntity
8
Geo
100
AcDbLine
10
-87.8811529847385
20
6.66977250392882
30
0.000000000000000
11
-87.7811529847386
21
6.52728295468894
31
0.000000000000000
  0
LINE
  5
F10156
330
F10157
100
AcDbEntity
8
Geo
100
AcDbLine
10
-87.7811529847386
20
6.52728295468894
30
0.000000000000000
11
-87.6811529847385
21
6.37439581509417
31
0.000000000000000
  0
LINE
  5
F10158
330
F10159
100
AcDbEntity
8
Geo
100
AcDbLine
10
-87.6811529847385
20
6.37439581509417
30
0.000000000000000
11
-87.5811529847386
21
6.21133755664907
31
0.000000000000000
  0
LINE
  5
F1015A
330
F1015B
100
AcDbEntity
8
Geo
100
AcDbLine
10
-87.5811529847386
20
6.21133755664907
30
0.000000000000000
11
-87.4811529847386
21
6.03834971732220
31
0.000000000000000
  0
LINE
  5
F1015C
330
F1015D
100
AcDbEntity
8
Geo
100
AcDbLine
10
-87.4811529847386
20
6.03834971732220
30
0.000000000000000
11
-87.3811529847385
21
5.85568854375632
31
0.000000000000000
  0
LINE
  5
F1015E
330
F1015F
100
AcDbEntity
8
Geo
100
AcDbLine
10
-87.3811529847385
20
5.85568854375632
30
0.000000000000000
11
-87.2811529847386
21
5.66362461169056
31
0.000000000000000
  0
LINE
  5
F10160
330
F10161
100
AcDbEntity
8
Geo
100
AcDbLine
10
-87.2811529847386
20
5.66362461169056
30
0.000000000000000
11
-87.1811529847385
21
5.46244242515700
31
0.000000000000000
  0
LINE
  5
F10162
330
F10163
100
AcDbEntity
8
Geo
100
AcDbLine
10
-87.1811529847385
20
5.46244242515700
30
0.000000000000000
11
-87.0811529847386
21
5.25243999504518
31
0.000000000000000
  0
LINE
  5
F10164
330
F10165
100
AcDbEntity
8
Geo
100
AcDbLine
10
-87.0811529847386
20
5.25243999504518
30
0.000000000000000
11
-86.9811529847386
21
5.03392839765906
31
0.000000000000000
  0
LINE
  5
F10166
330
F10167
100
AcDbEntity
8
Geo
100
AcDbLine
10
-86.9811529847386
20
5.03392839765906
30
0.000000000000000
11
-86.8811529847385
21
4.80723131392009
31
0.000000000000000
  0
LINE
  5
F10168
330
F10169
100
AcDbEntity
8
Geo
100
AcDbLine
10
-86.8811529847385
20
4.80723131392009
30
0.000000000000000
11
-86.7811529847386
21
4.57268454989912
31
0.000000000000000
  0
LINE
  5
F1016A
330
F1016B
100
AcDbEntity
8
Geo
100
AcDbLine
10
-86.7811529847386
20
4.57268454989912
30
0.000000000000000
11
-86.6811529847385
21
4.33063553938734
31
0.000000000000000
  0
LINE
  5
F1016C
330
F1016D
100
AcDbEntity
8
Geo
100
AcDbLine
10
-86.6811529847385
20
4.33063553938734
30
0.000000000000000
11
-86.5811529847386
21
4.08144282924313
31
0.000000000000000
  0
LINE
  5
F1016E
330
F1016F
100
AcDbEntity
8
Geo
100
AcDbLine
10
-86.5811529847386
20
4.08144282924313
30
0.000000000000000
11
-86.4811529847386
21
3.82547554827705
31
0.000000000000000
  0
LINE
  5
F10170
330
F10171
100
AcDbEntity
8
Geo
100
AcDbLine
10
-86.4811529847386
20
3.82547554827705
30
0.000000000000000
11
-86.3811529847385
21
3.56311286046187
31
0.000000000000000
  0
LINE
  5
F10172
330
F10173
100
AcDbEntity
8
Geo
100
AcDbLine
10
-86.3811529847385
20
3.56311286046187
30
0.000000000000000
11
-86.2811529847386
21
3.29474340327754
31
0.000000000000000
  0
LINE
  5
F10174
330
F10175
100
AcDbEntity
8
Geo
100
AcDbLine
10
-86.2811529847386
20
3.29474340327754
30
0.000000000000000
11
-86.1811529847385
21
3.02076471202300
31
0.000000000000000
  0
LINE
  5
F10176
330
F10177
100
AcDbEntity
8
Geo
100
AcDbLine
10
-86.1811529847385
20
3.02076471202300
30
0.000000000000000
11
-86.0811529847386
21
2.74158263094774
31
0.000000000000000
  0
LINE
  5
F10178
330
F10179
100
AcDbEntity
8
Geo
100
AcDbLine
10
-86.0811529847386
20
2.74158263094774
30
0.000000000000000
11
-85.9811529847385
21
2.45761071207522
31
0.000000000000000
  0
LINE
  5
F1017A
330
F1017B
100
AcDbEntity
8
Geo
100
AcDbLine
10
-85.9811529847385
20
2.45761071207522
30
0.000000000000000
11
-85.8811529847385
21
2.16926960260894
31
0.000000000000000
  0
LINE
  5
F1017C
330
F1017D
100
AcDbEntity
8
Geo
100
AcDbLine
10
-85.8811529847385
20
2.16926960260894
30
0.000000000000000
11
-85.7811529847386
21
1.87698642182822
31
0.000000000000000
  0
LINE
  5
F1017E
330
F1017F
100
AcDbEntity
8
Geo
100
AcDbLine
10
-85.7811529847386
20
1.87698642182822
30
0.000000000000000
11
-85.6811529847385
21
1.58119412839710
31
0.000000000000000
  0
LINE
  5
F10180
330
F10181
100
AcDbEntity
8
Geo
100
AcDbLine
10
-85.6811529847385
20
1.58119412839710
30
0.000000000000000
11
-85.5811529847386
21
1.28233087902323
31
0.000000000000000
  0
LINE
  5
F10182
330
F10183
100
AcDbEntity
8
Geo
100
AcDbLine
10
-85.5811529847386
20
1.28233087902323
30
0.000000000000000
11
-85.4811529847385
21
0.980839379416975
31
0.000000000000000
  0
LINE
  5
F10184
330
F10185
100
AcDbEntity
8
Geo
100
AcDbLine
10
-85.4811529847385
20
0.980839379416975
30
0.000000000000000
11
-85.3811529847385
21
0.677166228512079
31
0.000000000000000
  0
LINE
  5
F10186
330
F10187
100
AcDbEntity
8
Geo
100
AcDbLine
10
-85.3811529847385
20
0.677166228512079
30
0.000000000000000
11
-85.2811529847386
21
0.371761256919271
31
0.000000000000000
  0
LINE
  5
F10188
330
F10189
100
AcDbEntity
8
Geo
100
AcDbLine
10
-85.2811529847386
20
0.371761256919271
30
0.000000000000000
11
-85.1811529847385
21
0.0650768605928242
31
0.000000000000000
  0
LINE
  5
F1018A
330
F1018B
100
AcDbEntity
8
Geo
100
AcDbLine
10
-85.1811529847385
20
0.0650768605928242
30
0.000000000000000
11
-85.0811529847386
21
-0.242432669302921
31
0.000000000000000
  0
LINE
  5
F1018C
330
F1018D
100
AcDbEntity
8
Geo
100
AcDbLine
10
-85.0811529847386
20
-0.242432669302921
30
0.000000000000000
11
-84.9811529847385
21
-0.550311819334442
31
0.000000000000000
  0
LINE
  5
F1018E
330
F1018F
100
AcDbEntity
8
Geo
100
AcDbLine
10
-84.9811529847385
20
-0.550311819334442
30
0.000000000000000
11
-84.8811529847385
21
-0.858104528550425
31
0.000000000000000
  0
LINE
  5
F10190
330
F10191
100
AcDbEntity
8
Geo
100
AcDbLine
10
-84.8811529847385
20
-0.858104528550425
30
0.000000000000000
11
-84.7811529847386
21
-1.16535486404421
31
0.000000000000000
  0
LINE
  5
F10192
330
F10193
100
AcDbEntity
8
Geo
100
AcDbLine
10
-84.7811529847386
20
-1.16535486404421
30
0.000000000000000
11
-84.6811529847385
21
-1.47160769632658
31
0.000000000000000
  0
LINE
  5
F10194
330
F10195
100
AcDbEntity
8
Geo
100
AcDbLine
10
-84.6811529847385
20
-1.47160769632658
30
0.000000000000000
11
-84.5811529847386
21
-1.77640937350841
31
0.000000000000000
  0
LINE
  5
F10196
330
F10197
100
AcDbEntity
8
Geo
100
AcDbLine
10
-84.5811529847386
20
-1.77640937350841
30
0.000000000000000
11
-84.4811529847386
21
-2.07930839329458
31
0.000000000000000
  0
LINE
  5
F10198
330
F10199
100
AcDbEntity
8
Geo
100
AcDbLine
10
-84.4811529847386
20
-2.07930839329458
30
0.000000000000000
11
-84.3811529847385
21
-2.37985607179369
31
0.000000000000000
  0
LINE
  5
F1019A
330
F1019B
100
AcDbEntity
8
Geo
100
AcDbLine
10
-84.3811529847385
20
-2.37985607179369
30
0.000000000000000
11
-84.2811529847386
21
-2.67760720815290
31
0.000000000000000
  0
LINE
  5
F1019C
330
F1019D
100
AcDbEntity
8
Geo
100
AcDbLine
10
-84.2811529847386
20
-2.67760720815290
30
0.000000000000000
11
-84.1811529847386
21
-2.97212074403326
31
0.000000000000000
  0
LINE
  5
F1019E
330
F1019F
100
AcDbEntity
8
Geo
100
AcDbLine
10
-84.1811529847386
20
-2.97212074403326
30
0.000000000000000
11
-84.0811529847386
21
-3.26296041694889
31
0.000000000000000
  0
LINE
  5
F101A0
330
F101A1
100
AcDbEntity
8
Geo
100
AcDbLine
10
-84.0811529847386
20
-3.26296041694889
30
0.000000000000000
11
-83.9811529847386
21
-3.54969540650193
31
0.000000000000000
  0
LINE
  5
F101A2
330
F101A3
100
AcDbEntity
8
Geo
100
AcDbLine
10
-83.9811529847386
20
-3.54969540650193
30
0.000000000000000
11
-83.8811529847385
21
-3.83190097255619
31
0.000000000000000
  0
LINE
  5
F101A4
330
F101A5
100
AcDbEntity
8
Geo
100
AcDbLine
10
-83.8811529847385
20
-3.83190097255619
30
0.000000000000000
11
-83.7811529847386
21
-4.10915908440415
31
0.000000000000000
  0
LINE
  5
F101A6
330
F101A7
100
AcDbEntity
8
Geo
100
AcDbLine
10
-83.7811529847386
20
-4.10915908440415
30
0.000000000000000
11
-83.6811529847386
21
-4.38105903999523
31
0.000000000000000
  0
LINE
  5
F101A8
330
F101A9
100
AcDbEntity
8
Geo
100
AcDbLine
10
-83.6811529847386
20
-4.38105903999523
30
0.000000000000000
11
-83.5811529847386
21
-4.64719807430817
31
0.000000000000000
  0
LINE
  5
F101AA
330
F101AB
100
AcDbEntity
8
Geo
100
AcDbLine
10
-83.5811529847386
20
-4.64719807430817
30
0.000000000000000
11
-83.4811529847386
21
-4.90718195596627
31
0.000000000000000
  0
LINE
  5
F101AC
330
F101AD
100
AcDbEntity
8
Geo
100
AcDbLine
10
-83.4811529847386
20
-4.90718195596627
30
0.000000000000000
11
-83.3811529847385
21
-5.16062557121181
31
0.000000000000000
  0
LINE
  5
F101AE
330
F101AF
100
AcDbEntity
8
Geo
100
AcDbLine
10
-83.3811529847385
20
-5.16062557121181
30
0.000000000000000
11
-83.2811529847386
21
-5.40715349437448
31
0.000000000000000
  0
LINE
  5
F101B0
330
F101B1
100
AcDbEntity
8
Geo
100
AcDbLine
10
-83.2811529847386
20
-5.40715349437448
30
0.000000000000000
11
-83.1811529847386
21
-5.64640054398892
31
0.000000000000000
  0
LINE
  5
F101B2
330
F101B3
100
AcDbEntity
8
Geo
100
AcDbLine
10
-83.1811529847386
20
-5.64640054398892
30
0.000000000000000
11
-83.0811529847386
21
-5.87801232373750
31
0.000000000000000
  0
LINE
  5
F101B4
330
F101B5
100
AcDbEntity
8
Geo
100
AcDbLine
10
-83.0811529847386
20
-5.87801232373750
30
0.000000000000000
11
-82.9811529847386
21
-6.10164574741710
31
0.000000000000000
  0
LINE
  5
F101B6
330
F101B7
100
AcDbEntity
8
Geo
100
AcDbLine
10
-82.9811529847386
20
-6.10164574741710
30
0.000000000000000
11
-82.8811529847386
21
-6.31696954715218
31
0.000000000000000
  0
LINE
  5
F101B8
330
F101B9
100
AcDbEntity
8
Geo
100
AcDbLine
10
-82.8811529847386
20
-6.31696954715218
30
0.000000000000000
11
-82.7811529847386
21
-6.52366476410146
31
0.000000000000000
  0
LINE
  5
F101BA
330
F101BB
100
AcDbEntity
8
Geo
100
AcDbLine
10
-82.7811529847386
20
-6.52366476410146
30
0.000000000000000
11
-82.6811529847386
21
-6.72142522093120
31
0.000000000000000
  0
LINE
  5
F101BC
330
F101BD
100
AcDbEntity
8
Geo
100
AcDbLine
10
-82.6811529847386
20
-6.72142522093120
30
0.000000000000000
11
-82.5811529847386
21
-6.90995797535523
31
0.000000000000000
  0
LINE
  5
F101BE
330
F101BF
100
AcDbEntity
8
Geo
100
AcDbLine
10
-82.5811529847386
20
-6.90995797535523
30
0.000000000000000
11
-82.4811529847386
21
-7.08898375406996
31
0.000000000000000
  0
LINE
  5
F101C0
330
F101C1
100
AcDbEntity
8
Geo
100
AcDbLine
10
-82.4811529847386
20
-7.08898375406996
30
0.000000000000000
11
-82.3811529847386
21
-7.25823736644152
31
0.000000000000000
  0
LINE
  5
F101C2
330
F101C3
100
AcDbEntity
8
Geo
100
AcDbLine
10
-82.3811529847386
20
-7.25823736644152
30
0.000000000000000
11
-82.2811529847386
21
-7.41746809733229
31
0.000000000000000
  0
LINE
  5
F101C4
330
F101C5
100
AcDbEntity
8
Geo
100
AcDbLine
10
-82.2811529847386
20
-7.41746809733229
30
0.000000000000000
11
-82.1811529847386
21
-7.56644007848487
31
0.000000000000000
  0
LINE
  5
F101C6
330
F101C7
100
AcDbEntity
8
Geo
100
AcDbLine
10
-82.1811529847386
20
-7.56644007848487
30
0.000000000000000
11
-82.0811529847386
21
-7.70493263791338
31
0.000000000000000
  0
LINE
  5
F101C8
330
F101C9
100
AcDbEntity
8
Geo
100
AcDbLine
10
-82.0811529847386
20
-7.70493263791338
30
0.000000000000000
11
-81.9811529847386
21
-7.83274062678462
31
0.000000000000000
  0
LINE
  5
F101CA
330
F101CB
100
AcDbEntity
8
Geo
100
AcDbLine
10
-81.9811529847386
20
-7.83274062678462
30
0.000000000000000
11
-81.8811529847386
21
-7.94967472330467
31
0.000000000000000
  0
LINE
  5
F101CC
330
F101CD
100
AcDbEntity
8
Geo
100
AcDbLine
10
-81.8811529847386
20
-7.94967472330467
30
0.000000000000000
11
-81.7811529847386
21
-8.05556171316105
31
0.000000000000000
  0
LINE
  5
F101CE
330
F101CF
100
AcDbEntity
8
Geo
100
AcDbLine
10
-81.7811529847386
20
-8.05556171316105
30
0.000000000000000
11
-81.6811529847386
21
-8.15024474610483
31
0.000000000000000
  0
LINE
  5
F101D0
330
F101D1
100
AcDbEntity
8
Geo
100
AcDbLine
10
-81.6811529847386
20
-8.15024474610483
30
0.000000000000000
11
-81.5811529847386
21
-8.23358356829265
31
0.000000000000000
  0
LINE
  5
F101D2
330
F101D3
100
AcDbEntity
8
Geo
100
AcDbLine
10
-81.5811529847386
20
-8.23358356829265
30
0.000000000000000
11
-81.4811529847386
21
-8.30545473004459
31
0.000000000000000
  0
LINE
  5
F101D4
330
F101D5
100
AcDbEntity
8
Geo
100
AcDbLine
10
-81.4811529847386
20
-8.30545473004459
30
0.000000000000000
11
-81.3811529847386
21
-8.36575176870998
31
0.000000000000000
  0
LINE
  5
F101D6
330
F101D7
100
AcDbEntity
8
Geo
100
AcDbLine
10
-81.3811529847386
20
-8.36575176870998
30
0.000000000000000
11
-81.2811529847386
21
-8.41438536637035
31
0.000000000000000
  0
LINE
  5
F101D8
330
F101D9
100
AcDbEntity
8
Geo
100
AcDbLine
10
-81.2811529847386
20
-8.41438536637035
30
0.000000000000000
11
-81.1811529847386
21
-8.45128348214600
31
0.000000000000000
  0
LINE
  5
F101DA
330
F101DB
100
AcDbEntity
8
Geo
100
AcDbLine
10
-81.1811529847386
20
-8.45128348214600
30
0.000000000000000
11
-81.0811529847386
21
-8.47639145891000
31
0.000000000000000
  0
LINE
  5
F101DC
330
F101DD
100
AcDbEntity
8
Geo
100
AcDbLine
10
-81.0811529847386
20
-8.47639145891000
30
0.000000000000000
11
-80.9811529847386
21
-8.48967210425171
31
0.000000000000000
  0
LINE
  5
F101DE
330
F101DF
100
AcDbEntity
8
Geo
100
AcDbLine
10
-89.0811529847386
20
6.64096680730277
30
0.000000000000000
11
-88.9811529847386
21
6.82803860940613
31
0.000000000000000
  0
LINE
  5
F101E0
330
F101E1
100
AcDbEntity
8
Geo
100
AcDbLine
10
-88.9811529847386
20
6.82803860940613
30
0.000000000000000
11
-88.8811529847385
21
6.81139788839279
31
0.000000000000000
  0
LINE
  5
F101E2
330
F101E3
100
AcDbEntity
8
Geo
100
AcDbLine
10
-88.8811529847385
20
6.81139788839279
30
0.000000000000000
11
-88.7811529847386
21
6.74305575358668
31
0.000000000000000
  0
LINE
  5
F101E4
330
F101E5
100
AcDbEntity
8
Geo
100
AcDbLine
10
-88.7811529847386
20
6.74305575358668
30
0.000000000000000
11
-88.6811529847385
21
6.63837517747255
31
0.000000000000000
  0
LINE
  5
F101E6
330
F101E7
100
AcDbEntity
8
Geo
100
AcDbLine
10
-88.6811529847385
20
6.63837517747255
30
0.000000000000000
11
-88.5811529847386
21
6.50320072256976
31
0.000000000000000
  0
LINE
  5
F101E8
330
F101E9
100
AcDbEntity
8
Geo
100
AcDbLine
10
-88.5811529847386
20
6.50320072256976
30
0.000000000000000
11
-88.4811529847386
21
6.34864909332479
31
0.000000000000000
  0
LINE
  5
F101EA
330
F101EB
100
AcDbEntity
8
Geo
100
AcDbLine
10
-88.4811529847386
20
6.34864909332479
30
0.000000000000000
11
-88.3811529847385
21
6.18396448381218
31
0.000000000000000
  0
LINE
  5
F101EC
330
F101ED
100
AcDbEntity
8
Geo
100
AcDbLine
10
-88.3811529847385
20
6.18396448381218
30
0.000000000000000
11
-88.2811529847386
21
6.00939084111204
31
0.000000000000000
  0
LINE
  5
F101EE
330
F101EF
100
AcDbEntity
8
Geo
100
AcDbLine
10
-88.2811529847386
20
6.00939084111204
30
0.000000000000000
11
-88.1811529847385
21
5.82518676091544
31
0.000000000000000
  0
LINE
  5
F101F0
330
F101F1
100
AcDbEntity
8
Geo
100
AcDbLine
10
-88.1811529847385
20
5.82518676091544
30
0.000000000000000
11
-88.0811529847386
21
5.63162510446693
31
0.000000000000000
  0
LINE
  5
F101F2
330
F101F3
100
AcDbEntity
8
Geo
100
AcDbLine
10
-88.0811529847386
20
5.63162510446693
30
0.000000000000000
11
-87.9811529847386
21
5.42899259437559
31
0.000000000000000
  0
LINE
  5
F101F4
330
F101F5
100
AcDbEntity
8
Geo
100
AcDbLine
10
-87.9811529847386
20
5.42899259437559
30
0.000000000000000
11
-87.8811529847385
21
5.21758938989322
31
0.000000000000000
  0
LINE
  5
F101F6
330
F101F7
100
AcDbEntity
8
Geo
100
AcDbLine
10
-87.8811529847385
20
5.21758938989322
30
0.000000000000000
11
-87.7811529847386
21
4.99772864228887
31
0.000000000000000
  0
LINE
  5
F101F8
330
F101F9
100
AcDbEntity
8
Geo
100
AcDbLine
10
-87.7811529847386
20
4.99772864228887
30
0.000000000000000
11
-87.6811529847385
21
4.76973603097831
31
0.000000000000000
  0
LINE
  5
F101FA
330
F101FB
100
AcDbEntity
8
Geo
100
AcDbLine
10
-87.6811529847385
20
4.76973603097831
30
0.000000000000000
11
-87.5811529847386
21
4.53394928109557
31
0.000000000000000
  0
LINE
  5
F101FC
330
F101FD
100
AcDbEntity
8
Geo
100
AcDbLine
10
-87.5811529847386
20
4.53394928109557
30
0.000000000000000
11
-87.4811529847386
21
4.29071766322115
31
0.000000000000000
  0
LINE
  5
F101FE
330
F101FF
100
AcDbEntity
8
Geo
100
AcDbLine
10
-87.4811529847386
20
4.29071766322115
30
0.000000000000000
11
-87.3811529847385
21
4.04040147600803
31
0.000000000000000
  0
LINE
  5
F10200
330
F10201
100
AcDbEntity
8
Geo
100
AcDbLine
10
-87.3811529847385
20
4.04040147600803
30
0.000000000000000
11
-87.2811529847386
21
3.78337151247179
31
0.000000000000000
  0
LINE
  5
F10202
330
F10203
100
AcDbEntity
8
Geo
100
AcDbLine
10
-87.2811529847386
20
3.78337151247179
30
0.000000000000000
11
-87.1811529847385
21
3.52000851073539
31
0.000000000000000
  0
LINE
  5
F10204
330
F10205
100
AcDbEntity
8
Geo
100
AcDbLine
10
-87.1811529847385
20
3.52000851073539
30
0.000000000000000
11
-87.0811529847386
21
3.25070259004237
31
0.000000000000000
  0
LINE
  5
F10206
330
F10207
100
AcDbEntity
8
Geo
100
AcDbLine
10
-87.0811529847386
20
3.25070259004237
30
0.000000000000000
11
-86.9811529847386
21
2.97585267287377
31
0.000000000000000
  0
LINE
  5
F10208
330
F10209
100
AcDbEntity
8
Geo
100
AcDbLine
10
-86.9811529847386
20
2.97585267287377
30
0.000000000000000
11
-86.8811529847385
21
2.69586589402477
31
0.000000000000000
  0
LINE
  5
F1020A
330
F1020B
100
AcDbEntity
8
Geo
100
AcDbLine
10
-86.8811529847385
20
2.69586589402477
30
0.000000000000000
11
-86.7811529847386
21
2.41115699751655
31
0.000000000000000
  0
LINE
  5
F1020C
330
F1020D
100
AcDbEntity
8
Geo
100
AcDbLine
10
-86.7811529847386
20
2.41115699751655
30
0.000000000000000
11
-86.6811529847385
21
2.12214772223649
31
0.000000000000000
  0
LINE
  5
F1020E
330
F1020F
100
AcDbEntity
8
Geo
100
AcDbLine
10
-86.6811529847385
20
2.12214772223649
30
0.000000000000000
11
-86.5811529847386
21
1.82926617721703
31
0.000000000000000
  0
LINE
  5
F10210
330
F10211
100
AcDbEntity
8
Geo
100
AcDbLine
10
-86.5811529847386
20
1.82926617721703
30
0.000000000000000
11
-86.4811529847386
21
1.53294620747830
31
0.000000000000000
  0
LINE
  5
F10212
330
F10213
100
AcDbEntity
8
Geo
100
AcDbLine
10
-86.4811529847386
20
1.53294620747830
30
0.000000000000000
11
-86.3811529847385
21
1.23362675137413
31
0.000000000000000
  0
LINE
  5
F10214
330
F10215
100
AcDbEntity
8
Geo
100
AcDbLine
10
-86.3811529847385
20
1.23362675137413
30
0.000000000000000
11
-86.2811529847386
21
0.931751190393262
31
0.000000000000000
  0
LINE
  5
F10216
330
F10217
100
AcDbEntity
8
Geo
100
AcDbLine
10
-86.2811529847386
20
0.931751190393262
30
0.000000000000000
11
-86.1811529847385
21
0.627766692379015
31
0.000000000000000
  0
LINE
  5
F10218
330
F10219
100
AcDbEntity
8
Geo
100
AcDbLine
10
-86.1811529847385
20
0.627766692379015
30
0.000000000000000
11
-86.0811529847386
21
0.322123549140153
31
0.000000000000000
  0
LINE
  5
F1021A
330
F1021B
100
AcDbEntity
8
Geo
100
AcDbLine
10
-86.0811529847386
20
0.322123549140153
30
0.000000000000000
11
-85.9811529847385
21
0.0152745094342761
31
0.000000000000000
  0
LINE
  5
F1021C
330
F1021D
100
AcDbEntity
8
Geo
100
AcDbLine
10
-85.9811529847385
20
0.0152745094342761
30
0.000000000000000
11
-85.8811529847385
21
-0.292325891688275
31
0.000000000000000
  0
LINE
  5
F1021E
330
F1021F
100
AcDbEntity
8
Geo
100
AcDbLine
10
-85.8811529847385
20
-0.292325891688275
30
0.000000000000000
11
-85.7811529847386
21
-0.600222006186555
31
0.000000000000000
  0
LINE
  5
F10220
330
F10221
100
AcDbEntity
8
Geo
100
AcDbLine
10
-85.7811529847386
20
-0.600222006186555
30
0.000000000000000
11
-85.6811529847385
21
-0.907957747979806
31
0.000000000000000
  0
LINE
  5
F10222
330
F10223
100
AcDbEntity
8
Geo
100
AcDbLine
10
-85.6811529847385
20
-0.907957747979806
30
0.000000000000000
11
-85.5811529847386
21
-1.21507726854714
31
0.000000000000000
  0
LINE
  5
F10224
330
F10225
100
AcDbEntity
8
Geo
100
AcDbLine
10
-85.5811529847386
20
-1.21507726854714
30
0.000000000000000
11
-85.4811529847385
21
-1.52112563217529
31
0.000000000000000
  0
LINE
  5
F10226
330
F10227
100
AcDbEntity
8
Geo
100
AcDbLine
10
-85.4811529847385
20
-1.52112563217529
30
0.000000000000000
11
-85.3811529847385
21
-1.82564948985427
31
0.000000000000000
  0
LINE
  5
F10228
330
F10229
100
AcDbEntity
8
Geo
100
AcDbLine
10
-85.3811529847385
20
-1.82564948985427
30
0.000000000000000
11
-85.2811529847386
21
-2.12819775082260
31
0.000000000000000
  0
LINE
  5
F1022A
330
F1022B
100
AcDbEntity
8
Geo
100
AcDbLine
10
-85.2811529847386
20
-2.12819775082260
30
0.000000000000000
11
-85.1811529847385
21
-2.42832225076743
31
0.000000000000000
  0
LINE
  5
F1022C
330
F1022D
100
AcDbEntity
8
Geo
100
AcDbLine
10
-85.1811529847385
20
-2.42832225076743
30
0.000000000000000
11
-85.0811529847386
21
-2.72557841568969
31
0.000000000000000
  0
LINE
  5
F1022E
330
F1022F
100
AcDbEntity
8
Geo
100
AcDbLine
10
-85.0811529847386
20
-2.72557841568969
30
0.000000000000000
11
-84.9811529847385
21
-3.01952592045096
31
0.000000000000000
  0
LINE
  5
F10230
330
F10231
100
AcDbEntity
8
Geo
100
AcDbLine
10
-84.9811529847385
20
-3.01952592045096
30
0.000000000000000
11
-84.8811529847385
21
-3.30972934102643
31
0.000000000000000
  0
LINE
  5
F10232
330
F10233
100
AcDbEntity
8
Geo
100
AcDbLine
10
-84.8811529847385
20
-3.30972934102643
30
0.000000000000000
11
-84.7811529847386
21
-3.59575879949794
31
0.000000000000000
  0
LINE
  5
F10234
330
F10235
100
AcDbEntity
8
Geo
100
AcDbLine
10
-84.7811529847386
20
-3.59575879949794
30
0.000000000000000
11
-84.6811529847385
21
-3.87719060083151
31
0.000000000000000
  0
LINE
  5
F10236
330
F10237
100
AcDbEntity
8
Geo
100
AcDbLine
10
-84.6811529847385
20
-3.87719060083151
30
0.000000000000000
11
-84.5811529847386
21
-4.15360786049620
31
0.000000000000000
  0
LINE
  5
F10238
330
F10239
100
AcDbEntity
8
Geo
100
AcDbLine
10
-84.5811529847386
20
-4.15360786049620
30
0.000000000000000
11
-84.4811529847386
21
-4.42460112199459
31
0.000000000000000
  0
LINE
  5
F1023A
330
F1023B
100
AcDbEntity
8
Geo
100
AcDbLine
10
-84.4811529847386
20
-4.42460112199459
30
0.000000000000000
11
-84.3811529847385
21
-4.68976896339009
31
0.000000000000000
  0
LINE
  5
F1023C
330
F1023D
100
AcDbEntity
8
Geo
100
AcDbLine
10
-84.3811529847385
20
-4.68976896339009
30
0.000000000000000
11
-84.2811529847386
21
-4.94871859193272
31
0.000000000000000
  0
LINE
  5
F1023E
330
F1023F
100
AcDbEntity
8
Geo
100
AcDbLine
10
-84.2811529847386
20
-4.94871859193272
30
0.000000000000000
11
-84.1811529847386
21
-5.20106642590243
31
0.000000000000000
  0
LINE
  5
F10240
330
F10241
100
AcDbEntity
8
Geo
100
AcDbLine
10
-84.1811529847386
20
-5.20106642590243
30
0.000000000000000
11
-84.0811529847386
21
-5.44643866280818
31
0.000000000000000
  0
LINE
  5
F10242
330
F10243
100
AcDbEntity
8
Geo
100
AcDbLine
10
-84.0811529847386
20
-5.44643866280818
30
0.000000000000000
11
-83.9811529847386
21
-5.68447183310103
31
0.000000000000000
  0
LINE
  5
F10244
330
F10245
100
AcDbEntity
8
Geo
100
AcDbLine
10
-83.9811529847386
20
-5.68447183310103
30
0.000000000000000
11
-83.8811529847385
21
-5.91481333858109
31
0.000000000000000
  0
LINE
  5
F10246
330
F10247
100
AcDbEntity
8
Geo
100
AcDbLine
10
-83.8811529847385
20
-5.91481333858109
30
0.000000000000000
11
-83.7811529847386
21
-6.13712197470069
31
0.000000000000000
  0
LINE
  5
F10248
330
F10249
100
AcDbEntity
8
Geo
100
AcDbLine
10
-83.7811529847386
20
-6.13712197470069
30
0.000000000000000
11
-83.6811529847386
21
-6.35106843599027
31
0.000000000000000
  0
LINE
  5
F1024A
330
F1024B
100
AcDbEntity
8
Geo
100
AcDbLine
10
-83.6811529847386
20
-6.35106843599027
30
0.000000000000000
11
-83.5811529847386
21
-6.55633580385805
31
0.000000000000000
  0
LINE
  5
F1024C
330
F1024D
100
AcDbEntity
8
Geo
100
AcDbLine
10
-83.5811529847386
20
-6.55633580385805
30
0.000000000000000
11
-83.4811529847386
21
-6.75262001604111
31
0.000000000000000
  0
LINE
  5
F1024E
330
F1024F
100
AcDbEntity
8
Geo
100
AcDbLine
10
-83.4811529847386
20
-6.75262001604111
30
0.000000000000000
11
-83.3811529847385
21
-6.93963031701240
31
0.000000000000000
  0
LINE
  5
F10250
330
F10251
100
AcDbEntity
8
Geo
100
AcDbLine
10
-83.3811529847385
20
-6.93963031701240
30
0.000000000000000
11
-83.2811529847386
21
-7.11708968867648
31
0.000000000000000
  0
LINE
  5
F10252
330
F10253
100
AcDbEntity
8
Geo
100
AcDbLine
10
-83.2811529847386
20
-7.11708968867648
30
0.000000000000000
11
-83.1811529847386
21
-7.28473526071604
31
0.000000000000000
  0
LINE
  5
F10254
330
F10255
100
AcDbEntity
8
Geo
100
AcDbLine
10
-83.1811529847386
20
-7.28473526071604
30
0.000000000000000
11
-83.0811529847386
21
-7.44231869998134
31
0.000000000000000
  0
LINE
  5
F10256
330
F10257
100
AcDbEntity
8
Geo
100
AcDbLine
10
-83.0811529847386
20
-7.44231869998134
30
0.000000000000000
11
-82.9811529847386
21
-7.58960657834575
31
0.000000000000000
  0
LINE
  5
F10258
330
F10259
100
AcDbEntity
8
Geo
100
AcDbLine
10
-82.9811529847386
20
-7.58960657834575
30
0.000000000000000
11
-82.8811529847386
21
-7.72638071848249
31
0.000000000000000
  0
LINE
  5
F1025A
330
F1025B
100
AcDbEntity
8
Geo
100
AcDbLine
10
-82.8811529847386
20
-7.72638071848249
30
0.000000000000000
11
-82.7811529847386
21
-7.85243851705040
31
0.000000000000000
  0
LINE
  5
F1025C
330
F1025D
100
AcDbEntity
8
Geo
100
AcDbLine
10
-82.7811529847386
20
-7.85243851705040
30
0.000000000000000
11
-82.6811529847386
21
-7.96759324481002
31
0.000000000000000
  0
LINE
  5
F1025E
330
F1025F
100
AcDbEntity
8
Geo
100
AcDbLine
10
-82.6811529847386
20
-7.96759324481002
30
0.000000000000000
11
-82.5811529847386
21
-8.07167432322531
31
0.000000000000000
  0
LINE
  5
F10260
330
F10261
100
AcDbEntity
8
Geo
100
AcDbLine
10
-82.5811529847386
20
-8.07167432322531
30
0.000000000000000
11
-82.4811529847386
21
-8.16452757714139
31
0.000000000000000
  0
LINE
  5
F10262
330
F10263
100
AcDbEntity
8
Geo
100
AcDbLine
10
-82.4811529847386
20
-8.16452757714139
30
0.000000000000000
11
-82.3811529847386
21
-8.24601546316402
31
0.000000000000000
  0
LINE
  5
F10264
330
F10265
100
AcDbEntity
8
Geo
100
AcDbLine
10
-82.3811529847386
20
-8.24601546316402
30
0.000000000000000
11
-82.2811529847386
21
-8.31601727340241
31
0.000000000000000
  0
LINE
  5
F10266
330
F10267
100
AcDbEntity
8
Geo
100
AcDbLine
10
-82.2811529847386
20
-8.31601727340241
30
0.000000000000000
11
-82.1811529847386
21
-8.37442931427364
31
0.000000000000000
  0
LINE
  5
F10268
330
F10269
100
AcDbEntity
8
Geo
100
AcDbLine
10
-82.1811529847386
20
-8.37442931427364
30
0.000000000000000
11
-82.0811529847386
21
-8.42116506010384
31
0.000000000000000
  0
LINE
  5
F1026A
330
F1026B
100
AcDbEntity
8
Geo
100
AcDbLine
10
-82.0811529847386
20
-8.42116506010384
30
0.000000000000000
11
-81.9811529847386
21
-8.45615528129853
31
0.000000000000000
  0
LINE
  5
F1026C
330
F1026D
100
AcDbEntity
8
Geo
100
AcDbLine
10
-81.9811529847386
20
-8.45615528129853
30
0.000000000000000
11
-81.8811529847386
21
-8.47934814689235
31
0.000000000000000
  0
LINE
  5
F1026E
330
F1026F
100
AcDbEntity
8
Geo
100
AcDbLine
10
-81.8811529847386
20
-8.47934814689235
30
0.000000000000000
11
-81.7811529847386
21
-8.49070930132615
31
0.000000000000000
  0
LINE
  5
F10270
330
F10271
100
AcDbEntity
8
Geo
100
AcDbLine
10
-73.5811529847386
20
7.50804293508912
30
0.000000000000000
11
-73.4811529847386
21
7.50771840194496
31
0.000000000000000
  0
LINE
  5
F10272
330
F10273
100
AcDbEntity
8
Geo
100
AcDbLine
10
-73.4811529847386
20
7.50771840194496
30
0.000000000000000
11
-73.3811529847386
21
7.50204150109012
31
0.000000000000000
  0
LINE
  5
F10274
330
F10275
100
AcDbEntity
8
Geo
100
AcDbLine
10
-73.3811529847386
20
7.50204150109012
30
0.000000000000000
11
-73.2811529847386
21
7.48975471230726
31
0.000000000000000
  0
LINE
  5
F10276
330
F10277
100
AcDbEntity
8
Geo
100
AcDbLine
10
-73.2811529847386
20
7.48975471230726
30
0.000000000000000
11
-73.1811529847386
21
7.47144733716868
31
0.000000000000000
  0
LINE
  5
F10278
330
F10279
100
AcDbEntity
8
Geo
100
AcDbLine
10
-73.1811529847386
20
7.47144733716868
30
0.000000000000000
11
-73.0811529847386
21
7.44769500383703
31
0.000000000000000
  0
LINE
  5
F1027A
330
F1027B
100
AcDbEntity
8
Geo
100
AcDbLine
10
-73.0811529847386
20
7.44769500383703
30
0.000000000000000
11
-72.9811529847386
21
7.41905837257627
31
0.000000000000000
  0
LINE
  5
F1027C
330
F1027D
100
AcDbEntity
8
Geo
100
AcDbLine
10
-72.9811529847386
20
7.41905837257627
30
0.000000000000000
11
-72.8811529847385
21
7.38608202809306
31
0.000000000000000
  0
LINE
  5
F1027E
330
F1027F
100
AcDbEntity
8
Geo
100
AcDbLine
10
-72.8811529847385
20
7.38608202809306
30
0.000000000000000
11
-72.7811529847386
21
7.34929354624101
31
0.000000000000000
  0
LINE
  5
F10280
330
F10281
100
AcDbEntity
8
Geo
100
AcDbLine
10
-72.7811529847386
20
7.34929354624101
30
0.000000000000000
11
-72.6811529847386
21
7.30920272258918
31
0.000000000000000
  0
LINE
  5
F10282
330
F10283
100
AcDbEntity
8
Geo
100
AcDbLine
10
-72.6811529847386
20
7.30920272258918
30
0.000000000000000
11
-72.5811529847386
21
7.26630095042073
31
0.000000000000000
  0
LINE
  5
F10284
330
F10285
100
AcDbEntity
8
Geo
100
AcDbLine
10
-72.5811529847386
20
7.26630095042073
30
0.000000000000000
11
-72.4811529847385
21
7.22106073587633
31
0.000000000000000
  0
LINE
  5
F10286
330
F10287
100
AcDbEntity
8
Geo
100
AcDbLine
10
-72.4811529847385
20
7.22106073587633
30
0.000000000000000
11
-72.3811529847385
21
7.17393533817883
31
0.000000000000000
  0
LINE
  5
F10288
330
F10289
100
AcDbEntity
8
Geo
100
AcDbLine
10
-72.3811529847385
20
7.17393533817883
30
0.000000000000000
11
-72.2811529847386
21
7.12535852315994
31
0.000000000000000
  0
LINE
  5
F1028A
330
F1028B
100
AcDbEntity
8
Geo
100
AcDbLine
10
-72.2811529847386
20
7.12535852315994
30
0.000000000000000
11
-72.1811529847385
21
7.07574441864682
31
0.000000000000000
  0
LINE
  5
F1028C
330
F1028D
100
AcDbEntity
8
Geo
100
AcDbLine
10
-72.1811529847385
20
7.07574441864682
30
0.000000000000000
11
-72.0811529847385
21
7.02548746064814
31
0.000000000000000
  0
LINE
  5
F1028E
330
F1028F
100
AcDbEntity
8
Geo
100
AcDbLine
10
-72.0811529847385
20
7.02548746064814
30
0.000000000000000
11
-71.9811529847385
21
6.97496241969617
31
0.000000000000000
  0
LINE
  5
F10290
330
F10291
100
AcDbEntity
8
Geo
100
AcDbLine
10
-71.9811529847385
20
6.97496241969617
30
0.000000000000000
11
-71.8811529847385
21
6.92452449714718
31
0.000000000000000
  0
LINE
  5
F10292
330
F10293
100
AcDbEntity
8
Geo
100
AcDbLine
10
-71.8811529847385
20
6.92452449714718
30
0.000000000000000
11
-71.7811529847385
21
6.87450948171004
31
0.000000000000000
  0
LINE
  5
F10294
330
F10295
100
AcDbEntity
8
Geo
100
AcDbLine
10
-71.7811529847385
20
6.87450948171004
30
0.000000000000000
11
-71.6811529847385
21
6.82523395695608
31
0.000000000000000
  0
LINE
  5
F10296
330
F10297
100
AcDbEntity
8
Geo
100
AcDbLine
10
-71.6811529847385
20
6.82523395695608
30
0.000000000000000
11
-71.5811529847385
21
6.77699555105697
31
0.000000000000000
  0
LINE
  5
F10298
330
F10299
100
AcDbEntity
8
Geo
100
AcDbLine
10
-71.5811529847385
20
6.77699555105697
30
0.000000000000000
11
-71.4811529847385
21
6.73007322049682
31
0.000000000000000
  0
LINE
  5
F1029A
330
F1029B
100
AcDbEntity
8
Geo
100
AcDbLine
10
-71.4811529847385
20
6.73007322049682
30
0.000000000000000
11
-71.3811529847385
21
6.68472756000618
31
0.000000000000000
  0
LINE
  5
F1029C
330
F1029D
100
AcDbEntity
8
Geo
100
AcDbLine
10
-71.3811529847385
20
6.68472756000618
30
0.000000000000000
11
-71.2811529847385
21
6.64120113146485
31
0.000000000000000
  0
LINE
  5
F1029E
330
F1029F
100
AcDbEntity
8
Geo
100
AcDbLine
10
-71.2811529847385
20
6.64120113146485
30
0.000000000000000
11
-71.1811529847385
21
6.59971880501581
31
0.000000000000000
  0
LINE
  5
F102A0
330
F102A1
100
AcDbEntity
8
Geo
100
AcDbLine
10
-71.1811529847385
20
6.59971880501581
30
0.000000000000000
11
-71.0811529847385
21
6.56048810612017
31
0.000000000000000
  0
LINE
  5
F102A2
330
F102A3
100
AcDbEntity
8
Geo
100
AcDbLine
10
-71.0811529847385
20
6.56048810612017
30
0.000000000000000
11
-70.9811529847385
21
6.52369956276276
31
0.000000000000000
  0
LINE
  5
F102A4
330
F102A5
100
AcDbEntity
8
Geo
100
AcDbLine
10
-70.9811529847385
20
6.52369956276276
30
0.000000000000000
11
-70.8811529847385
21
6.48952704748652
31
0.000000000000000
  0
LINE
  5
F102A6
330
F102A7
100
AcDbEntity
8
Geo
100
AcDbLine
10
-70.8811529847385
20
6.48952704748652
30
0.000000000000000
11
-70.7811529847385
21
6.45812810939193
31
0.000000000000000
  0
LINE
  5
F102A8
330
F102A9
100
AcDbEntity
8
Geo
100
AcDbLine
10
-70.7811529847385
20
6.45812810939193
30
0.000000000000000
11
-70.6811529847385
21
6.42964429168331
31
0.000000000000000
  0
LINE
  5
F102AA
330
F102AB
100
AcDbEntity
8
Geo
100
AcDbLine
10
-70.6811529847385
20
6.42964429168331
30
0.000000000000000
11
-70.5811529847385
21
6.40420143077771
31
0.000000000000000
  0
LINE
  5
F102AC
330
F102AD
100
AcDbEntity
8
Geo
100
AcDbLine
10
-70.5811529847385
20
6.40420143077771
30
0.000000000000000
11
-70.4811529847385
21
6.38190993341361
31
0.000000000000000
  0
LINE
  5
F102AE
330
F102AF
100
AcDbEntity
8
Geo
100
AcDbLine
10
-70.4811529847385
20
6.38190993341361
30
0.000000000000000
11
-70.3811529847385
21
6.36286502860638
31
0.000000000000000
  0
LINE
  5
F102B0
330
F102B1
100
AcDbEntity
8
Geo
100
AcDbLine
10
-70.3811529847385
20
6.36286502860638
30
0.000000000000000
11
-70.2811529847385
21
6.34714699169628
31
0.000000000000000
  0
LINE
  5
F102B2
330
F102B3
100
AcDbEntity
8
Geo
100
AcDbLine
10
-70.2811529847385
20
6.34714699169628
30
0.000000000000000
11
-70.1811529847385
21
6.33482133812256
31
0.000000000000000
  0
LINE
  5
F102B4
330
F102B5
100
AcDbEntity
8
Geo
100
AcDbLine
10
-70.1811529847385
20
6.33482133812256
30
0.000000000000000
11
-70.0811529847386
21
6.32593898493635
31
0.000000000000000
  0
LINE
  5
F102B6
330
F102B7
100
AcDbEntity
8
Geo
100
AcDbLine
10
-89.0811529847386
20
-0.491957064910904
30
0.000000000000000
11
-88.9811529847386
21
-0.792105081456897
31
0.000000000000000
  0
LINE
  5
F102B8
330
F102B9
100
AcDbEntity
8
Geo
100
AcDbLine
10
-88.9811529847386
20
-0.792105081456897
30
0.000000000000000
11
-88.8811529847385
21
-1.09949889204382
31
0.000000000000000
  0
LINE
  5
F102BA
330
F102BB
100
AcDbEntity
8
Geo
100
AcDbLine
10
-88.8811529847385
20
-1.09949889204382
30
0.000000000000000
11
-88.7811529847386
21
-1.40885676603330
31
0.000000000000000
  0
LINE
  5
F102BC
330
F102BD
100
AcDbEntity
8
Geo
100
AcDbLine
10
-88.7811529847386
20
-1.40885676603330
30
0.000000000000000
11
-88.6811529847385
21
-1.71722832895543
31
0.000000000000000
  0
LINE
  5
F102BE
330
F102BF
100
AcDbEntity
8
Geo
100
AcDbLine
10
-88.6811529847385
20
-1.71722832895543
30
0.000000000000000
11
-88.5811529847386
21
-2.02207165856278
31
0.000000000000000
  0
LINE
  5
F102C0
330
F102C1
100
AcDbEntity
8
Geo
100
AcDbLine
10
-88.5811529847386
20
-2.02207165856278
30
0.000000000000000
11
-88.4811529847386
21
-2.32309925617875
31
0.000000000000000
  0
LINE
  5
F102C2
330
F102C3
100
AcDbEntity
8
Geo
100
AcDbLine
10
-88.4811529847386
20
-2.32309925617875
30
0.000000000000000
11
-88.3811529847385
21
-2.62141438544583
31
0.000000000000000
  0
LINE
  5
F102C4
330
F102C5
100
AcDbEntity
8
Geo
100
AcDbLine
10
-88.3811529847385
20
-2.62141438544583
30
0.000000000000000
11
-88.2811529847386
21
-2.91657515258321
31
0.000000000000000
  0
LINE
  5
F102C6
330
F102C7
100
AcDbEntity
8
Geo
100
AcDbLine
10
-88.2811529847386
20
-2.91657515258321
30
0.000000000000000
11
-88.1811529847385
21
-3.20814433636223
31
0.000000000000000
  0
LINE
  5
F102C8
330
F102C9
100
AcDbEntity
8
Geo
100
AcDbLine
10
-88.1811529847385
20
-3.20814433636223
30
0.000000000000000
11
-88.0811529847386
21
-3.49569003576163
31
0.000000000000000
  0
LINE
  5
F102CA
330
F102CB
100
AcDbEntity
8
Geo
100
AcDbLine
10
-88.0811529847386
20
-3.49569003576163
30
0.000000000000000
11
-87.9811529847386
21
-3.77878630974187
31
0.000000000000000
  0
LINE
  5
F102CC
330
F102CD
100
AcDbEntity
8
Geo
100
AcDbLine
10
-87.9811529847386
20
-3.77878630974187
30
0.000000000000000
11
-87.8811529847385
21
-4.05701380819103
31
0.000000000000000
  0
LINE
  5
F102CE
330
F102CF
100
AcDbEntity
8
Geo
100
AcDbLine
10
-87.8811529847385
20
-4.05701380819103
30
0.000000000000000
11
-87.7811529847386
21
-4.32996039310752
31
0.000000000000000
  0
LINE
  5
F102D0
330
F102D1
100
AcDbEntity
8
Geo
100
AcDbLine
10
-87.7811529847386
20
-4.32996039310752
30
0.000000000000000
11
-87.6811529847385
21
-4.59722174909952
31
0.000000000000000
  0
LINE
  5
F102D2
330
F102D3
100
AcDbEntity
8
Geo
100
AcDbLine
10
-87.6811529847385
20
-4.59722174909952
30
0.000000000000000
11
-87.5811529847386
21
-4.85840198229684
31
0.000000000000000
  0
LINE
  5
F102D4
330
F102D5
100
AcDbEntity
8
Geo
100
AcDbLine
10
-87.5811529847386
20
-4.85840198229684
30
0.000000000000000
11
-87.4811529847386
21
-5.11311420678789
31
0.000000000000000
  0
LINE
  5
F102D6
330
F102D7
100
AcDbEntity
8
Geo
100
AcDbLine
10
-87.4811529847386
20
-5.11311420678789
30
0.000000000000000
11
-87.3811529847385
21
-5.36098111771328
31
0.000000000000000
  0
LINE
  5
F102D8
330
F102D9
100
AcDbEntity
8
Geo
100
AcDbLine
10
-87.3811529847385
20
-5.36098111771328
30
0.000000000000000
11
-87.2811529847386
21
-5.60163555016695
31
0.000000000000000
  0
LINE
  5
F102DA
330
F102DB
100
AcDbEntity
8
Geo
100
AcDbLine
10
-87.2811529847386
20
-5.60163555016695
30
0.000000000000000
11
-87.1811529847385
21
-5.83472102307706
31
0.000000000000000
  0
LINE
  5
F102DC
330
F102DD
100
AcDbEntity
8
Geo
100
AcDbLine
10
-87.1811529847385
20
-5.83472102307706
30
0.000000000000000
11
-87.0811529847386
21
-6.05989226726088
31
0.000000000000000
  0
LINE
  5
F102DE
330
F102DF
100
AcDbEntity
8
Geo
100
AcDbLine
10
-87.0811529847386
20
-6.05989226726088
30
0.000000000000000
11
-86.9811529847386
21
-6.27681573687153
31
0.000000000000000
  0
LINE
  5
F102E0
330
F102E1
100
AcDbEntity
8
Geo
100
AcDbLine
10
-86.9811529847386
20
-6.27681573687153
30
0.000000000000000
11
-86.8811529847385
21
-6.48517010347901
31
0.000000000000000
  0
LINE
  5
F102E2
330
F102E3
100
AcDbEntity
8
Geo
100
AcDbLine
10
-86.8811529847385
20
-6.48517010347901
30
0.000000000000000
11
-86.7811529847386
21
-6.68464673205350
31
0.000000000000000
  0
LINE
  5
F102E4
330
F102E5
100
AcDbEntity
8
Geo
100
AcDbLine
10
-86.7811529847386
20
-6.68464673205350
30
0.000000000000000
11
-86.6811529847385
21
-6.87495013814606
31
0.000000000000000
  0
LINE
  5
F102E6
330
F102E7
100
AcDbEntity
8
Geo
100
AcDbLine
10
-86.6811529847385
20
-6.87495013814606
30
0.000000000000000
11
-86.5811529847386
21
-7.05579842558927
31
0.000000000000000
  0
LINE
  5
F102E8
330
F102E9
100
AcDbEntity
8
Geo
100
AcDbLine
10
-86.5811529847386
20
-7.05579842558927
30
0.000000000000000
11
-86.4811529847386
21
-7.22692370406964
31
0.000000000000000
  0
LINE
  5
F102EA
330
F102EB
100
AcDbEntity
8
Geo
100
AcDbLine
10
-86.4811529847386
20
-7.22692370406964
30
0.000000000000000
11
-86.3811529847385
21
-7.38807248595320
31
0.000000000000000
  0
LINE
  5
F102EC
330
F102ED
100
AcDbEntity
8
Geo
100
AcDbLine
10
-86.3811529847385
20
-7.38807248595320
30
0.000000000000000
11
-86.2811529847386
21
-7.53900606177629
31
0.000000000000000
  0
LINE
  5
F102EE
330
F102EF
100
AcDbEntity
8
Geo
100
AcDbLine
10
-86.2811529847386
20
-7.53900606177629
30
0.000000000000000
11
-86.1811529847385
21
-7.67950085384564
31
0.000000000000000
  0
LINE
  5
F102F0
330
F102F1
100
AcDbEntity
8
Geo
100
AcDbLine
10
-86.1811529847385
20
-7.67950085384564
30
0.000000000000000
11
-86.0811529847386
21
-7.80934874742363
31
0.000000000000000
  0
LINE
  5
F102F2
330
F102F3
100
AcDbEntity
8
Geo
100
AcDbLine
10
-86.0811529847386
20
-7.80934874742363
30
0.000000000000000
11
-85.9811529847385
21
-7.92835739900838
31
0.000000000000000
  0
LINE
  5
F102F4
330
F102F5
100
AcDbEntity
8
Geo
100
AcDbLine
10
-85.9811529847385
20
-7.92835739900838
30
0.000000000000000
11
-85.8811529847385
21
-8.03635052125192
31
0.000000000000000
  0
LINE
  5
F102F6
330
F102F7
100
AcDbEntity
8
Geo
100
AcDbLine
10
-85.8811529847385
20
-8.03635052125192
30
0.000000000000000
11
-85.7811529847386
21
-8.13316814409437
31
0.000000000000000
  0
LINE
  5
F102F8
330
F102F9
100
AcDbEntity
8
Geo
100
AcDbLine
10
-85.7811529847386
20
-8.13316814409437
30
0.000000000000000
11
-85.6811529847385
21
-8.21866685172737
31
0.000000000000000
  0
LINE
  5
F102FA
330
F102FB
100
AcDbEntity
8
Geo
100
AcDbLine
10
-85.6811529847385
20
-8.21866685172737
30
0.000000000000000
11
-85.5811529847386
21
-8.29271999503574
31
0.000000000000000
  0
LINE
  5
F102FC
330
F102FD
100
AcDbEntity
8
Geo
100
AcDbLine
10
-85.5811529847386
20
-8.29271999503574
30
0.000000000000000
11
-85.4811529847385
21
-8.35521787920257
31
0.000000000000000
  0
LINE
  5
F102FE
330
F102FF
100
AcDbEntity
8
Geo
100
AcDbLine
10
-85.4811529847385
20
-8.35521787920257
30
0.000000000000000
11
-85.3811529847385
21
-8.40606792620009
31
0.000000000000000
  0
LINE
  5
F10300
330
F10301
100
AcDbEntity
8
Geo
100
AcDbLine
10
-85.3811529847385
20
-8.40606792620009
30
0.000000000000000
11
-85.2811529847386
21
-8.44519481192529
31
0.000000000000000
  0
LINE
  5
F10302
330
F10303
100
AcDbEntity
8
Geo
100
AcDbLine
10
-85.2811529847386
20
-8.44519481192529
30
0.000000000000000
11
-85.1811529847385
21
-8.47254057777746
31
0.000000000000000
  0
LINE
  5
F10304
330
F10305
100
AcDbEntity
8
Geo
100
AcDbLine
10
-85.1811529847385
20
-8.47254057777746
30
0.000000000000000
11
-85.0811529847386
21
-8.48806471651216
31
0.000000000000000
  0
LINE
  5
F10306
330
F10307
100
AcDbEntity
8
Geo
100
AcDbLine
10
-76.8811529847386
20
7.50693981841539
30
0.000000000000000
11
-76.7811529847386
21
7.50612750903800
31
0.000000000000000
  0
LINE
  5
F10308
330
F10309
100
AcDbEntity
8
Geo
100
AcDbLine
10
-76.7811529847386
20
7.50612750903800
30
0.000000000000000
11
-76.6811529847386
21
7.49346764824600
31
0.000000000000000
  0
LINE
  5
F1030A
330
F1030B
100
AcDbEntity
8
Geo
100
AcDbLine
10
-76.6811529847386
20
7.49346764824600
30
0.000000000000000
11
-76.5811529847386
21
7.46897898907335
31
0.000000000000000
  0
LINE
  5
F1030C
330
F1030D
100
AcDbEntity
8
Geo
100
AcDbLine
10
-76.5811529847386
20
7.46897898907335
30
0.000000000000000
11
-76.4811529847386
21
7.43269780653640
31
0.000000000000000
  0
LINE
  5
F1030E
330
F1030F
100
AcDbEntity
8
Geo
100
AcDbLine
10
-76.4811529847386
20
7.43269780653640
30
0.000000000000000
11
-76.3811529847386
21
7.38467784389974
31
0.000000000000000
  0
LINE
  5
F10310
330
F10311
100
AcDbEntity
8
Geo
100
AcDbLine
10
-76.3811529847386
20
7.38467784389974
30
0.000000000000000
11
-76.2811529847386
21
7.32499023306638
31
0.000000000000000
  0
LINE
  5
F10312
330
F10313
100
AcDbEntity
8
Geo
100
AcDbLine
10
-76.2811529847386
20
7.32499023306638
30
0.000000000000000
11
-76.1811529847386
21
7.25372338921019
31
0.000000000000000
  0
LINE
  5
F10314
330
F10315
100
AcDbEntity
8
Geo
100
AcDbLine
10
-76.1811529847386
20
7.25372338921019
30
0.000000000000000
11
-76.0811529847386
21
7.17098287980660
31
0.000000000000000
  0
LINE
  5
F10316
330
F10317
100
AcDbEntity
8
Geo
100
AcDbLine
10
-76.0811529847386
20
7.17098287980660
30
0.000000000000000
11
-75.9811529847386
21
7.07689126825566
31
0.000000000000000
  0
LINE
  5
F10318
330
F10319
100
AcDbEntity
8
Geo
100
AcDbLine
10
-75.9811529847386
20
7.07689126825566
30
0.000000000000000
11
-75.8811529847386
21
6.97158793232902
31
0.000000000000000
  0
LINE
  5
F1031A
330
F1031B
100
AcDbEntity
8
Geo
100
AcDbLine
10
-75.8811529847386
20
6.97158793232902
30
0.000000000000000
11
-75.7811529847386
21
6.85522885770989
31
0.000000000000000
  0
LINE
  5
F1031C
330
F1031D
100
AcDbEntity
8
Geo
100
AcDbLine
10
-75.7811529847386
20
6.85522885770989
30
0.000000000000000
11
-75.6811529847386
21
6.72798640693162
31
0.000000000000000
  0
LINE
  5
F1031E
330
F1031F
100
AcDbEntity
8
Geo
100
AcDbLine
10
-75.6811529847386
20
6.72798640693162
30
0.000000000000000
11
-75.5811529847386
21
6.59004906405733
31
0.000000000000000
  0
LINE
  5
F10320
330
F10321
100
AcDbEntity
8
Geo
100
AcDbLine
10
-75.5811529847386
20
6.59004906405733
30
0.000000000000000
11
-75.4811529847386
21
6.44162115547874
31
0.000000000000000
  0
LINE
  5
F10322
330
F10323
100
AcDbEntity
8
Geo
100
AcDbLine
10
-75.4811529847386
20
6.44162115547874
30
0.000000000000000
11
-75.3811529847386
21
6.28292254724779
31
0.000000000000000
  0
LINE
  5
F10324
330
F10325
100
AcDbEntity
8
Geo
100
AcDbLine
10
-75.3811529847386
20
6.28292254724779
30
0.000000000000000
11
-75.2811529847386
21
6.11418831938932
31
0.000000000000000
  0
LINE
  5
F10326
330
F10327
100
AcDbEntity
8
Geo
100
AcDbLine
10
-75.2811529847386
20
6.11418831938932
30
0.000000000000000
11
-75.1811529847386
21
5.93566841767742
31
0.000000000000000
  0
LINE
  5
F10328
330
F10329
100
AcDbEntity
8
Geo
100
AcDbLine
10
-75.1811529847386
20
5.93566841767742
30
0.000000000000000
11
-75.0811529847386
21
5.74762728339098
31
0.000000000000000
  0
LINE
  5
F1032A
330
F1032B
100
AcDbEntity
8
Geo
100
AcDbLine
10
-75.0811529847386
20
5.74762728339098
30
0.000000000000000
11
-74.9811529847386
21
5.77153959489613
31
0.000000000000000
  0
LINE
  5
F1032C
330
F1032D
100
AcDbEntity
8
Geo
100
AcDbLine
10
-74.9811529847386
20
5.77153959489613
30
0.000000000000000
11
-74.8811529847385
21
5.79484839420084
31
0.000000000000000
  0
LINE
  5
F1032E
330
F1032F
100
AcDbEntity
8
Geo
100
AcDbLine
10
-74.8811529847385
20
5.79484839420084
30
0.000000000000000
11
-74.7811529847386
21
5.81756138544997
31
0.000000000000000
  0
LINE
  5
F10330
330
F10331
100
AcDbEntity
8
Geo
100
AcDbLine
10
-74.7811529847386
20
5.81756138544997
30
0.000000000000000
11
-74.6811529847386
21
5.83968617250842
31
0.000000000000000
  0
LINE
  5
F10332
330
F10333
100
AcDbEntity
8
Geo
100
AcDbLine
10
-74.6811529847386
20
5.83968617250842
30
0.000000000000000
11
-74.5811529847386
21
5.86123025545654
31
0.000000000000000
  0
LINE
  5
F10334
330
F10335
100
AcDbEntity
8
Geo
100
AcDbLine
10
-74.5811529847386
20
5.86123025545654
30
0.000000000000000
11
-74.4811529847386
21
5.88220102719281
31
0.000000000000000
  0
LINE
  5
F10336
330
F10337
100
AcDbEntity
8
Geo
100
AcDbLine
10
-74.4811529847386
20
5.88220102719281
30
0.000000000000000
11
-74.3811529847385
21
5.90260577014172
31
0.000000000000000
  0
LINE
  5
F10338
330
F10339
100
AcDbEntity
8
Geo
100
AcDbLine
10
-74.3811529847385
20
5.90260577014172
30
0.000000000000000
11
-74.2811529847386
21
5.92245165306477
31
0.000000000000000
  0
LINE
  5
F1033A
330
F1033B
100
AcDbEntity
8
Geo
100
AcDbLine
10
-74.2811529847386
20
5.92245165306477
30
0.000000000000000
11
-74.1811529847386
21
5.94174572797295
31
0.000000000000000
  0
LINE
  5
F1033C
330
F1033D
100
AcDbEntity
8
Geo
100
AcDbLine
10
-74.1811529847386
20
5.94174572797295
30
0.000000000000000
11
-74.0811529847386
21
5.96049492713839
31
0.000000000000000
  0
LINE
  5
F1033E
330
F1033F
100
AcDbEntity
8
Geo
100
AcDbLine
10
-74.0811529847386
20
5.96049492713839
30
0.000000000000000
11
-73.9811529847386
21
5.97870606020356
31
0.000000000000000
  0
LINE
  5
F10340
330
F10341
100
AcDbEntity
8
Geo
100
AcDbLine
10
-73.9811529847386
20
5.97870606020356
30
0.000000000000000
11
-73.8811529847385
21
5.99638581138608
31
0.000000000000000
  0
LINE
  5
F10342
330
F10343
100
AcDbEntity
8
Geo
100
AcDbLine
10
-73.8811529847385
20
5.99638581138608
30
0.000000000000000
11
-73.7811529847386
21
6.01354073677707
31
0.000000000000000
  0
LINE
  5
F10344
330
F10345
100
AcDbEntity
8
Geo
100
AcDbLine
10
-73.7811529847386
20
6.01354073677707
30
0.000000000000000
11
-73.6811529847386
21
6.03017726173150
31
0.000000000000000
  0
LINE
  5
F10346
330
F10347
100
AcDbEntity
8
Geo
100
AcDbLine
10
-73.6811529847386
20
6.03017726173150
30
0.000000000000000
11
-73.5811529847386
21
6.04630167834845
31
0.000000000000000
  0
LINE
  5
F10348
330
F10349
100
AcDbEntity
8
Geo
100
AcDbLine
10
-73.5811529847386
20
6.04630167834845
30
0.000000000000000
11
-73.4811529847386
21
6.06192014303970
31
0.000000000000000
  0
LINE
  5
F1034A
330
F1034B
100
AcDbEntity
8
Geo
100
AcDbLine
10
-73.4811529847386
20
6.06192014303970
30
0.000000000000000
11
-73.3811529847386
21
6.07703867418469
31
0.000000000000000
  0
LINE
  5
F1034C
330
F1034D
100
AcDbEntity
8
Geo
100
AcDbLine
10
-73.3811529847386
20
6.07703867418469
30
0.000000000000000
11
-73.2811529847386
21
6.09166314987028
31
0.000000000000000
  0
LINE
  5
F1034E
330
F1034F
100
AcDbEntity
8
Geo
100
AcDbLine
10
-73.2811529847386
20
6.09166314987028
30
0.000000000000000
11
-73.1811529847386
21
6.10579930571352
31
0.000000000000000
  0
LINE
  5
F10350
330
F10351
100
AcDbEntity
8
Geo
100
AcDbLine
10
-73.1811529847386
20
6.10579930571352
30
0.000000000000000
11
-73.0811529847386
21
6.11945273276574
31
0.000000000000000
  0
LINE
  5
F10352
330
F10353
100
AcDbEntity
8
Geo
100
AcDbLine
10
-73.0811529847386
20
6.11945273276574
30
0.000000000000000
11
-72.9811529847386
21
6.13262887549639
31
0.000000000000000
  0
LINE
  5
F10354
330
F10355
100
AcDbEntity
8
Geo
100
AcDbLine
10
-72.9811529847386
20
6.13262887549639
30
0.000000000000000
11
-72.8811529847385
21
6.14533302985500
31
0.000000000000000
  0
LINE
  5
F10356
330
F10357
100
AcDbEntity
8
Geo
100
AcDbLine
10
-72.8811529847385
20
6.14533302985500
30
0.000000000000000
11
-72.7811529847386
21
6.15757034140965
31
0.000000000000000
  0
LINE
  5
F10358
330
F10359
100
AcDbEntity
8
Geo
100
AcDbLine
10
-72.7811529847386
20
6.15757034140965
30
0.000000000000000
11
-72.6811529847386
21
6.16934580356049
31
0.000000000000000
  0
LINE
  5
F1035A
330
F1035B
100
AcDbEntity
8
Geo
100
AcDbLine
10
-72.6811529847386
20
6.16934580356049
30
0.000000000000000
11
-72.5811529847386
21
6.18066425582675
31
0.000000000000000
  0
LINE
  5
F1035C
330
F1035D
100
AcDbEntity
8
Geo
100
AcDbLine
10
-72.5811529847386
20
6.18066425582675
30
0.000000000000000
11
-72.4811529847385
21
6.19153038220585
31
0.000000000000000
  0
LINE
  5
F1035E
330
F1035F
100
AcDbEntity
8
Geo
100
AcDbLine
10
-72.4811529847385
20
6.19153038220585
30
0.000000000000000
11
-72.3811529847385
21
6.20194870960316
31
0.000000000000000
  0
LINE
  5
F10360
330
F10361
100
AcDbEntity
8
Geo
100
AcDbLine
10
-72.3811529847385
20
6.20194870960316
30
0.000000000000000
11
-72.2811529847386
21
6.21192360633107
31
0.000000000000000
  0
LINE
  5
F10362
330
F10363
100
AcDbEntity
8
Geo
100
AcDbLine
10
-72.2811529847386
20
6.21192360633107
30
0.000000000000000
11
-72.1811529847385
21
6.22145928067599
31
0.000000000000000
  0
LINE
  5
F10364
330
F10365
100
AcDbEntity
8
Geo
100
AcDbLine
10
-72.1811529847385
20
6.22145928067599
30
0.000000000000000
11
-72.0811529847385
21
6.23055977953206
31
0.000000000000000
  0
LINE
  5
F10366
330
F10367
100
AcDbEntity
8
Geo
100
AcDbLine
10
-72.0811529847385
20
6.23055977953206
30
0.000000000000000
11
-71.9811529847385
21
6.23922898710028
31
0.000000000000000
  0
LINE
  5
F10368
330
F10369
100
AcDbEntity
8
Geo
100
AcDbLine
10
-71.9811529847385
20
6.23922898710028
30
0.000000000000000
11
-71.8811529847385
21
6.24747062365192
31
0.000000000000000
  0
LINE
  5
F1036A
330
F1036B
100
AcDbEntity
8
Geo
100
AcDbLine
10
-71.8811529847385
20
6.24747062365192
30
0.000000000000000
11
-71.7811529847385
21
6.25528824435499
31
0.000000000000000
  0
LINE
  5
F1036C
330
F1036D
100
AcDbEntity
8
Geo
100
AcDbLine
10
-71.7811529847385
20
6.25528824435499
30
0.000000000000000
11
-71.6811529847385
21
6.26268523816270
31
0.000000000000000
  0
LINE
  5
F1036E
330
F1036F
100
AcDbEntity
8
Geo
100
AcDbLine
10
-71.6811529847385
20
6.26268523816270
30
0.000000000000000
11
-71.5811529847385
21
6.26966482676290
31
0.000000000000000
  0
LINE
  5
F10370
330
F10371
100
AcDbEntity
8
Geo
100
AcDbLine
10
-71.5811529847385
20
6.26966482676290
30
0.000000000000000
11
-71.4811529847385
21
6.27623006358742
31
0.000000000000000
  0
LINE
  5
F10372
330
F10373
100
AcDbEntity
8
Geo
100
AcDbLine
10
-71.4811529847385
20
6.27623006358742
30
0.000000000000000
11
-71.3811529847385
21
6.28238383288035
31
0.000000000000000
  0
LINE
  5
F10374
330
F10375
100
AcDbEntity
8
Geo
100
AcDbLine
10
-71.3811529847385
20
6.28238383288035
30
0.000000000000000
11
-71.2811529847385
21
6.28812884882444
31
0.000000000000000
  0
LINE
  5
F10376
330
F10377
100
AcDbEntity
8
Geo
100
AcDbLine
10
-71.2811529847385
20
6.28812884882444
30
0.000000000000000
11
-71.1811529847385
21
6.29346765472464
31
0.000000000000000
  0
LINE
  5
F10378
330
F10379
100
AcDbEntity
8
Geo
100
AcDbLine
10
-71.1811529847385
20
6.29346765472464
30
0.000000000000000
11
-71.0811529847385
21
6.29840262224805
31
0.000000000000000
  0
LINE
  5
F1037A
330
F1037B
100
AcDbEntity
8
Geo
100
AcDbLine
10
-71.0811529847385
20
6.29840262224805
30
0.000000000000000
11
-70.9811529847385
21
6.30293595071946
31
0.000000000000000
  0
LINE
  5
F1037C
330
F1037D
100
AcDbEntity
8
Geo
100
AcDbLine
10
-70.9811529847385
20
6.30293595071946
30
0.000000000000000
11
-70.8811529847385
21
6.30706966647185
31
0.000000000000000
  0
LINE
  5
F1037E
330
F1037F
100
AcDbEntity
8
Geo
100
AcDbLine
10
-70.8811529847385
20
6.30706966647185
30
0.000000000000000
11
-70.7811529847385
21
6.31080562225107
31
0.000000000000000
  0
LINE
  5
F10380
330
F10381
100
AcDbEntity
8
Geo
100
AcDbLine
10
-70.7811529847385
20
6.31080562225107
30
0.000000000000000
11
-70.6811529847385
21
6.31414549667421
31
0.000000000000000
  0
LINE
  5
F10382
330
F10383
100
AcDbEntity
8
Geo
100
AcDbLine
10
-70.6811529847385
20
6.31414549667421
30
0.000000000000000
11
-70.5811529847385
21
6.31709079374103
31
0.000000000000000
  0
LINE
  5
F10384
330
F10385
100
AcDbEntity
8
Geo
100
AcDbLine
10
-70.5811529847385
20
6.31709079374103
30
0.000000000000000
11
-70.4811529847385
21
6.31964284239794
31
0.000000000000000
  0
LINE
  5
F10386
330
F10387
100
AcDbEntity
8
Geo
100
AcDbLine
10
-70.4811529847385
20
6.31964284239794
30
0.000000000000000
11
-70.3811529847385
21
6.32180279615414
31
0.000000000000000
  0
LINE
  5
F10388
330
F10389
100
AcDbEntity
8
Geo
100
AcDbLine
10
-70.3811529847385
20
6.32180279615414
30
0.000000000000000
11
-70.2811529847385
21
6.32357163274948
31
0.000000000000000
  0
LINE
  5
F1038A
330
F1038B
100
AcDbEntity
8
Geo
100
AcDbLine
10
-70.2811529847385
20
6.32357163274948
30
0.000000000000000
11
-70.1811529847385
21
6.32495015387361
31
0.000000000000000
  0
LINE
  5
F1038C
330
F1038D
100
AcDbEntity
8
Geo
100
AcDbLine
10
-70.1811529847385
20
6.32495015387361
30
0.000000000000000
11
-70.0811529847386
21
6.32593898493635
31
0.000000000000000
  0
LINE
  5
F1038E
330
F1038F
100
AcDbEntity
8
Geo
100
AcDbLine
10
-89.0811529847386
20
-2.80958452272296
30
0.000000000000000
11
-88.9811529847386
21
-3.18596213691428
31
0.000000000000000
  0
LINE
  5
F10390
330
F10391
100
AcDbEntity
8
Geo
100
AcDbLine
10
-88.9811529847386
20
-3.18596213691428
30
0.000000000000000
11
-88.8811529847385
21
-3.50376821869433
31
0.000000000000000
  0
LINE
  5
F10392
330
F10393
100
AcDbEntity
8
Geo
100
AcDbLine
10
-88.8811529847385
20
-3.50376821869433
30
0.000000000000000
11
-88.7811529847386
21
-3.80684063128383
31
0.000000000000000
  0
LINE
  5
F10394
330
F10395
100
AcDbEntity
8
Geo
100
AcDbLine
10
-88.7811529847386
20
-3.80684063128383
30
0.000000000000000
11
-88.6811529847385
21
-4.09706889973327
31
0.000000000000000
  0
LINE
  5
F10396
330
F10397
100
AcDbEntity
8
Geo
100
AcDbLine
10
-88.6811529847385
20
-4.09706889973327
30
0.000000000000000
11
-88.5811529847386
21
-4.37367930230096
31
0.000000000000000
  0
LINE
  5
F10398
330
F10399
100
AcDbEntity
8
Geo
100
AcDbLine
10
-88.5811529847386
20
-4.37367930230096
30
0.000000000000000
11
-88.4811529847386
21
-4.63998158122076
31
0.000000000000000
  0
LINE
  5
F1039A
330
F1039B
100
AcDbEntity
8
Geo
100
AcDbLine
10
-88.4811529847386
20
-4.63998158122076
30
0.000000000000000
11
-88.3811529847385
21
-4.90013939726678
31
0.000000000000000
  0
LINE
  5
F1039C
330
F1039D
100
AcDbEntity
8
Geo
100
AcDbLine
10
-88.3811529847385
20
-4.90013939726678
30
0.000000000000000
11
-88.2811529847386
21
-5.15376737903253
31
0.000000000000000
  0
LINE
  5
F1039E
330
F1039F
100
AcDbEntity
8
Geo
100
AcDbLine
10
-88.2811529847386
20
-5.15376737903253
30
0.000000000000000
11
-88.1811529847385
21
-5.40048982774582
31
0.000000000000000
  0
LINE
  5
F103A0
330
F103A1
100
AcDbEntity
8
Geo
100
AcDbLine
10
-88.1811529847385
20
-5.40048982774582
30
0.000000000000000
11
-88.0811529847386
21
-5.63994127379087
31
0.000000000000000
  0
LINE
  5
F103A2
330
F103A3
100
AcDbEntity
8
Geo
100
AcDbLine
10
-88.0811529847386
20
-5.63994127379087
30
0.000000000000000
11
-87.9811529847386
21
-5.87176701807791
31
0.000000000000000
  0
LINE
  5
F103A4
330
F103A5
100
AcDbEntity
8
Geo
100
AcDbLine
10
-87.9811529847386
20
-5.87176701807791
30
0.000000000000000
11
-87.8811529847385
21
-6.09562365745844
31
0.000000000000000
  0
LINE
  5
F103A6
330
F103A7
100
AcDbEntity
8
Geo
100
AcDbLine
10
-87.8811529847385
20
-6.09562365745844
30
0.000000000000000
11
-87.7811529847386
21
-6.31117959340782
31
0.000000000000000
  0
LINE
  5
F103A8
330
F103A9
100
AcDbEntity
8
Geo
100
AcDbLine
10
-87.7811529847386
20
-6.31117959340782
30
0.000000000000000
11
-87.6811529847385
21
-6.51811552322174
31
0.000000000000000
  0
LINE
  5
F103AA
330
F103AB
100
AcDbEntity
8
Geo
100
AcDbLine
10
-87.6811529847385
20
-6.51811552322174
30
0.000000000000000
11
-87.5811529847386
21
-6.71612491299882
31
0.000000000000000
  0
LINE
  5
F103AC
330
F103AD
100
AcDbEntity
8
Geo
100
AcDbLine
10
-87.5811529847386
20
-6.71612491299882
30
0.000000000000000
11
-87.4811529847386
21
-6.90491445170886
31
0.000000000000000
  0
LINE
  5
F103AE
330
F103AF
100
AcDbEntity
8
Geo
100
AcDbLine
10
-87.4811529847386
20
-6.90491445170886
30
0.000000000000000
11
-87.3811529847385
21
-7.08420448567407
31
0.000000000000000
  0
LINE
  5
F103B0
330
F103B1
100
AcDbEntity
8
Geo
100
AcDbLine
10
-87.3811529847385
20
-7.08420448567407
30
0.000000000000000
11
-87.2811529847386
21
-7.25372943281966
31
0.000000000000000
  0
LINE
  5
F103B2
330
F103B3
100
AcDbEntity
8
Geo
100
AcDbLine
10
-87.2811529847386
20
-7.25372943281966
30
0.000000000000000
11
-87.1811529847385
21
-7.41323817608018
31
0.000000000000000
  0
LINE
  5
F103B4
330
F103B5
100
AcDbEntity
8
Geo
100
AcDbLine
10
-87.1811529847385
20
-7.41323817608018
30
0.000000000000000
11
-87.0811529847386
21
-7.56249443537890
31
0.000000000000000
  0
LINE
  5
F103B6
330
F103B7
100
AcDbEntity
8
Geo
100
AcDbLine
10
-87.0811529847386
20
-7.56249443537890
30
0.000000000000000
11
-86.9811529847386
21
-7.70127711762914
31
0.000000000000000
  0
LINE
  5
F103B8
330
F103B9
100
AcDbEntity
8
Geo
100
AcDbLine
10
-86.9811529847386
20
-7.70127711762914
30
0.000000000000000
11
-86.8811529847385
21
-7.82938064423914
31
0.000000000000000
  0
LINE
  5
F103BA
330
F103BB
100
AcDbEntity
8
Geo
100
AcDbLine
10
-86.8811529847385
20
-7.82938064423914
30
0.000000000000000
11
-86.7811529847386
21
-7.94661525563538
31
0.000000000000000
  0
LINE
  5
F103BC
330
F103BD
100
AcDbEntity
8
Geo
100
AcDbLine
10
-86.7811529847386
20
-7.94661525563538
30
0.000000000000000
11
-86.6811529847385
21
-8.05280729235309
31
0.000000000000000
  0
LINE
  5
F103BE
330
F103BF
100
AcDbEntity
8
Geo
100
AcDbLine
10
-86.6811529847385
20
-8.05280729235309
30
0.000000000000000
11
-86.5811529847386
21
-8.14779945227786
31
0.000000000000000
  0
LINE
  5
F103C0
330
F103C1
100
AcDbEntity
8
Geo
100
AcDbLine
10
-86.5811529847386
20
-8.14779945227786
30
0.000000000000000
11
-86.4811529847386
21
-8.23145102365698
31
0.000000000000000
  0
LINE
  5
F103C2
330
F103C3
100
AcDbEntity
8
Geo
100
AcDbLine
10
-86.4811529847386
20
-8.23145102365698
30
0.000000000000000
11
-86.3811529847385
21
-8.30363809353558
31
0.000000000000000
  0
LINE
  5
F103C4
330
F103C5
100
AcDbEntity
8
Geo
100
AcDbLine
10
-86.3811529847385
20
-8.30363809353558
30
0.000000000000000
11
-86.2811529847386
21
-8.36425373130873
31
0.000000000000000
  0
LINE
  5
F103C6
330
F103C7
100
AcDbEntity
8
Geo
100
AcDbLine
10
-86.2811529847386
20
-8.36425373130873
30
0.000000000000000
11
-86.1811529847385
21
-8.41320814711756
31
0.000000000000000
  0
LINE
  5
F103C8
330
F103C9
100
AcDbEntity
8
Geo
100
AcDbLine
10
-86.1811529847385
20
-8.41320814711756
30
0.000000000000000
11
-86.0811529847386
21
-8.45042882485488
31
0.000000000000000
  0
LINE
  5
F103CA
330
F103CB
100
AcDbEntity
8
Geo
100
AcDbLine
10
-86.0811529847386
20
-8.45042882485488
30
0.000000000000000
11
-85.9811529847385
21
-8.47586062958319
31
0.000000000000000
  0
LINE
  5
F103CC
330
F103CD
100
AcDbEntity
8
Geo
100
AcDbLine
10
-85.9811529847385
20
-8.47586062958319
30
0.000000000000000
11
-85.8811529847385
21
-8.48946588920596
31
0.000000000000000
  0
LINE
  5
F103CE
330
F103CF
100
AcDbEntity
8
Geo
100
AcDbLine
10
-77.6811529847386
20
7.50761298468309
30
0.000000000000000
11
-77.5811529847386
21
7.50487967757413
31
0.000000000000000
  0
LINE
  5
F103D0
330
F103D1
100
AcDbEntity
8
Geo
100
AcDbLine
10
-77.5811529847386
20
7.50487967757413
30
0.000000000000000
11
-77.4811529847386
21
7.49030066746156
31
0.000000000000000
  0
LINE
  5
F103D2
330
F103D3
100
AcDbEntity
8
Geo
100
AcDbLine
10
-77.4811529847386
20
7.49030066746156
30
0.000000000000000
11
-77.3811529847386
21
7.46389755021251
31
0.000000000000000
  0
LINE
  5
F103D4
330
F103D5
100
AcDbEntity
8
Geo
100
AcDbLine
10
-77.3811529847386
20
7.46389755021251
30
0.000000000000000
11
-77.2811529847386
21
7.42570943672739
31
0.000000000000000
  0
LINE
  5
F103D6
330
F103D7
100
AcDbEntity
8
Geo
100
AcDbLine
10
-77.2811529847386
20
7.42570943672739
30
0.000000000000000
11
-77.1811529847386
21
7.37579289500490
31
0.000000000000000
  0
LINE
  5
F103D8
330
F103D9
100
AcDbEntity
8
Geo
100
AcDbLine
10
-77.1811529847386
20
7.37579289500490
30
0.000000000000000
11
-77.0811529847386
21
7.31422186634801
31
0.000000000000000
  0
LINE
  5
F103DA
330
F103DB
100
AcDbEntity
8
Geo
100
AcDbLine
10
-77.0811529847386
20
7.31422186634801
30
0.000000000000000
11
-76.9811529847386
21
7.24108755583474
31
0.000000000000000
  0
LINE
  5
F103DC
330
F103DD
100
AcDbEntity
8
Geo
100
AcDbLine
10
-76.9811529847386
20
7.24108755583474
30
0.000000000000000
11
-76.8811529847386
21
7.15649829721626
31
0.000000000000000
  0
LINE
  5
F103DE
330
F103DF
100
AcDbEntity
8
Geo
100
AcDbLine
10
-76.8811529847386
20
7.15649829721626
30
0.000000000000000
11
-76.7811529847386
21
7.06057939244220
31
0.000000000000000
  0
LINE
  5
F103E0
330
F103E1
100
AcDbEntity
8
Geo
100
AcDbLine
10
-76.7811529847386
20
7.06057939244220
30
0.000000000000000
11
-76.6811529847386
21
6.95347292605113
31
0.000000000000000
  0
LINE
  5
F103E2
330
F103E3
100
AcDbEntity
8
Geo
100
AcDbLine
10
-76.6811529847386
20
6.95347292605113
30
0.000000000000000
11
-76.5811529847386
21
6.83533755470085
31
0.000000000000000
  0
LINE
  5
F103E4
330
F103E5
100
AcDbEntity
8
Geo
100
AcDbLine
10
-76.5811529847386
20
6.83533755470085
30
0.000000000000000
11
-76.4811529847386
21
6.70634827215055
31
0.000000000000000
  0
LINE
  5
F103E6
330
F103E7
100
AcDbEntity
8
Geo
100
AcDbLine
10
-76.4811529847386
20
6.70634827215055
30
0.000000000000000
11
-76.3811529847386
21
6.56669615004282
31
0.000000000000000
  0
LINE
  5
F103E8
330
F103E9
100
AcDbEntity
8
Geo
100
AcDbLine
10
-76.3811529847386
20
6.56669615004282
30
0.000000000000000
11
-76.2811529847386
21
6.41658805486942
31
0.000000000000000
  0
LINE
  5
F103EA
330
F103EB
100
AcDbEntity
8
Geo
100
AcDbLine
10
-76.2811529847386
20
6.41658805486942
30
0.000000000000000
11
-76.1811529847386
21
6.25624634154034
31
0.000000000000000
  0
LINE
  5
F103EC
330
F103ED
100
AcDbEntity
8
Geo
100
AcDbLine
10
-76.1811529847386
20
6.25624634154034
30
0.000000000000000
11
-76.0811529847386
21
6.08590852400968
31
0.000000000000000
  0
LINE
  5
F103EE
330
F103EF
100
AcDbEntity
8
Geo
100
AcDbLine
10
-76.0811529847386
20
6.08590852400968
30
0.000000000000000
11
-75.9811529847386
21
5.90582692344665
31
0.000000000000000
  0
LINE
  5
F103F0
330
F103F1
100
AcDbEntity
8
Geo
100
AcDbLine
10
-75.9811529847386
20
5.90582692344665
30
0.000000000000000
11
-75.8811529847386
21
5.71626829447253
31
0.000000000000000
  0
LINE
  5
F103F2
330
F103F3
100
AcDbEntity
8
Geo
100
AcDbLine
10
-75.8811529847386
20
5.71626829447253
30
0.000000000000000
11
-75.7811529847386
21
5.51751343001743
31
0.000000000000000
  0
LINE
  5
F103F4
330
F103F5
100
AcDbEntity
8
Geo
100
AcDbLine
10
-75.7811529847386
20
5.51751343001743
30
0.000000000000000
11
-75.6811529847386
21
5.30985674538215
31
0.000000000000000
  0
LINE
  5
F103F6
330
F103F7
100
AcDbEntity
8
Geo
100
AcDbLine
10
-75.6811529847386
20
5.30985674538215
30
0.000000000000000
11
-75.5811529847386
21
5.09360584212116
31
0.000000000000000
  0
LINE
  5
F103F8
330
F103F9
100
AcDbEntity
8
Geo
100
AcDbLine
10
-75.5811529847386
20
5.09360584212116
30
0.000000000000000
11
-75.4811529847386
21
4.86908105239289
31
0.000000000000000
  0
LINE
  5
F103FA
330
F103FB
100
AcDbEntity
8
Geo
100
AcDbLine
10
-75.4811529847386
20
4.86908105239289
30
0.000000000000000
11
-75.3811529847386
21
4.63661496445213
31
0.000000000000000
  0
LINE
  5
F103FC
330
F103FD
100
AcDbEntity
8
Geo
100
AcDbLine
10
-75.3811529847386
20
4.63661496445213
30
0.000000000000000
11
-75.2811529847386
21
4.39655192998753
31
0.000000000000000
  0
LINE
  5
F103FE
330
F103FF
100
AcDbEntity
8
Geo
100
AcDbLine
10
-75.2811529847386
20
4.39655192998753
30
0.000000000000000
11
-75.1811529847386
21
4.14924755403394
31
0.000000000000000
  0
LINE
  5
F10400
330
F10401
100
AcDbEntity
8
Geo
100
AcDbLine
10
-75.1811529847386
20
4.14924755403394
30
0.000000000000000
11
-75.0811529847386
21
3.89506816821506
31
0.000000000000000
  0
LINE
  5
F10402
330
F10403
100
AcDbEntity
8
Geo
100
AcDbLine
10
-75.0811529847386
20
3.89506816821506
30
0.000000000000000
11
-74.9811529847386
21
3.60266209766747
31
0.000000000000000
  0
LINE
  5
F10404
330
F10405
100
AcDbEntity
8
Geo
100
AcDbLine
10
-74.9811529847386
20
3.60266209766747
30
0.000000000000000
11
-74.8811529847385
21
3.30853617958677
31
0.000000000000000
  0
LINE
  5
F10406
330
F10407
100
AcDbEntity
8
Geo
100
AcDbLine
10
-74.8811529847385
20
3.30853617958677
30
0.000000000000000
11
-74.7811529847386
21
3.01363494028625
31
0.000000000000000
  0
LINE
  5
F10408
330
F10409
100
AcDbEntity
8
Geo
100
AcDbLine
10
-74.7811529847386
20
3.01363494028625
30
0.000000000000000
11
-74.6811529847386
21
2.71884475918309
31
0.000000000000000
  0
LINE
  5
F1040A
330
F1040B
100
AcDbEntity
8
Geo
100
AcDbLine
10
-74.6811529847386
20
2.71884475918309
30
0.000000000000000
11
-74.5811529847386
21
2.42499391216345
31
0.000000000000000
  0
LINE
  5
F1040C
330
F1040D
100
AcDbEntity
8
Geo
100
AcDbLine
10
-74.5811529847386
20
2.42499391216345
30
0.000000000000000
11
-74.4811529847386
21
2.13285297658038
31
0.000000000000000
  0
LINE
  5
F1040E
330
F1040F
100
AcDbEntity
8
Geo
100
AcDbLine
10
-74.4811529847386
20
2.13285297658038
30
0.000000000000000
11
-74.3811529847385
21
1.84313556169167
31
0.000000000000000
  0
LINE
  5
F10410
330
F10411
100
AcDbEntity
8
Geo
100
AcDbLine
10
-74.3811529847385
20
1.84313556169167
30
0.000000000000000
11
-74.2811529847386
21
1.55649932947562
31
0.000000000000000
  0
LINE
  5
F10412
330
F10413
100
AcDbEntity
8
Geo
100
AcDbLine
10
-74.2811529847386
20
1.55649932947562
30
0.000000000000000
11
-74.1811529847386
21
1.27354727207740
31
0.000000000000000
  0
LINE
  5
F10414
330
F10415
100
AcDbEntity
8
Geo
100
AcDbLine
10
-74.1811529847386
20
1.27354727207740
30
0.000000000000000
11
-74.0811529847386
21
0.994829213605553
31
0.000000000000000
  0
LINE
  5
F10416
330
F10417
100
AcDbEntity
8
Geo
100
AcDbLine
10
-74.0811529847386
20
0.994829213605553
30
0.000000000000000
11
-73.9811529847386
21
0.720843505583684
31
0.000000000000000
  0
LINE
  5
F10418
330
F10419
100
AcDbEntity
8
Geo
100
AcDbLine
10
-73.9811529847386
20
0.720843505583684
30
0.000000000000000
11
-73.8811529847385
21
0.452038887038686
31
0.000000000000000
  0
LINE
  5
F1041A
330
F1041B
100
AcDbEntity
8
Geo
100
AcDbLine
10
-73.8811529847385
20
0.452038887038686
30
0.000000000000000
11
-73.7811529847386
21
0.188816481946685
31
0.000000000000000
  0
LINE
  5
F1041C
330
F1041D
100
AcDbEntity
8
Geo
100
AcDbLine
10
-73.7811529847386
20
0.188816481946685
30
0.000000000000000
11
-73.6811529847386
21
-0.0684680914619764
31
0.000000000000000
  0
LINE
  5
F1041E
330
F1041F
100
AcDbEntity
8
Geo
100
AcDbLine
10
-73.6811529847386
20
-0.0684680914619764
30
0.000000000000000
11
-73.5811529847386
21
-0.319502523238997
31
0.000000000000000
  0
LINE
  5
F10420
330
F10421
100
AcDbEntity
8
Geo
100
AcDbLine
10
-73.5811529847386
20
-0.319502523238997
30
0.000000000000000
11
-73.4811529847386
21
-0.564015547998178
31
0.000000000000000
  0
LINE
  5
F10422
330
F10423
100
AcDbEntity
8
Geo
100
AcDbLine
10
-73.4811529847386
20
-0.564015547998178
30
0.000000000000000
11
-73.3811529847386
21
-0.801774635061294
31
0.000000000000000
  0
LINE
  5
F10424
330
F10425
100
AcDbEntity
8
Geo
100
AcDbLine
10
-73.3811529847386
20
-0.801774635061294
30
0.000000000000000
11
-73.2811529847386
21
-1.03258365084354
31
0.000000000000000
  0
LINE
  5
F10426
330
F10427
100
AcDbEntity
8
Geo
100
AcDbLine
10
-73.2811529847386
20
-1.03258365084354
30
0.000000000000000
11
-73.1811529847386
21
-1.25628051014848
31
0.000000000000000
  0
LINE
  5
F10428
330
F10429
100
AcDbEntity
8
Geo
100
AcDbLine
10
-73.1811529847386
20
-1.25628051014848
30
0.000000000000000
11
-73.0811529847386
21
-1.47273483139368
31
0.000000000000000
  0
LINE
  5
F1042A
330
F1042B
100
AcDbEntity
8
Geo
100
AcDbLine
10
-73.0811529847386
20
-1.47273483139368
30
0.000000000000000
11
-72.9811529847386
21
-1.68184560920393
31
0.000000000000000
  0
LINE
  5
F1042C
330
F1042D
100
AcDbEntity
8
Geo
100
AcDbLine
10
-72.9811529847386
20
-1.68184560920393
30
0.000000000000000
11
-72.8811529847385
21
-1.88353891629494
31
0.000000000000000
  0
LINE
  5
F1042E
330
F1042F
100
AcDbEntity
8
Geo
100
AcDbLine
10
-72.8811529847385
20
-1.88353891629494
30
0.000000000000000
11
-72.7811529847386
21
-2.07776564513422
31
0.000000000000000
  0
LINE
  5
F10430
330
F10431
100
AcDbEntity
8
Geo
100
AcDbLine
10
-72.7811529847386
20
-2.07776564513422
30
0.000000000000000
11
-72.6811529847386
21
-2.26449929850978
31
0.000000000000000
  0
LINE
  5
F10432
330
F10433
100
AcDbEntity
8
Geo
100
AcDbLine
10
-72.6811529847386
20
-2.26449929850978
30
0.000000000000000
11
-72.5811529847386
21
-2.44373383686575
31
0.000000000000000
  0
LINE
  5
F10434
330
F10435
100
AcDbEntity
8
Geo
100
AcDbLine
10
-72.5811529847386
20
-2.44373383686575
30
0.000000000000000
11
-72.4811529847385
21
-2.61548158907805
31
0.000000000000000
  0
LINE
  5
F10436
330
F10437
100
AcDbEntity
8
Geo
100
AcDbLine
10
-72.4811529847385
20
-2.61548158907805
30
0.000000000000000
11
-72.3811529847385
21
-2.77977123224423
31
0.000000000000000
  0
LINE
  5
F10438
330
F10439
100
AcDbEntity
8
Geo
100
AcDbLine
10
-72.3811529847385
20
-2.77977123224423
30
0.000000000000000
11
-72.2811529847386
21
-2.93664584504896
31
0.000000000000000
  0
LINE
  5
F1043A
330
F1043B
100
AcDbEntity
8
Geo
100
AcDbLine
10
-72.2811529847386
20
-2.93664584504896
30
0.000000000000000
11
-72.1811529847385
21
-3.08616103834057
31
0.000000000000000
  0
LINE
  5
F1043C
330
F1043D
100
AcDbEntity
8
Geo
100
AcDbLine
10
-72.1811529847385
20
-3.08616103834057
30
0.000000000000000
11
-72.0811529847385
21
-3.22838316571141
31
0.000000000000000
  0
LINE
  5
F1043E
330
F1043F
100
AcDbEntity
8
Geo
100
AcDbLine
10
-72.0811529847385
20
-3.22838316571141
30
0.000000000000000
11
-71.9811529847385
21
-3.36338761611619
31
0.000000000000000
  0
LINE
  5
F10440
330
F10441
100
AcDbEntity
8
Geo
100
AcDbLine
10
-71.9811529847385
20
-3.36338761611619
30
0.000000000000000
11
-71.8811529847385
21
-3.49125718988213
31
0.000000000000000
  0
LINE
  5
F10442
330
F10443
100
AcDbEntity
8
Geo
100
AcDbLine
10
-71.8811529847385
20
-3.49125718988213
30
0.000000000000000
11
-71.7811529847385
21
-3.61208055886342
31
0.000000000000000
  0
LINE
  5
F10444
330
F10445
100
AcDbEntity
8
Geo
100
AcDbLine
10
-71.7811529847385
20
-3.61208055886342
30
0.000000000000000
11
-71.6811529847385
21
-3.72595081096378
31
0.000000000000000
  0
LINE
  5
F10446
330
F10447
100
AcDbEntity
8
Geo
100
AcDbLine
10
-71.6811529847385
20
-3.72595081096378
30
0.000000000000000
11
-71.5811529847385
21
-3.83296407879365
31
0.000000000000000
  0
LINE
  5
F10448
330
F10449
100
AcDbEntity
8
Geo
100
AcDbLine
10
-71.5811529847385
20
-3.83296407879365
30
0.000000000000000
11
-71.4811529847385
21
-3.93321825183838
31
0.000000000000000
  0
LINE
  5
F1044A
330
F1044B
100
AcDbEntity
8
Geo
100
AcDbLine
10
-71.4811529847385
20
-3.93321825183838
30
0.000000000000000
11
-71.3811529847385
21
-4.02681177118648
31
0.000000000000000
  0
LINE
  5
F1044C
330
F1044D
100
AcDbEntity
8
Geo
100
AcDbLine
10
-71.3811529847385
20
-4.02681177118648
30
0.000000000000000
11
-71.2811529847385
21
-4.11384250560021
31
0.000000000000000
  0
LINE
  5
F1044E
330
F1044F
100
AcDbEntity
8
Geo
100
AcDbLine
10
-71.2811529847385
20
-4.11384250560021
30
0.000000000000000
11
-71.1811529847385
21
-4.19440670749876
31
0.000000000000000
  0
LINE
  5
F10450
330
F10451
100
AcDbEntity
8
Geo
100
AcDbLine
10
-71.1811529847385
20
-4.19440670749876
30
0.000000000000000
11
-71.0811529847385
21
-4.26859804726550
31
0.000000000000000
  0
LINE
  5
F10452
330
F10453
100
AcDbEntity
8
Geo
100
AcDbLine
10
-71.0811529847385
20
-4.26859804726550
30
0.000000000000000
11
-70.9811529847385
21
-4.33650672417899
31
0.000000000000000
  0
LINE
  5
F10454
330
F10455
100
AcDbEntity
8
Geo
100
AcDbLine
10
-70.9811529847385
20
-4.33650672417899
30
0.000000000000000
11
-70.8811529847385
21
-4.39821865220151
31
0.000000000000000
  0
LINE
  5
F10456
330
F10457
100
AcDbEntity
8
Geo
100
AcDbLine
10
-70.8811529847385
20
-4.39821865220151
30
0.000000000000000
11
-70.7811529847385
21
-4.45381471883231
31
0.000000000000000
  0
LINE
  5
F10458
330
F10459
100
AcDbEntity
8
Geo
100
AcDbLine
10
-70.7811529847385
20
-4.45381471883231
30
0.000000000000000
11
-70.6811529847385
21
-4.50337011524527
31
0.000000000000000
  0
LINE
  5
F1045A
330
F1045B
100
AcDbEntity
8
Geo
100
AcDbLine
10
-70.6811529847385
20
-4.50337011524527
30
0.000000000000000
11
-70.5811529847385
21
-4.54695373597507
31
0.000000000000000
  0
LINE
  5
F1045C
330
F1045D
100
AcDbEntity
8
Geo
100
AcDbLine
10
-70.5811529847385
20
-4.54695373597507
30
0.000000000000000
11
-70.4811529847385
21
-4.58462764649268
31
0.000000000000000
  0
LINE
  5
F1045E
330
F1045F
100
AcDbEntity
8
Geo
100
AcDbLine
10
-70.4811529847385
20
-4.58462764649268
30
0.000000000000000
11
-70.3811529847385
21
-4.61644661711334
31
0.000000000000000
  0
LINE
  5
F10460
330
F10461
100
AcDbEntity
8
Geo
100
AcDbLine
10
-70.3811529847385
20
-4.61644661711334
30
0.000000000000000
11
-70.2811529847385
21
-4.64245772180747
31
0.000000000000000
  0
LINE
  5
F10462
330
F10463
100
AcDbEntity
8
Geo
100
AcDbLine
10
-70.2811529847385
20
-4.64245772180747
30
0.000000000000000
11
-70.1811529847385
21
-4.66270000063298
31
0.000000000000000
  0
LINE
  5
F10464
330
F10465
100
AcDbEntity
8
Geo
100
AcDbLine
10
-70.1811529847385
20
-4.66270000063298
30
0.000000000000000
11
-70.0811529847386
21
-4.67720418467300
31
0.000000000000000
  0
LINE
  5
F10466
330
F10467
100
AcDbEntity
8
Geo
100
AcDbLine
10
-80.9811529847386
20
7.50575797442996
30
0.000000000000000
11
-80.8811529847386
21
7.50719161574817
31
0.000000000000000
  0
LINE
  5
F10468
330
F10469
100
AcDbEntity
8
Geo
100
AcDbLine
10
-80.8811529847386
20
7.50719161574817
30
0.000000000000000
11
-80.7811529847386
21
7.49677612939199
31
0.000000000000000
  0
LINE
  5
F1046A
330
F1046B
100
AcDbEntity
8
Geo
100
AcDbLine
10
-80.7811529847386
20
7.49677612939199
30
0.000000000000000
11
-80.6811529847386
21
7.47452694380671
31
0.000000000000000
  0
LINE
  5
F1046C
330
F1046D
100
AcDbEntity
8
Geo
100
AcDbLine
10
-80.6811529847386
20
7.47452694380671
30
0.000000000000000
11
-80.5811529847386
21
7.44047701667959
31
0.000000000000000
  0
LINE
  5
F1046E
330
F1046F
100
AcDbEntity
8
Geo
100
AcDbLine
10
-80.5811529847386
20
7.44047701667959
30
0.000000000000000
11
-80.4811529847386
21
7.39467678611973
31
0.000000000000000
  0
LINE
  5
F10470
330
F10471
100
AcDbEntity
8
Geo
100
AcDbLine
10
-80.4811529847386
20
7.39467678611973
30
0.000000000000000
11
-80.3811529847386
21
7.33719409594415
31
0.000000000000000
  0
LINE
  5
F10472
330
F10473
100
AcDbEntity
8
Geo
100
AcDbLine
10
-80.3811529847386
20
7.33719409594415
30
0.000000000000000
11
-80.2811529847386
21
7.26811409518084
31
0.000000000000000
  0
LINE
  5
F10474
330
F10475
100
AcDbEntity
8
Geo
100
AcDbLine
10
-80.2811529847386
20
7.26811409518084
30
0.000000000000000
11
-80.1811529847386
21
7.18753911193765
31
0.000000000000000
  0
LINE
  5
F10476
330
F10477
100
AcDbEntity
8
Geo
100
AcDbLine
10
-80.1811529847386
20
7.18753911193765
30
0.000000000000000
11
-80.0811529847386
21
7.09558850182377
31
0.000000000000000
  0
LINE
  5
F10478
330
F10479
100
AcDbEntity
8
Geo
100
AcDbLine
10
-80.0811529847386
20
7.09558850182377
30
0.000000000000000
11
-79.9811529847386
21
6.99239847114844
31
0.000000000000000
  0
LINE
  5
F1047A
330
F1047B
100
AcDbEntity
8
Geo
100
AcDbLine
10
-79.9811529847386
20
6.99239847114844
30
0.000000000000000
11
-79.8811529847386
21
6.87812187515878
31
0.000000000000000
  0
LINE
  5
F1047C
330
F1047D
100
AcDbEntity
8
Geo
100
AcDbLine
10
-79.8811529847386
20
6.87812187515878
30
0.000000000000000
11
-79.7811529847386
21
6.75292799161547
31
0.000000000000000
  0
LINE
  5
F1047E
330
F1047F
100
AcDbEntity
8
Geo
100
AcDbLine
10
-79.7811529847386
20
6.75292799161547
30
0.000000000000000
11
-79.6811529847386
21
6.61700227004188
31
0.000000000000000
  0
LINE
  5
F10480
330
F10481
100
AcDbEntity
8
Geo
100
AcDbLine
10
-79.6811529847386
20
6.61700227004188
30
0.000000000000000
11
-79.5811529847386
21
6.47054605701793
31
0.000000000000000
  0
LINE
  5
F10482
330
F10483
100
AcDbEntity
8
Geo
100
AcDbLine
10
-79.5811529847386
20
6.47054605701793
30
0.000000000000000
11
-79.4811529847386
21
6.31377629792570
31
0.000000000000000
  0
LINE
  5
F10484
330
F10485
100
AcDbEntity
8
Geo
100
AcDbLine
10
-79.4811529847386
20
6.31377629792570
30
0.000000000000000
11
-79.3811529847386
21
6.14692521558853
31
0.000000000000000
  0
LINE
  5
F10486
330
F10487
100
AcDbEntity
8
Geo
100
AcDbLine
10
-79.3811529847386
20
6.14692521558853
30
0.000000000000000
11
-79.2811529847386
21
5.97023996627970
31
0.000000000000000
  0
LINE
  5
F10488
330
F10489
100
AcDbEntity
8
Geo
100
AcDbLine
10
-79.2811529847386
20
5.97023996627970
30
0.000000000000000
11
-79.1811529847386
21
5.78398227361014
31
0.000000000000000
  0
LINE
  5
F1048A
330
F1048B
100
AcDbEntity
8
Geo
100
AcDbLine
10
-79.1811529847386
20
5.78398227361014
30
0.000000000000000
11
-79.0811529847386
21
5.58842804083769
31
0.000000000000000
  0
LINE
  5
F1048C
330
F1048D
100
AcDbEntity
8
Geo
100
AcDbLine
10
-79.0811529847386
20
5.58842804083769
30
0.000000000000000
11
-78.9811529847386
21
5.38386694217192
31
0.000000000000000
  0
LINE
  5
F1048E
330
F1048F
100
AcDbEntity
8
Geo
100
AcDbLine
10
-78.9811529847386
20
5.38386694217192
30
0.000000000000000
11
-78.8811529847386
21
5.17060199368018
31
0.000000000000000
  0
LINE
  5
F10490
330
F10491
100
AcDbEntity
8
Geo
100
AcDbLine
10
-78.8811529847386
20
5.17060199368018
30
0.000000000000000
11
-78.7811529847386
21
4.94894910443029
31
0.000000000000000
  0
LINE
  5
F10492
330
F10493
100
AcDbEntity
8
Geo
100
AcDbLine
10
-78.7811529847386
20
4.94894910443029
30
0.000000000000000
11
-78.6811529847386
21
4.71923660853492
31
0.000000000000000
  0
LINE
  5
F10494
330
F10495
100
AcDbEntity
8
Geo
100
AcDbLine
10
-78.6811529847386
20
4.71923660853492
30
0.000000000000000
11
-78.5811529847386
21
4.48180477879070
31
0.000000000000000
  0
LINE
  5
F10496
330
F10497
100
AcDbEntity
8
Geo
100
AcDbLine
10
-78.5811529847386
20
4.48180477879070
30
0.000000000000000
11
-78.4811529847386
21
4.23700532263263
31
0.000000000000000
  0
LINE
  5
F10498
330
F10499
100
AcDbEntity
8
Geo
100
AcDbLine
10
-78.4811529847386
20
4.23700532263263
30
0.000000000000000
11
-78.3811529847386
21
3.98520086115032
31
0.000000000000000
  0
LINE
  5
F1049A
330
F1049B
100
AcDbEntity
8
Geo
100
AcDbLine
10
-78.3811529847386
20
3.98520086115032
30
0.000000000000000
11
-78.2811529847386
21
3.72676439193793
31
0.000000000000000
  0
LINE
  5
F1049C
330
F1049D
100
AcDbEntity
8
Geo
100
AcDbLine
10
-78.2811529847386
20
3.72676439193793
30
0.000000000000000
11
-78.1811529847386
21
3.46207873657331
31
0.000000000000000
  0
LINE
  5
F1049E
330
F1049F
100
AcDbEntity
8
Geo
100
AcDbLine
10
-78.1811529847386
20
3.46207873657331
30
0.000000000000000
11
-78.0811529847386
21
3.19153597354494
31
0.000000000000000
  0
LINE
  5
F104A0
330
F104A1
100
AcDbEntity
8
Geo
100
AcDbLine
10
-78.0811529847386
20
3.19153597354494
30
0.000000000000000
11
-77.9811529847386
21
2.91553685746668
31
0.000000000000000
  0
LINE
  5
F104A2
330
F104A3
100
AcDbEntity
8
Geo
100
AcDbLine
10
-77.9811529847386
20
2.91553685746668
30
0.000000000000000
11
-77.8811529847386
21
2.63449022544042
31
0.000000000000000
  0
LINE
  5
F104A4
330
F104A5
100
AcDbEntity
8
Geo
100
AcDbLine
10
-77.8811529847386
20
2.63449022544042
30
0.000000000000000
11
-77.7811529847386
21
2.34881239144637
31
0.000000000000000
  0
LINE
  5
F104A6
330
F104A7
100
AcDbEntity
8
Geo
100
AcDbLine
10
-77.7811529847386
20
2.34881239144637
30
0.000000000000000
11
-77.6811529847386
21
2.05892652965765
31
0.000000000000000
  0
LINE
  5
F104A8
330
F104A9
100
AcDbEntity
8
Geo
100
AcDbLine
10
-77.6811529847386
20
2.05892652965765
30
0.000000000000000
11
-77.5811529847386
21
1.76526204759306
31
0.000000000000000
  0
LINE
  5
F104AA
330
F104AB
100
AcDbEntity
8
Geo
100
AcDbLine
10
-77.5811529847386
20
1.76526204759306
30
0.000000000000000
11
-77.4811529847386
21
1.46825395003626
31
0.000000000000000
  0
LINE
  5
F104AC
330
F104AD
100
AcDbEntity
8
Geo
100
AcDbLine
10
-77.4811529847386
20
1.46825395003626
30
0.000000000000000
11
-77.3811529847386
21
1.16834219466385
31
0.000000000000000
  0
LINE
  5
F104AE
330
F104AF
100
AcDbEntity
8
Geo
100
AcDbLine
10
-77.3811529847386
20
1.16834219466385
30
0.000000000000000
11
-77.2811529847386
21
0.865971040336656
31
0.000000000000000
  0
LINE
  5
F104B0
330
F104B1
100
AcDbEntity
8
Geo
100
AcDbLine
10
-77.2811529847386
20
0.865971040336656
30
0.000000000000000
11
-77.1811529847386
21
0.561588389019712
31
0.000000000000000
  0
LINE
  5
F104B2
330
F104B3
100
AcDbEntity
8
Geo
100
AcDbLine
10
-77.1811529847386
20
0.561588389019712
30
0.000000000000000
11
-77.0811529847386
21
0.255645122305710
31
0.000000000000000
  0
LINE
  5
F104B4
330
F104B5
100
AcDbEntity
8
Geo
100
AcDbLine
10
-77.0811529847386
20
0.255645122305710
30
0.000000000000000
11
-76.9811529847386
21
-0.0514055664752658
31
0.000000000000000
  0
LINE
  5
F104B6
330
F104B7
100
AcDbEntity
8
Geo
100
AcDbLine
10
-76.9811529847386
20
-0.0514055664752658
30
0.000000000000000
11
-76.8811529847386
21
-0.359108843570387
31
0.000000000000000
  0
LINE
  5
F104B8
330
F104B9
100
AcDbEntity
8
Geo
100
AcDbLine
10
-76.8811529847386
20
-0.359108843570387
30
0.000000000000000
11
-76.7811529847386
21
-0.667008908548678
31
0.000000000000000
  0
LINE
  5
F104BA
330
F104BB
100
AcDbEntity
8
Geo
100
AcDbLine
10
-76.7811529847386
20
-0.667008908548678
30
0.000000000000000
11
-76.6811529847386
21
-0.974649669477531
31
0.000000000000000
  0
LINE
  5
F104BC
330
F104BD
100
AcDbEntity
8
Geo
100
AcDbLine
10
-76.6811529847386
20
-0.974649669477531
30
0.000000000000000
11
-76.5811529847386
21
-1.28157541853108
31
0.000000000000000
  0
LINE
  5
F104BE
330
F104BF
100
AcDbEntity
8
Geo
100
AcDbLine
10
-76.5811529847386
20
-1.28157541853108
30
0.000000000000000
11
-76.4811529847386
21
-1.58733150702954
31
0.000000000000000
  0
LINE
  5
F104C0
330
F104C1
100
AcDbEntity
8
Geo
100
AcDbLine
10
-76.4811529847386
20
-1.58733150702954
30
0.000000000000000
11
-76.3811529847386
21
-1.89146501890965
31
0.000000000000000
  0
LINE
  5
F104C2
330
F104C3
100
AcDbEntity
8
Geo
100
AcDbLine
10
-76.3811529847386
20
-1.89146501890965
30
0.000000000000000
11
-76.2811529847386
21
-2.19352544162862
31
0.000000000000000
  0
LINE
  5
F104C4
330
F104C5
100
AcDbEntity
8
Geo
100
AcDbLine
10
-76.2811529847386
20
-2.19352544162862
30
0.000000000000000
11
-76.1811529847386
21
-2.49306533350770
31
0.000000000000000
  0
LINE
  5
F104C6
330
F104C7
100
AcDbEntity
8
Geo
100
AcDbLine
10
-76.1811529847386
20
-2.49306533350770
30
0.000000000000000
11
-76.0811529847386
21
-2.78964098652695
31
0.000000000000000
  0
LINE
  5
F104C8
330
F104C9
100
AcDbEntity
8
Geo
100
AcDbLine
10
-76.0811529847386
20
-2.78964098652695
30
0.000000000000000
11
-75.9811529847386
21
-3.08281308358924
31
0.000000000000000
  0
LINE
  5
F104CA
330
F104CB
100
AcDbEntity
8
Geo
100
AcDbLine
10
-75.9811529847386
20
-3.08281308358924
30
0.000000000000000
11
-75.8811529847386
21
-3.37214734928012
31
0.000000000000000
  0
LINE
  5
F104CC
330
F104CD
100
AcDbEntity
8
Geo
100
AcDbLine
10
-75.8811529847386
20
-3.37214734928012
30
0.000000000000000
11
-75.7811529847386
21
-3.65721519315932
31
0.000000000000000
  0
LINE
  5
F104CE
330
F104CF
100
AcDbEntity
8
Geo
100
AcDbLine
10
-75.7811529847386
20
-3.65721519315932
30
0.000000000000000
11
-75.6811529847386
21
-3.93759434463121
31
0.000000000000000
  0
LINE
  5
F104D0
330
F104D1
100
AcDbEntity
8
Geo
100
AcDbLine
10
-75.6811529847386
20
-3.93759434463121
30
0.000000000000000
11
-75.5811529847386
21
-4.21286947845360
31
0.000000000000000
  0
LINE
  5
F104D2
330
F104D3
100
AcDbEntity
8
Geo
100
AcDbLine
10
-75.5811529847386
20
-4.21286947845360
30
0.000000000000000
11
-75.4811529847386
21
-4.48263282995848
31
0.000000000000000
  0
LINE
  5
F104D4
330
F104D5
100
AcDbEntity
8
Geo
100
AcDbLine
10
-75.4811529847386
20
-4.48263282995848
30
0.000000000000000
11
-75.3811529847386
21
-4.74648479907320
31
0.000000000000000
  0
LINE
  5
F104D6
330
F104D7
100
AcDbEntity
8
Geo
100
AcDbLine
10
-75.3811529847386
20
-4.74648479907320
30
0.000000000000000
11
-75.2811529847386
21
-5.00403454224753
31
0.000000000000000
  0
LINE
  5
F104D8
330
F104D9
100
AcDbEntity
8
Geo
100
AcDbLine
10
-75.2811529847386
20
-5.00403454224753
30
0.000000000000000
11
-75.1811529847386
21
-5.25490055140965
31
0.000000000000000
  0
LINE
  5
F104DA
330
F104DB
100
AcDbEntity
8
Geo
100
AcDbLine
10
-75.1811529847386
20
-5.25490055140965
30
0.000000000000000
11
-75.0811529847386
21
-5.49871121909361
31
0.000000000000000
  0
LINE
  5
F104DC
330
F104DD
100
AcDbEntity
8
Geo
100
AcDbLine
10
-75.0811529847386
20
-5.49871121909361
30
0.000000000000000
11
-74.9811529847386
21
-5.46876423342625
31
0.000000000000000
  0
LINE
  5
F104DE
330
F104DF
100
AcDbEntity
8
Geo
100
AcDbLine
10
-74.9811529847386
20
-5.46876423342625
30
0.000000000000000
11
-74.8811529847385
21
-5.43928736713274
31
0.000000000000000
  0
LINE
  5
F104E0
330
F104E1
100
AcDbEntity
8
Geo
100
AcDbLine
10
-74.8811529847385
20
-5.43928736713274
30
0.000000000000000
11
-74.7811529847386
21
-5.41028776999320
31
0.000000000000000
  0
LINE
  5
F104E2
330
F104E3
100
AcDbEntity
8
Geo
100
AcDbLine
10
-74.7811529847386
20
-5.41028776999320
30
0.000000000000000
11
-74.6811529847386
21
-5.38177239005783
31
0.000000000000000
  0
LINE
  5
F104E4
330
F104E5
100
AcDbEntity
8
Geo
100
AcDbLine
10
-74.6811529847386
20
-5.38177239005783
30
0.000000000000000
11
-74.5811529847386
21
-5.35374797694343
31
0.000000000000000
  0
LINE
  5
F104E6
330
F104E7
100
AcDbEntity
8
Geo
100
AcDbLine
10
-74.5811529847386
20
-5.35374797694343
30
0.000000000000000
11
-74.4811529847386
21
-5.32622108509726
31
0.000000000000000
  0
LINE
  5
F104E8
330
F104E9
100
AcDbEntity
8
Geo
100
AcDbLine
10
-74.4811529847386
20
-5.32622108509726
30
0.000000000000000
11
-74.3811529847385
21
-5.29919807702622
31
0.000000000000000
  0
LINE
  5
F104EA
330
F104EB
100
AcDbEntity
8
Geo
100
AcDbLine
10
-74.3811529847385
20
-5.29919807702622
30
0.000000000000000
11
-74.2811529847386
21
-5.27268512648869
31
0.000000000000000
  0
LINE
  5
F104EC
330
F104ED
100
AcDbEntity
8
Geo
100
AcDbLine
10
-74.2811529847386
20
-5.27268512648869
30
0.000000000000000
11
-74.1811529847386
21
-5.24668822164712
31
0.000000000000000
  0
LINE
  5
F104EE
330
F104EF
100
AcDbEntity
8
Geo
100
AcDbLine
10
-74.1811529847386
20
-5.24668822164712
30
0.000000000000000
11
-74.0811529847386
21
-5.22121316817903
31
0.000000000000000
  0
LINE
  5
F104F0
330
F104F1
100
AcDbEntity
8
Geo
100
AcDbLine
10
-74.0811529847386
20
-5.22121316817903
30
0.000000000000000
11
-73.9811529847386
21
-5.19626559234440
31
0.000000000000000
  0
LINE
  5
F104F2
330
F104F3
100
AcDbEntity
8
Geo
100
AcDbLine
10
-73.9811529847386
20
-5.19626559234440
30
0.000000000000000
11
-73.8811529847385
21
-5.17185094400750
31
0.000000000000000
  0
LINE
  5
F104F4
330
F104F5
100
AcDbEntity
8
Geo
100
AcDbLine
10
-73.8811529847385
20
-5.17185094400750
30
0.000000000000000
11
-73.7811529847386
21
-5.14797449961114
31
0.000000000000000
  0
LINE
  5
F104F6
330
F104F7
100
AcDbEntity
8
Geo
100
AcDbLine
10
-73.7811529847386
20
-5.14797449961114
30
0.000000000000000
11
-73.6811529847386
21
-5.12464136510151
31
0.000000000000000
  0
LINE
  5
F104F8
330
F104F9
100
AcDbEntity
8
Geo
100
AcDbLine
10
-73.6811529847386
20
-5.12464136510151
30
0.000000000000000
11
-73.5811529847386
21
-5.10185647880187
31
0.000000000000000
  0
LINE
  5
F104FA
330
F104FB
100
AcDbEntity
8
Geo
100
AcDbLine
10
-73.5811529847386
20
-5.10185647880187
30
0.000000000000000
11
-73.4811529847386
21
-5.07962461423325
31
0.000000000000000
  0
LINE
  5
F104FC
330
F104FD
100
AcDbEntity
8
Geo
100
AcDbLine
10
-73.4811529847386
20
-5.07962461423325
30
0.000000000000000
11
-73.3811529847386
21
-5.05795038288057
31
0.000000000000000
  0
LINE
  5
F104FE
330
F104FF
100
AcDbEntity
8
Geo
100
AcDbLine
10
-73.3811529847386
20
-5.05795038288057
30
0.000000000000000
11
-73.2811529847386
21
-5.03683823690256
31
0.000000000000000
  0
LINE
  5
F10500
330
F10501
100
AcDbEntity
8
Geo
100
AcDbLine
10
-73.2811529847386
20
-5.03683823690256
30
0.000000000000000
11
-73.1811529847386
21
-5.01629247178389
31
0.000000000000000
  0
LINE
  5
F10502
330
F10503
100
AcDbEntity
8
Geo
100
AcDbLine
10
-73.1811529847386
20
-5.01629247178389
30
0.000000000000000
11
-73.0811529847386
21
-4.99631722892810
31
0.000000000000000
  0
LINE
  5
F10504
330
F10505
100
AcDbEntity
8
Geo
100
AcDbLine
10
-73.0811529847386
20
-4.99631722892810
30
0.000000000000000
11
-72.9811529847386
21
-4.97691649818984
31
0.000000000000000
  0
LINE
  5
F10506
330
F10507
100
AcDbEntity
8
Geo
100
AcDbLine
10
-72.9811529847386
20
-4.97691649818984
30
0.000000000000000
11
-72.8811529847385
21
-4.95809412034507
31
0.000000000000000
  0
LINE
  5
F10508
330
F10509
100
AcDbEntity
8
Geo
100
AcDbLine
10
-72.8811529847385
20
-4.95809412034507
30
0.000000000000000
11
-72.7811529847386
21
-4.93985378949787
31
0.000000000000000
  0
LINE
  5
F1050A
330
F1050B
100
AcDbEntity
8
Geo
100
AcDbLine
10
-72.7811529847386
20
-4.93985378949787
30
0.000000000000000
11
-72.6811529847386
21
-4.92219905542276
31
0.000000000000000
  0
LINE
  5
F1050C
330
F1050D
100
AcDbEntity
8
Geo
100
AcDbLine
10
-72.6811529847386
20
-4.92219905542276
30
0.000000000000000
11
-72.5811529847386
21
-4.90513332584100
31
0.000000000000000
  0
LINE
  5
F1050E
330
F1050F
100
AcDbEntity
8
Geo
100
AcDbLine
10
-72.5811529847386
20
-4.90513332584100
30
0.000000000000000
11
-72.4811529847385
21
-4.88865986863013
31
0.000000000000000
  0
LINE
  5
F10510
330
F10511
100
AcDbEntity
8
Geo
100
AcDbLine
10
-72.4811529847385
20
-4.88865986863013
30
0.000000000000000
11
-72.3811529847385
21
-4.87278181396523
31
0.000000000000000
  0
LINE
  5
F10512
330
F10513
100
AcDbEntity
8
Geo
100
AcDbLine
10
-72.3811529847385
20
-4.87278181396523
30
0.000000000000000
11
-72.2811529847386
21
-4.85750215639123
31
0.000000000000000
  0
LINE
  5
F10514
330
F10515
100
AcDbEntity
8
Geo
100
AcDbLine
10
-72.2811529847386
20
-4.85750215639123
30
0.000000000000000
11
-72.1811529847385
21
-4.84282375682487
31
0.000000000000000
  0
LINE
  5
F10516
330
F10517
100
AcDbEntity
8
Geo
100
AcDbLine
10
-72.1811529847385
20
-4.84282375682487
30
0.000000000000000
11
-72.0811529847385
21
-4.82874934448579
31
0.000000000000000
  0
LINE
  5
F10518
330
F10519
100
AcDbEntity
8
Geo
100
AcDbLine
10
-72.0811529847385
20
-4.82874934448579
30
0.000000000000000
11
-71.9811529847385
21
-4.81528151875540
31
0.000000000000000
  0
LINE
  5
F1051A
330
F1051B
100
AcDbEntity
8
Geo
100
AcDbLine
10
-71.9811529847385
20
-4.81528151875540
30
0.000000000000000
11
-71.8811529847385
21
-4.80242275096299
31
0.000000000000000
  0
LINE
  5
F1051C
330
F1051D
100
AcDbEntity
8
Geo
100
AcDbLine
10
-71.8811529847385
20
-4.80242275096299
30
0.000000000000000
11
-71.7811529847385
21
-4.79017538609809
31
0.000000000000000
  0
LINE
  5
F1051E
330
F1051F
100
AcDbEntity
8
Geo
100
AcDbLine
10
-71.7811529847385
20
-4.79017538609809
30
0.000000000000000
11
-71.6811529847385
21
-4.77854164444835
31
0.000000000000000
  0
LINE
  5
F10520
330
F10521
100
AcDbEntity
8
Geo
100
AcDbLine
10
-71.6811529847385
20
-4.77854164444835
30
0.000000000000000
11
-71.5811529847385
21
-4.76752362316225
31
0.000000000000000
  0
LINE
  5
F10522
330
F10523
100
AcDbEntity
8
Geo
100
AcDbLine
10
-71.5811529847385
20
-4.76752362316225
30
0.000000000000000
11
-71.4811529847385
21
-4.75712329773575
31
0.000000000000000
  0
LINE
  5
F10524
330
F10525
100
AcDbEntity
8
Geo
100
AcDbLine
10
-71.4811529847385
20
-4.75712329773575
30
0.000000000000000
11
-71.3811529847385
21
-4.74734252342256
31
0.000000000000000
  0
LINE
  5
F10526
330
F10527
100
AcDbEntity
8
Geo
100
AcDbLine
10
-71.3811529847385
20
-4.74734252342256
30
0.000000000000000
11
-71.2811529847385
21
-4.73818303656705
31
0.000000000000000
  0
LINE
  5
F10528
330
F10529
100
AcDbEntity
8
Geo
100
AcDbLine
10
-71.2811529847385
20
-4.73818303656705
30
0.000000000000000
11
-71.1811529847385
21
-4.72964645585953
31
0.000000000000000
  0
LINE
  5
F1052A
330
F1052B
100
AcDbEntity
8
Geo
100
AcDbLine
10
-71.1811529847385
20
-4.72964645585953
30
0.000000000000000
11
-71.0811529847385
21
-4.72173428351312
31
0.000000000000000
  0
LINE
  5
F1052C
330
F1052D
100
AcDbEntity
8
Geo
100
AcDbLine
10
-71.0811529847385
20
-4.72173428351312
30
0.000000000000000
11
-70.9811529847385
21
-4.71444790636189
31
0.000000000000000
  0
LINE
  5
F1052E
330
F1052F
100
AcDbEntity
8
Geo
100
AcDbLine
10
-70.9811529847385
20
-4.71444790636189
30
0.000000000000000
11
-70.8811529847385
21
-4.70778859687972
31
0.000000000000000
  0
LINE
  5
F10530
330
F10531
100
AcDbEntity
8
Geo
100
AcDbLine
10
-70.8811529847385
20
-4.70778859687972
30
0.000000000000000
11
-70.7811529847385
21
-4.70175751411947
31
0.000000000000000
  0
LINE
  5
F10532
330
F10533
100
AcDbEntity
8
Geo
100
AcDbLine
10
-70.7811529847385
20
-4.70175751411947
30
0.000000000000000
11
-70.6811529847385
21
-4.69635570457203
31
0.000000000000000
  0
LINE
  5
F10534
330
F10535
100
AcDbEntity
8
Geo
100
AcDbLine
10
-70.6811529847385
20
-4.69635570457203
30
0.000000000000000
11
-70.5811529847385
21
-4.69158410294503
31
0.000000000000000
  0
LINE
  5
F10536
330
F10537
100
AcDbEntity
8
Geo
100
AcDbLine
10
-70.5811529847385
20
-4.69158410294503
30
0.000000000000000
11
-70.4811529847385
21
-4.68744353286070
31
0.000000000000000
  0
LINE
  5
F10538
330
F10539
100
AcDbEntity
8
Geo
100
AcDbLine
10
-70.4811529847385
20
-4.68744353286070
30
0.000000000000000
11
-70.3811529847385
21
-4.68393470747277
31
0.000000000000000
  0
LINE
  5
F1053A
330
F1053B
100
AcDbEntity
8
Geo
100
AcDbLine
10
-70.3811529847385
20
-4.68393470747277
30
0.000000000000000
11
-70.2811529847385
21
-4.68105823000199
31
0.000000000000000
  0
LINE
  5
F1053C
330
F1053D
100
AcDbEntity
8
Geo
100
AcDbLine
10
-70.2811529847385
20
-4.68105823000199
30
0.000000000000000
11
-70.1811529847385
21
-4.67881459419026
31
0.000000000000000
  0
LINE
  5
F1053E
330
F1053F
100
AcDbEntity
8
Geo
100
AcDbLine
10
-70.1811529847385
20
-4.67881459419026
30
0.000000000000000
11
-70.0811529847386
21
-4.67720418467300
31
0.000000000000000
  0
LINE
  5
F10540
330
F10541
100
AcDbEntity
8
Geo
100
AcDbLine
10
-81.7811529847386
20
7.50679517150439
30
0.000000000000000
11
-81.6811529847386
21
7.50630778551611
31
0.000000000000000
  0
LINE
  5
F10542
330
F10543
100
AcDbEntity
8
Geo
100
AcDbLine
10
-81.6811529847386
20
7.50630778551611
30
0.000000000000000
11
-81.5811529847386
21
7.49397258106993
31
0.000000000000000
  0
LINE
  5
F10544
330
F10545
100
AcDbEntity
8
Geo
100
AcDbLine
10
-81.5811529847386
20
7.49397258106993
30
0.000000000000000
11
-81.4811529847386
21
7.46980783028682
31
0.000000000000000
  0
LINE
  5
F10546
330
F10547
100
AcDbEntity
8
Geo
100
AcDbLine
10
-81.4811529847386
20
7.46980783028682
30
0.000000000000000
11
-81.3811529847386
21
7.43384932837808
31
0.000000000000000
  0
LINE
  5
F10548
330
F10549
100
AcDbEntity
8
Geo
100
AcDbLine
10
-81.3811529847386
20
7.43384932837808
30
0.000000000000000
11
-81.2811529847386
21
7.38615034062195
31
0.000000000000000
  0
LINE
  5
F1054A
330
F1054B
100
AcDbEntity
8
Geo
100
AcDbLine
10
-81.2811529847386
20
7.38615034062195
30
0.000000000000000
11
-81.1811529847386
21
7.32678152346181
31
0.000000000000000
  0
LINE
  5
F1054C
330
F1054D
100
AcDbEntity
8
Geo
100
AcDbLine
10
-81.1811529847386
20
7.32678152346181
30
0.000000000000000
11
-81.0811529847386
21
7.25583081984289
31
0.000000000000000
  0
LINE
  5
F1054E
330
F1054F
100
AcDbEntity
8
Geo
100
AcDbLine
10
-81.0811529847386
20
7.25583081984289
30
0.000000000000000
11
-80.9811529847386
21
7.17340332894254
31
0.000000000000000
  0
LINE
  5
F10550
330
F10551
100
AcDbEntity
8
Geo
100
AcDbLine
10
-80.9811529847386
20
7.17340332894254
30
0.000000000000000
11
-80.8811529847386
21
7.07962115048694
31
0.000000000000000
  0
LINE
  5
F10552
330
F10553
100
AcDbEntity
8
Geo
100
AcDbLine
10
-80.8811529847386
20
7.07962115048694
30
0.000000000000000
11
-80.7811529847386
21
6.97462320388495
31
0.000000000000000
  0
LINE
  5
F10554
330
F10555
100
AcDbEntity
8
Geo
100
AcDbLine
10
-80.7811529847386
20
6.97462320388495
30
0.000000000000000
11
-80.6811529847386
21
6.85856502244699
31
0.000000000000000
  0
LINE
  5
F10556
330
F10557
100
AcDbEntity
8
Geo
100
AcDbLine
10
-80.6811529847386
20
6.85856502244699
30
0.000000000000000
11
-80.5811529847386
21
6.73161852299375
31
0.000000000000000
  0
LINE
  5
F10558
330
F10559
100
AcDbEntity
8
Geo
100
AcDbLine
10
-80.5811529847386
20
6.73161852299375
30
0.000000000000000
11
-80.4811529847386
21
6.59397175119609
31
0.000000000000000
  0
LINE
  5
F1055A
330
F1055B
100
AcDbEntity
8
Geo
100
AcDbLine
10
-80.4811529847386
20
6.59397175119609
30
0.000000000000000
11
-80.3811529847386
21
6.44582860302320
31
0.000000000000000
  0
LINE
  5
F1055C
330
F1055D
100
AcDbEntity
8
Geo
100
AcDbLine
10
-80.3811529847386
20
6.44582860302320
30
0.000000000000000
11
-80.2811529847386
21
6.28740852271182
31
0.000000000000000
  0
LINE
  5
F1055E
330
F1055F
100
AcDbEntity
8
Geo
100
AcDbLine
10
-80.2811529847386
20
6.28740852271182
30
0.000000000000000
11
-80.1811529847386
21
6.11894617770379
31
0.000000000000000
  0
LINE
  5
F10560
330
F10561
100
AcDbEntity
8
Geo
100
AcDbLine
10
-80.1811529847386
20
6.11894617770379
30
0.000000000000000
11
-80.0811529847386
21
5.94069111103350
31
0.000000000000000
  0
LINE
  5
F10562
330
F10563
100
AcDbEntity
8
Geo
100
AcDbLine
10
-80.0811529847386
20
5.94069111103350
30
0.000000000000000
11
-79.9811529847386
21
5.75290737168016
31
0.000000000000000
  0
LINE
  5
F10564
330
F10565
100
AcDbEntity
8
Geo
100
AcDbLine
10
-79.9811529847386
20
5.75290737168016
30
0.000000000000000
11
-79.8811529847386
21
5.55587312343237
31
0.000000000000000
  0
LINE
  5
F10566
330
F10567
100
AcDbEntity
8
Geo
100
AcDbLine
10
-79.8811529847386
20
5.55587312343237
30
0.000000000000000
11
-79.7811529847386
21
5.34988023284457
31
0.000000000000000
  0
LINE
  5
F10568
330
F10569
100
AcDbEntity
8
Geo
100
AcDbLine
10
-79.7811529847386
20
5.34988023284457
30
0.000000000000000
11
-79.6811529847386
21
5.13523383689546
31
0.000000000000000
  0
LINE
  5
F1056A
330
F1056B
100
AcDbEntity
8
Geo
100
AcDbLine
10
-79.6811529847386
20
5.13523383689546
30
0.000000000000000
11
-79.5811529847386
21
4.91225189098903
31
0.000000000000000
  0
LINE
  5
F1056C
330
F1056D
100
AcDbEntity
8
Geo
100
AcDbLine
10
-79.5811529847386
20
4.91225189098903
30
0.000000000000000
11
-79.4811529847386
21
4.68126469796770
31
0.000000000000000
  0
LINE
  5
F1056E
330
F1056F
100
AcDbEntity
8
Geo
100
AcDbLine
10
-79.4811529847386
20
4.68126469796770
30
0.000000000000000
11
-79.3811529847386
21
4.44261441883517
31
0.000000000000000
  0
LINE
  5
F10570
330
F10571
100
AcDbEntity
8
Geo
100
AcDbLine
10
-79.3811529847386
20
4.44261441883517
30
0.000000000000000
11
-79.2811529847386
21
4.19665456591378
31
0.000000000000000
  0
LINE
  5
F10572
330
F10573
100
AcDbEntity
8
Geo
100
AcDbLine
10
-79.2811529847386
20
4.19665456591378
30
0.000000000000000
11
-79.1811529847386
21
3.94374947918727
31
0.000000000000000
  0
LINE
  5
F10574
330
F10575
100
AcDbEntity
8
Geo
100
AcDbLine
10
-79.1811529847386
20
3.94374947918727
30
0.000000000000000
11
-79.0811529847386
21
3.68427378660438
31
0.000000000000000
  0
LINE
  5
F10576
330
F10577
100
AcDbEntity
8
Geo
100
AcDbLine
10
-79.0811529847386
20
3.68427378660438
30
0.000000000000000
11
-78.9811529847386
21
3.41861184914309
31
0.000000000000000
  0
LINE
  5
F10578
330
F10579
100
AcDbEntity
8
Geo
100
AcDbLine
10
-78.9811529847386
20
3.41861184914309
30
0.000000000000000
11
-78.8811529847386
21
3.14715719145720
31
0.000000000000000
  0
LINE
  5
F1057A
330
F1057B
100
AcDbEntity
8
Geo
100
AcDbLine
10
-78.8811529847386
20
3.14715719145720
30
0.000000000000000
11
-78.7811529847386
21
2.87031191894881
31
0.000000000000000
  0
LINE
  5
F1057C
330
F1057D
100
AcDbEntity
8
Geo
100
AcDbLine
10
-78.7811529847386
20
2.87031191894881
30
0.000000000000000
11
-78.6811529847386
21
2.58848612213017
31
0.000000000000000
  0
LINE
  5
F1057E
330
F1057F
100
AcDbEntity
8
Geo
100
AcDbLine
10
-78.6811529847386
20
2.58848612213017
30
0.000000000000000
11
-78.5811529847386
21
2.30209726915716
31
0.000000000000000
  0
LINE
  5
F10580
330
F10581
100
AcDbEntity
8
Geo
100
AcDbLine
10
-78.5811529847386
20
2.30209726915716
30
0.000000000000000
11
-78.4811529847386
21
2.01156958743434
31
0.000000000000000
  0
LINE
  5
F10582
330
F10583
100
AcDbEntity
8
Geo
100
AcDbLine
10
-78.4811529847386
20
2.01156958743434
30
0.000000000000000
11
-78.3811529847386
21
1.71733343520746
31
0.000000000000000
  0
LINE
  5
F10584
330
F10585
100
AcDbEntity
8
Geo
100
AcDbLine
10
-78.3811529847386
20
1.71733343520746
30
0.000000000000000
11
-78.2811529847386
21
1.41982466407440
31
0.000000000000000
  0
LINE
  5
F10586
330
F10587
100
AcDbEntity
8
Geo
100
AcDbLine
10
-78.2811529847386
20
1.41982466407440
30
0.000000000000000
11
-78.1811529847386
21
1.11948397335881
31
0.000000000000000
  0
LINE
  5
F10588
330
F10589
100
AcDbEntity
8
Geo
100
AcDbLine
10
-78.1811529847386
20
1.11948397335881
30
0.000000000000000
11
-78.0811529847386
21
0.816756257302843
31
0.000000000000000
  0
LINE
  5
F1058A
330
F1058B
100
AcDbEntity
8
Geo
100
AcDbLine
10
-78.0811529847386
20
0.816756257302843
30
0.000000000000000
11
-77.9811529847386
21
0.512089946045918
31
0.000000000000000
  0
LINE
  5
F1058C
330
F1058D
100
AcDbEntity
8
Geo
100
AcDbLine
10
-77.9811529847386
20
0.512089946045918
30
0.000000000000000
11
-77.8811529847386
21
0.205936341365797
31
0.000000000000000
  0
LINE
  5
F1058E
330
F1058F
100
AcDbEntity
8
Geo
100
AcDbLine
10
-77.8811529847386
20
0.205936341365797
30
0.000000000000000
11
-77.7811529847386
21
-0.101251051834104
31
0.000000000000000
  0
LINE
  5
F10590
330
F10591
100
AcDbEntity
8
Geo
100
AcDbLine
10
-77.7811529847386
20
-0.101251051834104
30
0.000000000000000
11
-77.6811529847386
21
-0.409017197300898
31
0.000000000000000
  0
LINE
  5
F10592
330
F10593
100
AcDbEntity
8
Geo
100
AcDbLine
10
-77.6811529847386
20
-0.409017197300898
30
0.000000000000000
11
-77.5811529847386
21
-0.716906201476761
31
0.000000000000000
  0
LINE
  5
F10594
330
F10595
100
AcDbEntity
8
Geo
100
AcDbLine
10
-77.5811529847386
20
-0.716906201476761
30
0.000000000000000
11
-77.4811529847386
21
-1.02446198881346
31
0.000000000000000
  0
LINE
  5
F10596
330
F10597
100
AcDbEntity
8
Geo
100
AcDbLine
10
-77.4811529847386
20
-1.02446198881346
30
0.000000000000000
11
-77.3811529847386
21
-1.33122897735637
31
0.000000000000000
  0
LINE
  5
F10598
330
F10599
100
AcDbEntity
8
Geo
100
AcDbLine
10
-77.3811529847386
20
-1.33122897735637
30
0.000000000000000
11
-77.2811529847386
21
-1.63675275359744
31
0.000000000000000
  0
LINE
  5
F1059A
330
F1059B
100
AcDbEntity
8
Geo
100
AcDbLine
10
-77.2811529847386
20
-1.63675275359744
30
0.000000000000000
11
-77.1811529847386
21
-1.94058074559722
31
0.000000000000000
  0
LINE
  5
F1059C
330
F1059D
100
AcDbEntity
8
Geo
100
AcDbLine
10
-77.1811529847386
20
-1.94058074559722
30
0.000000000000000
11
-77.0811529847386
21
-2.24226289337910
31
0.000000000000000
  0
LINE
  5
F1059E
330
F1059F
100
AcDbEntity
8
Geo
100
AcDbLine
10
-77.0811529847386
20
-2.24226289337910
30
0.000000000000000
11
-76.9811529847386
21
-2.54135231560247
31
0.000000000000000
  0
LINE
  5
F105A0
330
F105A1
100
AcDbEntity
8
Geo
100
AcDbLine
10
-76.9811529847386
20
-2.54135231560247
30
0.000000000000000
11
-76.8811529847386
21
-2.83740597152742
31
0.000000000000000
  0
LINE
  5
F105A2
330
F105A3
100
AcDbEntity
8
Geo
100
AcDbLine
10
-76.8811529847386
20
-2.83740597152742
30
0.000000000000000
11
-76.7811529847386
21
-3.12998531729043
31
0.000000000000000
  0
LINE
  5
F105A4
330
F105A5
100
AcDbEntity
8
Geo
100
AcDbLine
10
-76.7811529847386
20
-3.12998531729043
30
0.000000000000000
11
-76.6811529847386
21
-3.41865695551867
31
0.000000000000000
  0
LINE
  5
F105A6
330
F105A7
100
AcDbEntity
8
Geo
100
AcDbLine
10
-76.6811529847386
20
-3.41865695551867
30
0.000000000000000
11
-76.5811529847386
21
-3.70299327732101
31
0.000000000000000
  0
LINE
  5
F105A8
330
F105A9
100
AcDbEntity
8
Geo
100
AcDbLine
10
-76.5811529847386
20
-3.70299327732101
30
0.000000000000000
11
-76.4811529847386
21
-3.98257309570445
31
0.000000000000000
  0
LINE
  5
F105AA
330
F105AB
100
AcDbEntity
8
Geo
100
AcDbLine
10
-76.4811529847386
20
-3.98257309570445
30
0.000000000000000
11
-76.3811529847386
21
-4.25698226947778
31
0.000000000000000
  0
LINE
  5
F105AC
330
F105AD
100
AcDbEntity
8
Geo
100
AcDbLine
10
-76.3811529847386
20
-4.25698226947778
30
0.000000000000000
11
-76.2811529847386
21
-4.52581431671838
31
0.000000000000000
  0
LINE
  5
F105AE
330
F105AF
100
AcDbEntity
8
Geo
100
AcDbLine
10
-76.2811529847386
20
-4.52581431671838
30
0.000000000000000
11
-76.1811529847386
21
-4.78867101689330
31
0.000000000000000
  0
LINE
  5
F105B0
330
F105B1
100
AcDbEntity
8
Geo
100
AcDbLine
10
-76.1811529847386
20
-4.78867101689330
30
0.000000000000000
11
-76.0811529847386
21
-5.04516300074279
31
0.000000000000000
  0
LINE
  5
F105B2
330
F105B3
100
AcDbEntity
8
Geo
100
AcDbLine
10
-76.0811529847386
20
-5.04516300074279
30
0.000000000000000
11
-75.9811529847386
21
-5.29491032705243
31
0.000000000000000
  0
LINE
  5
F105B4
330
F105B5
100
AcDbEntity
8
Geo
100
AcDbLine
10
-75.9811529847386
20
-5.29491032705243
30
0.000000000000000
11
-75.8811529847386
21
-5.53754304545951
31
0.000000000000000
  0
LINE
  5
F105B6
330
F105B7
100
AcDbEntity
8
Geo
100
AcDbLine
10
-75.8811529847386
20
-5.53754304545951
30
0.000000000000000
11
-75.7811529847386
21
-5.77270174445999
31
0.000000000000000
  0
LINE
  5
F105B8
330
F105B9
100
AcDbEntity
8
Geo
100
AcDbLine
10
-75.7811529847386
20
-5.77270174445999
30
0.000000000000000
11
-75.6811529847386
21
-6.00003808380423
31
0.000000000000000
  0
LINE
  5
F105BA
330
F105BB
100
AcDbEntity
8
Geo
100
AcDbLine
10
-75.6811529847386
20
-6.00003808380423
30
0.000000000000000
11
-75.5811529847386
21
-6.21921531049296
31
0.000000000000000
  0
LINE
  5
F105BC
330
F105BD
100
AcDbEntity
8
Geo
100
AcDbLine
10
-75.5811529847386
20
-6.21921531049296
30
0.000000000000000
11
-75.4811529847386
21
-6.42990875760898
31
0.000000000000000
  0
LINE
  5
F105BE
330
F105BF
100
AcDbEntity
8
Geo
100
AcDbLine
10
-75.4811529847386
20
-6.42990875760898
30
0.000000000000000
11
-75.3811529847386
21
-6.63180632524583
31
0.000000000000000
  0
LINE
  5
F105C0
330
F105C1
100
AcDbEntity
8
Geo
100
AcDbLine
10
-75.3811529847386
20
-6.63180632524583
30
0.000000000000000
11
-75.2811529847386
21
-6.82460894282092
31
0.000000000000000
  0
LINE
  5
F105C2
330
F105C3
100
AcDbEntity
8
Geo
100
AcDbLine
10
-75.2811529847386
20
-6.82460894282092
30
0.000000000000000
11
-75.1811529847386
21
-7.00803101208839
31
0.000000000000000
  0
LINE
  5
F105C4
330
F105C5
100
AcDbEntity
8
Geo
100
AcDbLine
10
-75.1811529847386
20
-7.00803101208839
30
0.000000000000000
11
-75.0811529847386
21
-7.18180083019542
31
0.000000000000000
  0
LINE
  5
F105C6
330
F105C7
100
AcDbEntity
8
Geo
100
AcDbLine
10
-75.0811529847386
20
-7.18180083019542
30
0.000000000000000
11
-74.9811529847386
21
-7.36466351240639
31
0.000000000000000
  0
LINE
  5
F105C8
330
F105C9
100
AcDbEntity
8
Geo
100
AcDbLine
10
-74.9811529847386
20
-7.36466351240639
30
0.000000000000000
11
-74.8811529847385
21
-7.53157716108992
31
0.000000000000000
  0
LINE
  5
F105CA
330
F105CB
100
AcDbEntity
8
Geo
100
AcDbLine
10
-74.8811529847385
20
-7.53157716108992
30
0.000000000000000
11
-74.7811529847386
21
-7.68298096231924
31
0.000000000000000
  0
LINE
  5
F105CC
330
F105CD
100
AcDbEntity
8
Geo
100
AcDbLine
10
-74.7811529847386
20
-7.68298096231924
30
0.000000000000000
11
-74.6811529847386
21
-7.81935439591423
31
0.000000000000000
  0
LINE
  5
F105CE
330
F105CF
100
AcDbEntity
8
Geo
100
AcDbLine
10
-74.6811529847386
20
-7.81935439591423
30
0.000000000000000
11
-74.5811529847386
21
-7.94121185967694
31
0.000000000000000
  0
LINE
  5
F105D0
330
F105D1
100
AcDbEntity
8
Geo
100
AcDbLine
10
-74.5811529847386
20
-7.94121185967694
30
0.000000000000000
11
-74.4811529847386
21
-8.04909754568049
31
0.000000000000000
  0
LINE
  5
F105D2
330
F105D3
100
AcDbEntity
8
Geo
100
AcDbLine
10
-74.4811529847386
20
-8.04909754568049
30
0.000000000000000
11
-74.3811529847385
21
-8.14358058055686
31
0.000000000000000
  0
LINE
  5
F105D4
330
F105D5
100
AcDbEntity
8
Geo
100
AcDbLine
10
-74.3811529847385
20
-8.14358058055686
30
0.000000000000000
11
-74.2811529847386
21
-8.22525043839007
31
0.000000000000000
  0
LINE
  5
F105D6
330
F105D7
100
AcDbEntity
8
Geo
100
AcDbLine
10
-74.2811529847386
20
-8.22525043839007
30
0.000000000000000
11
-74.1811529847386
21
-8.29471263176517
31
0.000000000000000
  0
LINE
  5
F105D8
330
F105D9
100
AcDbEntity
8
Geo
100
AcDbLine
10
-74.1811529847386
20
-8.29471263176517
30
0.000000000000000
11
-74.0811529847386
21
-8.35258468374739
31
0.000000000000000
  0
LINE
  5
F105DA
330
F105DB
100
AcDbEntity
8
Geo
100
AcDbLine
10
-74.0811529847386
20
-8.35258468374739
30
0.000000000000000
11
-73.9811529847386
21
-8.39949238106395
31
0.000000000000000
  0
LINE
  5
F105DC
330
F105DD
100
AcDbEntity
8
Geo
100
AcDbLine
10
-73.9811529847386
20
-8.39949238106395
30
0.000000000000000
11
-73.8811529847385
21
-8.43606630652525
31
0.000000000000000
  0
LINE
  5
F105DE
330
F105DF
100
AcDbEntity
8
Geo
100
AcDbLine
10
-73.8811529847385
20
-8.43606630652525
30
0.000000000000000
11
-73.7811529847386
21
-8.46293864674250
31
0.000000000000000
  0
LINE
  5
F105E0
330
F105E1
100
AcDbEntity
8
Geo
100
AcDbLine
10
-73.7811529847386
20
-8.46293864674250
30
0.000000000000000
11
-73.6811529847386
21
-8.48074026946508
31
0.000000000000000
  0
LINE
  5
F105E2
330
F105E3
100
AcDbEntity
8
Geo
100
AcDbLine
10
-73.6811529847386
20
-8.48074026946508
30
0.000000000000000
11
-73.5811529847386
21
-8.49009806335900
31
0.000000000000000
  0
LINE
  5
F105E4
330
F105E5
100
AcDbEntity
8
Geo
100
AcDbLine
10
-73.5811529847386
20
-8.49009806335900
30
0.000000000000000
11
-73.4811529847386
21
-8.49195706491088
31
0.000000000000000
  0
LINE
  5
F105E6
330
F105E7
100
AcDbEntity
8
Geo
100
AcDbLine
10
-85.0811529847386
20
7.50415058669040
30
0.000000000000000
11
-84.9811529847385
21
7.50783010242277
31
0.000000000000000
  0
LINE
  5
F105E8
330
F105E9
100
AcDbEntity
8
Geo
100
AcDbLine
10
-84.9811529847385
20
7.50783010242277
30
0.000000000000000
11
-84.8811529847385
21
7.49965954469136
31
0.000000000000000
  0
LINE
  5
F105EA
330
F105EB
100
AcDbEntity
8
Geo
100
AcDbLine
10
-84.8811529847385
20
7.49965954469136
30
0.000000000000000
11
-84.7811529847386
21
7.47965101653181
31
0.000000000000000
  0
LINE
  5
F105EC
330
F105ED
100
AcDbEntity
8
Geo
100
AcDbLine
10
-84.7811529847386
20
7.47965101653181
30
0.000000000000000
11
-84.6811529847385
21
7.44783415654871
31
0.000000000000000
  0
LINE
  5
F105EE
330
F105EF
100
AcDbEntity
8
Geo
100
AcDbLine
10
-84.6811529847385
20
7.44783415654871
30
0.000000000000000
11
-84.5811529847386
21
7.40425609501195
31
0.000000000000000
  0
LINE
  5
F105F0
330
F105F1
100
AcDbEntity
8
Geo
100
AcDbLine
10
-84.5811529847386
20
7.40425609501195
30
0.000000000000000
11
-84.4811529847386
21
7.34898138404270
31
0.000000000000000
  0
LINE
  5
F105F2
330
F105F3
100
AcDbEntity
8
Geo
100
AcDbLine
10
-84.4811529847386
20
7.34898138404270
30
0.000000000000000
11
-84.3811529847385
21
7.28209190199246
31
0.000000000000000
  0
LINE
  5
F105F4
330
F105F5
100
AcDbEntity
8
Geo
100
AcDbLine
10
-84.3811529847385
20
7.28209190199246
30
0.000000000000000
11
-84.2811529847386
21
7.20368673215679
31
0.000000000000000
  0
LINE
  5
F105F6
330
F105F7
100
AcDbEntity
8
Geo
100
AcDbLine
10
-84.2811529847386
20
7.20368673215679
30
0.000000000000000
11
-84.1811529847386
21
7.11388201600335
31
0.000000000000000
  0
LINE
  5
F105F8
330
F105F9
100
AcDbEntity
8
Geo
100
AcDbLine
10
-84.1811529847386
20
7.11388201600335
30
0.000000000000000
11
-84.0811529847386
21
7.01281078113167
31
0.000000000000000
  0
LINE
  5
F105FA
330
F105FB
100
AcDbEntity
8
Geo
100
AcDbLine
10
-84.0811529847386
20
7.01281078113167
30
0.000000000000000
11
-83.9811529847386
21
6.90062274421963
31
0.000000000000000
  0
LINE
  5
F105FC
330
F105FD
100
AcDbEntity
8
Geo
100
AcDbLine
10
-83.9811529847386
20
6.90062274421963
30
0.000000000000000
11
-83.8811529847385
21
6.77748408924829
31
0.000000000000000
  0
LINE
  5
F105FE
330
F105FF
100
AcDbEntity
8
Geo
100
AcDbLine
10
-83.8811529847385
20
6.77748408924829
30
0.000000000000000
11
-83.7811529847386
21
6.64357722133383
31
0.000000000000000
  0
LINE
  5
F10600
330
F10601
100
AcDbEntity
8
Geo
100
AcDbLine
10
-83.7811529847386
20
6.64357722133383
30
0.000000000000000
11
-83.6811529847386
21
6.49910049653110
31
0.000000000000000
  0
LINE
  5
F10602
330
F10603
100
AcDbEntity
8
Geo
100
AcDbLine
10
-83.6811529847386
20
6.49910049653110
30
0.000000000000000
11
-83.5811529847386
21
6.34426792800905
31
0.000000000000000
  0
LINE
  5
F10604
330
F10605
100
AcDbEntity
8
Geo
100
AcDbLine
10
-83.5811529847386
20
6.34426792800905
30
0.000000000000000
11
-83.4811529847386
21
6.17930886903337
31
0.000000000000000
  0
LINE
  5
F10606
330
F10607
100
AcDbEntity
8
Geo
100
AcDbLine
10
-83.4811529847386
20
6.17930886903337
30
0.000000000000000
11
-83.3811529847385
21
6.00446767322577
31
0.000000000000000
  0
LINE
  5
F10608
330
F10609
100
AcDbEntity
8
Geo
100
AcDbLine
10
-83.3811529847385
20
6.00446767322577
30
0.000000000000000
11
-83.2811529847386
21
5.82000333260337
31
0.000000000000000
  0
LINE
  5
F1060A
330
F1060B
100
AcDbEntity
8
Geo
100
AcDbLine
10
-83.2811529847386
20
5.82000333260337
30
0.000000000000000
11
-83.1811529847386
21
5.62618909393412
31
0.000000000000000
  0
LINE
  5
F1060C
330
F1060D
100
AcDbEntity
8
Geo
100
AcDbLine
10
-83.1811529847386
20
5.62618909393412
30
0.000000000000000
11
-83.0811529847386
21
5.42331205397679
31
0.000000000000000
  0
LINE
  5
F1060E
330
F1060F
100
AcDbEntity
8
Geo
100
AcDbLine
10
-83.0811529847386
20
5.42331205397679
30
0.000000000000000
11
-82.9811529847386
21
5.21167273420491
31
0.000000000000000
  0
LINE
  5
F10610
330
F10611
100
AcDbEntity
8
Geo
100
AcDbLine
10
-82.9811529847386
20
5.21167273420491
30
0.000000000000000
11
-82.8811529847386
21
4.99158463564480
31
0.000000000000000
  0
LINE
  5
F10612
330
F10613
100
AcDbEntity
8
Geo
100
AcDbLine
10
-82.8811529847386
20
4.99158463564480
30
0.000000000000000
11
-82.7811529847386
21
4.76337377448687
31
0.000000000000000
  0
LINE
  5
F10614
330
F10615
100
AcDbEntity
8
Geo
100
AcDbLine
10
-82.7811529847386
20
4.76337377448687
30
0.000000000000000
11
-82.6811529847386
21
4.52737819915833
31
0.000000000000000
  0
LINE
  5
F10616
330
F10617
100
AcDbEntity
8
Geo
100
AcDbLine
10
-82.6811529847386
20
4.52737819915833
30
0.000000000000000
11
-82.5811529847386
21
4.28394748957253
31
0.000000000000000
  0
LINE
  5
F10618
330
F10619
100
AcDbEntity
8
Geo
100
AcDbLine
10
-82.5811529847386
20
4.28394748957253
30
0.000000000000000
11
-82.4811529847386
21
4.03344223929673
31
0.000000000000000
  0
LINE
  5
F1061A
330
F1061B
100
AcDbEntity
8
Geo
100
AcDbLine
10
-82.4811529847386
20
4.03344223929673
30
0.000000000000000
11
-82.3811529847386
21
3.77623352140534
31
0.000000000000000
  0
LINE
  5
F1061C
330
F1061D
100
AcDbEntity
8
Geo
100
AcDbLine
10
-82.3811529847386
20
3.77623352140534
30
0.000000000000000
11
-82.2811529847386
21
3.51270233880991
31
0.000000000000000
  0
LINE
  5
F1061E
330
F1061F
100
AcDbEntity
8
Geo
100
AcDbLine
10
-82.2811529847386
20
3.51270233880991
30
0.000000000000000
11
-82.1811529847386
21
3.24323905988004
31
0.000000000000000
  0
LINE
  5
F10620
330
F10621
100
AcDbEntity
8
Geo
100
AcDbLine
10
-82.1811529847386
20
3.24323905988004
30
0.000000000000000
11
-82.0811529847386
21
2.96824284019131
31
0.000000000000000
  0
LINE
  5
F10622
330
F10623
100
AcDbEntity
8
Geo
100
AcDbLine
10
-82.0811529847386
20
2.96824284019131
30
0.000000000000000
11
-81.9811529847386
21
2.68812103125661
31
0.000000000000000
  0
LINE
  5
F10624
330
F10625
100
AcDbEntity
8
Geo
100
AcDbLine
10
-81.9811529847386
20
2.68812103125661
30
0.000000000000000
11
-81.8811529847386
21
2.40328857711700
31
0.000000000000000
  0
LINE
  5
F10626
330
F10627
100
AcDbEntity
8
Geo
100
AcDbLine
10
-81.8811529847386
20
2.40328857711700
30
0.000000000000000
11
-81.7811529847386
21
2.11416739968561
31
0.000000000000000
  0
LINE
  5
F10628
330
F10629
100
AcDbEntity
8
Geo
100
AcDbLine
10
-81.7811529847386
20
2.11416739968561
30
0.000000000000000
11
-81.6811529847386
21
1.82118577375538
31
0.000000000000000
  0
LINE
  5
F1062A
330
F1062B
100
AcDbEntity
8
Geo
100
AcDbLine
10
-81.6811529847386
20
1.82118577375538
30
0.000000000000000
11
-81.5811529847386
21
1.52477769259614
31
0.000000000000000
  0
LINE
  5
F1062C
330
F1062D
100
AcDbEntity
8
Geo
100
AcDbLine
10
-81.5811529847386
20
1.52477769259614
30
0.000000000000000
11
-81.4811529847386
21
1.22538222508104
31
0.000000000000000
  0
LINE
  5
F1062E
330
F1062F
100
AcDbEntity
8
Geo
100
AcDbLine
10
-81.4811529847386
20
1.22538222508104
30
0.000000000000000
11
-81.3811529847386
21
0.923442865294436
31
0.000000000000000
  0
LINE
  5
F10630
330
F10631
100
AcDbEntity
8
Geo
100
AcDbLine
10
-81.3811529847386
20
0.923442865294436
30
0.000000000000000
11
-81.2811529847386
21
0.619406875584722
31
0.000000000000000
  0
LINE
  5
F10632
330
F10633
100
AcDbEntity
8
Geo
100
AcDbLine
10
-81.2811529847386
20
0.619406875584722
30
0.000000000000000
11
-81.1811529847386
21
0.313724624035236
31
0.000000000000000
  0
LINE
  5
F10634
330
F10635
100
AcDbEntity
8
Geo
100
AcDbLine
10
-81.1811529847386
20
0.313724624035236
30
0.000000000000000
11
-81.0811529847386
21
0.00684891733466503
31
0.000000000000000
  0
LINE
  5
F10636
330
F10637
100
AcDbEntity
8
Geo
100
AcDbLine
10
-81.0811529847386
20
0.00684891733466503
30
0.000000000000000
11
-80.9811529847386
21
-0.300765669964871
31
0.000000000000000
  0
LINE
  5
F10638
330
F10639
100
AcDbEntity
8
Geo
100
AcDbLine
10
-80.9811529847386
20
-0.300765669964871
30
0.000000000000000
11
-80.8811529847386
21
-0.608663468808467
31
0.000000000000000
  0
LINE
  5
F1063A
330
F1063B
100
AcDbEntity
8
Geo
100
AcDbLine
10
-80.8811529847386
20
-0.608663468808467
30
0.000000000000000
11
-80.7811529847386
21
-0.916388390620335
31
0.000000000000000
  0
LINE
  5
F1063C
330
F1063D
100
AcDbEntity
8
Geo
100
AcDbLine
10
-80.7811529847386
20
-0.916388390620335
30
0.000000000000000
11
-80.6811529847386
21
-1.22348460290721
31
0.000000000000000
  0
LINE
  5
F1063E
330
F1063F
100
AcDbEntity
8
Geo
100
AcDbLine
10
-80.6811529847386
20
-1.22348460290721
30
0.000000000000000
11
-80.5811529847386
21
-1.52949720448237
31
0.000000000000000
  0
LINE
  5
F10640
330
F10641
100
AcDbEntity
8
Geo
100
AcDbLine
10
-80.5811529847386
20
-1.52949720448237
30
0.000000000000000
11
-80.4811529847386
21
-1.83397289931008
31
0.000000000000000
  0
LINE
  5
F10642
330
F10643
100
AcDbEntity
8
Geo
100
AcDbLine
10
-80.4811529847386
20
-1.83397289931008
30
0.000000000000000
11
-80.3811529847386
21
-2.13646066797244
31
0.000000000000000
  0
LINE
  5
F10644
330
F10645
100
AcDbEntity
8
Geo
100
AcDbLine
10
-80.3811529847386
20
-2.13646066797244
30
0.000000000000000
11
-80.2811529847386
21
-2.43651243576377
31
0.000000000000000
  0
LINE
  5
F10646
330
F10647
100
AcDbEntity
8
Geo
100
AcDbLine
10
-80.2811529847386
20
-2.43651243576377
30
0.000000000000000
11
-80.1811529847386
21
-2.73368373642303
31
0.000000000000000
  0
LINE
  5
F10648
330
F10649
100
AcDbEntity
8
Geo
100
AcDbLine
10
-80.1811529847386
20
-2.73368373642303
30
0.000000000000000
11
-80.0811529847386
21
-3.02753437052110
31
0.000000000000000
  0
LINE
  5
F1064A
330
F1064B
100
AcDbEntity
8
Geo
100
AcDbLine
10
-80.0811529847386
20
-3.02753437052110
30
0.000000000000000
11
-79.9811529847386
21
-3.31762905752757
31
0.000000000000000
  0
LINE
  5
F1064C
330
F1064D
100
AcDbEntity
8
Geo
100
AcDbLine
10
-79.9811529847386
20
-3.31762905752757
30
0.000000000000000
11
-79.8811529847386
21
-3.60353808059115
31
0.000000000000000
  0
LINE
  5
F1064E
330
F1064F
100
AcDbEntity
8
Geo
100
AcDbLine
10
-79.8811529847386
20
-3.60353808059115
30
0.000000000000000
11
-79.7811529847386
21
-3.88483792307867
31
0.000000000000000
  0
LINE
  5
F10650
330
F10651
100
AcDbEntity
8
Geo
100
AcDbLine
10
-79.7811529847386
20
-3.88483792307867
30
0.000000000000000
11
-79.6811529847386
21
-4.16111189592963
31
0.000000000000000
  0
LINE
  5
F10652
330
F10653
100
AcDbEntity
8
Geo
100
AcDbLine
10
-79.6811529847386
20
-4.16111189592963
30
0.000000000000000
11
-79.5811529847386
21
-4.43195075489717
31
0.000000000000000
  0
LINE
  5
F10654
330
F10655
100
AcDbEntity
8
Geo
100
AcDbLine
10
-79.5811529847386
20
-4.43195075489717
30
0.000000000000000
11
-79.4811529847386
21
-4.69695330676096
31
0.000000000000000
  0
LINE
  5
F10656
330
F10657
100
AcDbEntity
8
Geo
100
AcDbLine
10
-79.4811529847386
20
-4.69695330676096
30
0.000000000000000
11
-79.3811529847386
21
-4.95572700361417
31
0.000000000000000
  0
LINE
  5
F10658
330
F10659
100
AcDbEntity
8
Geo
100
AcDbLine
10
-79.3811529847386
20
-4.95572700361417
30
0.000000000000000
11
-79.2811529847386
21
-5.20788852434410
31
0.000000000000000
  0
LINE
  5
F1065A
330
F1065B
100
AcDbEntity
8
Geo
100
AcDbLine
10
-79.2811529847386
20
-5.20788852434410
30
0.000000000000000
11
-79.1811529847386
21
-5.45306434244526
31
0.000000000000000
  0
LINE
  5
F1065C
330
F1065D
100
AcDbEntity
8
Geo
100
AcDbLine
10
-79.1811529847386
20
-5.45306434244526
30
0.000000000000000
11
-79.0811529847386
21
-5.69089127932360
31
0.000000000000000
  0
LINE
  5
F1065E
330
F1065F
100
AcDbEntity
8
Geo
100
AcDbLine
10
-79.0811529847386
20
-5.69089127932360
30
0.000000000000000
11
-78.9811529847386
21
-5.92101704227249
31
0.000000000000000
  0
LINE
  5
F10660
330
F10661
100
AcDbEntity
8
Geo
100
AcDbLine
10
-78.9811529847386
20
-5.92101704227249
30
0.000000000000000
11
-78.8811529847386
21
-6.14310074632339
31
0.000000000000000
  0
LINE
  5
F10662
330
F10663
100
AcDbEntity
8
Geo
100
AcDbLine
10
-78.8811529847386
20
-6.14310074632339
30
0.000000000000000
11
-78.7811529847386
21
-6.35681341919829
31
0.000000000000000
  0
LINE
  5
F10664
330
F10665
100
AcDbEntity
8
Geo
100
AcDbLine
10
-78.7811529847386
20
-6.35681341919829
30
0.000000000000000
11
-78.6811529847386
21
-6.56183848861585
31
0.000000000000000
  0
LINE
  5
F10666
330
F10667
100
AcDbEntity
8
Geo
100
AcDbLine
10
-78.6811529847386
20
-6.56183848861585
30
0.000000000000000
11
-78.5811529847386
21
-6.75787225122951
31
0.000000000000000
  0
LINE
  5
F10668
330
F10669
100
AcDbEntity
8
Geo
100
AcDbLine
10
-78.5811529847386
20
-6.75787225122951
30
0.000000000000000
11
-78.4811529847386
21
-6.94462432250281
31
0.000000000000000
  0
LINE
  5
F1066A
330
F1066B
100
AcDbEntity
8
Geo
100
AcDbLine
10
-78.4811529847386
20
-6.94462432250281
30
0.000000000000000
11
-78.3811529847386
21
-7.12181806685561
31
0.000000000000000
  0
LINE
  5
F1066C
330
F1066D
100
AcDbEntity
8
Geo
100
AcDbLine
10
-78.3811529847386
20
-7.12181806685561
30
0.000000000000000
11
-78.2811529847386
21
-7.28919100744395
31
0.000000000000000
  0
LINE
  5
F1066E
330
F1066F
100
AcDbEntity
8
Geo
100
AcDbLine
10
-78.2811529847386
20
-7.28919100744395
30
0.000000000000000
11
-78.1811529847386
21
-7.44649521496668
31
0.000000000000000
  0
LINE
  5
F10670
330
F10671
100
AcDbEntity
8
Geo
100
AcDbLine
10
-78.1811529847386
20
-7.44649521496668
30
0.000000000000000
11
-78.0811529847386
21
-7.59349767492274
31
0.000000000000000
  0
LINE
  5
F10672
330
F10673
100
AcDbEntity
8
Geo
100
AcDbLine
10
-78.0811529847386
20
-7.59349767492274
30
0.000000000000000
11
-77.9811529847386
21
-7.72998063277526
31
0.000000000000000
  0
LINE
  5
F10674
330
F10675
100
AcDbEntity
8
Geo
100
AcDbLine
10
-77.9811529847386
20
-7.72998063277526
30
0.000000000000000
11
-77.8811529847386
21
-7.85574191651098
31
0.000000000000000
  0
LINE
  5
F10676
330
F10677
100
AcDbEntity
8
Geo
100
AcDbLine
10
-77.8811529847386
20
-7.85574191651098
30
0.000000000000000
11
-77.7811529847386
21
-7.97059523611744
31
0.000000000000000
  0
LINE
  5
F10678
330
F10679
100
AcDbEntity
8
Geo
100
AcDbLine
10
-77.7811529847386
20
-7.97059523611744
30
0.000000000000000
11
-77.6811529847386
21
-8.07437045953407
31
0.000000000000000
  0
LINE
  5
F1067A
330
F1067B
100
AcDbEntity
8
Geo
100
AcDbLine
10
-77.6811529847386
20
-8.07437045953407
30
0.000000000000000
11
-77.5811529847386
21
-8.16691386466858
31
0.000000000000000
  0
LINE
  5
F1067C
330
F1067D
100
AcDbEntity
8
Geo
100
AcDbLine
10
-77.5811529847386
20
-8.16691386466858
30
0.000000000000000
11
-77.4811529847386
21
-8.24808836710529
31
0.000000000000000
  0
LINE
  5
F1067E
330
F1067F
100
AcDbEntity
8
Geo
100
AcDbLine
10
-77.4811529847386
20
-8.24808836710529
30
0.000000000000000
11
-77.3811529847386
21
-8.31777372316806
31
0.000000000000000
  0
LINE
  5
F10680
330
F10681
100
AcDbEntity
8
Geo
100
AcDbLine
10
-77.3811529847386
20
-8.31777372316806
30
0.000000000000000
11
-77.2811529847386
21
-8.37586670803712
31
0.000000000000000
  0
LINE
  5
F10682
330
F10683
100
AcDbEntity
8
Geo
100
AcDbLine
10
-77.2811529847386
20
-8.37586670803712
30
0.000000000000000
11
-77.1811529847386
21
-8.42228126865578
31
0.000000000000000
  0
LINE
  5
F10684
330
F10685
100
AcDbEntity
8
Geo
100
AcDbLine
10
-77.1811529847386
20
-8.42228126865578
30
0.000000000000000
11
-77.0811529847386
21
-8.45694865120078
31
0.000000000000000
  0
LINE
  5
F10686
330
F10687
100
AcDbEntity
8
Geo
100
AcDbLine
10
-77.0811529847386
20
-8.45694865120078
30
0.000000000000000
11
-76.9811529847386
21
-8.47981750292719
31
0.000000000000000
  0
LINE
  5
F10688
330
F10689
100
AcDbEntity
8
Geo
100
AcDbLine
10
-76.9811529847386
20
-8.47981750292719
30
0.000000000000000
11
-76.8811529847386
21
-8.49085394823715
31
0.000000000000000
  0
LINE
  5
F1068A
330
F1068B
100
AcDbEntity
8
Geo
100
AcDbLine
10
-89.0811529847386
20
6.99936052620578
30
0.000000000000000
11
-88.9811529847386
21
7.29169509684597
31
0.000000000000000
  0
LINE
  5
F1068C
330
F1068D
100
AcDbEntity
8
Geo
100
AcDbLine
10
-89.0811529847386
20
-0.541197452561488
30
0.000000000000000
11
-88.9811529847386
21
-0.840974895684303
31
0.000000000000000
  0
LINE
  5
F1068E
330
F1068F
100
AcDbEntity
8
Geo
100
AcDbLine
10
-88.9811529847386
20
7.29169509684597
30
0.000000000000000
11
-88.8811529847385
21
7.37220360449568
31
0.000000000000000
  0
LINE
  5
F10690
330
F10691
100
AcDbEntity
8
Geo
100
AcDbLine
10
-88.9811529847386
20
-0.840974895684303
30
0.000000000000000
11
-88.8811529847385
21
-1.14792574206104
31
0.000000000000000
  0
LINE
  5
F10692
330
F10693
100
AcDbEntity
8
Geo
100
AcDbLine
10
-88.8811529847385
20
7.37220360449568
30
0.000000000000000
11
-88.7811529847386
21
7.39900662399629
31
0.000000000000000
  0
LINE
  5
F10694
330
F10695
100
AcDbEntity
8
Geo
100
AcDbLine
10
-88.8811529847385
20
-1.14792574206104
30
0.000000000000000
11
-88.7811529847386
21
-1.45676891721560
31
0.000000000000000
  0
LINE
  5
F10696
330
F10697
100
AcDbEntity
8
Geo
100
AcDbLine
10
-88.7811529847386
20
7.39900662399629
30
0.000000000000000
11
-88.6811529847385
21
7.38730185252427
31
0.000000000000000
  0
LINE
  5
F10698
330
F10699
100
AcDbEntity
8
Geo
100
AcDbLine
10
-88.7811529847386
20
-1.45676891721560
30
0.000000000000000
11
-88.6811529847385
21
-1.76455480910076
31
0.000000000000000
  0
LINE
  5
F1069A
330
F1069B
100
AcDbEntity
8
Geo
100
AcDbLine
10
-88.6811529847385
20
7.38730185252427
30
0.000000000000000
11
-88.5811529847386
21
7.34241142154193
31
0.000000000000000
  0
LINE
  5
F1069C
330
F1069D
100
AcDbEntity
8
Geo
100
AcDbLine
10
-88.6811529847385
20
-1.76455480910076
30
0.000000000000000
11
-88.5811529847386
21
-2.06874236302275
31
0.000000000000000
  0
LINE
  5
F1069E
330
F1069F
100
AcDbEntity
8
Geo
100
AcDbLine
10
-88.5811529847386
20
7.34241142154193
30
0.000000000000000
11
-88.4811529847386
21
7.27593339181554
31
0.000000000000000
  0
LINE
  5
F106A0
330
F106A1
100
AcDbEntity
8
Geo
100
AcDbLine
10
-88.5811529847386
20
-2.06874236302275
30
0.000000000000000
11
-88.4811529847386
21
-2.36904505170457
31
0.000000000000000
  0
LINE
  5
F106A2
330
F106A3
100
AcDbEntity
8
Geo
100
AcDbLine
10
-88.4811529847386
20
7.27593339181554
30
0.000000000000000
11
-88.3811529847385
21
7.19794879689618
31
0.000000000000000
  0
LINE
  5
F106A4
330
F106A5
100
AcDbEntity
8
Geo
100
AcDbLine
10
-88.4811529847386
20
-2.36904505170457
30
0.000000000000000
11
-88.3811529847385
21
-2.66656721259530
31
0.000000000000000
  0
LINE
  5
F106A6
330
F106A7
100
AcDbEntity
8
Geo
100
AcDbLine
10
-88.3811529847385
20
7.19794879689618
30
0.000000000000000
11
-88.2811529847386
21
7.10857315525445
31
0.000000000000000
  0
LINE
  5
F106A8
330
F106A9
100
AcDbEntity
8
Geo
100
AcDbLine
10
-88.3811529847385
20
-2.66656721259530
30
0.000000000000000
11
-88.2811529847386
21
-2.96086812653707
31
0.000000000000000
  0
LINE
  5
F106AA
330
F106AB
100
AcDbEntity
8
Geo
100
AcDbLine
10
-88.2811529847386
20
7.10857315525445
30
0.000000000000000
11
-88.1811529847385
21
7.00793885890245
31
0.000000000000000
  0
LINE
  5
F106AC
330
F106AD
100
AcDbEntity
8
Geo
100
AcDbLine
10
-88.2811529847386
20
-2.96086812653707
30
0.000000000000000
11
-88.1811529847385
21
-3.25151184600056
31
0.000000000000000
  0
LINE
  5
F106AE
330
F106AF
100
AcDbEntity
8
Geo
100
AcDbLine
10
-88.1811529847385
20
7.00793885890245
30
0.000000000000000
11
-88.0811529847386
21
6.89619497728161
31
0.000000000000000
  0
LINE
  5
F106B0
330
F106B1
100
AcDbEntity
8
Geo
100
AcDbLine
10
-88.1811529847385
20
-3.25151184600056
30
0.000000000000000
11
-88.0811529847386
21
-3.53806784085347
31
0.000000000000000
  0
LINE
  5
F106B2
330
F106B3
100
AcDbEntity
8
Geo
100
AcDbLine
10
-88.0811529847386
20
6.89619497728161
30
0.000000000000000
11
-87.9811529847386
21
6.77350703644641
31
0.000000000000000
  0
LINE
  5
F106B4
330
F106B5
100
AcDbEntity
8
Geo
100
AcDbLine
10
-88.0811529847386
20
-3.53806784085347
30
0.000000000000000
11
-87.9811529847386
21
-3.82011163610422
31
0.000000000000000
  0
LINE
  5
F106B6
330
F106B7
100
AcDbEntity
8
Geo
100
AcDbLine
10
-87.9811529847386
20
6.77350703644641
30
0.000000000000000
11
-87.8811529847385
21
6.64005677387080
31
0.000000000000000
  0
LINE
  5
F106B8
330
F106B9
100
AcDbEntity
8
Geo
100
AcDbLine
10
-87.9811529847386
20
-3.82011163610422
30
0.000000000000000
11
-87.8811529847385
21
-4.09722544067616
31
0.000000000000000
  0
LINE
  5
F106BA
330
F106BB
100
AcDbEntity
8
Geo
100
AcDbLine
10
-87.8811529847385
20
6.64005677387080
30
0.000000000000000
11
-87.7811529847386
21
6.49604186924079
31
0.000000000000000
  0
LINE
  5
F106BC
330
F106BD
100
AcDbEntity
8
Geo
100
AcDbLine
10
-87.8811529847385
20
-4.09722544067616
30
0.000000000000000
11
-87.7811529847386
21
-4.36899876628086
31
0.000000000000000
  0
LINE
  5
F106BE
330
F106BF
100
AcDbEntity
8
Geo
100
AcDbLine
10
-87.7811529847386
20
6.49604186924079
30
0.000000000000000
11
-87.6811529847385
21
6.34167565163176
31
0.000000000000000
  0
LINE
  5
F106C0
330
F106C1
100
AcDbEntity
8
Geo
100
AcDbLine
10
-87.7811529847386
20
-4.36899876628086
30
0.000000000000000
11
-87.6811529847385
21
-4.63502903547388
31
0.000000000000000
  0
LINE
  5
F106C2
330
F106C3
100
AcDbEntity
8
Geo
100
AcDbLine
10
-87.6811529847385
20
6.34167565163176
30
0.000000000000000
11
-87.5811529847386
21
6.17718678350444
31
0.000000000000000
  0
LINE
  5
F106C4
330
F106C5
100
AcDbEntity
8
Geo
100
AcDbLine
10
-87.6811529847385
20
-4.63502903547388
30
0.000000000000000
11
-87.5811529847386
21
-4.89492217799216
31
0.000000000000000
  0
LINE
  5
F106C6
330
F106C7
100
AcDbEntity
8
Geo
100
AcDbLine
10
-87.5811529847386
20
6.17718678350444
30
0.000000000000000
11
-87.4811529847386
21
6.00281892198751
31
0.000000000000000
  0
LINE
  5
F106C8
330
F106C9
100
AcDbEntity
8
Geo
100
AcDbLine
10
-87.5811529847386
20
-4.89492217799216
30
0.000000000000000
11
-87.4811529847386
21
-5.14829321448972
31
0.000000000000000
  0
LINE
  5
F106CA
330
F106CB
100
AcDbEntity
8
Geo
100
AcDbLine
10
-87.4811529847386
20
6.00281892198751
30
0.000000000000000
11
-87.3811529847385
21
5.81883035794867
31
0.000000000000000
  0
LINE
  5
F106CC
330
F106CD
100
AcDbEntity
8
Geo
100
AcDbLine
10
-87.4811529847386
20
-5.14829321448972
30
0.000000000000000
11
-87.3811529847385
21
-5.39476682680705
31
0.000000000000000
  0
LINE
  5
F106CE
330
F106CF
100
AcDbEntity
8
Geo
100
AcDbLine
10
-87.3811529847385
20
5.81883035794867
30
0.000000000000000
11
-87.2811529847386
21
5.62549363338868
31
0.000000000000000
  0
LINE
  5
F106D0
330
F106D1
100
AcDbEntity
8
Geo
100
AcDbLine
10
-87.3811529847385
20
-5.39476682680705
30
0.000000000000000
11
-87.2811529847386
21
-5.63397791392938
31
0.000000000000000
  0
LINE
  5
F106D2
330
F106D3
100
AcDbEntity
8
Geo
100
AcDbLine
10
-87.2811529847386
20
5.62549363338868
30
0.000000000000000
11
-87.1811529847385
21
5.42309513772533
31
0.000000000000000
  0
LINE
  5
F106D4
330
F106D5
100
AcDbEntity
8
Geo
100
AcDbLine
10
-87.2811529847386
20
-5.63397791392938
30
0.000000000000000
11
-87.1811529847385
21
-5.86557213281026
31
0.000000000000000
  0
LINE
  5
F106D6
330
F106D7
100
AcDbEntity
8
Geo
100
AcDbLine
10
-87.1811529847385
20
5.42309513772533
30
0.000000000000000
11
-87.0811529847386
21
5.21193468356518
31
0.000000000000000
  0
LINE
  5
F106D8
330
F106D9
100
AcDbEntity
8
Geo
100
AcDbLine
10
-87.1811529847385
20
-5.86557213281026
30
0.000000000000000
11
-87.0811529847386
21
-6.08920642325944
31
0.000000000000000
  0
LINE
  5
F106DA
330
F106DB
100
AcDbEntity
8
Geo
100
AcDbLine
10
-87.0811529847386
20
5.21193468356518
30
0.000000000000000
11
-86.9811529847386
21
4.99232506259158
31
0.000000000000000
  0
LINE
  5
F106DC
330
F106DD
100
AcDbEntity
8
Geo
100
AcDbLine
10
-87.0811529847386
20
-6.08920642325944
30
0.000000000000000
11
-86.9811529847386
21
-6.30454951611747
31
0.000000000000000
  0
LINE
  5
F106DE
330
F106DF
100
AcDbEntity
8
Geo
100
AcDbLine
10
-86.9811529847386
20
4.99232506259158
30
0.000000000000000
11
-86.8811529847385
21
4.76459158222676
31
0.000000000000000
  0
LINE
  5
F106E0
330
F106E1
100
AcDbEntity
8
Geo
100
AcDbLine
10
-86.9811529847386
20
-6.30454951611747
30
0.000000000000000
11
-86.8811529847385
21
-6.51128242396418
31
0.000000000000000
  0
LINE
  5
F106E2
330
F106E3
100
AcDbEntity
8
Geo
100
AcDbLine
10
-86.8811529847385
20
4.76459158222676
30
0.000000000000000
11
-86.7811529847386
21
4.52907158375444
31
0.000000000000000
  0
LINE
  5
F106E4
330
F106E5
100
AcDbEntity
8
Geo
100
AcDbLine
10
-86.8811529847385
20
-6.51128242396418
30
0.000000000000000
11
-86.7811529847386
21
-6.70909891363436
31
0.000000000000000
  0
LINE
  5
F106E6
330
F106E7
100
AcDbEntity
8
Geo
100
AcDbLine
10
-86.7811529847386
20
4.52907158375444
30
0.000000000000000
11
-86.6811529847385
21
4.28611394261665
31
0.000000000000000
  0
LINE
  5
F106E8
330
F106E9
100
AcDbEntity
8
Geo
100
AcDbLine
10
-86.7811529847386
20
-6.70909891363436
30
0.000000000000000
11
-86.6811529847385
21
-6.89770595984046
31
0.000000000000000
  0
LINE
  5
F106EA
330
F106EB
100
AcDbEntity
8
Geo
100
AcDbLine
10
-86.6811529847385
20
4.28611394261665
30
0.000000000000000
11
-86.5811529847386
21
4.03607855162501
31
0.000000000000000
  0
LINE
  5
F106EC
330
F106ED
100
AcDbEntity
8
Geo
100
AcDbLine
10
-86.6811529847385
20
-6.89770595984046
30
0.000000000000000
11
-86.5811529847386
21
-7.07682417923059
31
0.000000000000000
  0
LINE
  5
F106EE
330
F106EF
100
AcDbEntity
8
Geo
100
AcDbLine
10
-86.5811529847386
20
4.03607855162501
30
0.000000000000000
11
-86.4811529847386
21
3.77933578785203
31
0.000000000000000
  0
LINE
  5
F106F0
330
F106F1
100
AcDbEntity
8
Geo
100
AcDbLine
10
-86.5811529847386
20
-7.07682417923059
30
0.000000000000000
11
-86.4811529847386
21
-7.24618824423863
31
0.000000000000000
  0
LINE
  5
F106F2
330
F106F3
100
AcDbEntity
8
Geo
100
AcDbLine
10
-86.4811529847386
20
3.77933578785203
30
0.000000000000000
11
-86.3811529847385
21
3.51626596399210
31
0.000000000000000
  0
LINE
  5
F106F4
330
F106F5
100
AcDbEntity
8
Geo
100
AcDbLine
10
-86.4811529847386
20
-7.24618824423863
30
0.000000000000000
11
-86.3811529847385
21
-7.40554727611363
31
0.000000000000000
  0
LINE
  5
F106F6
330
F106F7
100
AcDbEntity
8
Geo
100
AcDbLine
10
-86.3811529847385
20
3.51626596399210
30
0.000000000000000
11
-86.2811529847386
21
3.24725876500478
31
0.000000000000000
  0
LINE
  5
F106F8
330
F106F9
100
AcDbEntity
8
Geo
100
AcDbLine
10
-86.3811529847385
20
-7.40554727611363
30
0.000000000000000
11
-86.2811529847386
21
-7.55466521654611
31
0.000000000000000
  0
LINE
  5
F106FA
330
F106FB
100
AcDbEntity
8
Geo
100
AcDbLine
10
-86.2811529847386
20
3.24725876500478
30
0.000000000000000
11
-86.1811529847385
21
2.97271267087505
31
0.000000000000000
  0
LINE
  5
F106FC
330
F106FD
100
AcDbEntity
8
Geo
100
AcDbLine
10
-86.2811529847386
20
-7.55466521654611
30
0.000000000000000
11
-86.1811529847385
21
-7.69332117734095
31
0.000000000000000
  0
LINE
  5
F106FE
330
F106FF
100
AcDbEntity
8
Geo
100
AcDbLine
10
-86.1811529847385
20
2.97271267087505
30
0.000000000000000
11
-86.0811529847386
21
2.69303436634545
31
0.000000000000000
  0
LINE
  5
F10700
330
F10701
100
AcDbEntity
8
Geo
100
AcDbLine
10
-86.1811529847385
20
-7.69332117734095
30
0.000000000000000
11
-86.0811529847386
21
-7.82130976761869
31
0.000000000000000
  0
LINE
  5
F10702
330
F10703
100
AcDbEntity
8
Geo
100
AcDbLine
10
-86.0811529847386
20
2.69303436634545
30
0.000000000000000
11
-85.9811529847385
21
2.40863813849460
31
0.000000000000000
  0
LINE
  5
F10704
330
F10705
100
AcDbEntity
8
Geo
100
AcDbLine
10
-86.0811529847386
20
-7.82130976761869
30
0.000000000000000
11
-85.9811529847385
21
-7.93844139806084
31
0.000000000000000
  0
LINE
  5
F10706
330
F10707
100
AcDbEntity
8
Geo
100
AcDbLine
10
-85.9811529847385
20
2.40863813849460
30
0.000000000000000
11
-85.8811529847385
21
2.11994526305423
31
0.000000000000000
  0
LINE
  5
F10708
330
F10709
100
AcDbEntity
8
Geo
100
AcDbLine
10
-85.9811529847385
20
-7.93844139806084
30
0.000000000000000
11
-85.8811529847385
21
-8.04454256174817
31
0.000000000000000
  0
LINE
  5
F1070A
330
F1070B
100
AcDbEntity
8
Geo
100
AcDbLine
10
-85.8811529847385
20
2.11994526305423
30
0.000000000000000
11
-85.7811529847386
21
1.82738338037415
31
0.000000000000000
  0
LINE
  5
F1070C
330
F1070D
100
AcDbEntity
8
Geo
100
AcDbLine
10
-85.8811529847385
20
-8.04454256174817
30
0.000000000000000
11
-85.7811529847386
21
-8.13945609117637
31
0.000000000000000
  0
LINE
  5
F1070E
330
F1070F
100
AcDbEntity
8
Geo
100
AcDbLine
10
-85.7811529847386
20
1.82738338037415
30
0.000000000000000
11
-85.6811529847385
21
1.53138586195911
31
0.000000000000000
  0
LINE
  5
F10710
330
F10711
100
AcDbEntity
8
Geo
100
AcDbLine
10
-85.7811529847386
20
-8.13945609117637
30
0.000000000000000
11
-85.6811529847385
21
-8.22304139106796
31
0.000000000000000
  0
LINE
  5
F10712
330
F10713
100
AcDbEntity
8
Geo
100
AcDbLine
10
-85.6811529847385
20
1.53138586195911
30
0.000000000000000
11
-85.5811529847386
21
1.23239116851624
31
0.000000000000000
  0
LINE
  5
F10714
330
F10715
100
AcDbEntity
8
Geo
100
AcDbLine
10
-85.6811529847385
20
-8.22304139106796
30
0.000000000000000
11
-85.5811529847386
21
-8.29517464663595
31
0.000000000000000
  0
LINE
  5
F10716
330
F10717
100
AcDbEntity
8
Geo
100
AcDbLine
10
-85.5811529847386
20
1.23239116851624
30
0.000000000000000
11
-85.4811529847385
21
0.930842200463829
31
0.000000000000000
  0
LINE
  5
F10718
330
F10719
100
AcDbEntity
8
Geo
100
AcDbLine
10
-85.5811529847386
20
-8.29517464663595
30
0.000000000000000
11
-85.4811529847385
21
-8.35574900699046
31
0.000000000000000
  0
LINE
  5
F1071A
330
F1071B
100
AcDbEntity
8
Geo
100
AcDbLine
10
-85.4811529847385
20
0.930842200463829
30
0.000000000000000
11
-85.3811529847385
21
0.627185641863538
31
0.000000000000000
  0
LINE
  5
F1071C
330
F1071D
100
AcDbEntity
8
Geo
100
AcDbLine
10
-85.4811529847385
20
-8.35574900699046
30
0.000000000000000
11
-85.3811529847385
21
-8.40467474341680
31
0.000000000000000
  0
LINE
  5
F1071E
330
F1071F
100
AcDbEntity
8
Geo
100
AcDbLine
10
-85.3811529847385
20
0.627185641863538
30
0.000000000000000
11
-85.2811529847386
21
0.321871298747943
31
0.000000000000000
  0
LINE
  5
F10720
330
F10721
100
AcDbEntity
8
Geo
100
AcDbLine
10
-85.3811529847385
20
-8.40467474341680
30
0.000000000000000
11
-85.2811529847386
21
-8.44187938229052
31
0.000000000000000
  0
LINE
  5
F10722
330
F10723
100
AcDbEntity
8
Geo
100
AcDbLine
10
-85.2811529847386
20
0.321871298747943
30
0.000000000000000
11
-85.1811529847385
21
0.0153514328234818
31
0.000000000000000
  0
LINE
  5
F10724
330
F10725
100
AcDbEntity
8
Geo
100
AcDbLine
10
-85.2811529847386
20
-8.44187938229052
30
0.000000000000000
11
-85.1811529847385
21
-8.46730781243246
31
0.000000000000000
  0
LINE
  5
F10726
330
F10727
100
AcDbEntity
8
Geo
100
AcDbLine
10
-85.1811529847385
20
0.0153514328234818
30
0.000000000000000
11
-85.0811529847386
21
-0.291919908464158
31
0.000000000000000
  0
LINE
  5
F10728
330
F10729
100
AcDbEntity
8
Geo
100
AcDbLine
10
-85.1811529847385
20
-8.46730781243246
30
0.000000000000000
11
-85.0811529847386
21
-8.48092236674485
31
0.000000000000000
  0
LINE
  5
F1072A
330
F1072B
100
AcDbEntity
8
Geo
100
AcDbLine
10
-85.0811529847386
20
-0.291919908464158
30
0.000000000000000
11
-84.9811529847385
21
-0.599487564509903
31
0.000000000000000
  0
LINE
  5
F1072C
330
F1072D
100
AcDbEntity
8
Geo
100
AcDbLine
10
-84.9811529847385
20
-0.599487564509903
30
0.000000000000000
11
-84.8811529847385
21
-0.906895935778044
31
0.000000000000000
  0
LINE
  5
F1072E
330
F1072F
100
AcDbEntity
8
Geo
100
AcDbLine
10
-84.9811529847385
20
7.49878874818582
30
0.000000000000000
11
-84.8811529847385
21
7.48873257893006
31
0.000000000000000
  0
LINE
  5
F10730
330
F10731
100
AcDbEntity
8
Geo
100
AcDbLine
10
-84.8811529847385
20
-0.906895935778044
30
0.000000000000000
11
-84.7811529847386
21
-1.21368965868118
31
0.000000000000000
  0
LINE
  5
F10732
330
F10733
100
AcDbEntity
8
Geo
100
AcDbLine
10
-84.8811529847385
20
7.48873257893006
30
0.000000000000000
11
-84.7811529847386
21
7.46685462534515
31
0.000000000000000
  0
LINE
  5
F10734
330
F10735
100
AcDbEntity
8
Geo
100
AcDbLine
10
-84.7811529847386
20
-1.21368965868118
30
0.000000000000000
11
-84.6811529847385
21
-1.51941428010968
31
0.000000000000000
  0
LINE
  5
F10736
330
F10737
100
AcDbEntity
8
Geo
100
AcDbLine
10
-84.7811529847386
20
7.46685462534515
30
0.000000000000000
11
-84.6811529847385
21
7.43318729521294
31
0.000000000000000
  0
LINE
  5
F10738
330
F10739
100
AcDbEntity
8
Geo
100
AcDbLine
10
-84.6811529847385
20
-1.51941428010968
30
0.000000000000000
11
-84.5811529847386
21
-1.82361693061242
31
0.000000000000000
  0
LINE
  5
F1073A
330
F1073B
100
AcDbEntity
8
Geo
100
AcDbLine
10
-84.6811529847385
20
7.43318729521294
30
0.000000000000000
11
-84.5811529847386
21
7.38778045990213
31
0.000000000000000
  0
LINE
  5
F1073C
330
F1073D
100
AcDbEntity
8
Geo
100
AcDbLine
10
-84.5811529847386
20
-1.82361693061242
30
0.000000000000000
11
-84.4811529847386
21
-2.12584699523164
31
0.000000000000000
  0
LINE
  5
F1073E
330
F1073F
100
AcDbEntity
8
Geo
100
AcDbLine
10
-84.5811529847386
20
7.38778045990213
30
0.000000000000000
11
-84.4811529847386
21
7.33070138049391
31
0.000000000000000
  0
LINE
  5
F10740
330
F10741
100
AcDbEntity
8
Geo
100
AcDbLine
10
-84.4811529847386
20
-2.12584699523164
30
0.000000000000000
11
-84.3811529847385
21
-2.42565678099831
31
0.000000000000000
  0
LINE
  5
F10742
330
F10743
100
AcDbEntity
8
Geo
100
AcDbLine
10
-84.4811529847386
20
7.33070138049391
30
0.000000000000000
11
-84.3811529847385
21
7.26203460814822
31
0.000000000000000
  0
LINE
  5
F10744
330
F10745
100
AcDbEntity
8
Geo
100
AcDbLine
10
-84.3811529847385
20
-2.42565678099831
30
0.000000000000000
11
-84.2811529847386
21
-2.72260218009903
31
0.000000000000000
  0
LINE
  5
F10746
330
F10747
100
AcDbEntity
8
Geo
100
AcDbLine
10
-84.3811529847385
20
7.26203460814822
30
0.000000000000000
11
-84.2811529847386
21
7.18188185885822
31
0.000000000000000
  0
LINE
  5
F10748
330
F10749
100
AcDbEntity
8
Geo
100
AcDbLine
10
-84.2811529847386
20
-2.72260218009903
30
0.000000000000000
11
-84.1811529847386
21
-3.01624332773234
31
0.000000000000000
  0
LINE
  5
F1074A
330
F1074B
100
AcDbEntity
8
Geo
100
AcDbLine
10
-84.2811529847386
20
7.18188185885822
30
0.000000000000000
11
-84.1811529847386
21
7.09036186277855
31
0.000000000000000
  0
LINE
  5
F1074C
330
F1074D
100
AcDbEntity
8
Geo
100
AcDbLine
10
-84.1811529847386
20
-3.01624332773234
30
0.000000000000000
11
-84.0811529847386
21
-3.30614525367983
31
0.000000000000000
  0
LINE
  5
F1074E
330
F1074F
100
AcDbEntity
8
Geo
100
AcDbLine
10
-84.1811529847386
20
7.09036186277855
30
0.000000000000000
11
-84.0811529847386
21
6.98761018835049
31
0.000000000000000
  0
LINE
  5
F10750
330
F10751
100
AcDbEntity
8
Geo
100
AcDbLine
10
-84.0811529847386
20
-3.30614525367983
30
0.000000000000000
11
-83.9811529847386
21
-3.59187852662689
31
0.000000000000000
  0
LINE
  5
F10752
330
F10753
100
AcDbEntity
8
Geo
100
AcDbLine
10
-84.0811529847386
20
6.98761018835049
30
0.000000000000000
11
-83.9811529847386
21
6.87377904148466
31
0.000000000000000
  0
LINE
  5
F10754
330
F10755
100
AcDbEntity
8
Geo
100
AcDbLine
10
-83.9811529847386
20
-3.59187852662689
30
0.000000000000000
11
-83.8811529847385
21
-3.87301989027875
31
0.000000000000000
  0
LINE
  5
F10756
330
F10757
100
AcDbEntity
8
Geo
100
AcDbLine
10
-83.9811529847386
20
6.87377904148466
30
0.000000000000000
11
-83.8811529847385
21
6.74903704009859
31
0.000000000000000
  0
LINE
  5
F10758
330
F10759
100
AcDbEntity
8
Geo
100
AcDbLine
10
-83.8811529847385
20
-3.87301989027875
30
0.000000000000000
11
-83.7811529847386
21
-4.14915289032940
31
0.000000000000000
  0
LINE
  5
F1075A
330
F1075B
100
AcDbEntity
8
Geo
100
AcDbLine
10
-83.8811529847385
20
6.74903704009859
30
0.000000000000000
11
-83.7811529847386
21
6.61356896434324
31
0.000000000000000
  0
LINE
  5
F1075C
330
F1075D
100
AcDbEntity
8
Geo
100
AcDbLine
10
-83.7811529847386
20
-4.14915289032940
30
0.000000000000000
11
-83.6811529847386
21
-4.41986849135479
31
0.000000000000000
  0
LINE
  5
F1075E
330
F1075F
100
AcDbEntity
8
Geo
100
AcDbLine
10
-83.7811529847386
20
6.61356896434324
30
0.000000000000000
11
-83.6811529847386
21
6.46757548288843
31
0.000000000000000
  0
LINE
  5
F10760
330
F10761
100
AcDbEntity
8
Geo
100
AcDbLine
10
-83.6811529847386
20
-4.41986849135479
30
0.000000000000000
11
-83.5811529847386
21
-4.68476568271638
31
0.000000000000000
  0
LINE
  5
F10762
330
F10763
100
AcDbEntity
8
Geo
100
AcDbLine
10
-83.6811529847386
20
6.46757548288843
30
0.000000000000000
11
-83.5811529847386
21
6.31127285567261
31
0.000000000000000
  0
LINE
  5
F10764
330
F10765
100
AcDbEntity
8
Geo
100
AcDbLine
10
-83.5811529847386
20
-4.68476568271638
30
0.000000000000000
11
-83.4811529847386
21
-4.94345207257773
31
0.000000000000000
  0
LINE
  5
F10766
330
F10767
100
AcDbEntity
8
Geo
100
AcDbLine
10
-83.5811529847386
20
6.31127285567261
30
0.000000000000000
11
-83.4811529847386
21
6.14489261355734
31
0.000000000000000
  0
LINE
  5
F10768
330
F10769
100
AcDbEntity
8
Geo
100
AcDbLine
10
-83.4811529847386
20
-4.94345207257773
30
0.000000000000000
11
-83.3811529847385
21
-5.19554446915385
31
0.000000000000000
  0
LINE
  5
F1076A
330
F1076B
100
AcDbEntity
8
Geo
100
AcDbLine
10
-83.4811529847386
20
6.14489261355734
30
0.000000000000000
11
-83.3811529847385
21
5.96868121536092
31
0.000000000000000
  0
LINE
  5
F1076C
330
F1076D
100
AcDbEntity
8
Geo
100
AcDbLine
10
-83.3811529847385
20
-5.19554446915385
30
0.000000000000000
11
-83.2811529847386
21
-5.44066944833277
31
0.000000000000000
  0
LINE
  5
F1076E
330
F1076F
100
AcDbEntity
8
Geo
100
AcDbLine
10
-83.3811529847385
20
5.96868121536092
30
0.000000000000000
11
-83.2811529847386
21
5.78289968277932
31
0.000000000000000
  0
LINE
  5
F10770
330
F10771
100
AcDbEntity
8
Geo
100
AcDbLine
10
-83.2811529847386
20
-5.44066944833277
30
0.000000000000000
11
-83.1811529847386
21
-5.67846390682807
31
0.000000000000000
  0
LINE
  5
F10772
330
F10773
100
AcDbEntity
8
Geo
100
AcDbLine
10
-83.2811529847386
20
5.78289968277932
30
0.000000000000000
11
-83.1811529847386
21
5.58782321373511
31
0.000000000000000
  0
LINE
  5
F10774
330
F10775
100
AcDbEntity
8
Geo
100
AcDbLine
10
-83.1811529847386
20
-5.67846390682807
30
0.000000000000000
11
-83.0811529847386
21
-5.90857560004329
31
0.000000000000000
  0
LINE
  5
F10776
330
F10777
100
AcDbEntity
8
Geo
100
AcDbLine
10
-83.1811529847386
20
5.58782321373511
30
0.000000000000000
11
-83.0811529847386
21
5.38374077472711
31
0.000000000000000
  0
LINE
  5
F10778
330
F10779
100
AcDbEntity
8
Geo
100
AcDbLine
10
-83.0811529847386
20
-5.90857560004329
30
0.000000000000000
11
-82.9811529847386
21
-6.13066366385138
31
0.000000000000000
  0
LINE
  5
F1077A
330
F1077B
100
AcDbEntity
8
Geo
100
AcDbLine
10
-83.0811529847386
20
5.38374077472711
30
0.000000000000000
11
-82.9811529847386
21
5.17095467278479
31
0.000000000000000
  0
LINE
  5
F1077C
330
F1077D
100
AcDbEntity
8
Geo
100
AcDbLine
10
-82.9811529847386
20
-6.13066366385138
30
0.000000000000000
11
-82.8811529847386
21
-6.34439911951620
31
0.000000000000000
  0
LINE
  5
F1077E
330
F1077F
100
AcDbEntity
8
Geo
100
AcDbLine
10
-82.9811529847386
20
5.17095467278479
30
0.000000000000000
11
-82.8811529847386
21
4.94978010766126
31
0.000000000000000
  0
LINE
  5
F10780
330
F10781
100
AcDbEntity
8
Geo
100
AcDbLine
10
-82.8811529847386
20
-6.34439911951620
30
0.000000000000000
11
-82.7811529847386
21
-6.54946536100833
31
0.000000000000000
  0
LINE
  5
F10782
330
F10783
100
AcDbEntity
8
Geo
100
AcDbLine
10
-82.8811529847386
20
4.94978010766126
30
0.000000000000000
11
-82.7811529847386
21
4.72054470492834
31
0.000000000000000
  0
LINE
  5
F10784
330
F10785
100
AcDbEntity
8
Geo
100
AcDbLine
10
-82.7811529847386
20
-6.54946536100833
30
0.000000000000000
11
-82.6811529847386
21
-6.74555862399305
31
0.000000000000000
  0
LINE
  5
F10786
330
F10787
100
AcDbEntity
8
Geo
100
AcDbLine
10
-82.7811529847386
20
4.72054470492834
30
0.000000000000000
11
-82.6811529847386
21
4.48358803066523
31
0.000000000000000
  0
LINE
  5
F10788
330
F10789
100
AcDbEntity
8
Geo
100
AcDbLine
10
-82.6811529847386
20
-6.74555862399305
30
0.000000000000000
11
-82.5811529847386
21
-6.93238843579610
31
0.000000000000000
  0
LINE
  5
F1078A
330
F1078B
100
AcDbEntity
8
Geo
100
AcDbLine
10
-82.6811529847386
20
4.48358803066523
30
0.000000000000000
11
-82.5811529847386
21
4.23926108845977
31
0.000000000000000
  0
LINE
  5
F1078C
330
F1078D
100
AcDbEntity
8
Geo
100
AcDbLine
10
-82.5811529847386
20
-6.93238843579610
30
0.000000000000000
11
-82.4811529847386
21
-7.10967804568038
31
0.000000000000000
  0
LINE
  5
F1078E
330
F1078F
100
AcDbEntity
8
Geo
100
AcDbLine
10
-82.5811529847386
20
4.23926108845977
30
0.000000000000000
11
-82.4811529847386
21
3.98792579946734
31
0.000000000000000
  0
LINE
  5
F10790
330
F10791
100
AcDbEntity
8
Geo
100
AcDbLine
10
-82.4811529847386
20
-7.10967804568038
30
0.000000000000000
11
-82.3811529847386
21
-7.27716483479648
31
0.000000000000000
  0
LINE
  5
F10792
330
F10793
100
AcDbEntity
8
Geo
100
AcDbLine
10
-82.4811529847386
20
3.98792579946734
30
0.000000000000000
11
-82.3811529847386
21
3.72995446629753
31
0.000000000000000
  0
LINE
  5
F10794
330
F10795
100
AcDbEntity
8
Geo
100
AcDbLine
10
-82.3811529847386
20
-7.27716483479648
30
0.000000000000000
11
-82.2811529847386
21
-7.43460070519957
31
0.000000000000000
  0
LINE
  5
F10796
330
F10797
100
AcDbEntity
8
Geo
100
AcDbLine
10
-82.3811529847386
20
3.72995446629753
30
0.000000000000000
11
-82.2811529847386
21
3.46572922152282
31
0.000000000000000
  0
LINE
  5
F10798
330
F10799
100
AcDbEntity
8
Geo
100
AcDbLine
10
-82.2811529847386
20
-7.43460070519957
30
0.000000000000000
11
-82.1811529847386
21
-7.58175244735657
31
0.000000000000000
  0
LINE
  5
F1079A
330
F1079B
100
AcDbEntity
8
Geo
100
AcDbLine
10
-82.2811529847386
20
3.46572922152282
30
0.000000000000000
11
-82.1811529847386
21
3.19564146162617
31
0.000000000000000
  0
LINE
  5
F1079C
330
F1079D
100
AcDbEntity
8
Geo
100
AcDbLine
10
-82.1811529847386
20
-7.58175244735657
30
0.000000000000000
11
-82.0811529847386
21
-7.71840208559906
31
0.000000000000000
  0
LINE
  5
F1079E
330
F1079F
100
AcDbEntity
8
Geo
100
AcDbLine
10
-82.1811529847386
20
3.19564146162617
30
0.000000000000000
11
-82.0811529847386
21
2.92009126722590
31
0.000000000000000
  0
LINE
  5
F107A0
330
F107A1
100
AcDbEntity
8
Geo
100
AcDbLine
10
-82.0811529847386
20
-7.71840208559906
30
0.000000000000000
11
-81.9811529847386
21
-7.84434720101039
31
0.000000000000000
  0
LINE
  5
F107A2
330
F107A3
100
AcDbEntity
8
Geo
100
AcDbLine
10
-82.0811529847386
20
2.92009126722590
30
0.000000000000000
11
-81.9811529847386
21
2.63948681043689
31
0.000000000000000
  0
LINE
  5
F107A4
330
F107A5
100
AcDbEntity
8
Geo
100
AcDbLine
10
-81.9811529847386
20
-7.84434720101039
30
0.000000000000000
11
-81.8811529847386
21
-7.95940123126848
31
0.000000000000000
  0
LINE
  5
F107A6
330
F107A7
100
AcDbEntity
8
Geo
100
AcDbLine
10
-81.9811529847386
20
2.63948681043689
30
0.000000000000000
11
-81.8811529847386
21
2.35424375024576
31
0.000000000000000
  0
LINE
  5
F107A8
330
F107A9
100
AcDbEntity
8
Geo
100
AcDbLine
10
-81.8811529847386
20
-7.95940123126848
30
0.000000000000000
11
-81.7811529847386
21
-8.06339374700035
31
0.000000000000000
  0
LINE
  5
F107AA
330
F107AB
100
AcDbEntity
8
Geo
100
AcDbLine
10
-81.8811529847386
20
2.35424375024576
30
0.000000000000000
11
-81.7811529847386
21
2.06478461679582
31
0.000000000000000
  0
LINE
  5
F107AC
330
F107AD
100
AcDbEntity
8
Geo
100
AcDbLine
10
-81.7811529847386
20
-8.06339374700035
30
0.000000000000000
11
-81.6811529847386
21
-8.15617070423892
31
0.000000000000000
  0
LINE
  5
F107AE
330
F107AF
100
AcDbEntity
8
Geo
100
AcDbLine
10
-81.7811529847386
20
2.06478461679582
30
0.000000000000000
11
-81.6811529847386
21
1.77153818549378
31
0.000000000000000
  0
LINE
  5
F107B0
330
F107B1
100
AcDbEntity
8
Geo
100
AcDbLine
10
-81.6811529847386
20
-8.15617070423892
30
0.000000000000000
11
-81.5811529847386
21
-8.23759467260810
31
0.000000000000000
  0
LINE
  5
F107B2
330
F107B3
100
AcDbEntity
8
Geo
100
AcDbLine
10
-81.6811529847386
20
1.77153818549378
30
0.000000000000000
11
-81.5811529847386
21
1.47493884186530
31
0.000000000000000
  0
LINE
  5
F107B4
330
F107B5
100
AcDbEntity
8
Geo
100
AcDbLine
10
-81.5811529847386
20
-8.23759467260810
30
0.000000000000000
11
-81.4811529847386
21
-8.30754503889823
31
0.000000000000000
  0
LINE
  5
F107B6
330
F107B7
100
AcDbEntity
8
Geo
100
AcDbLine
10
-81.5811529847386
20
1.47493884186530
30
0.000000000000000
11
-81.4811529847386
21
1.17542593810036
31
0.000000000000000
  0
LINE
  5
F107B8
330
F107B9
100
AcDbEntity
8
Geo
100
AcDbLine
10
-81.4811529847386
20
-8.30754503889823
30
0.000000000000000
11
-81.3811529847386
21
-8.36591818573024
31
0.000000000000000
  0
LINE
  5
F107BA
330
F107BB
100
AcDbEntity
8
Geo
100
AcDbLine
10
-81.4811529847386
20
1.17542593810036
30
0.000000000000000
11
-81.3811529847386
21
0.873443142241449
31
0.000000000000000
  0
LINE
  5
F107BC
330
F107BD
100
AcDbEntity
8
Geo
100
AcDbLine
10
-81.3811529847386
20
-8.36591818573024
30
0.000000000000000
11
-81.2811529847386
21
-8.41262764504394
31
0.000000000000000
  0
LINE
  5
F107BE
330
F107BF
100
AcDbEntity
8
Geo
100
AcDbLine
10
-81.3811529847386
20
0.873443142241449
30
0.000000000000000
11
-81.2811529847386
21
0.569437780978770
31
0.000000000000000
  0
LINE
  5
F107C0
330
F107C1
100
AcDbEntity
8
Geo
100
AcDbLine
10
-81.2811529847386
20
-8.41262764504394
30
0.000000000000000
11
-81.1811529847386
21
-8.44760422618304
31
0.000000000000000
  0
LINE
  5
F107C2
330
F107C3
100
AcDbEntity
8
Geo
100
AcDbLine
10
-81.2811529847386
20
0.569437780978770
30
0.000000000000000
11
-81.1811529847386
21
0.263860177025779
31
0.000000000000000
  0
LINE
  5
F107C4
330
F107C5
100
AcDbEntity
8
Geo
100
AcDbLine
10
-81.1811529847386
20
-8.44760422618304
30
0.000000000000000
11
-81.0811529847386
21
-8.47079611838715
31
0.000000000000000
  0
LINE
  5
F107C6
330
F107C7
100
AcDbEntity
8
Geo
100
AcDbLine
10
-81.1811529847386
20
0.263860177025779
30
0.000000000000000
11
-81.0811529847386
21
-0.0428370179431724
31
0.000000000000000
  0
LINE
  5
F107C8
330
F107C9
100
AcDbEntity
8
Geo
100
AcDbLine
10
-81.0811529847386
20
-8.47079611838715
30
0.000000000000000
11
-80.9811529847386
21
-8.48216896753904
31
0.000000000000000
  0
LINE
  5
F107CA
330
F107CB
100
AcDbEntity
8
Geo
100
AcDbLine
10
-81.0811529847386
20
-0.0428370179431724
30
0.000000000000000
11
-80.9811529847386
21
-0.350199493805141
31
0.000000000000000
  0
LINE
  5
F107CC
330
F107CD
100
AcDbEntity
8
Geo
100
AcDbLine
10
-80.9811529847386
20
-0.350199493805141
30
0.000000000000000
11
-80.8811529847386
21
-0.657771954957539
31
0.000000000000000
  0
LINE
  5
F107CE
330
F107CF
100
AcDbEntity
8
Geo
100
AcDbLine
10
-80.8811529847386
20
7.49779179723149
30
0.000000000000000
11
-80.7811529847386
21
7.48549355300926
31
0.000000000000000
  0
LINE
  5
F107D0
330
F107D1
100
AcDbEntity
8
Geo
100
AcDbLine
10
-80.8811529847386
20
-0.657771954957539
30
0.000000000000000
11
-80.7811529847386
21
-0.965098794746843
31
0.000000000000000
  0
LINE
  5
F107D2
330
F107D3
100
AcDbEntity
8
Geo
100
AcDbLine
10
-80.7811529847386
20
7.48549355300926
30
0.000000000000000
11
-80.6811529847386
21
7.46137832242242
31
0.000000000000000
  0
LINE
  5
F107D4
330
F107D5
100
AcDbEntity
8
Geo
100
AcDbLine
10
-80.7811529847386
20
-0.965098794746843
30
0.000000000000000
11
-80.6811529847386
21
-1.27172477035813
31
0.000000000000000
  0
LINE
  5
F107D6
330
F107D7
100
AcDbEntity
8
Geo
100
AcDbLine
10
-80.6811529847386
20
7.46137832242242
30
0.000000000000000
11
-80.5811529847386
21
7.42548182732808
31
0.000000000000000
  0
LINE
  5
F107D8
330
F107D9
100
AcDbEntity
8
Geo
100
AcDbLine
10
-80.6811529847386
20
-1.27172477035813
30
0.000000000000000
11
-80.5811529847386
21
-1.57719567716559
31
0.000000000000000
  0
LINE
  5
F107DA
330
F107DB
100
AcDbEntity
8
Geo
100
AcDbLine
10
-80.5811529847386
20
7.42548182732808
30
0.000000000000000
11
-80.4811529847386
21
7.37785724115386
31
0.000000000000000
  0
LINE
  5
F107DC
330
F107DD
100
AcDbEntity
8
Geo
100
AcDbLine
10
-80.5811529847386
20
-1.57719567716559
30
0.000000000000000
11
-80.4811529847386
21
-1.88105902154521
31
0.000000000000000
  0
LINE
  5
F107DE
330
F107DF
100
AcDbEntity
8
Geo
100
AcDbLine
10
-80.4811529847386
20
7.37785724115386
30
0.000000000000000
11
-80.3811529847386
21
7.31857511013219
31
0.000000000000000
  0
LINE
  5
F107E0
330
F107E1
100
AcDbEntity
8
Geo
100
AcDbLine
10
-80.4811529847386
20
-1.88105902154521
30
0.000000000000000
11
-80.3811529847386
21
-2.18286469115292
31
0.000000000000000
  0
LINE
  5
F107E2
330
F107E3
100
AcDbEntity
8
Geo
100
AcDbLine
10
-80.3811529847386
20
7.31857511013219
30
0.000000000000000
11
-80.2811529847386
21
7.24772324880026
31
0.000000000000000
  0
LINE
  5
F107E4
330
F107E5
100
AcDbEntity
8
Geo
100
AcDbLine
10
-80.3811529847386
20
-2.18286469115292
30
0.000000000000000
11
-80.2811529847386
21
-2.48216562167542
31
0.000000000000000
  0
LINE
  5
F107E6
330
F107E7
100
AcDbEntity
8
Geo
100
AcDbLine
10
-80.2811529847386
20
7.24772324880026
30
0.000000000000000
11
-80.1811529847386
21
7.16540660992047
31
0.000000000000000
  0
LINE
  5
F107E8
330
F107E9
100
AcDbEntity
8
Geo
100
AcDbLine
10
-80.2811529847386
20
-2.48216562167542
30
0.000000000000000
11
-80.1811529847386
21
-2.77851845906586
31
0.000000000000000
  0
LINE
  5
F107EA
330
F107EB
100
AcDbEntity
8
Geo
100
AcDbLine
10
-80.1811529847386
20
7.16540660992047
30
0.000000000000000
11
-80.0811529847386
21
7.07174712901405
31
0.000000000000000
  0
LINE
  5
F107EC
330
F107ED
100
AcDbEntity
8
Geo
100
AcDbLine
10
-80.1811529847386
20
-2.77851845906586
30
0.000000000000000
11
-80.0811529847386
21
-3.07148421628361
31
0.000000000000000
  0
LINE
  5
F107EE
330
F107EF
100
AcDbEntity
8
Geo
100
AcDbLine
10
-80.0811529847386
20
7.07174712901405
30
0.000000000000000
11
-79.9811529847386
21
6.96688354373815
31
0.000000000000000
  0
LINE
  5
F107F0
330
F107F1
100
AcDbEntity
8
Geo
100
AcDbLine
10
-80.0811529847386
20
-3.07148421628361
30
0.000000000000000
11
-79.9811529847386
21
-3.36062892356512
31
0.000000000000000
  0
LINE
  5
F107F2
330
F107F3
100
AcDbEntity
8
Geo
100
AcDbLine
10
-79.9811529847386
20
6.96688354373815
30
0.000000000000000
11
-79.8811529847386
21
6.85097118837395
31
0.000000000000000
  0
LINE
  5
F107F4
330
F107F5
100
AcDbEntity
8
Geo
100
AcDbLine
10
-79.9811529847386
20
-3.36062892356512
30
0.000000000000000
11
-79.8811529847386
21
-3.64552427126276
31
0.000000000000000
  0
LINE
  5
F107F6
330
F107F7
100
AcDbEntity
8
Geo
100
AcDbLine
10
-79.8811529847386
20
6.85097118837395
30
0.000000000000000
11
-79.7811529847386
21
6.72418176373020
31
0.000000000000000
  0
LINE
  5
F107F8
330
F107F9
100
AcDbEntity
8
Geo
100
AcDbLine
10
-79.8811529847386
20
-3.64552427126276
30
0.000000000000000
11
-79.7811529847386
21
-3.92574824429922
31
0.000000000000000
  0
LINE
  5
F107FA
330
F107FB
100
AcDbEntity
8
Geo
100
AcDbLine
10
-79.7811529847386
20
6.72418176373020
30
0.000000000000000
11
-79.6811529847386
21
6.58670308280305
31
0.000000000000000
  0
LINE
  5
F107FC
330
F107FD
100
AcDbEntity
8
Geo
100
AcDbLine
10
-79.7811529847386
20
-3.92574824429922
30
0.000000000000000
11
-79.6811529847386
21
-4.20088574729791
31
0.000000000000000
  0
LINE
  5
F107FE
330
F107FF
100
AcDbEntity
8
Geo
100
AcDbLine
10
-79.6811529847386
20
6.58670308280305
30
0.000000000000000
11
-79.5811529847386
21
6.43873879256892
31
0.000000000000000
  0
LINE
  5
F10800
330
F10801
100
AcDbEntity
8
Geo
100
AcDbLine
10
-79.6811529847386
20
-4.20088574729791
30
0.000000000000000
11
-79.5811529847386
21
-4.47052921946318
31
0.000000000000000
  0
LINE
  5
F10802
330
F10803
100
AcDbEntity
8
Geo
100
AcDbLine
10
-79.5811529847386
20
6.43873879256892
30
0.000000000000000
11
-79.4811529847386
21
6.28050807232254
31
0.000000000000000
  0
LINE
  5
F10804
330
F10805
100
AcDbEntity
8
Geo
100
AcDbLine
10
-79.5811529847386
20
-4.47052921946318
30
0.000000000000000
11
-79.4811529847386
21
-4.73427923829947
31
0.000000000000000
  0
LINE
  5
F10806
330
F10807
100
AcDbEntity
8
Geo
100
AcDbLine
10
-79.4811529847386
20
6.28050807232254
30
0.000000000000000
11
-79.3811529847386
21
6.11224530900695
31
0.000000000000000
  0
LINE
  5
F10808
330
F10809
100
AcDbEntity
8
Geo
100
AcDbLine
10
-79.4811529847386
20
-4.73427923829947
30
0.000000000000000
11
-79.3811529847386
21
-4.99174511127537
31
0.000000000000000
  0
LINE
  5
F1080A
330
F1080B
100
AcDbEntity
8
Geo
100
AcDbLine
10
-79.3811529847386
20
6.11224530900695
30
0.000000000000000
11
-79.2811529847386
21
5.93419975001648
31
0.000000000000000
  0
LINE
  5
F1080C
330
F1080D
100
AcDbEntity
8
Geo
100
AcDbLine
10
-79.3811529847386
20
-4.99174511127537
30
0.000000000000000
11
-79.2811529847386
21
-5.24254545455583
31
0.000000000000000
  0
LINE
  5
F1080E
330
F1080F
100
AcDbEntity
8
Geo
100
AcDbLine
10
-79.2811529847386
20
5.93419975001648
30
0.000000000000000
11
-79.1811529847386
21
5.74663513398687
31
0.000000000000000
  0
LINE
  5
F10810
330
F10811
100
AcDbEntity
8
Geo
100
AcDbLine
10
-79.2811529847386
20
-5.24254545455583
30
0.000000000000000
11
-79.1811529847386
21
-5.48630875794561
31
0.000000000000000
  0
LINE
  5
F10812
330
F10813
100
AcDbEntity
8
Geo
100
AcDbLine
10
-79.1811529847386
20
5.74663513398687
30
0.000000000000000
11
-79.0811529847386
21
5.54982930011969
31
0.000000000000000
  0
LINE
  5
F10814
330
F10815
100
AcDbEntity
8
Geo
100
AcDbLine
10
-79.1811529847386
20
-5.48630875794561
30
0.000000000000000
11
-79.0811529847386
21
-5.72267393520671
31
0.000000000000000
  0
LINE
  5
F10816
330
F10817
100
AcDbEntity
8
Geo
100
AcDbLine
10
-79.0811529847386
20
5.54982930011969
30
0.000000000000000
11
-78.9811529847386
21
5.34407377661945
31
0.000000000000000
  0
LINE
  5
F10818
330
F10819
100
AcDbEntity
8
Geo
100
AcDbLine
10
-79.0811529847386
20
-5.72267393520671
30
0.000000000000000
11
-78.9811529847386
21
-5.95129085893497
31
0.000000000000000
  0
LINE
  5
F1081A
330
F1081B
100
AcDbEntity
8
Geo
100
AcDbLine
10
-78.9811529847386
20
5.34407377661945
30
0.000000000000000
11
-78.8811529847386
21
5.12967334885332
31
0.000000000000000
  0
LINE
  5
F1081C
330
F1081D
100
AcDbEntity
8
Geo
100
AcDbLine
10
-78.9811529847386
20
-5.95129085893497
30
0.000000000000000
11
-78.8811529847386
21
-6.17182087920326
31
0.000000000000000
  0
LINE
  5
F1081E
330
F1081F
100
AcDbEntity
8
Geo
100
AcDbLine
10
-78.8811529847386
20
5.12967334885332
30
0.000000000000000
11
-78.7811529847386
21
4.90694560787299
31
0.000000000000000
  0
LINE
  5
F10820
330
F10821
100
AcDbEntity
8
Geo
100
AcDbLine
10
-78.8811529847386
20
-6.17182087920326
30
0.000000000000000
11
-78.7811529847386
21
-6.38393732520316
31
0.000000000000000
  0
LINE
  5
F10822
330
F10823
100
AcDbEntity
8
Geo
100
AcDbLine
10
-78.7811529847386
20
4.90694560787299
30
0.000000000000000
11
-78.6811529847386
21
4.67622047996746
31
0.000000000000000
  0
LINE
  5
F10824
330
F10825
100
AcDbEntity
8
Geo
100
AcDbLine
10
-78.7811529847386
20
-6.38393732520316
30
0.000000000000000
11
-78.6811529847386
21
-6.58732598914196
31
0.000000000000000
  0
LINE
  5
F10826
330
F10827
100
AcDbEntity
8
Geo
100
AcDbLine
10
-78.6811529847386
20
4.67622047996746
30
0.000000000000000
11
-78.5811529847386
21
4.43783973794375
31
0.000000000000000
  0
LINE
  5
F10828
330
F10829
100
AcDbEntity
8
Geo
100
AcDbLine
10
-78.6811529847386
20
-6.58732598914196
30
0.000000000000000
11
-78.5811529847386
21
-6.78168559167823
31
0.000000000000000
  0
LINE
  5
F1082A
330
F1082B
100
AcDbEntity
8
Geo
100
AcDbLine
10
-78.5811529847386
20
4.43783973794375
30
0.000000000000000
11
-78.4811529847386
21
4.19215649485927
31
0.000000000000000
  0
LINE
  5
F1082C
330
F1082D
100
AcDbEntity
8
Geo
100
AcDbLine
10
-78.5811529847386
20
-6.78168559167823
30
0.000000000000000
11
-78.4811529847386
21
-6.96672822820647
31
0.000000000000000
  0
LINE
  5
F1082E
330
F1082F
100
AcDbEntity
8
Geo
100
AcDbLine
10
-78.4811529847386
20
4.19215649485927
30
0.000000000000000
11
-78.3811529847386
21
3.93953468095598
31
0.000000000000000
  0
LINE
  5
F10830
330
F10831
100
AcDbEntity
8
Geo
100
AcDbLine
10
-78.4811529847386
20
-6.96672822820647
30
0.000000000000000
11
-78.3811529847386
21
-7.14217979532981
31
0.000000000000000
  0
LINE
  5
F10832
330
F10833
100
AcDbEntity
8
Geo
100
AcDbLine
10
-78.3811529847386
20
3.93953468095598
30
0.000000000000000
11
-78.2811529847386
21
3.68034850457099
31
0.000000000000000
  0
LINE
  5
F10834
330
F10835
100
AcDbEntity
8
Geo
100
AcDbLine
10
-78.3811529847386
20
-7.14217979532981
30
0.000000000000000
11
-78.2811529847386
21
-7.30778039688899
31
0.000000000000000
  0
LINE
  5
F10836
330
F10837
100
AcDbEntity
8
Geo
100
AcDbLine
10
-78.2811529847386
20
3.68034850457099
30
0.000000000000000
11
-78.1811529847386
21
3.41498189782236
31
0.000000000000000
  0
LINE
  5
F10838
330
F10839
100
AcDbEntity
8
Geo
100
AcDbLine
10
-78.2811529847386
20
-7.30778039688899
30
0.000000000000000
11
-78.1811529847386
21
-7.46328472894616
31
0.000000000000000
  0
LINE
  5
F1083A
330
F1083B
100
AcDbEntity
8
Geo
100
AcDbLine
10
-78.1811529847386
20
3.41498189782236
30
0.000000000000000
11
-78.0811529847386
21
3.14382794789090
31
0.000000000000000
  0
LINE
  5
F1083C
330
F1083D
100
AcDbEntity
8
Geo
100
AcDbLine
10
-78.1811529847386
20
-7.46328472894616
30
0.000000000000000
11
-78.0811529847386
21
-7.60846244315325
31
0.000000000000000
  0
LINE
  5
F1083E
330
F1083F
100
AcDbEntity
8
Geo
100
AcDbLine
10
-78.0811529847386
20
3.14382794789090
30
0.000000000000000
11
-77.9811529847386
21
2.86728831474074
31
0.000000000000000
  0
LINE
  5
F10840
330
F10841
100
AcDbEntity
8
Geo
100
AcDbLine
10
-78.0811529847386
20
-7.60846244315325
30
0.000000000000000
11
-77.9811529847386
21
-7.74309848796669
31
0.000000000000000
  0
LINE
  5
F10842
330
F10843
100
AcDbEntity
8
Geo
100
AcDbLine
10
-77.9811529847386
20
2.86728831474074
30
0.000000000000000
11
-77.8811529847386
21
2.58577263614098
31
0.000000000000000
  0
LINE
  5
F10844
330
F10845
100
AcDbEntity
8
Geo
100
AcDbLine
10
-77.9811529847386
20
-7.74309848796669
30
0.000000000000000
11
-77.8811529847386
21
-7.86699342720292
31
0.000000000000000
  0
LINE
  5
F10846
330
F10847
100
AcDbEntity
8
Geo
100
AcDbLine
10
-77.8811529847386
20
2.58577263614098
30
0.000000000000000
11
-77.7811529847386
21
2.29969792086984
31
0.000000000000000
  0
LINE
  5
F10848
330
F10849
100
AcDbEntity
8
Geo
100
AcDbLine
10
-77.8811529847386
20
-7.86699342720292
30
0.000000000000000
11
-77.7811529847386
21
-7.97996373546295
31
0.000000000000000
  0
LINE
  5
F1084A
330
F1084B
100
AcDbEntity
8
Geo
100
AcDbLine
10
-77.7811529847386
20
2.29969792086984
30
0.000000000000000
11
-77.6811529847386
21
2.00948793100011
31
0.000000000000000
  0
LINE
  5
F1084C
330
F1084D
100
AcDbEntity
8
Geo
100
AcDbLine
10
-77.7811529847386
20
-7.97996373546295
30
0.000000000000000
11
-77.6811529847386
21
-8.08184206998826
31
0.000000000000000
  0
LINE
  5
F1084E
330
F1084F
100
AcDbEntity
8
Geo
100
AcDbLine
10
-77.6811529847386
20
2.00948793100011
30
0.000000000000000
11
-77.5811529847386
21
1.71557255418108
31
0.000000000000000
  0
LINE
  5
F10850
330
F10851
100
AcDbEntity
8
Geo
100
AcDbLine
10
-77.6811529847386
20
-8.08184206998826
30
0.000000000000000
11
-77.5811529847386
21
-8.17247751854540
31
0.000000000000000
  0
LINE
  5
F10852
330
F10853
100
AcDbEntity
8
Geo
100
AcDbLine
10
-77.5811529847386
20
1.71557255418108
30
0.000000000000000
11
-77.4811529847386
21
1.41838716684644
31
0.000000000000000
  0
LINE
  5
F10854
330
F10855
100
AcDbEntity
8
Geo
100
AcDbLine
10
-77.5811529847386
20
-8.17247751854540
30
0.000000000000000
11
-77.4811529847386
21
-8.25173582297209
31
0.000000000000000
  0
LINE
  5
F10856
330
F10857
100
AcDbEntity
8
Geo
100
AcDbLine
10
-77.4811529847386
20
1.41838716684644
30
0.000000000000000
11
-77.3811529847386
21
1.11837198929190
31
0.000000000000000
  0
LINE
  5
F10858
330
F10859
100
AcDbEntity
8
Geo
100
AcDbLine
10
-77.4811529847386
20
-8.25173582297209
30
0.000000000000000
11
-77.3811529847386
21
-8.31949957805361
31
0.000000000000000
  0
LINE
  5
F1085A
330
F1085B
100
AcDbEntity
8
Geo
100
AcDbLine
10
-77.3811529847386
20
1.11837198929190
30
0.000000000000000
11
-77.2811529847386
21
0.815971433577416
31
0.000000000000000
  0
LINE
  5
F1085C
330
F1085D
100
AcDbEntity
8
Geo
100
AcDbLine
10
-77.3811529847386
20
-8.31949957805361
30
0.000000000000000
11
-77.2811529847386
21
-8.37566840543500
31
0.000000000000000
  0
LINE
  5
F1085E
330
F1085F
100
AcDbEntity
8
Geo
100
AcDbLine
10
-77.2811529847386
20
0.815971433577416
30
0.000000000000000
11
-77.1811529847386
21
0.511633445220251
31
0.000000000000000
  0
LINE
  5
F10860
330
F10861
100
AcDbEntity
8
Geo
100
AcDbLine
10
-77.2811529847386
20
-8.37566840543500
30
0.000000000000000
11
-77.1811529847386
21
-8.42015910231136
31
0.000000000000000
  0
LINE
  5
F10862
330
F10863
100
AcDbEntity
8
Geo
100
AcDbLine
10
-77.1811529847386
20
0.511633445220251
30
0.000000000000000
11
-77.0811529847386
21
0.205808839653920
31
0.000000000000000
  0
LINE
  5
F10864
330
F10865
100
AcDbEntity
8
Geo
100
AcDbLine
10
-77.1811529847386
20
-8.42015910231136
30
0.000000000000000
11
-77.0811529847386
21
-8.45290576467609
31
0.000000000000000
  0
LINE
  5
F10866
330
F10867
100
AcDbEntity
8
Geo
100
AcDbLine
10
-77.0811529847386
20
0.205808839653920
30
0.000000000000000
11
-76.9811529847386
21
-0.101049365564084
31
0.000000000000000
  0
LINE
  5
F10868
330
F10869
100
AcDbEntity
8
Geo
100
AcDbLine
10
-77.0811529847386
20
-8.45290576467609
30
0.000000000000000
11
-76.9811529847386
21
-8.47385988494432
31
0.000000000000000
  0
LINE
  5
F1086A
330
F1086B
100
AcDbEntity
8
Geo
100
AcDbLine
10
-76.9811529847386
20
-0.101049365564084
30
0.000000000000000
11
-76.8811529847386
21
-0.408486621806562
31
0.000000000000000
  0
LINE
  5
F1086C
330
F1086D
100
AcDbEntity
8
Geo
100
AcDbLine
10
-76.9811529847386
20
-8.47385988494432
30
0.000000000000000
11
-76.8811529847386
21
-8.48299042380724
31
0.000000000000000
  0
LINE
  5
F1086E
330
F1086F
100
AcDbEntity
8
Geo
100
AcDbLine
10
-76.8811529847386
20
-0.408486621806562
30
0.000000000000000
11
-76.7811529847386
21
-0.716047522698849
31
0.000000000000000
  0
LINE
  5
F10870
330
F10871
100
AcDbEntity
8
Geo
100
AcDbLine
10
-76.7811529847386
20
7.49636972638871
30
0.000000000000000
11
-76.6811529847386
21
7.48183006156703
31
0.000000000000000
  0
LINE
  5
F10872
330
F10873
100
AcDbEntity
8
Geo
100
AcDbLine
10
-76.7811529847386
20
-0.716047522698849
30
0.000000000000000
11
-76.6811529847386
21
-1.02327647871163
31
0.000000000000000
  0
LINE
  5
F10874
330
F10875
100
AcDbEntity
8
Geo
100
AcDbLine
10
-76.6811529847386
20
7.48183006156703
30
0.000000000000000
11
-76.5811529847386
21
7.45547883710546
31
0.000000000000000
  0
LINE
  5
F10876
330
F10877
100
AcDbEntity
8
Geo
100
AcDbLine
10
-76.6811529847386
20
-1.02327647871163
30
0.000000000000000
11
-76.5811529847386
21
-1.32971839202508
31
0.000000000000000
  0
LINE
  5
F10878
330
F10879
100
AcDbEntity
8
Geo
100
AcDbLine
10
-76.5811529847386
20
7.45547883710546
30
0.000000000000000
11
-76.4811529847386
21
7.41735508703568
31
0.000000000000000
  0
LINE
  5
F1087A
330
F1087B
100
AcDbEntity
8
Geo
100
AcDbLine
10
-76.5811529847386
20
-1.32971839202508
30
0.000000000000000
11
-76.4811529847386
21
-1.63491933066460
31
0.000000000000000
  0
LINE
  5
F1087C
330
F1087D
100
AcDbEntity
8
Geo
100
AcDbLine
10
-76.4811529847386
20
7.41735508703568
30
0.000000000000000
11
-76.3811529847386
21
7.36751528401497
31
0.000000000000000
  0
LINE
  5
F1087E
330
F1087F
100
AcDbEntity
8
Geo
100
AcDbLine
10
-76.4811529847386
20
-1.63491933066460
30
0.000000000000000
11
-76.3811529847386
21
-1.93842720090966
31
0.000000000000000
  0
LINE
  5
F10880
330
F10881
100
AcDbEntity
8
Geo
100
AcDbLine
10
-76.3811529847386
20
7.36751528401497
30
0.000000000000000
11
-76.2811529847386
21
7.30603325567335
31
0.000000000000000
  0
LINE
  5
F10882
330
F10883
100
AcDbEntity
8
Geo
100
AcDbLine
10
-76.3811529847386
20
-1.93842720090966
30
0.000000000000000
11
-76.2811529847386
21
-2.23979241697951
31
0.000000000000000
  0
LINE
  5
F10884
330
F10885
100
AcDbEntity
8
Geo
100
AcDbLine
10
-76.2811529847386
20
7.30603325567335
30
0.000000000000000
11
-76.1811529847386
21
7.23300007525282
31
0.000000000000000
  0
LINE
  5
F10886
330
F10887
100
AcDbEntity
8
Geo
100
AcDbLine
10
-76.2811529847386
20
-2.23979241697951
30
0.000000000000000
11
-76.1811529847386
21
-2.53856856700406
31
0.000000000000000
  0
LINE
  5
F10888
330
F10889
100
AcDbEntity
8
Geo
100
AcDbLine
10
-76.1811529847386
20
7.23300007525282
30
0.000000000000000
11
-76.0811529847386
21
7.14852392670066
31
0.000000000000000
  0
LINE
  5
F1088A
330
F1088B
100
AcDbEntity
8
Geo
100
AcDbLine
10
-76.1811529847386
20
-2.53856856700406
30
0.000000000000000
11
-76.0811529847386
21
-2.83431307429308
31
0.000000000000000
  0
LINE
  5
F1088C
330
F1088D
100
AcDbEntity
8
Geo
100
AcDbLine
10
-76.0811529847386
20
7.14852392670066
30
0.000000000000000
11
-75.9811529847386
21
7.05272994441675
31
0.000000000000000
  0
LINE
  5
F1088E
330
F1088F
100
AcDbEntity
8
Geo
100
AcDbLine
10
-76.0811529847386
20
-2.83431307429308
30
0.000000000000000
11
-75.9811529847386
21
-3.12658785292446
31
0.000000000000000
  0
LINE
  5
F10890
330
F10891
100
AcDbEntity
8
Geo
100
AcDbLine
10
-75.9811529847386
20
7.05272994441675
30
0.000000000000000
11
-75.8811529847386
21
6.94576002789213
31
0.000000000000000
  0
LINE
  5
F10892
330
F10893
100
AcDbEntity
8
Geo
100
AcDbLine
10
-75.9811529847386
20
-3.12658785292446
30
0.000000000000000
11
-75.8811529847386
21
-3.41495995668026
31
0.000000000000000
  0
LINE
  5
F10894
330
F10895
100
AcDbEntity
8
Geo
100
AcDbLine
10
-75.8811529847386
20
6.94576002789213
30
0.000000000000000
11
-75.7811529847386
21
6.82777263151347
31
0.000000000000000
  0
LINE
  5
F10896
330
F10897
100
AcDbEntity
8
Geo
100
AcDbLine
10
-75.8811529847386
20
-3.41495995668026
30
0.000000000000000
11
-75.7811529847386
21
-3.69900222036935
31
0.000000000000000
  0
LINE
  5
F10898
330
F10899
100
AcDbEntity
8
Geo
100
AcDbLine
10
-75.7811529847386
20
6.82777263151347
30
0.000000000000000
11
-75.6811529847386
21
6.69894252984487
31
0.000000000000000
  0
LINE
  5
F1089A
330
F1089B
100
AcDbEntity
8
Geo
100
AcDbLine
10
-75.7811529847386
20
-3.69900222036935
30
0.000000000000000
11
-75.6811529847386
21
-3.97829389258657
31
0.000000000000000
  0
LINE
  5
F1089C
330
F1089D
100
AcDbEntity
8
Geo
100
AcDbLine
10
-75.6811529847386
20
6.69894252984487
30
0.000000000000000
11
-75.5811529847386
21
6.55946055873447
31
0.000000000000000
  0
LINE
  5
F1089E
330
F1089F
100
AcDbEntity
8
Geo
100
AcDbLine
10
-75.6811529847386
20
-3.97829389258657
30
0.000000000000000
11
-75.5811529847386
21
-4.25242125897123
31
0.000000000000000
  0
LINE
  5
F108A0
330
F108A1
100
AcDbEntity
8
Geo
100
AcDbLine
10
-75.5811529847386
20
6.55946055873447
30
0.000000000000000
11
-75.4811529847386
21
6.40953333262963
31
0.000000000000000
  0
LINE
  5
F108A2
330
F108A3
100
AcDbEntity
8
Geo
100
AcDbLine
10
-75.5811529847386
20
-4.25242125897123
30
0.000000000000000
11
-75.4811529847386
21
-4.52097825504160
31
0.000000000000000
  0
LINE
  5
F108A4
330
F108A5
100
AcDbEntity
8
Geo
100
AcDbLine
10
-75.4811529847386
20
6.40953333262963
30
0.000000000000000
11
-75.3811529847386
21
6.24938293851921
31
0.000000000000000
  0
LINE
  5
F108A6
330
F108A7
100
AcDbEntity
8
Geo
100
AcDbLine
10
-75.4811529847386
20
-4.52097825504160
30
0.000000000000000
11
-75.3811529847386
21
-4.78356706769764
31
0.000000000000000
  0
LINE
  5
F108A8
330
F108A9
100
AcDbEntity
8
Geo
100
AcDbLine
10
-75.3811529847386
20
6.24938293851921
30
0.000000000000000
11
-75.2811529847386
21
6.07924660695645
31
0.000000000000000
  0
LINE
  5
F108AA
330
F108AB
100
AcDbEntity
8
Geo
100
AcDbLine
10
-75.3811529847386
20
-4.78356706769764
30
0.000000000000000
11
-75.2811529847386
21
-5.03979872450100
31
0.000000000000000
  0
LINE
  5
F108AC
330
F108AD
100
AcDbEntity
8
Geo
100
AcDbLine
10
-75.2811529847386
20
6.07924660695645
30
0.000000000000000
11
-75.1811529847386
21
5.89937636064967
31
0.000000000000000
  0
LINE
  5
F108AE
330
F108AF
100
AcDbEntity
8
Geo
100
AcDbLine
10
-75.2811529847386
20
-5.03979872450100
30
0.000000000000000
11
-75.1811529847386
21
-5.28929366985936
31
0.000000000000000
  0
LINE
  5
F108B0
330
F108B1
100
AcDbEntity
8
Geo
100
AcDbLine
10
-75.1811529847386
20
5.89937636064967
30
0.000000000000000
11
-75.0811529847386
21
5.71003864114138
31
0.000000000000000
  0
LINE
  5
F108B2
330
F108B3
100
AcDbEntity
8
Geo
100
AcDbLine
10
-75.1811529847386
20
-5.28929366985936
30
0.000000000000000
11
-75.0811529847386
21
-5.53168232726154
31
0.000000000000000
  0
LINE
  5
F108B4
330
F108B5
100
AcDbEntity
8
Geo
100
AcDbLine
10
-89.0811529847386
20
-0.491957064910878
30
0.000000000000000
11
-89.0811529847386
21
-0.491957064910878
31
0.000000000000000
  0
LINE
  5
F108B6
330
F108B7
100
AcDbEntity
8
Geo
100
AcDbLine
10
-89.0811529847386
20
-0.491957064910878
30
0.000000000000000
11
-89.0811529847386
21
-0.491957064910878
31
0.000000000000000
  0
LINE
  5
F108B8
330
F108B9
100
AcDbEntity
8
Geo
100
AcDbLine
10
-90.0811529847386
20
-0.491957064910878
30
0.000000000000000
11
-89.7811529847386
21
-0.491957064910878
31
0.000000000000000
  0
LINE
  5
F108BA
330
F108BB
100
AcDbEntity
8
Geo
100
AcDbLine
10
-89.6536529847386
20
-0.491957064910878
30
0.000000000000000
11
-89.5686529847385
21
-0.491957064910878
31
0.000000000000000
  0
LINE
  5
F108BC
330
F108BD
100
AcDbEntity
8
Geo
100
AcDbLine
10
-89.3561529847386
20
-0.491957064910878
30
0.000000000000000
11
-88.9311529847385
21
-0.491957064910878
31
0.000000000000000
  0
LINE
  5
F108BE
330
F108BF
100
AcDbEntity
8
Geo
100
AcDbLine
10
-88.8036529847385
20
-0.491957064910878
30
0.000000000000000
11
-88.7186529847386
21
-0.491957064910878
31
0.000000000000000
  0
LINE
  5
F108C0
330
F108C1
100
AcDbEntity
8
Geo
100
AcDbLine
10
-88.5061529847385
20
-0.491957064910878
30
0.000000000000000
11
-88.0811529847386
21
-0.491957064910878
31
0.000000000000000
  0
LINE
  5
F108C2
330
F108C3
100
AcDbEntity
8
Geo
100
AcDbLine
10
-0.0811529847385515
20
6.50804293508912
30
0.000000000000000
11
-0.0811529847385515
21
-0.491957064910878
31
0.000000000000000
  0
LINE
  5
F108C4
330
F108C5
100
AcDbEntity
8
Geo
100
AcDbLine
10
-88.8195519856998
20
-0.491957064910878
30
0.000000000000000
11
-89.0808483982481
21
-7.97450731655963
31
0.000000000000000
  0
ARC
  5
F108C6
330
F108C7
100
AcDbEntity
8
Geo
100
AcDbCircle
10
-88.5811529847386
20
-7.99195706491088
30
0.000000000000000
 40
0.500000000000000
100
AcDbArc
 50
178.000000000000
 51
270.000000000000
  0
LINE
  5
F108C8
330
F108C9
100
AcDbEntity
8
Geo
100
AcDbLine
10
-88.5811529847386
20
-8.49195706491088
30
0.000000000000000
11
-70.0811529847386
21
-8.49195706491088
31
0.000000000000000
  0
LINE
  5
F108CA
330
F108CB
100
AcDbEntity
8
Geo
100
AcDbLine
10
-70.0811529847386
20
-8.49195706491088
30
0.000000000000000
11
-70.0811529847386
21
-8.19195706491088
31
0.000000000000000
  0
LINE
  5
F108CC
330
F108CD
100
AcDbEntity
8
Geo
100
AcDbLine
10
-70.0811529847386
20
-8.19195706491088
30
0.000000000000000
11
-54.0811529847386
21
-8.19195706491088
31
0.000000000000000
  0
LINE
  5
F108CE
330
F108CF
100
AcDbEntity
8
Geo
100
AcDbLine
10
-54.0811529847386
20
-8.19195706491088
30
0.000000000000000
11
-54.0811529847386
21
-8.49195706491088
31
0.000000000000000
  0
LINE
  5
F108D0
330
F108D1
100
AcDbEntity
8
Geo
100
AcDbLine
10
-54.0811529847386
20
-8.49195706491088
30
0.000000000000000
11
-1.08115298473855
21
-8.49195706491088
31
0.000000000000000
  0
LINE
  5
F108D2
330
F108D3
100
AcDbEntity
8
Geo
100
AcDbLine
10
-1.08115298473855
20
-8.49195706491088
30
0.000000000000000
11
-0.0811529847385515
21
-7.49195706491088
31
0.000000000000000
  0
LINE
  5
F108D4
330
F108D5
100
AcDbEntity
8
Geo
100
AcDbLine
10
-88.5811529847386
20
7.50804293508912
30
0.000000000000000
11
-88.5811529847386
21
-8.49195706491088
31
0.000000000000000
  0
LINE
  5
F108D6
330
F108D7
100
AcDbEntity
8
Geo
100
AcDbLine
10
-88.5811529847386
20
7.50804293508912
30
0.000000000000000
11
-88.5811529847386
21
-8.49195706491088
31
0.000000000000000
  0
LINE
  5
F108D8
330
F108D9
100
AcDbEntity
8
Geo
100
AcDbLine
10
-70.0811529847386
20
7.50804293508912
30
0.000000000000000
11
-70.0811529847386
21
-8.49195706491088
31
0.000000000000000
  0
LINE
  5
F108DA
330
F108DB
100
AcDbEntity
8
Geo
100
AcDbLine
10
-70.0811529847386
20
7.20804293508912
30
0.000000000000000
11
-70.0811529847386
21
-8.19195706491088
31
0.000000000000000
  0
LINE
  5
F108DC
330
F108DD
100
AcDbEntity
8
Geo
100
AcDbLine
10
-54.0811529847386
20
7.20804293508912
30
0.000000000000000
11
-54.0811529847386
21
-8.19195706491088
31
0.000000000000000
  0
LINE
  5
F108DE
330
F108DF
100
AcDbEntity
8
Geo
100
AcDbLine
10
-54.0811529847386
20
7.20804293508912
30
0.000000000000000
11
-54.0811529847386
21
-8.19195706491088
31
0.000000000000000
  0
LINE
  5
F108E0
330
F108E1
100
AcDbEntity
8
Geo
100
AcDbLine
10
-1.08115298473855
20
7.50804293508912
30
0.000000000000000
11
-1.08115298473855
21
-8.49195706491088
31
0.000000000000000
  0
LINE
  5
F108E2
330
F108E3
100
AcDbEntity
8
Geo
100
AcDbLine
10
-0.0811529847385515
20
6.50804293508912
30
0.000000000000000
11
-0.0811529847385515
21
-7.49195706491088
31
0.000000000000000
  0
LWPOLYLINE
  5
F108E4
330
F108E5
100
AcDbEntity
8
Rahmen
100
AcDbPolyline
90
   4
70
   1
43
   0.0
 10
-134.548212262102
 20
92.9925381223957
 10
134.384606442304
 20
92.9925381223957
 10
134.384606442304
 20
-103.122630520778
 10
-134.548212262102
 20
-103.122630520778
  0
TEXT
  5
F108E6
330
F108E7
 100
AcDbEntity
8
Text
100
AcDbText
10
-133.668772043971
20
-102.622630520778
30
0.000000000000000
40
1.00000000000000
1
ISBESketcher
100
AcDbText
  0
LWPOLYLINE
  5
F108E8
330
F108E9
100
AcDbEntity
8
Rahmen
100
AcDbPolyline
90
   4
70
   1
43
   0.0
 10
94.4580205391644
 20
-100.132533779133
 10
134.384606442304
 20
-100.132533779133
 10
134.384606442304
 20
-103.122630520778
 10
94.4580205391644
 20
-103.122630520778
  0
TEXT
  5
F108EA
330
F108EB
 100
AcDbEntity
8
Text
100
AcDbText
10
95.5000000000000
20
-102.041496196318
30
0.000000000000000
40
0.750000000000000
1
Created by:
100
AcDbText
  0
TEXT
  5
F108EC
330
F108ED
 100
AcDbEntity
8
Text
100
AcDbText
10
120.389343476486
20
-102.041496196318
30
0.000000000000000
40
0.750000000000000
1
nsarkol
100
AcDbText
  0
LWPOLYLINE
  5
F108EE
330
F108EF
100
AcDbEntity
8
Rahmen
100
AcDbPolyline
90
   4
70
   1
43
   0.0
 10
54.3555465923988
 20
-100.132533779133
 10
94.4580205391644
 20
-100.132533779133
 10
94.4580205391644
 20
-103.122630520778
 10
54.3555465923988
 20
-103.122630520778
  0
TEXT
  5
F108F0
330
F108F1
 100
AcDbEntity
8
Text
100
AcDbText
10
55.5000000000000
20
-102.041496196318
30
0.000000000000000
40
0.750000000000000
1
Created for:
100
AcDbText
  0
TEXT
  5
F108F2
330
F108F3
 100
AcDbEntity
8
Text
100
AcDbText
10
0.000000000000000
20
0.250000000000000
30
0.000000000000000
40
0.750000000000000
1

100
AcDbText
  0
LWPOLYLINE
  5
F108F4
330
F108F5
100
AcDbEntity
8
Rahmen
100
AcDbPolyline
90
   4
70
   1
43
   0.0
 10
121.017115126715
 20
-97.1424370374884
 10
134.384606442304
 20
-97.1424370374884
 10
134.384606442304
 20
-100.132533779133
 10
121.017115126715
 20
-100.132533779133
  0
TEXT
  5
F108F6
330
F108F7
 100
AcDbEntity
8
Text
100
AcDbText
10
122.166666666667
20
-99.0414961963177
30
0.000000000000000
40
0.750000000000000
1
Pages
100
AcDbText
  0
TEXT
  5
F108F8
330
F108F9
 100
AcDbEntity
8
Text
100
AcDbText
10
0.000000000000000
20
0.250000000000000
30
0.000000000000000
40
0.750000000000000
1

100
AcDbText
  0
LWPOLYLINE
  5
F108FA
330
F108FB
100
AcDbEntity
8
Rahmen
100
AcDbPolyline
90
   4
70
   1
43
   0.0
 10
121.017115126715
 20
-94.1523402958436
 10
134.384606442304
 20
-94.1523402958436
 10
134.384606442304
 20
-97.1424370374884
 10
121.017115126715
 20
-97.1424370374884
  0
TEXT
  5
F108FC
330
F108FD
 100
AcDbEntity
8
Text
100
AcDbText
10
122.166666666667
20
-96.0414961963177
30
0.000000000000000
40
0.750000000000000
1
Page
100
AcDbText
  0
TEXT
  5
F108FE
330
F108FF
 100
AcDbEntity
8
Text
100
AcDbText
10
0.000000000000000
20
0.250000000000000
30
0.000000000000000
40
0.750000000000000
1

100
AcDbText
  0
LWPOLYLINE
  5
F10900
330
F10901
100
AcDbEntity
8
Rahmen
100
AcDbPolyline
90
   4
70
   1
43
   0.0
 10
54.3555465923988
 20
-94.1523402958436
 10
121.017115126715
 20
-94.1523402958436
 10
121.017115126715
 20
-100.132533779133
 10
54.3555465923988
 20
-100.132533779133
  0
TEXT
  5
F10902
330
F10903
 100
AcDbEntity
8
Text
100
AcDbText
10
55.5000000000000
20
-96.0414961963177
30
0.000000000000000
40
0.750000000000000
1
Date:
100
AcDbText
  0
TEXT
  5
F10904
330
F10905
 100
AcDbEntity
8
Text
100
AcDbText
10
84.5794045262493
20
-99.0414961963177
30
0.000000000000000
40
0.750000000000000
1
05.07.2016
100
AcDbText
  0
LWPOLYLINE
  5
F10906
330
F10907
100
AcDbEntity
8
Rahmen
100
AcDbPolyline
90
   4
70
   1
43
   0.0
 10
54.3555465923988
 20
-88.1721468125540
 10
134.384606442304
 20
-88.1721468125540
 10
134.384606442304
 20
-94.1523402958436
 10
54.3555465923988
 20
-94.1523402958436
  0
TEXT
  5
F10908
330
F10909
 100
AcDbEntity
8
Text
100
AcDbText
10
0.000000000000000
20
0.500000000000000
30
0.000000000000000
40
1.50000000000000
1

100
AcDbText
  0
TEXT
  5
F1090A
330
F1090B
 100
AcDbEntity
8
Text
100
AcDbText
10
63.9834244308604
20
-92.6290992774330
30
0.000000000000000
40
2.50000000000000
1
VHVTR 5 160 089 16 03 050 S
100
AcDbText
  0
LWPOLYLINE
  5
F1090C
330
F1090D
100
AcDbEntity
8
Rahmen
100
AcDbPolyline
90
   4
70
   1
43
   0.0
 10
94.4580205391644
 20
-82.0160652856382
 10
134.384606442304
 20
-82.0160652856382
 10
134.384606442304
 20
-88.1721468125540
 10
94.4580205391644
 20
-88.1721468125540
  0
TEXT
  5
F1090E
330
F1090F
 100
AcDbEntity
8
Text
100
AcDbText
10
95.5000000000000
20
-84.0414961963177
30
0.000000000000000
40
0.750000000000000
1
Work piece material:
100
AcDbText
  0
TEXT
  5
F10910
330
F10911
 100
AcDbEntity
8
Text
100
AcDbText
10
0.000000000000000
20
0.250000000000000
30
0.000000000000000
40
0.750000000000000
1

100
AcDbText
  0
LWPOLYLINE
  5
F10912
330
F10913
100
AcDbEntity
8
Rahmen
100
AcDbPolyline
90
   4
70
   1
43
   0.0
 10
54.3555465923988
 20
-82.0160652856382
 10
94.4580205391644
 20
-82.0160652856382
 10
94.4580205391644
 20
-88.1721468125540
 10
54.3555465923988
 20
-88.1721468125540
  0
TEXT
  5
F10914
330
F10915
 100
AcDbEntity
8
Text
100
AcDbText
10
55.5000000000000
20
-84.0414961963177
30
0.000000000000000
40
0.750000000000000
1
Tool material:
100
AcDbText
  0
TEXT
  5
F10916
330
F10917
 100
AcDbEntity
8
Text
100
AcDbText
10
0.000000000000000
20
0.250000000000000
30
0.000000000000000
40
0.750000000000000
1

100
AcDbText
  0
LWPOLYLINE
  5
F10918
330
F10919
100
AcDbEntity
8
Rahmen
100
AcDbPolyline
90
   4
70
   1
43
   0.0
 10
94.4580205391644
 20
-79.0259685439934
 10
134.384606442304
 20
-79.0259685439934
 10
134.384606442304
 20
-82.0160652856382
 10
94.4580205391644
 20
-82.0160652856382
  0
TEXT
  5
F1091A
330
F1091B
 100
AcDbEntity
8
Text
100
AcDbText
10
0.000000000000000
20
0.500000000000000
30
0.000000000000000
40
1.50000000000000
1

100
AcDbText
  0
TEXT
  5
F1091C
330
F1091D
 100
AcDbEntity
8
Text
100
AcDbText
10
0.000000000000000
20
0.250000000000000
30
0.000000000000000
40
0.750000000000000
1

100
AcDbText
  0
LWPOLYLINE
  5
F1091E
330
F1091F
100
AcDbEntity
8
Rahmen
100
AcDbPolyline
90
   4
70
   1
43
   0.0
 10
54.3555465923988
 20
-79.0259685439934
 10
94.4580205391644
 20
-79.0259685439934
 10
94.4580205391644
 20
-82.0160652856382
 10
54.3555465923988
 20
-82.0160652856382
  0
TEXT
  5
F10920
330
F10921
 100
AcDbEntity
8
Text
100
AcDbText
10
55.5000000000000
20
-81.0414961963177
30
0.000000000000000
40
0.750000000000000
1
Scale:
100
AcDbText
  0
TEXT
  5
F10922
330
F10923
 100
AcDbEntity
8
Text
100
AcDbText
10
81.1808396728038
20
-81.0414961963177
30
0.000000000000000
40
0.750000000000000
1
2 : 1
100
AcDbText
0
VIEWPORT
5
294
102
{ACAD_XDICTIONARY
360
58A
102
}
330
25D
100
AcDbEntity
67
1
8
0
60
1
100
AcDbViewport
10
0.0
20
0.0
30
0.0
40
10.0
41
10.0
68
-1
69
1
12
0.0
22
0.0
13
0.0
23
0.0
14
1.0
24
1.0
15
0.0
25
0.0
16
0.0
26
0.0
36
1.0
17
0.0
27
0.0
37
0.0
42
0.0
43
0.0
44
0.0
45
10.0
50
0.0
51
0.0000000000007958
72
100
90
32800
1

281
0
71
0
74
0
110
0.0
120
0.0
130
0.0
111
1.0
121
0.0
131
0.0
112
0.0
122
1.0
132
0.0
79
0
146
0.0
1001
VD_INVISIBLE_NOT_FOR_READ
1000
VD_INVISIBLE_NOT_FOR_READ
0
VIEWPORT
5
295
102
{ACAD_XDICTIONARY
360
58C
102
}
330
25D
100
AcDbEntity
67
1
8
0
60
1
100
AcDbViewport
10
0.0
20
0.0
30
0.0
40
10.0
41
10.0
68
0
69
2
12
0.0
22
0.0
13
0.0
23
0.0
14
1.0
24
1.0
15
0.0
25
0.0
16
0.0
26
0.0
36
1.0
17
0.0
27
0.0
37
0.0
42
0.0
43
0.0
44
0.0
45
10.0
50
0.0
51
0.0000000000007958
72
100
90
163872
1

281
0
71
0
74
0
110
0.0
120
0.0
130
0.0
111
1.0
121
0.0
131
0.0
112
0.0
122
1.0
132
0.0
79
0
146
0.0
1001
VD_INVISIBLE_NOT_FOR_READ
1000
VD_INVISIBLE_NOT_FOR_READ
0
ENDSEC
0
SECTION
2
OBJECTS
0
DICTIONARY
5
13
330
0
100
AcDbDictionary
281
1
3
ACAD_COLOR
350
FA7
3
ACAD_GROUP
350
14
3
ACAD_LAYOUT
350
FCF
3
ACAD_MATERIAL
350
F7A
3
ACAD_MLEADERSTYLE
350
FCD
3
ACAD_MLINESTYLE
350
16
3
ACAD_PLOTSETTINGS
350
17
3
ACAD_PLOTSTYLENAME
350
18
3
ACAD_SCALELIST
350
FAB
3
ACAD_TABLESTYLE
350
FA8
3
ACAD_VISUALSTYLE
350
F93
3
ACDB_RECOMPOSE_DATA
350
107E
3
AcDbVariableDictionary
350
FF0
3
DWGPROPS
350
107F
0
DICTIONARY
5
F10019
330
F10018
100
AcDbDictionary
280
1
281
1
3
ACAD_MTEXT_2008_RT
360
F1001A
0
DICTIONARY
5
F1001E
330
F1001D
100
AcDbDictionary
280
1
281
1
3
ACAD_MTEXT_2008_RT
360
F1001F
0
DICTIONARY
5
F10028
330
F10027
100
AcDbDictionary
280
1
281
1
3
ACAD_MTEXT_2008_RT
360
F10029
0
DICTIONARY
5
F1002D
330
F1002C
100
AcDbDictionary
280
1
281
1
3
ACAD_MTEXT_2008_RT
360
F1002E
0
DICTIONARY
5
F10005
330
F10004
100
AcDbDictionary
280
1
281
1
3
ACAD_MTEXT_2008_RT
360
F10006
0
DICTIONARY
5
F1000F
330
F1000E
100
AcDbDictionary
280
1
281
1
3
ACAD_MTEXT_2008_RT
360
F10010
0
DICTIONARY
5
F1000A
330
F10009
100
AcDbDictionary
280
1
281
1
3
ACAD_MTEXT_2008_RT
360
F1000B
0
DICTIONARY
5
F10014
330
F10013
100
AcDbDictionary
280
1
281
1
3
ACAD_MTEXT_2008_RT
360
F10015
0
DICTIONARY
5
F10023
330
F10022
100
AcDbDictionary
280
1
281
1
3
ACAD_MTEXT_2008_RT
360
F10024
0
DICTIONARY
5
FA7
102
{ACAD_REACTORS
330
13
102
}
330
13
100
AcDbDictionary
281
1
0
DICTIONARY
5
14
330
13
100
AcDbDictionary
281
1
0
DICTIONARY
5
FCF
102
{ACAD_REACTORS
330
13
102
}
330
13
100
AcDbDictionary
281
1
3
Layout1
350
FD1
3
Model
350
FD0
0
DICTIONARY
5
F7A
102
{ACAD_REACTORS
330
13
102
}
330
13
100
AcDbDictionary
281
1
3
ByBlock
350
F83
3
ByLayer
350
F7B
3
Global
350
F8B
0
DICTIONARY
5
FCD
102
{ACAD_REACTORS
330
13
102
}
330
13
100
AcDbDictionary
281
1
3
Standard
350
FCE
0
DICTIONARY
5
16
330
13
100
AcDbDictionary
281
1
3
Standard
350
FAA
0
DICTIONARY
5
17
102
{ACAD_REACTORS
330
13
102
}
330
13
100
AcDbDictionary
281
1
0
ACDBDICTIONARYWDFLT
5
18
102
{ACAD_REACTORS
330
13
102
}
330
13
100
AcDbDictionary
281
1
3
Normal
350
19
100
AcDbDictionaryWithDefault
340
19
0
DICTIONARY
5
FAB
102
{ACAD_REACTORS
330
13
102
}
330
13
100
AcDbDictionary
281
1
3
A0
350
FAC
3
A1
350
FAD
3
A2
350
FAE
3
A3
350
FAF
3
A4
350
FB0
3
A5
350
FB1
3
A6
350
FB2
3
A7
350
FB3
3
A8
350
FB4
3
A9
350
FB5
3
B0
350
FB6
3
B1
350
FB7
3
B2
350
FB8
3
B3
350
FB9
3
B4
350
FBA
3
B5
350
FBB
3
B6
350
FBC
3
B7
350
FBD
3
B8
350
FBE
3
B9
350
FBF
3
C0
350
FC0
3
C1
350
FC1
3
C2
350
FC2
3
C3
350
FC3
3
C4
350
FC4
3
C5
350
FC5
3
C6
350
FC6
3
C7
350
FC7
3
C8
350
FC8
3
C9
350
FC9
3
D0
350
FCA
3
D1
350
FCB
3
D2
350
FCC
0
DICTIONARY
5
FA8
102
{ACAD_REACTORS
330
13
102
}
330
13
100
AcDbDictionary
281
1
3
Standard
350
FA9
0
DICTIONARY
5
F93
102
{ACAD_REACTORS
330
13
102
}
330
13
100
AcDbDictionary
281
1
3
2dWireframe
350
F99
3
3D Hidden
350
F9B
3
3dWireframe
350
F9A
3
Basic
350
F98
3
Brighten
350
F9F
3
ColorChange
350
FA3
3
Conceptual
350
F9C
3
Dim
350
F9E
3
EdgeColorOff
350
FA6
3
Facepattern
350
FA2
3
Flat
350
F94
3
FlatWithEdges
350
F95
3
Gouraud
350
F96
3
GouraudWithEdges
350
F97
3
JitterOff
350
FA4
3
Linepattern
350
FA1
3
OverhangOff
350
FA5
3
Realistic
350
F9D
3
Thicken
350
FA0
0
XRECORD
5
107E
102
{ACAD_REACTORS
330
13
102
}
330
13
100
AcDbXrecord
280
1
90
1
330
FA9
330
F10018
330
F1001D
330
F10027
330
F1002C
330
F10004
330
F1000E
330
F10009
330
F10013
330
F10022
0
XRECORD
5
F1001A
102
{ACAD_REACTORS
330
F10019
102
}
330
F10019
100
AcDbXrecord
280
1
40
48458.0
1
35
0
XRECORD
5
F1001F
102
{ACAD_REACTORS
330
F1001E
102
}
330
F1001E
100
AcDbXrecord
280
1
40
48458.0
1
54
0
XRECORD
5
F10029
102
{ACAD_REACTORS
330
F10028
102
}
330
F10028
100
AcDbXrecord
280
1
40
48458.0
1
19
0
XRECORD
5
F1002E
102
{ACAD_REACTORS
330
F1002D
102
}
330
F1002D
100
AcDbXrecord
280
1
40
48458.0
1
89
0
XRECORD
5
F10006
102
{ACAD_REACTORS
330
F10005
102
}
330
F10005
100
AcDbXrecord
280
1
40
48458.0
1
2°
0
XRECORD
5
F10010
102
{ACAD_REACTORS
330
F1000F
102
}
330
F1000F
100
AcDbXrecord
280
1
40
48458.0
1
R0.5
0
XRECORD
5
F1000B
102
{ACAD_REACTORS
330
F1000A
102
}
330
F1000A
100
AcDbXrecord
280
1
40
48458.0
1
16
0
XRECORD
5
F10015
102
{ACAD_REACTORS
330
F10014
102
}
330
F10014
100
AcDbXrecord
280
1
40
48458.0
1
15.4
0
LAYOUT
5
FD1
102
{ACAD_XDICTIONARY
360
10A9
102
}
102
{ACAD_REACTORS
330
FCF
102
}
330
FCF
100
AcDbPlotSettings
1

2
Microsoft XPS Document Writer
4

6

40
0.0
41
0.0
42
0.0
43
0.0
44
0.0
45
0.0
46
0.0
47
0.0
48
0.0
49
0.0
140
0.0
141
0.0
142
1.0
143
1.0
70
688
72
0
73
0
74
5
7

75
16
147
1.0
148
0.0
149
0.0
100
AcDbLayout
1
Layout1
70
1
71
1
10
0.0
20
0.0
11
12.0
21
9.0
12
0.0
22
0.0
32
0.0
14
1.000000000000000E+20
24
1.000000000000000E+20
34
1.000000000000000E+20
15
-1.000000000000000E+20
25
-1.000000000000000E+20
35
-1.000000000000000E+20
146
0.0
13
0.0
23
0.0
33
0.0
16
1.0
26
0.0
36
0.0
17
0.0
27
1.0
37
0.0
76
0
330
25D
0
LAYOUT
5
FD0
102
{ACAD_XDICTIONARY
360
10A7
102
}
102
{ACAD_REACTORS
330
FCF
102
}
330
FCF
100
AcDbPlotSettings
1

2
Microsoft XPS Document Writer
4

6

40
0.0
41
0.0
42
0.0
43
0.0
44
0.0
45
0.0
46
0.0
47
0.0
48
0.0
49
0.0
140
0.0
141
0.0
142
1.0
143
1.0
70
1712
72
0
73
0
74
0
7

75
0
147
1.0
148
0.0
149
0.0
100
AcDbLayout
1
Model
70
1
71
0
10
0.0
20
0.0
11
12.0
21
9.0
12
0.0
22
0.0
32
0.0
14
0.0
24
0.0
34
0.0
15
0.0
25
0.0
35
0.0
146
0.0
13
0.0
23
0.0
33
0.0
16
1.0
26
0.0
36
0.0
17
0.0
27
1.0
37
0.0
76
0
330
261
331
26B
0
MATERIAL
5
F83
102
{ACAD_XDICTIONARY
360
F84
102
}
102
{ACAD_REACTORS
330
F7A
102
}
330
F7A
100
AcDbMaterial
1
ByBlock
72
0
43
0.0208333333333333
43
0.0
43
0.0
43
0.0
43
0.0
43
0.0208333333333333
43
0.0
43
0.0
43
0.0
43
0.0
43
1.0
43
0.0
43
0.0
43
0.0
43
0.0
43
1.0
77
0
47
0.0208333333333333
47
0.0
47
0.0
47
0.0
47
0.0
47
0.0208333333333333
47
0.0
47
0.0
47
0.0
47
0.0
47
1.0
47
0.0
47
0.0
47
0.0
47
0.0
47
1.0
171
0
49
0.0208333333333333
49
0.0
49
0.0
49
0.0
49
0.0
49
0.0208333333333333
49
0.0
49
0.0
49
0.0
49
0.0
49
1.0
49
0.0
49
0.0
49
0.0
49
0.0
49
1.0
175
0
142
0.0208333333333333
142
0.0
142
0.0
142
0.0
142
0.0
142
0.0208333333333333
142
0.0
142
0.0
142
0.0
142
0.0
142
1.0
142
0.0
142
0.0
142
0.0
142
0.0
142
1.0
179
0
144
0.0208333333333333
144
0.0
144
0.0
144
0.0
144
0.0
144
0.0208333333333333
144
0.0
144
0.0
144
0.0
144
0.0
144
1.0
144
0.0
144
0.0
144
0.0
144
0.0
144
1.0
147
0.0208333333333333
147
0.0
147
0.0
147
0.0
147
0.0
147
0.0208333333333333
147
0.0
147
0.0
147
0.0
147
0.0
147
1.0
147
0.0
147
0.0
147
0.0
147
0.0
147
1.0
0
MATERIAL
5
F7B
102
{ACAD_XDICTIONARY
360
F7C
102
}
102
{ACAD_REACTORS
330
F7A
102
}
330
F7A
100
AcDbMaterial
1
ByLayer
72
0
43
0.0208333333333333
43
0.0
43
0.0
43
0.0
43
0.0
43
0.0208333333333333
43
0.0
43
0.0
43
0.0
43
0.0
43
1.0
43
0.0
43
0.0
43
0.0
43
0.0
43
1.0
77
0
47
0.0208333333333333
47
0.0
47
0.0
47
0.0
47
0.0
47
0.0208333333333333
47
0.0
47
0.0
47
0.0
47
0.0
47
1.0
47
0.0
47
0.0
47
0.0
47
0.0
47
1.0
171
0
49
0.0208333333333333
49
0.0
49
0.0
49
0.0
49
0.0
49
0.0208333333333333
49
0.0
49
0.0
49
0.0
49
0.0
49
1.0
49
0.0
49
0.0
49
0.0
49
0.0
49
1.0
175
0
142
0.0208333333333333
142
0.0
142
0.0
142
0.0
142
0.0
142
0.0208333333333333
142
0.0
142
0.0
142
0.0
142
0.0
142
1.0
142
0.0
142
0.0
142
0.0
142
0.0
142
1.0
179
0
144
0.0208333333333333
144
0.0
144
0.0
144
0.0
144
0.0
144
0.0208333333333333
144
0.0
144
0.0
144
0.0
144
0.0
144
1.0
144
0.0
144
0.0
144
0.0
144
0.0
144
1.0
147
0.0208333333333333
147
0.0
147
0.0
147
0.0
147
0.0
147
0.0208333333333333
147
0.0
147
0.0
147
0.0
147
0.0
147
1.0
147
0.0
147
0.0
147
0.0
147
0.0
147
1.0
0
MATERIAL
5
F8B
102
{ACAD_XDICTIONARY
360
F8C
102
}
102
{ACAD_REACTORS
330
F7A
102
}
330
F7A
100
AcDbMaterial
1
Global
72
0
43
0.0208333333333333
43
0.0
43
0.0
43
0.0
43
0.0
43
0.0208333333333333
43
0.0
43
0.0
43
0.0
43
0.0
43
1.0
43
0.0
43
0.0
43
0.0
43
0.0
43
1.0
77
0
47
0.0208333333333333
47
0.0
47
0.0
47
0.0
47
0.0
47
0.0208333333333333
47
0.0
47
0.0
47
0.0
47
0.0
47
1.0
47
0.0
47
0.0
47
0.0
47
0.0
47
1.0
171
0
49
0.0208333333333333
49
0.0
49
0.0
49
0.0
49
0.0
49
0.0208333333333333
49
0.0
49
0.0
49
0.0
49
0.0
49
1.0
49
0.0
49
0.0
49
0.0
49
0.0
49
1.0
175
0
142
0.0208333333333333
142
0.0
142
0.0
142
0.0
142
0.0
142
0.0208333333333333
142
0.0
142
0.0
142
0.0
142
0.0
142
1.0
142
0.0
142
0.0
142
0.0
142
0.0
142
1.0
179
0
144
0.0208333333333333
144
0.0
144
0.0
144
0.0
144
0.0
144
0.0208333333333333
144
0.0
144
0.0
144
0.0
144
0.0
144
1.0
144
0.0
144
0.0
144
0.0
144
0.0
144
1.0
147
0.0208333333333333
147
0.0
147
0.0
147
0.0
147
0.0
147
0.0208333333333333
147
0.0
147
0.0
147
0.0
147
0.0
147
1.0
147
0.0
147
0.0
147
0.0
147
0.0
147
1.0
0
MLEADERSTYLE
5
FCE
102
{ACAD_REACTORS
330
FCD
102
}
330
FCD
100
AcDbMLeaderStyle
170
2
171
1
172
0
90
2
40
0.0
41
0.0
173
1
91
-1056964608
340
256
92
-2
290
1
42
0.09
291
1
43
0.36
3
Standard
44
0.18
300

342
253
174
1
178
6
175
1
176
0
93
-1056964608
45
0.18
292
0
297
0
46
0.18
94
-1056964608
47
1.0
49
1.0
140
1.0
293
1
141
0.0
294
1
177
0
142
1.0
295
0
296
0
143
0.125
1001
ACAD_MLEADERVER
1070
2
0
MLINESTYLE
5
FAA
102
{ACAD_REACTORS
330
16
102
}
330
16
100
AcDbMlineStyle
2
STANDARD
70
0
3

62
256
51
90.0
52
90.0
71
2
49
0.5
62
256
6
BYLAYER
49
-0.5
62
256
6
BYLAYER
0
ACDBPLACEHOLDER
5
19
102
{ACAD_REACTORS
330
18
102
}
330
18
0
SCALE
5
FAC
102
{ACAD_REACTORS
330
FAB
102
}
330
FAB
100
AcDbScale
70
0
300
1:1
140
1.0
141
1.0
290
1
0
SCALE
5
FAD
102
{ACAD_REACTORS
330
FAB
102
}
330
FAB
100
AcDbScale
70
0
300
1:2
140
1.0
141
2.0
290
0
0
SCALE
5
FAE
102
{ACAD_REACTORS
330
FAB
102
}
330
FAB
100
AcDbScale
70
0
300
1:4
140
1.0
141
4.0
290
0
0
SCALE
5
FAF
102
{ACAD_REACTORS
330
FAB
102
}
330
FAB
100
AcDbScale
70
0
300
1:5
140
1.0
141
5.0
290
0
0
SCALE
5
FB0
102
{ACAD_REACTORS
330
FAB
102
}
330
FAB
100
AcDbScale
70
0
300
1:8
140
1.0
141
8.0
290
0
0
SCALE
5
FB1
102
{ACAD_REACTORS
330
FAB
102
}
330
FAB
100
AcDbScale
70
0
300
1:10
140
1.0
141
10.0
290
0
0
SCALE
5
FB2
102
{ACAD_REACTORS
330
FAB
102
}
330
FAB
100
AcDbScale
70
0
300
1:16
140
1.0
141
16.0
290
0
0
SCALE
5
FB3
102
{ACAD_REACTORS
330
FAB
102
}
330
FAB
100
AcDbScale
70
0
300
1:20
140
1.0
141
20.0
290
0
0
SCALE
5
FB4
102
{ACAD_REACTORS
330
FAB
102
}
330
FAB
100
AcDbScale
70
0
300
1:30
140
1.0
141
30.0
290
0
0
SCALE
5
FB5
102
{ACAD_REACTORS
330
FAB
102
}
330
FAB
100
AcDbScale
70
0
300
1:40
140
1.0
141
40.0
290
0
0
SCALE
5
FB6
102
{ACAD_REACTORS
330
FAB
102
}
330
FAB
100
AcDbScale
70
0
300
1:50
140
1.0
141
50.0
290
0
0
SCALE
5
FB7
102
{ACAD_REACTORS
330
FAB
102
}
330
FAB
100
AcDbScale
70
0
300
1:100
140
1.0
141
100.0
290
0
0
SCALE
5
FB8
102
{ACAD_REACTORS
330
FAB
102
}
330
FAB
100
AcDbScale
70
0
300
2:1
140
2.0
141
1.0
290
0
0
SCALE
5
FB9
102
{ACAD_REACTORS
330
FAB
102
}
330
FAB
100
AcDbScale
70
0
300
4:1
140
4.0
141
1.0
290
0
0
SCALE
5
FBA
102
{ACAD_REACTORS
330
FAB
102
}
330
FAB
100
AcDbScale
70
0
300
8:1
140
8.0
141
1.0
290
0
0
SCALE
5
FBB
102
{ACAD_REACTORS
330
FAB
102
}
330
FAB
100
AcDbScale
70
0
300
10:1
140
10.0
141
1.0
290
0
0
SCALE
5
FBC
102
{ACAD_REACTORS
330
FAB
102
}
330
FAB
100
AcDbScale
70
0
300
100:1
140
100.0
141
1.0
290
0
0
SCALE
5
FBD
102
{ACAD_REACTORS
330
FAB
102
}
330
FAB
100
AcDbScale
70
0
300
1/128" = 1'-0"
140
0.0078125
141
12.0
290
0
0
SCALE
5
FBE
102
{ACAD_REACTORS
330
FAB
102
}
330
FAB
100
AcDbScale
70
0
300
1/64" = 1'-0"
140
0.015625
141
12.0
290
0
0
SCALE
5
FBF
102
{ACAD_REACTORS
330
FAB
102
}
330
FAB
100
AcDbScale
70
0
300
1/32" = 1'-0"
140
0.03125
141
12.0
290
0
0
SCALE
5
FC0
102
{ACAD_REACTORS
330
FAB
102
}
330
FAB
100
AcDbScale
70
0
300
1/16" = 1'-0"
140
0.0625
141
12.0
290
0
0
SCALE
5
FC1
102
{ACAD_REACTORS
330
FAB
102
}
330
FAB
100
AcDbScale
70
0
300
3/32" = 1'-0"
140
0.09375
141
12.0
290
0
0
SCALE
5
FC2
102
{ACAD_REACTORS
330
FAB
102
}
330
FAB
100
AcDbScale
70
0
300
1/8" = 1'-0"
140
0.125
141
12.0
290
0
0
SCALE
5
FC3
102
{ACAD_REACTORS
330
FAB
102
}
330
FAB
100
AcDbScale
70
0
300
3/16" = 1'-0"
140
0.1875
141
12.0
290
0
0
SCALE
5
FC4
102
{ACAD_REACTORS
330
FAB
102
}
330
FAB
100
AcDbScale
70
0
300
1/4" = 1'-0"
140
0.25
141
12.0
290
0
0
SCALE
5
FC5
102
{ACAD_REACTORS
330
FAB
102
}
330
FAB
100
AcDbScale
70
0
300
3/8" = 1'-0"
140
0.375
141
12.0
290
0
0
SCALE
5
FC6
102
{ACAD_REACTORS
330
FAB
102
}
330
FAB
100
AcDbScale
70
0
300
1/2" = 1'-0"
140
0.5
141
12.0
290
0
0
SCALE
5
FC7
102
{ACAD_REACTORS
330
FAB
102
}
330
FAB
100
AcDbScale
70
0
300
3/4" = 1'-0"
140
0.75
141
12.0
290
0
0
SCALE
5
FC8
102
{ACAD_REACTORS
330
FAB
102
}
330
FAB
100
AcDbScale
70
0
300
1" = 1'-0"
140
1.0
141
12.0
290
0
0
SCALE
5
FC9
102
{ACAD_REACTORS
330
FAB
102
}
330
FAB
100
AcDbScale
70
0
300
1-1/2" = 1'-0"
140
1.5
141
12.0
290
0
0
SCALE
5
FCA
102
{ACAD_REACTORS
330
FAB
102
}
330
FAB
100
AcDbScale
70
0
300
3" = 1'-0"
140
3.0
141
12.0
290
0
0
SCALE
5
FCB
102
{ACAD_REACTORS
330
FAB
102
}
330
FAB
100
AcDbScale
70
0
300
6" = 1'-0"
140
6.0
141
12.0
290
0
0
SCALE
5
FCC
102
{ACAD_REACTORS
330
FAB
102
}
330
FAB
100
AcDbScale
70
0
300
1'-0" = 1'-0"
140
12.0
141
12.0
290
0
0
TABLESTYLE
5
FA9
102
{ACAD_XDICTIONARY
360
FF8
102
}
102
{ACAD_REACTORS
330
FA8
102
}
330
FA8
100
AcDbTableStyle
3
Standard
70
0
71
0
40
0.06
41
0.06
280
0
281
0
7
Standard
140
0.18
170
2
62
0
63
7
283
0
274
-2
284
1
64
0
275
-2
285
1
65
0
276
-2
286
1
66
0
277
-2
287
1
67
0
278
-2
288
1
68
0
279
-2
289
1
69
0
7
Standard
140
0.25
170
5
62
0
63
7
283
0
274
-2
284
1
64
0
275
-2
285
1
65
0
276
-2
286
1
66
0
277
-2
287
1
67
0
278
-2
288
1
68
0
279
-2
289
1
69
0
7
Standard
140
0.18
170
5
62
0
63
7
283
0
274
-2
284
1
64
0
275
-2
285
1
65
0
276
-2
286
1
66
0
277
-2
287
1
67
0
278
-2
288
1
68
0
279
-2
289
1
69
0
0
VISUALSTYLE
5
F99
102
{ACAD_XDICTIONARY
360
108A
102
}
102
{ACAD_REACTORS
330
F93
102
}
330
F93
100
AcDbVisualStyle
2

70
4
71
0
72
2
73
0
90
0
40
-0.6
41
-30.0
62
5
63
7
74
1
91
4
64
7
65
257
75
1
175
1
42
1.0
92
0
66
257
43
1.0
76
1
77
6
78
2
67
7
79
5
170
0
171
0
290
0
174
0
93
1
44
0.0
173
0
291
0
45
0.0
1001
ACAD
1000
AcDbSavedByObjectVersion
1070
0
0
VISUALSTYLE
5
F9B
102
{ACAD_XDICTIONARY
360
108E
102
}
102
{ACAD_REACTORS
330
F93
102
}
330
F93
100
AcDbVisualStyle
2

70
6
71
1
72
2
73
2
90
0
40
-0.6
41
-30.0
62
5
63
7
74
2
91
2
64
7
65
257
75
2
175
1
42
179.0
92
0
66
257
43
1.0
76
1
77
6
78
2
67
7
79
3
170
0
171
0
290
0
174
0
93
1
44
0.0
173
0
291
0
45
0.0
1001
ACAD
1000
AcDbSavedByObjectVersion
1070
0
0
VISUALSTYLE
5
F9A
102
{ACAD_XDICTIONARY
360
108C
102
}
102
{ACAD_REACTORS
330
F93
102
}
330
F93
100
AcDbVisualStyle
2

70
5
71
0
72
2
73
0
90
0
40
-0.6
41
-30.0
62
5
63
7
74
1
91
4
64
7
65
257
75
1
175
1
42
1.0
92
0
66
257
43
1.0
76
1
77
6
78
2
67
7
79
5
170
0
171
0
290
0
174
0
93
1
44
0.0
173
0
291
0
45
0.0
1001
ACAD
1000
AcDbSavedByObjectVersion
1070
0
0
VISUALSTYLE
5
F98
102
{ACAD_XDICTIONARY
360
1088
102
}
102
{ACAD_REACTORS
330
F93
102
}
330
F93
100
AcDbVisualStyle
2

70
7
71
1
72
0
73
1
90
0
40
-0.6
41
-30.0
62
5
63
7
74
0
91
4
64
7
65
257
75
1
175
1
42
1.0
92
8
66
7
43
1.0
76
1
77
6
78
2
67
7
79
5
170
0
171
0
290
0
174
0
93
1
44
0.0
173
0
291
1
45
0.0
1001
ACAD
1000
AcDbSavedByObjectVersion
1070
0
0
VISUALSTYLE
5
F9F
102
{ACAD_XDICTIONARY
360
1096
102
}
102
{ACAD_REACTORS
330
F93
102
}
330
F93
100
AcDbVisualStyle
2

70
12
71
2
72
2
73
0
90
0
40
-0.6
41
-30.0
62
5
63
7
74
1
91
4
64
7
65
257
75
1
175
1
42
1.0
92
8
66
7
43
1.0
76
1
77
6
78
2
67
7
79
5
170
0
171
0
290
0
174
0
93
1
44
50.0
173
0
291
1
45
0.0
1001
ACAD
1000
AcDbSavedByObjectVersion
1070
0
0
VISUALSTYLE
5
FA3
102
{ACAD_XDICTIONARY
360
109E
102
}
102
{ACAD_REACTORS
330
F93
102
}
330
F93
100
AcDbVisualStyle
2

70
16
71
2
72
2
73
3
90
0
40
-0.6
41
-30.0
62
5
63
8
74
1
91
4
64
7
65
257
75
1
175
1
42
1.0
92
8
66
8
43
1.0
76
1
77
6
78
2
67
7
79
5
170
0
171
0
290
0
174
0
93
1
44
0.0
173
0
291
1
45
0.0
1001
ACAD
1000
AcDbSavedByObjectVersion
1070
0
0
VISUALSTYLE
5
F9C
102
{ACAD_XDICTIONARY
360
1090
102
}
102
{ACAD_REACTORS
330
F93
102
}
330
F93
100
AcDbVisualStyle
2

70
9
71
3
72
2
73
0
90
0
40
-0.6
41
-30.0
62
5
63
7
74
2
91
2
64
7
65
257
75
1
175
1
42
179.0
92
8
66
7
43
1.0
76
1
77
6
78
2
67
7
79
3
170
0
171
0
290
0
174
0
93
1
44
0.0
173
0
291
0
45
0.0
1001
ACAD
1000
AcDbSavedByObjectVersion
1070
0
0
VISUALSTYLE
5
F9E
102
{ACAD_XDICTIONARY
360
1094
102
}
102
{ACAD_REACTORS
330
F93
102
}
330
F93
100
AcDbVisualStyle
2

70
11
71
2
72
2
73
0
90
0
40
-0.6
41
-30.0
62
5
63
7
74
1
91
4
64
7
65
257
75
1
175
1
42
1.0
92
8
66
7
43
1.0
76
1
77
6
78
2
67
7
79
5
170
0
171
0
290
0
174
0
93
1
44
-50.0
173
0
291
1
45
0.0
1001
ACAD
1000
AcDbSavedByObjectVersion
1070
0
0
VISUALSTYLE
5
FA6
102
{ACAD_XDICTIONARY
360
10A4
102
}
102
{ACAD_REACTORS
330
F93
102
}
330
F93
100
AcDbVisualStyle
2

70
22
71
2
72
2
73
0
90
0
40
-0.6
41
-30.0
62
5
63
7
74
1
91
4
64
7
65
257
75
1
175
1
42
1.0
92
8
66
7
43
1.0
76
1
77
6
78
2
67
7
79
5
170
0
171
0
290
0
174
0
93
1
44
0.0
173
0
291
1
45
0.0
1001
ACAD
1000
AcDbSavedByObjectVersion
1070
0
0
VISUALSTYLE
5
FA2
102
{ACAD_XDICTIONARY
360
109C
102
}
102
{ACAD_REACTORS
330
F93
102
}
330
F93
100
AcDbVisualStyle
2

70
15
71
2
72
2
73
0
90
0
40
-0.6
41
-30.0
62
5
63
7
74
1
91
4
64
7
65
257
75
1
175
1
42
1.0
92
8
66
7
43
1.0
76
1
77
6
78
2
67
7
79
5
170
0
171
0
290
0
174
0
93
1
44
0.0
173
0
291
1
45
0.0
1001
ACAD
1000
AcDbSavedByObjectVersion
1070
0
0
VISUALSTYLE
5
F94
102
{ACAD_XDICTIONARY
360
1080
102
}
102
{ACAD_REACTORS
330
F93
102
}
330
F93
100
AcDbVisualStyle
2

70
0
71
2
72
1
73
1
90
2
40
-0.6
41
30.0
62
5
63
7
74
0
91
4
64
7
65
257
75
1
175
1
42
1.0
92
8
66
7
43
1.0
76
1
77
6
78
2
67
7
79
5
170
0
171
0
290
0
174
0
93
13
44
0.0
173
0
291
1
45
0.0
1001
ACAD
1000
AcDbSavedByObjectVersion
1070
0
0
VISUALSTYLE
5
F95
102
{ACAD_XDICTIONARY
360
1082
102
}
102
{ACAD_REACTORS
330
F93
102
}
330
F93
100
AcDbVisualStyle
2

70
1
71
2
72
1
73
1
90
2
40
-0.6
41
30.0
62
5
63
7
74
1
91
4
64
7
65
257
75
1
175
1
42
1.0
92
0
66
257
43
1.0
76
1
77
6
78
2
67
7
79
5
170
0
171
0
290
0
174
0
93
13
44
0.0
173
0
291
1
45
0.0
1001
ACAD
1000
AcDbSavedByObjectVersion
1070
0
0
VISUALSTYLE
5
F96
102
{ACAD_XDICTIONARY
360
1084
102
}
102
{ACAD_REACTORS
330
F93
102
}
330
F93
100
AcDbVisualStyle
2

70
2
71
2
72
2
73
1
90
2
40
-0.6
41
30.0
62
5
63
7
74
0
91
4
64
7
65
257
75
1
175
1
42
1.0
92
0
66
7
43
1.0
76
1
77
6
78
2
67
7
79
5
170
0
171
0
290
0
174
0
93
13
44
0.0
173
0
291
1
45
0.0
1001
ACAD
1000
AcDbSavedByObjectVersion
1070
0
0
VISUALSTYLE
5
F97
102
{ACAD_XDICTIONARY
360
1086
102
}
102
{ACAD_REACTORS
330
F93
102
}
330
F93
100
AcDbVisualStyle
2

70
3
71
2
72
2
73
1
90
2
40
-0.6
41
30.0
62
5
63
7
74
1
91
4
64
7
65
257
75
1
175
1
42
1.0
92
0
66
257
43
1.0
76
1
77
6
78
2
67
7
79
5
170
0
171
0
290
0
174
0
93
13
44
0.0
173
0
291
1
45
0.0
1001
ACAD
1000
AcDbSavedByObjectVersion
1070
0
0
VISUALSTYLE
5
FA4
102
{ACAD_XDICTIONARY
360
10A0
102
}
102
{ACAD_REACTORS
330
F93
102
}
330
F93
100
AcDbVisualStyle
2

70
20
71
2
72
2
73
0
90
0
40
-0.6
41
-30.0
62
5
63
7
74
1
91
4
64
7
65
257
75
1
175
1
42
1.0
92
10
66
7
43
1.0
76
1
77
6
78
2
67
7
79
5
170
0
171
0
290
0
174
0
93
1
44
0.0
173
0
291
1
45
0.0
1001
ACAD
1000
AcDbSavedByObjectVersion
1070
0
0
VISUALSTYLE
5
FA1
102
{ACAD_XDICTIONARY
360
109A
102
}
102
{ACAD_REACTORS
330
F93
102
}
330
F93
100
AcDbVisualStyle
2

70
14
71
2
72
2
73
0
90
0
40
-0.6
41
-30.0
62
5
63
7
74
1
91
4
64
7
65
257
75
7
175
7
42
1.0
92
8
66
7
43
1.0
76
1
77
6
78
2
67
7
79
5
170
0
171
0
290
0
174
0
93
1
44
0.0
173
0
291
1
45
0.0
1001
ACAD
1000
AcDbSavedByObjectVersion
1070
0
0
VISUALSTYLE
5
FA5
102
{ACAD_XDICTIONARY
360
10A2
102
}
102
{ACAD_REACTORS
330
F93
102
}
330
F93
100
AcDbVisualStyle
2

70
21
71
2
72
2
73
0
90
0
40
-0.6
41
-30.0
62
5
63
7
74
1
91
4
64
7
65
257
75
1
175
1
42
1.0
92
9
66
7
43
1.0
76
1
77
6
78
2
67
7
79
5
170
0
171
0
290
0
174
0
93
1
44
0.0
173
0
291
1
45
0.0
1001
ACAD
1000
AcDbSavedByObjectVersion
1070
0
0
VISUALSTYLE
5
F9D
102
{ACAD_XDICTIONARY
360
1092
102
}
102
{ACAD_REACTORS
330
F93
102
}
330
F93
100
AcDbVisualStyle
2

70
8
71
2
72
2
73
0
90
0
40
-0.6
41
-30.0
62
5
63
7
74
1
91
0
64
7
65
257
75
1
175
1
42
1.0
92
8
66
8
43
1.0
76
1
77
6
78
2
67
7
79
5
170
0
171
0
290
0
174
0
93
13
44
0.0
173
0
291
0
45
0.0
1001
ACAD
1000
AcDbSavedByObjectVersion
1070
0
0
VISUALSTYLE
5
FA0
102
{ACAD_XDICTIONARY
360
1098
102
}
102
{ACAD_REACTORS
330
F93
102
}
330
F93
100
AcDbVisualStyle
2

70
13
71
2
72
2
73
0
90
0
40
-0.6
41
-30.0
62
5
63
7
74
1
91
4
64
7
65
257
75
1
175
1
42
1.0
92
12
66
7
43
1.0
76
1
77
6
78
2
67
7
79
5
170
0
171
0
290
0
174
0
93
1
44
0.0
173
0
291
1
45
0.0
1001
ACAD
1000
AcDbSavedByObjectVersion
1070
0
0
DICTIONARYVAR
5
FF3
102
{ACAD_REACTORS
330
FF0
102
}
330
FF0
100
DictionaryVariables
280
0
1
1:1
0
DICTIONARYVAR
5
FF2
102
{ACAD_REACTORS
330
FF0
102
}
330
FF0
100
DictionaryVariables
280
0
1
STANDARD
0
DICTIONARYVAR
5
FF1
102
{ACAD_REACTORS
330
FF0
102
}
330
FF0
100
DictionaryVariables
280
0
1
STANDARD
0
DICTIONARYVAR
5
FF6
102
{ACAD_REACTORS
330
FF0
102
}
330
FF0
100
DictionaryVariables
280
0
1
1
0
DICTIONARYVAR
5
FF5
102
{ACAD_REACTORS
330
FF0
102
}
330
FF0
100
DictionaryVariables
280
0
1
0
0
DICTIONARYVAR
5
FF4
102
{ACAD_REACTORS
330
FF0
102
}
330
FF0
100
DictionaryVariables
280
0
1
127
0
DICTIONARYVAR
5
1078
102
{ACAD_REACTORS
330
FF0
102
}
330
FF0
100
DictionaryVariables
280
0
1
2
0
DICTIONARY
5
10A9
330
FD1
100
AcDbDictionary
280
1
281
1
3
ACAD_XREC_ROUNDTRIP
360
10AA
0
DICTIONARY
5
10A7
330
FD0
100
AcDbDictionary
280
1
281
1
3
ACAD_XREC_ROUNDTRIP
360
10A8
0
DICTIONARY
5
F84
330
F83
100
AcDbDictionary
280
1
281
1
3
ACAD_XREC_ROUNDTRIP
360
FFF
3
BUMPTILE
360
F86
3
DIFFUSETILE
360
F85
3
OPACITYTILE
360
F89
3
REFLECTIONTILE
360
F88
3
REFRACTIONTILE
360
F8A
3
SPECULARTILE
360
F87
0
DICTIONARY
5
F7C
330
F7B
100
AcDbDictionary
280
1
281
1
3
ACAD_XREC_ROUNDTRIP
360
FFE
3
BUMPTILE
360
F7E
3
DIFFUSETILE
360
F7D
3
OPACITYTILE
360
F81
3
REFLECTIONTILE
360
F80
3
REFRACTIONTILE
360
F82
3
SPECULARTILE
360
F7F
0
DICTIONARY
5
F8C
330
F8B
100
AcDbDictionary
280
1
281
1
3
ACAD_XREC_ROUNDTRIP
360
1000
3
BUMPTILE
360
F8E
3
DIFFUSETILE
360
F8D
3
OPACITYTILE
360
F91
3
REFLECTIONTILE
360
F90
3
REFRACTIONTILE
360
F92
3
SPECULARTILE
360
F8F
0
DICTIONARY
5
FF8
330
FA9
100
AcDbDictionary
280
1
281
1
3
ACAD_ROUNDTRIP_2008_TABLESTYLE_CELLSTYLEMAP
360
1079
3
ACAD_XREC_ROUNDTRIP
360
10A6
0
DICTIONARY
5
108A
330
F99
100
AcDbDictionary
280
1
281
1
3
ACAD_XREC_ROUNDTRIP
360
108B
0
DICTIONARY
5
108E
330
F9B
100
AcDbDictionary
280
1
281
1
3
ACAD_XREC_ROUNDTRIP
360
108F
0
DICTIONARY
5
108C
330
F9A
100
AcDbDictionary
280
1
281
1
3
ACAD_XREC_ROUNDTRIP
360
108D
0
DICTIONARY
5
1088
330
F98
100
AcDbDictionary
280
1
281
1
3
ACAD_XREC_ROUNDTRIP
360
1089
0
DICTIONARY
5
1096
330
F9F
100
AcDbDictionary
280
1
281
1
3
ACAD_XREC_ROUNDTRIP
360
1097
0
DICTIONARY
5
109E
330
FA3
100
AcDbDictionary
280
1
281
1
3
ACAD_XREC_ROUNDTRIP
360
109F
0
DICTIONARY
5
1090
330
F9C
100
AcDbDictionary
280
1
281
1
3
ACAD_XREC_ROUNDTRIP
360
1091
0
DICTIONARY
5
1094
330
F9E
100
AcDbDictionary
280
1
281
1
3
ACAD_XREC_ROUNDTRIP
360
1095
0
DICTIONARY
5
10A4
330
FA6
100
AcDbDictionary
280
1
281
1
3
ACAD_XREC_ROUNDTRIP
360
10A5
0
DICTIONARY
5
109C
330
FA2
100
AcDbDictionary
280
1
281
1
3
ACAD_XREC_ROUNDTRIP
360
109D
0
DICTIONARY
5
1080
330
F94
100
AcDbDictionary
280
1
281
1
3
ACAD_XREC_ROUNDTRIP
360
1081
0
DICTIONARY
5
1082
330
F95
100
AcDbDictionary
280
1
281
1
3
ACAD_XREC_ROUNDTRIP
360
1083
0
DICTIONARY
5
1084
330
F96
100
AcDbDictionary
280
1
281
1
3
ACAD_XREC_ROUNDTRIP
360
1085
0
DICTIONARY
5
1086
330
F97
100
AcDbDictionary
280
1
281
1
3
ACAD_XREC_ROUNDTRIP
360
1087
0
DICTIONARY
5
10A0
330
FA4
100
AcDbDictionary
280
1
281
1
3
ACAD_XREC_ROUNDTRIP
360
10A1
0
DICTIONARY
5
109A
330
FA1
100
AcDbDictionary
280
1
281
1
3
ACAD_XREC_ROUNDTRIP
360
109B
0
DICTIONARY
5
10A2
330
FA5
100
AcDbDictionary
280
1
281
1
3
ACAD_XREC_ROUNDTRIP
360
10A3
0
DICTIONARY
5
1092
330
F9D
100
AcDbDictionary
280
1
281
1
3
ACAD_XREC_ROUNDTRIP
360
1093
0
DICTIONARY
5
1098
330
FA0
100
AcDbDictionary
280
1
281
1
3
ACAD_XREC_ROUNDTRIP
360
1099
0
XRECORD
5
10AA
102
{ACAD_REACTORS
330
10A9
102
}
330
10A9
100
AcDbXrecord
280
1
102
SHADEPLOT
70
0
102
SHADEPLOTRESLEVEL
70
2
102
SHADEPLOTCUSTOMDPI
70
300
0
XRECORD
5
10A8
102
{ACAD_REACTORS
330
10A7
102
}
330
10A7
100
AcDbXrecord
280
1
102
SHADEPLOT
70
0
102
SHADEPLOTRESLEVEL
70
2
102
SHADEPLOTCUSTOMDPI
70
300
0
XRECORD
5
FFF
102
{ACAD_REACTORS
330
F84
102
}
330
F84
100
AcDbXrecord
280
1
102
MATERIAL
148
0.0
149
0.0
149
0.0
93
0
94
127
282
0
72
0
77
0
171
0
175
0
179
0
273
0
0
XRECORD
5
F86
102
{ACAD_REACTORS
330
F84
102
}
330
F84
100
AcDbXrecord
280
1
270
1
271
1
0
XRECORD
5
F85
102
{ACAD_REACTORS
330
F84
102
}
330
F84
100
AcDbXrecord
280
1
270
1
271
1
0
XRECORD
5
F89
102
{ACAD_REACTORS
330
F84
102
}
330
F84
100
AcDbXrecord
280
1
270
1
271
1
0
XRECORD
5
F88
102
{ACAD_REACTORS
330
F84
102
}
330
F84
100
AcDbXrecord
280
1
270
1
271
1
0
XRECORD
5
F8A
102
{ACAD_REACTORS
330
F84
102
}
330
F84
100
AcDbXrecord
280
1
270
1
271
1
0
XRECORD
5
F87
102
{ACAD_REACTORS
330
F84
102
}
330
F84
100
AcDbXrecord
280
1
270
1
271
1
0
XRECORD
5
FFE
102
{ACAD_REACTORS
330
F7C
102
}
330
F7C
100
AcDbXrecord
280
1
102
MATERIAL
148
0.0
149
0.0
149
0.0
93
0
94
127
282
0
72
0
77
0
171
0
175
0
179
0
273
0
0
XRECORD
5
F7E
102
{ACAD_REACTORS
330
F7C
102
}
330
F7C
100
AcDbXrecord
280
1
270
1
271
1
0
XRECORD
5
F7D
102
{ACAD_REACTORS
330
F7C
102
}
330
F7C
100
AcDbXrecord
280
1
270
1
271
1
0
XRECORD
5
F81
102
{ACAD_REACTORS
330
F7C
102
}
330
F7C
100
AcDbXrecord
280
1
270
1
271
1
0
XRECORD
5
F80
102
{ACAD_REACTORS
330
F7C
102
}
330
F7C
100
AcDbXrecord
280
1
270
1
271
1
0
XRECORD
5
F82
102
{ACAD_REACTORS
330
F7C
102
}
330
F7C
100
AcDbXrecord
280
1
270
1
271
1
0
XRECORD
5
F7F
102
{ACAD_REACTORS
330
F7C
102
}
330
F7C
100
AcDbXrecord
280
1
270
1
271
1
0
XRECORD
5
1000
102
{ACAD_REACTORS
330
F8C
102
}
330
F8C
100
AcDbXrecord
280
1
102
MATERIAL
148
0.0
149
0.0
149
0.0
93
0
94
127
282
0
72
0
77
0
171
0
175
0
179
0
273
0
0
XRECORD
5
F8E
102
{ACAD_REACTORS
330
F8C
102
}
330
F8C
100
AcDbXrecord
280
1
270
1
271
1
0
XRECORD
5
F8D
102
{ACAD_REACTORS
330
F8C
102
}
330
F8C
100
AcDbXrecord
280
1
270
1
271
1
0
XRECORD
5
F91
102
{ACAD_REACTORS
330
F8C
102
}
330
F8C
100
AcDbXrecord
280
1
270
1
271
1
0
XRECORD
5
F90
102
{ACAD_REACTORS
330
F8C
102
}
330
F8C
100
AcDbXrecord
280
1
270
1
271
1
0
XRECORD
5
F92
102
{ACAD_REACTORS
330
F8C
102
}
330
F8C
100
AcDbXrecord
280
1
270
1
271
1
0
XRECORD
5
F8F
102
{ACAD_REACTORS
330
F8C
102
}
330
F8C
100
AcDbXrecord
280
1
270
1
271
1
0
CELLSTYLEMAP
5
1079
102
{ACAD_REACTORS
330
FF8
102
}
330
FF8
100
AcDbCellStyleMap
90
3
300
CELLSTYLE
1
TABLEFORMAT_BEGIN
90
5
170
1
91
0
92
32768
62
257
93
1
300
CONTENTFORMAT
1
CONTENTFORMAT_BEGIN
90
0
91
0
92
512
93
0
300

40
0.0
140
1.0
94
5
62
0
340
253
144
0.25
309
CONTENTFORMAT_END
171
1
301
MARGIN
1
CELLMARGIN_BEGIN
40
0.06
40
0.06
40
0.06
40
0.06
40
0.18
40
0.18
309
CELLMARGIN_END
94
6
95
1
302
GRIDFORMAT
1
GRIDFORMAT_BEGIN
90
0
91
1
62
0
92
-2
340
0
93
0
40
0.045
309
GRIDFORMAT_END
95
2
302
GRIDFORMAT
1
GRIDFORMAT_BEGIN
90
0
91
1
62
0
92
-2
340
0
93
0
40
0.045
309
GRIDFORMAT_END
95
4
302
GRIDFORMAT
1
GRIDFORMAT_BEGIN
90
0
91
1
62
0
92
-2
340
0
93
0
40
0.045
309
GRIDFORMAT_END
95
8
302
GRIDFORMAT
1
GRIDFORMAT_BEGIN
90
0
91
1
62
0
92
-2
340
0
93
0
40
0.045
309
GRIDFORMAT_END
95
16
302
GRIDFORMAT
1
GRIDFORMAT_BEGIN
90
0
91
1
62
0
92
-2
340
0
93
0
40
0.045
309
GRIDFORMAT_END
95
32
302
GRIDFORMAT
1
GRIDFORMAT_BEGIN
90
0
91
1
62
0
92
-2
340
0
93
0
40
0.045
309
GRIDFORMAT_END
309
TABLEFORMAT_END
1
CELLSTYLE_BEGIN
90
1
91
1
300
_TITLE
309
CELLSTYLE_END
300
CELLSTYLE
1
TABLEFORMAT_BEGIN
90
5
170
1
91
0
92
0
62
257
93
1
300
CONTENTFORMAT
1
CONTENTFORMAT_BEGIN
90
0
91
0
92
512
93
0
300

40
0.0
140
1.0
94
5
62
0
340
253
144
0.18
309
CONTENTFORMAT_END
171
1
301
MARGIN
1
CELLMARGIN_BEGIN
40
0.06
40
0.06
40
0.06
40
0.06
40
0.18
40
0.18
309
CELLMARGIN_END
94
6
95
1
302
GRIDFORMAT
1
GRIDFORMAT_BEGIN
90
0
91
1
62
0
92
-2
340
0
93
0
40
0.045
309
GRIDFORMAT_END
95
2
302
GRIDFORMAT
1
GRIDFORMAT_BEGIN
90
0
91
1
62
0
92
-2
340
0
93
0
40
0.045
309
GRIDFORMAT_END
95
4
302
GRIDFORMAT
1
GRIDFORMAT_BEGIN
90
0
91
1
62
0
92
-2
340
0
93
0
40
0.045
309
GRIDFORMAT_END
95
8
302
GRIDFORMAT
1
GRIDFORMAT_BEGIN
90
0
91
1
62
0
92
-2
340
0
93
0
40
0.045
309
GRIDFORMAT_END
95
16
302
GRIDFORMAT
1
GRIDFORMAT_BEGIN
90
0
91
1
62
0
92
-2
340
0
93
0
40
0.045
309
GRIDFORMAT_END
95
32
302
GRIDFORMAT
1
GRIDFORMAT_BEGIN
90
0
91
1
62
0
92
-2
340
0
93
0
40
0.045
309
GRIDFORMAT_END
309
TABLEFORMAT_END
1
CELLSTYLE_BEGIN
90
2
91
1
300
_HEADER
309
CELLSTYLE_END
300
CELLSTYLE
1
TABLEFORMAT_BEGIN
90
5
170
1
91
0
92
0
62
257
93
1
300
CONTENTFORMAT
1
CONTENTFORMAT_BEGIN
90
0
91
0
92
512
93
0
300

40
0.0
140
1.0
94
2
62
0
340
253
144
0.18
309
CONTENTFORMAT_END
171
1
301
MARGIN
1
CELLMARGIN_BEGIN
40
0.06
40
0.06
40
0.06
40
0.06
40
0.18
40
0.18
309
CELLMARGIN_END
94
6
95
1
302
GRIDFORMAT
1
GRIDFORMAT_BEGIN
90
0
91
1
62
0
92
-2
340
0
93
0
40
0.045
309
GRIDFORMAT_END
95
2
302
GRIDFORMAT
1
GRIDFORMAT_BEGIN
90
0
91
1
62
0
92
-2
340
0
93
0
40
0.045
309
GRIDFORMAT_END
95
4
302
GRIDFORMAT
1
GRIDFORMAT_BEGIN
90
0
91
1
62
0
92
-2
340
0
93
0
40
0.045
309
GRIDFORMAT_END
95
8
302
GRIDFORMAT
1
GRIDFORMAT_BEGIN
90
0
91
1
62
0
92
-2
340
0
93
0
40
0.045
309
GRIDFORMAT_END
95
16
302
GRIDFORMAT
1
GRIDFORMAT_BEGIN
90
0
91
1
62
0
92
-2
340
0
93
0
40
0.045
309
GRIDFORMAT_END
95
32
302
GRIDFORMAT
1
GRIDFORMAT_BEGIN
90
0
91
1
62
0
92
-2
340
0
93
0
40
0.045
309
GRIDFORMAT_END
309
TABLEFORMAT_END
1
CELLSTYLE_BEGIN
90
3
91
2
300
_DATA
309
CELLSTYLE_END
0
XRECORD
5
10A6
102
{ACAD_REACTORS
330
FF8
102
}
330
FF8
100
AcDbXrecord
280
1
102
ACAD_ROUNDTRIP_PRE2007_TABLESTYLE
90
512
91
0
1

92
512
93
0
2

94
512
95
0
3

0
XRECORD
5
108B
102
{ACAD_REACTORS
330
108A
102
}
330
108A
100
AcDbXrecord
280
1
102
RTVSPropertyOp0
70
1
102
RTVSPropertyOp1
70
1
102
RTVSPropertyOp2
70
1
102
RTVSPropertyOp3
70
1
102
RTVSPropertyOp4
70
1
102
RTVSPropertyOp5
70
1
102
RTVSPropertyOp6
70
1
102
RTVSPropertyOp7
70
1
102
RTVSPropertyOp8
70
1
102
RTVSPropertyOp9
70
1
102
RTVSPropertyOp10
70
1
102
RTVSPropertyOp11
70
1
102
RTVSPropertyOp12
70
1
102
RTVSPropertyOp13
70
1
102
RTVSPropertyOp14
70
1
102
RTVSPropertyOp15
70
1
102
RTVSPropertyOp16
70
1
102
RTVSPropertyOp17
70
1
102
RTVSPropertyOp18
70
1
102
RTVSPropertyOp19
70
1
102
RTVSPropertyOp20
70
1
102
RTVSPropertyOp21
70
1
102
RTVSPropertyOp22
70
1
102
RTVSPropertyOp23
70
1
102
RTVSPropertyOp24
70
1
102
RTVSPropertyOp25
70
1
102
RTVSPropertyOp26
70
1
102
RTVSPropertyOp27
70
1
0
XRECORD
5
108F
102
{ACAD_REACTORS
330
108E
102
}
330
108E
100
AcDbXrecord
280
1
102
RTVSPropertyOp0
70
1
102
RTVSPropertyOp1
70
1
102
RTVSPropertyOp2
70
1
102
RTVSPropertyOp3
70
1
102
RTVSPropertyOp4
70
1
102
RTVSPropertyOp5
70
1
102
RTVSPropertyOp6
70
1
102
RTVSPropertyOp7
70
1
102
RTVSPropertyOp8
70
1
102
RTVSPropertyOp9
70
1
102
RTVSPropertyOp10
70
1
102
RTVSPropertyOp11
70
1
102
RTVSPropertyOp12
70
1
102
RTVSPropertyOp13
70
1
102
RTVSPropertyOp14
70
1
102
RTVSPropertyOp15
70
1
102
RTVSPropertyOp16
70
1
102
RTVSPropertyOp17
70
1
102
RTVSPropertyOp18
70
1
102
RTVSPropertyOp19
70
1
102
RTVSPropertyOp20
70
1
102
RTVSPropertyOp21
70
1
102
RTVSPropertyOp22
70
1
102
RTVSPropertyOp23
70
1
102
RTVSPropertyOp24
70
1
102
RTVSPropertyOp25
70
1
102
RTVSPropertyOp26
70
1
102
RTVSPropertyOp27
70
1
0
XRECORD
5
108D
102
{ACAD_REACTORS
330
108C
102
}
330
108C
100
AcDbXrecord
280
1
102
RTVSPropertyOp0
70
1
102
RTVSPropertyOp1
70
1
102
RTVSPropertyOp2
70
1
102
RTVSPropertyOp3
70
1
102
RTVSPropertyOp4
70
1
102
RTVSPropertyOp5
70
1
102
RTVSPropertyOp6
70
1
102
RTVSPropertyOp7
70
1
102
RTVSPropertyOp8
70
1
102
RTVSPropertyOp9
70
1
102
RTVSPropertyOp10
70
1
102
RTVSPropertyOp11
70
1
102
RTVSPropertyOp12
70
1
102
RTVSPropertyOp13
70
1
102
RTVSPropertyOp14
70
1
102
RTVSPropertyOp15
70
1
102
RTVSPropertyOp16
70
1
102
RTVSPropertyOp17
70
1
102
RTVSPropertyOp18
70
1
102
RTVSPropertyOp19
70
1
102
RTVSPropertyOp20
70
1
102
RTVSPropertyOp21
70
1
102
RTVSPropertyOp22
70
1
102
RTVSPropertyOp23
70
1
102
RTVSPropertyOp24
70
1
102
RTVSPropertyOp25
70
1
102
RTVSPropertyOp26
70
1
102
RTVSPropertyOp27
70
1
0
XRECORD
5
1089
102
{ACAD_REACTORS
330
1088
102
}
330
1088
100
AcDbXrecord
280
1
102
RTVSPropertyOp0
70
1
102
RTVSPropertyOp1
70
1
102
RTVSPropertyOp2
70
1
102
RTVSPropertyOp3
70
1
102
RTVSPropertyOp4
70
1
102
RTVSPropertyOp5
70
1
102
RTVSPropertyOp6
70
1
102
RTVSPropertyOp7
70
1
102
RTVSPropertyOp8
70
1
102
RTVSPropertyOp9
70
1
102
RTVSPropertyOp10
70
1
102
RTVSPropertyOp11
70
1
102
RTVSPropertyOp12
70
1
102
RTVSPropertyOp13
70
1
102
RTVSPropertyOp14
70
1
102
RTVSPropertyOp15
70
1
102
RTVSPropertyOp16
70
1
102
RTVSPropertyOp17
70
1
102
RTVSPropertyOp18
70
1
102
RTVSPropertyOp19
70
1
102
RTVSPropertyOp20
70
1
102
RTVSPropertyOp21
70
1
102
RTVSPropertyOp22
70
1
102
RTVSPropertyOp23
70
1
102
RTVSPropertyOp24
70
1
102
RTVSPropertyOp25
70
1
102
RTVSPropertyOp26
70
1
102
RTVSPropertyOp27
70
1
0
XRECORD
5
1097
102
{ACAD_REACTORS
330
1096
102
}
330
1096
100
AcDbXrecord
280
1
102
RTVSPropertyOp0
70
1
102
RTVSPropertyOp1
70
1
102
RTVSPropertyOp2
70
1
102
RTVSPropertyOp3
70
1
102
RTVSPropertyOp4
70
1
102
RTVSPropertyOp5
70
1
102
RTVSPropertyOp6
70
1
102
RTVSPropertyOp7
70
1
102
RTVSPropertyOp8
70
1
102
RTVSPropertyOp9
70
1
102
RTVSPropertyOp10
70
1
102
RTVSPropertyOp11
70
1
102
RTVSPropertyOp12
70
1
102
RTVSPropertyOp13
70
1
102
RTVSPropertyOp14
70
1
102
RTVSPropertyOp15
70
1
102
RTVSPropertyOp16
70
1
102
RTVSPropertyOp17
70
1
102
RTVSPropertyOp18
70
1
102
RTVSPropertyOp19
70
1
102
RTVSPropertyOp20
70
1
102
RTVSPropertyOp21
70
1
102
RTVSPropertyOp22
70
1
102
RTVSPropertyOp23
70
1
102
RTVSPropertyOp24
70
1
102
RTVSPropertyOp25
70
1
102
RTVSPropertyOp26
70
1
102
RTVSPropertyOp27
70
1
0
XRECORD
5
109F
102
{ACAD_REACTORS
330
109E
102
}
330
109E
100
AcDbXrecord
280
1
102
RTVSPropertyOp0
70
1
102
RTVSPropertyOp1
70
1
102
RTVSPropertyOp2
70
1
102
RTVSPropertyOp3
70
1
102
RTVSPropertyOp4
70
1
102
RTVSPropertyOp5
70
1
102
RTVSPropertyOp6
70
1
102
RTVSPropertyOp7
70
1
102
RTVSPropertyOp8
70
1
102
RTVSPropertyOp9
70
1
102
RTVSPropertyOp10
70
1
102
RTVSPropertyOp11
70
1
102
RTVSPropertyOp12
70
1
102
RTVSPropertyOp13
70
1
102
RTVSPropertyOp14
70
1
102
RTVSPropertyOp15
70
1
102
RTVSPropertyOp16
70
1
102
RTVSPropertyOp17
70
1
102
RTVSPropertyOp18
70
1
102
RTVSPropertyOp19
70
1
102
RTVSPropertyOp20
70
1
102
RTVSPropertyOp21
70
1
102
RTVSPropertyOp22
70
1
102
RTVSPropertyOp23
70
1
102
RTVSPropertyOp24
70
1
102
RTVSPropertyOp25
70
1
102
RTVSPropertyOp26
70
1
102
RTVSPropertyOp27
70
1
0
XRECORD
5
1091
102
{ACAD_REACTORS
330
1090
102
}
330
1090
100
AcDbXrecord
280
1
102
RTVSPropertyOp0
70
1
102
RTVSPropertyOp1
70
1
102
RTVSPropertyOp2
70
1
102
RTVSPropertyOp3
70
1
102
RTVSPropertyOp4
70
1
102
RTVSPropertyOp5
70
1
102
RTVSPropertyOp6
70
1
102
RTVSPropertyOp7
70
1
102
RTVSPropertyOp8
70
1
102
RTVSPropertyOp9
70
1
102
RTVSPropertyOp10
70
1
102
RTVSPropertyOp11
70
1
102
RTVSPropertyOp12
70
1
102
RTVSPropertyOp13
70
1
102
RTVSPropertyOp14
70
1
102
RTVSPropertyOp15
70
1
102
RTVSPropertyOp16
70
1
102
RTVSPropertyOp17
70
1
102
RTVSPropertyOp18
70
1
102
RTVSPropertyOp19
70
1
102
RTVSPropertyOp20
70
1
102
RTVSPropertyOp21
70
1
102
RTVSPropertyOp22
70
1
102
RTVSPropertyOp23
70
1
102
RTVSPropertyOp24
70
1
102
RTVSPropertyOp25
70
1
102
RTVSPropertyOp26
70
1
102
RTVSPropertyOp27
70
1
0
XRECORD
5
1095
102
{ACAD_REACTORS
330
1094
102
}
330
1094
100
AcDbXrecord
280
1
102
RTVSPropertyOp0
70
1
102
RTVSPropertyOp1
70
1
102
RTVSPropertyOp2
70
1
102
RTVSPropertyOp3
70
1
102
RTVSPropertyOp4
70
1
102
RTVSPropertyOp5
70
1
102
RTVSPropertyOp6
70
1
102
RTVSPropertyOp7
70
1
102
RTVSPropertyOp8
70
1
102
RTVSPropertyOp9
70
1
102
RTVSPropertyOp10
70
1
102
RTVSPropertyOp11
70
1
102
RTVSPropertyOp12
70
1
102
RTVSPropertyOp13
70
1
102
RTVSPropertyOp14
70
1
102
RTVSPropertyOp15
70
1
102
RTVSPropertyOp16
70
1
102
RTVSPropertyOp17
70
1
102
RTVSPropertyOp18
70
1
102
RTVSPropertyOp19
70
1
102
RTVSPropertyOp20
70
1
102
RTVSPropertyOp21
70
1
102
RTVSPropertyOp22
70
1
102
RTVSPropertyOp23
70
1
102
RTVSPropertyOp24
70
1
102
RTVSPropertyOp25
70
1
102
RTVSPropertyOp26
70
1
102
RTVSPropertyOp27
70
1
0
XRECORD
5
10A5
102
{ACAD_REACTORS
330
10A4
102
}
330
10A4
100
AcDbXrecord
280
1
102
RTVSPropertyOp0
70
0
102
RTVSPropertyOp1
70
0
102
RTVSPropertyOp2
70
0
102
RTVSPropertyOp3
70
0
102
RTVSPropertyOp4
70
0
102
RTVSPropertyOp5
70
0
102
RTVSPropertyOp6
70
0
102
RTVSPropertyOp7
70
0
102
RTVSPropertyOp8
70
0
102
RTVSPropertyOp9
70
0
102
RTVSPropertyOp10
70
0
102
RTVSPropertyOp11
70
0
102
RTVSPropertyOp12
70
0
102
RTVSPropertyOp13
70
0
102
RTVSPropertyOp14
70
2
102
RTVSPropertyOp15
70
0
102
RTVSPropertyOp16
70
0
102
RTVSPropertyOp17
70
0
102
RTVSPropertyOp18
70
0
102
RTVSPropertyOp19
70
0
102
RTVSPropertyOp20
70
0
102
RTVSPropertyOp21
70
0
102
RTVSPropertyOp22
70
0
102
RTVSPropertyOp23
70
0
102
RTVSPropertyOp24
70
0
102
RTVSPropertyOp25
70
0
102
RTVSPropertyOp26
70
0
102
RTVSPropertyOp27
70
0
0
XRECORD
5
109D
102
{ACAD_REACTORS
330
109C
102
}
330
109C
100
AcDbXrecord
280
1
102
RTVSPropertyOp0
70
1
102
RTVSPropertyOp1
70
1
102
RTVSPropertyOp2
70
1
102
RTVSPropertyOp3
70
1
102
RTVSPropertyOp4
70
1
102
RTVSPropertyOp5
70
1
102
RTVSPropertyOp6
70
1
102
RTVSPropertyOp7
70
1
102
RTVSPropertyOp8
70
1
102
RTVSPropertyOp9
70
1
102
RTVSPropertyOp10
70
1
102
RTVSPropertyOp11
70
1
102
RTVSPropertyOp12
70
1
102
RTVSPropertyOp13
70
1
102
RTVSPropertyOp14
70
1
102
RTVSPropertyOp15
70
1
102
RTVSPropertyOp16
70
1
102
RTVSPropertyOp17
70
1
102
RTVSPropertyOp18
70
1
102
RTVSPropertyOp19
70
1
102
RTVSPropertyOp20
70
1
102
RTVSPropertyOp21
70
1
102
RTVSPropertyOp22
70
1
102
RTVSPropertyOp23
70
1
102
RTVSPropertyOp24
70
1
102
RTVSPropertyOp25
70
1
102
RTVSPropertyOp26
70
1
102
RTVSPropertyOp27
70
1
0
XRECORD
5
1081
102
{ACAD_REACTORS
330
1080
102
}
330
1080
100
AcDbXrecord
280
1
102
RTVSPropertyOp0
70
1
102
RTVSPropertyOp1
70
1
102
RTVSPropertyOp2
70
1
102
RTVSPropertyOp3
70
1
102
RTVSPropertyOp4
70
1
102
RTVSPropertyOp5
70
1
102
RTVSPropertyOp6
70
1
102
RTVSPropertyOp7
70
1
102
RTVSPropertyOp8
70
1
102
RTVSPropertyOp9
70
1
102
RTVSPropertyOp10
70
1
102
RTVSPropertyOp11
70
1
102
RTVSPropertyOp12
70
1
102
RTVSPropertyOp13
70
1
102
RTVSPropertyOp14
70
1
102
RTVSPropertyOp15
70
1
102
RTVSPropertyOp16
70
1
102
RTVSPropertyOp17
70
1
102
RTVSPropertyOp18
70
1
102
RTVSPropertyOp19
70
1
102
RTVSPropertyOp20
70
1
102
RTVSPropertyOp21
70
1
102
RTVSPropertyOp22
70
1
102
RTVSPropertyOp23
70
1
102
RTVSPropertyOp24
70
1
102
RTVSPropertyOp25
70
1
102
RTVSPropertyOp26
70
1
102
RTVSPropertyOp27
70
1
0
XRECORD
5
1083
102
{ACAD_REACTORS
330
1082
102
}
330
1082
100
AcDbXrecord
280
1
102
RTVSPropertyOp0
70
1
102
RTVSPropertyOp1
70
1
102
RTVSPropertyOp2
70
1
102
RTVSPropertyOp3
70
1
102
RTVSPropertyOp4
70
1
102
RTVSPropertyOp5
70
1
102
RTVSPropertyOp6
70
1
102
RTVSPropertyOp7
70
1
102
RTVSPropertyOp8
70
1
102
RTVSPropertyOp9
70
1
102
RTVSPropertyOp10
70
1
102
RTVSPropertyOp11
70
1
102
RTVSPropertyOp12
70
1
102
RTVSPropertyOp13
70
1
102
RTVSPropertyOp14
70
1
102
RTVSPropertyOp15
70
1
102
RTVSPropertyOp16
70
1
102
RTVSPropertyOp17
70
1
102
RTVSPropertyOp18
70
1
102
RTVSPropertyOp19
70
1
102
RTVSPropertyOp20
70
1
102
RTVSPropertyOp21
70
1
102
RTVSPropertyOp22
70
1
102
RTVSPropertyOp23
70
1
102
RTVSPropertyOp24
70
1
102
RTVSPropertyOp25
70
1
102
RTVSPropertyOp26
70
1
102
RTVSPropertyOp27
70
1
0
XRECORD
5
1085
102
{ACAD_REACTORS
330
1084
102
}
330
1084
100
AcDbXrecord
280
1
102
RTVSPropertyOp0
70
1
102
RTVSPropertyOp1
70
1
102
RTVSPropertyOp2
70
1
102
RTVSPropertyOp3
70
1
102
RTVSPropertyOp4
70
1
102
RTVSPropertyOp5
70
1
102
RTVSPropertyOp6
70
1
102
RTVSPropertyOp7
70
1
102
RTVSPropertyOp8
70
1
102
RTVSPropertyOp9
70
1
102
RTVSPropertyOp10
70
1
102
RTVSPropertyOp11
70
1
102
RTVSPropertyOp12
70
1
102
RTVSPropertyOp13
70
1
102
RTVSPropertyOp14
70
1
102
RTVSPropertyOp15
70
1
102
RTVSPropertyOp16
70
1
102
RTVSPropertyOp17
70
1
102
RTVSPropertyOp18
70
1
102
RTVSPropertyOp19
70
1
102
RTVSPropertyOp20
70
1
102
RTVSPropertyOp21
70
1
102
RTVSPropertyOp22
70
1
102
RTVSPropertyOp23
70
1
102
RTVSPropertyOp24
70
1
102
RTVSPropertyOp25
70
1
102
RTVSPropertyOp26
70
1
102
RTVSPropertyOp27
70
1
0
XRECORD
5
1087
102
{ACAD_REACTORS
330
1086
102
}
330
1086
100
AcDbXrecord
280
1
102
RTVSPropertyOp0
70
1
102
RTVSPropertyOp1
70
1
102
RTVSPropertyOp2
70
1
102
RTVSPropertyOp3
70
1
102
RTVSPropertyOp4
70
1
102
RTVSPropertyOp5
70
1
102
RTVSPropertyOp6
70
1
102
RTVSPropertyOp7
70
1
102
RTVSPropertyOp8
70
1
102
RTVSPropertyOp9
70
1
102
RTVSPropertyOp10
70
1
102
RTVSPropertyOp11
70
1
102
RTVSPropertyOp12
70
1
102
RTVSPropertyOp13
70
1
102
RTVSPropertyOp14
70
1
102
RTVSPropertyOp15
70
1
102
RTVSPropertyOp16
70
1
102
RTVSPropertyOp17
70
1
102
RTVSPropertyOp18
70
1
102
RTVSPropertyOp19
70
1
102
RTVSPropertyOp20
70
1
102
RTVSPropertyOp21
70
1
102
RTVSPropertyOp22
70
1
102
RTVSPropertyOp23
70
1
102
RTVSPropertyOp24
70
1
102
RTVSPropertyOp25
70
1
102
RTVSPropertyOp26
70
1
102
RTVSPropertyOp27
70
1
0
XRECORD
5
10A1
102
{ACAD_REACTORS
330
10A0
102
}
330
10A0
100
AcDbXrecord
280
1
102
RTVSPropertyOp0
70
0
102
RTVSPropertyOp1
70
0
102
RTVSPropertyOp2
70
0
102
RTVSPropertyOp3
70
0
102
RTVSPropertyOp4
70
0
102
RTVSPropertyOp5
70
0
102
RTVSPropertyOp6
70
0
102
RTVSPropertyOp7
70
0
102
RTVSPropertyOp8
70
0
102
RTVSPropertyOp9
70
0
102
RTVSPropertyOp10
70
0
102
RTVSPropertyOp11
70
0
102
RTVSPropertyOp12
70
0
102
RTVSPropertyOp13
70
0
102
RTVSPropertyOp14
70
2
102
RTVSPropertyOp15
70
0
102
RTVSPropertyOp16
70
0
102
RTVSPropertyOp17
70
0
102
RTVSPropertyOp18
70
0
102
RTVSPropertyOp19
70
0
102
RTVSPropertyOp20
70
0
102
RTVSPropertyOp21
70
0
102
RTVSPropertyOp22
70
0
102
RTVSPropertyOp23
70
0
102
RTVSPropertyOp24
70
0
102
RTVSPropertyOp25
70
0
102
RTVSPropertyOp26
70
0
102
RTVSPropertyOp27
70
0
0
XRECORD
5
109B
102
{ACAD_REACTORS
330
109A
102
}
330
109A
100
AcDbXrecord
280
1
102
RTVSPropertyOp0
70
1
102
RTVSPropertyOp1
70
1
102
RTVSPropertyOp2
70
1
102
RTVSPropertyOp3
70
1
102
RTVSPropertyOp4
70
1
102
RTVSPropertyOp5
70
1
102
RTVSPropertyOp6
70
1
102
RTVSPropertyOp7
70
1
102
RTVSPropertyOp8
70
1
102
RTVSPropertyOp9
70
1
102
RTVSPropertyOp10
70
1
102
RTVSPropertyOp11
70
1
102
RTVSPropertyOp12
70
1
102
RTVSPropertyOp13
70
1
102
RTVSPropertyOp14
70
1
102
RTVSPropertyOp15
70
1
102
RTVSPropertyOp16
70
1
102
RTVSPropertyOp17
70
1
102
RTVSPropertyOp18
70
1
102
RTVSPropertyOp19
70
1
102
RTVSPropertyOp20
70
1
102
RTVSPropertyOp21
70
1
102
RTVSPropertyOp22
70
1
102
RTVSPropertyOp23
70
1
102
RTVSPropertyOp24
70
1
102
RTVSPropertyOp25
70
1
102
RTVSPropertyOp26
70
1
102
RTVSPropertyOp27
70
1
0
XRECORD
5
10A3
102
{ACAD_REACTORS
330
10A2
102
}
330
10A2
100
AcDbXrecord
280
1
102
RTVSPropertyOp0
70
0
102
RTVSPropertyOp1
70
0
102
RTVSPropertyOp2
70
0
102
RTVSPropertyOp3
70
0
102
RTVSPropertyOp4
70
0
102
RTVSPropertyOp5
70
0
102
RTVSPropertyOp6
70
0
102
RTVSPropertyOp7
70
0
102
RTVSPropertyOp8
70
0
102
RTVSPropertyOp9
70
0
102
RTVSPropertyOp10
70
0
102
RTVSPropertyOp11
70
0
102
RTVSPropertyOp12
70
0
102
RTVSPropertyOp13
70
0
102
RTVSPropertyOp14
70
2
102
RTVSPropertyOp15
70
0
102
RTVSPropertyOp16
70
0
102
RTVSPropertyOp17
70
0
102
RTVSPropertyOp18
70
0
102
RTVSPropertyOp19
70
0
102
RTVSPropertyOp20
70
0
102
RTVSPropertyOp21
70
0
102
RTVSPropertyOp22
70
0
102
RTVSPropertyOp23
70
0
102
RTVSPropertyOp24
70
0
102
RTVSPropertyOp25
70
0
102
RTVSPropertyOp26
70
0
102
RTVSPropertyOp27
70
0
0
XRECORD
5
1093
102
{ACAD_REACTORS
330
1092
102
}
330
1092
100
AcDbXrecord
280
1
102
RTVSPropertyOp0
70
1
102
RTVSPropertyOp1
70
1
102
RTVSPropertyOp2
70
1
102
RTVSPropertyOp3
70
1
102
RTVSPropertyOp4
70
1
102
RTVSPropertyOp5
70
1
102
RTVSPropertyOp6
70
1
102
RTVSPropertyOp7
70
1
102
RTVSPropertyOp8
70
1
102
RTVSPropertyOp9
70
1
102
RTVSPropertyOp10
70
1
102
RTVSPropertyOp11
70
1
102
RTVSPropertyOp12
70
1
102
RTVSPropertyOp13
70
1
102
RTVSPropertyOp14
70
1
102
RTVSPropertyOp15
70
1
102
RTVSPropertyOp16
70
1
102
RTVSPropertyOp17
70
1
102
RTVSPropertyOp18
70
1
102
RTVSPropertyOp19
70
1
102
RTVSPropertyOp20
70
1
102
RTVSPropertyOp21
70
1
102
RTVSPropertyOp22
70
1
102
RTVSPropertyOp23
70
1
102
RTVSPropertyOp24
70
1
102
RTVSPropertyOp25
70
1
102
RTVSPropertyOp26
70
1
102
RTVSPropertyOp27
70
1
0
XRECORD
5
1099
102
{ACAD_REACTORS
330
1098
102
}
330
1098
100
AcDbXrecord
280
1
102
RTVSPropertyOp0
70
1
102
RTVSPropertyOp1
70
1
102
RTVSPropertyOp2
70
1
102
RTVSPropertyOp3
70
1
102
RTVSPropertyOp4
70
1
102
RTVSPropertyOp5
70
1
102
RTVSPropertyOp6
70
1
102
RTVSPropertyOp7
70
1
102
RTVSPropertyOp8
70
1
102
RTVSPropertyOp9
70
1
102
RTVSPropertyOp10
70
1
102
RTVSPropertyOp11
70
1
102
RTVSPropertyOp12
70
1
102
RTVSPropertyOp13
70
1
102
RTVSPropertyOp14
70
1
102
RTVSPropertyOp15
70
1
102
RTVSPropertyOp16
70
1
102
RTVSPropertyOp17
70
1
102
RTVSPropertyOp18
70
1
102
RTVSPropertyOp19
70
1
102
RTVSPropertyOp20
70
1
102
RTVSPropertyOp21
70
1
102
RTVSPropertyOp22
70
1
102
RTVSPropertyOp23
70
1
102
RTVSPropertyOp24
70
1
102
RTVSPropertyOp25
70
1
102
RTVSPropertyOp26
70
1
102
RTVSPropertyOp27
70
1
0
ENDSEC
0
EOF
