0
SECTION
2
HEADER
9
$ACADVER
1
AC1015
9
$ACADMAINTVER
70
20
9
$DWGCODEPAGE
3
ANSI_1252
9
$INSBASE
10
0.0
20
0.0
30
0.0
9
$EXTMIN
10
-150.000000000000
20
-105.000000000000
30
0.0
9
$EXTMAX
10
150.000000000000
20
105.000000000000
30
0.0
9
$LIMMIN
10
0.0
20
0.0
9
$LIMMAX
10
12.0
20
9.0
9
$ORTHOMODE
70
0
9
$REGENMODE
70
1
9
$FILLMODE
70
1
9
$QTEXTMODE
70
0
9
$MIRRTEXT
70
1
9
$LTSCALE
40
1.0
9
$ATTMODE
70
1
9
$TEXTSIZE
40
0.2
9
$TRACEWID
40
0.05
9
$TEXTSTYLE
7
Standard
9
$CLAYER
8
0
9
$CELTYPE
6
ByLayer
9
$CECOLOR
62
256
9
$CELTSCALE
40
1.0
9
$DISPSILH
70
0
9
$DIMSCALE
40
1.0
9
$DIMASZ
40
2.5
9
$DIMEXO
40
0.625
9
$DIMDLI
40
0.38
9
$DIMRND
40
0.0
9
$DIMDLE
40
0.0
9
$DIMEXE
40
1.25
9
$DIMTP
40
0.0
9
$DIMTM
40
0.000000001
9
$DIMTXT
40
2.5
9
$DIMCEN
40
0.09
9
$DIMTSZ
40
0.0
9
$DIMTOL
70
1
9
$DIMLIM
70
0
9
$DIMTIH
70
0
9
$DIMTOH
70
0
9
$DIMSE1
70
0
9
$DIMSE2
70
0
9
$DIMTAD
70
1
9
$DIMZIN
70
0
9
$DIMBLK
1
VDDIM_DEFAULT
9
$DIMASO
70
1
9
$DIMSHO
70
1
9
$DIMPOST
1

9
$DIMAPOST
1

9
$DIMALT
70
0
9
$DIMALTD
70
2
9
$DIMALTF
40
25.4
9
$DIMLFAC
40
1.00000000000000
9
$DIMTOFL
70
0
9
$DIMTVP
40
0.0
9
$DIMTIX
70
0
9
$DIMSOXD
70
0
9
$DIMSAH
70
0
9
$DIMBLK1
1

9
$DIMBLK2
1

9
$DIMSTYLE
2
BEM-ISBE
9
$DIMCLRD
70
0
9
$DIMCLRE
70
0
9
$DIMCLRT
70
0
9
$DIMTFAC
40
0.5
9
$DIMGAP
40
0.625
9
$DIMJUST
70
0
9
$DIMSD1
70
0
9
$DIMSD2
70
0
9
$DIMTOLJ
70
1
9
$DIMTZIN
70
0
9
$DIMALTZ
70
0
9
$DIMALTTZ
70
0
9
$DIMUPT
70
0
9
$DIMDEC
70
3
9
$DIMTDEC
70
3
9
$DIMALTU
70
2
9
$DIMALTTD
70
2
9
$DIMTXSTY
7
Standard
9
$DIMAUNIT
70
0
9
$DIMADEC
70
3
9
$DIMALTRND
40
0.0
9
$DIMAZIN
70
0
9
$DIMDSEP
70
46
9
$DIMATFIT
70
3
9
$DIMFRAC
70
0
9
$DIMLDRBLK
1

9
$DIMLUNIT
70
2
9
$DIMLWD
70
-2
9
$DIMLWE
70
-2
9
$DIMTMOVE
70
0
9
$LUNITS
70
2
9
$LUPREC
70
4
9
$SKETCHINC
40
0.1
9
$FILLETRAD
40
0.5
9
$AUNITS
70
0
9
$AUPREC
70
0
9
$MENU
1
.
9
$ELEVATION
40
0.0
9
$PELEVATION
40
0.0
9
$THICKNESS
40
0.0
9
$LIMCHECK
70
0
9
$CHAMFERA
40
0.5
9
$CHAMFERB
40
0.5
9
$CHAMFERC
40
1.0
9
$CHAMFERD
40
0.0
9
$SKPOLY
70
0
9
$TDCREATE
40
0.0
9
$TDUCREATE
40
0.0
9
$TDUPDATE
40
0.0
9
$TDUUPDATE
40
0.0
9
$TDINDWG
40
0.0
9
$TDUSRTIMER
40
0.0
9
$USRTIMER
70
1
9
$ANGBASE
50
0.0
9
$ANGDIR
70
0
9
$PDMODE
70
0
9
$PDSIZE
40
0.0
9
$PLINEWID
40
0.0
9
$SPLFRAME
70
0
9
$SPLINETYPE
70
6
9
$SPLINESEGS
70
8
9
$HANDSEED
5
10AB
9
$SURFTAB1
70
6
9
$SURFTAB2
70
6
9
$SURFTYPE
70
6
9
$SURFU
70
6
9
$SURFV
70
6
9
$UCSBASE
2

9
$UCSNAME
2

9
$UCSORG
10
0.0
20
0.0
30
0.0
9
$UCSXDIR
10
1.0
20
0.0
30
0.0
9
$UCSYDIR
10
0.0
20
1.0
30
0.0
9
$UCSORTHOREF
2

9
$UCSORTHOVIEW
70
0
9
$UCSORGTOP
10
0.0
20
0.0
30
0.0
9
$UCSORGBOTTOM
10
0.0
20
0.0
30
0.0
9
$UCSORGLEFT
10
0.0
20
0.0
30
0.0
9
$UCSORGRIGHT
10
0.0
20
0.0
30
0.0
9
$UCSORGFRONT
10
0.0
20
0.0
30
0.0
9
$UCSORGBACK
10
0.0
20
0.0
30
0.0
9
$PUCSBASE
2

9
$PUCSNAME
2

9
$PUCSORG
10
0.0
20
0.0
30
0.0
9
$PUCSXDIR
10
1.0
20
0.0
30
0.0
9
$PUCSYDIR
10
0.0
20
1.0
30
0.0
9
$PUCSORTHOREF
2

9
$PUCSORTHOVIEW
70
0
9
$PUCSORGTOP
10
0.0
20
0.0
30
0.0
9
$PUCSORGBOTTOM
10
0.0
20
0.0
30
0.0
9
$PUCSORGLEFT
10
0.0
20
0.0
30
0.0
9
$PUCSORGRIGHT
10
0.0
20
0.0
30
0.0
9
$PUCSORGFRONT
10
0.0
20
0.0
30
0.0
9
$PUCSORGBACK
10
0.0
20
0.0
30
0.0
9
$USERI1
70
0
9
$USERI2
70
0
9
$USERI3
70
0
9
$USERI4
70
0
9
$USERI5
70
0
9
$USERR1
40
0.0
9
$USERR2
40
0.0
9
$USERR3
40
0.0
9
$USERR4
40
0.0
9
$USERR5
40
0.0
9
$WORLDVIEW
70
1
9
$SHADEDGE
70
3
9
$SHADEDIF
70
70
9
$TILEMODE
70
1
9
$MAXACTVP
70
64
9
$PINSBASE
10
0.0
20
0.0
30
0.0
9
$PLIMCHECK
70
0
9
$PEXTMIN
10
1.000000000000000E+20
20
1.000000000000000E+20
30
1.000000000000000E+20
9
$PEXTMAX
10
-1.000000000000000E+20
20
-1.000000000000000E+20
30
-1.000000000000000E+20
9
$PLIMMIN
10
0.0
20
0.0
9
$PLIMMAX
10
12.0
20
9.0
9
$UNITMODE
70
0
9
$VISRETAIN
70
1
9
$PLINEGEN
70
0
9
$PSLTSCALE
70
1
9
$TREEDEPTH
70
3020
9
$CMLSTYLE
2
Standard
9
$CMLJUST
70
0
9
$CMLSCALE
40
1.0
9
$PROXYGRAPHICS
70
1
9
$MEASUREMENT
70
0
9
$CELWEIGHT
370
-1
9
$ENDCAPS
280
0
9
$JOINSTYLE
280
0
9
$LWDISPLAY
290
0
9
$INSUNITS
70
4
9
$HYPERLINKBASE
1

9
$STYLESHEET
1

9
$XEDIT
290
1
9
$CEPSNTYPE
380
0
9
$PSTYLEMODE
290
0
9
$FINGERPRINTGUID
2
{FAEB1C30-E019-11D5-929B-00C0DF256EC4}
9
$VERSIONGUID
2
{04C5C4E4-4947-4D90-8812-D401569E61F7}
9
$EXTNAMES
290
1
9
$PSVPSCALE
40
0.0
9
$OLESTARTUP
290
0
0
ENDSEC
0
SECTION
2
TABLES
0
TABLE
2
VPORT
5
24A
330
0
100
AcDbSymbolTable
70
1
0
VPORT
5
26B
330
24A
100
AcDbSymbolTableRecord
100
AcDbViewportTableRecord
2
*Active
70
0
10
0.0
20
0.0
11
1.0
21
1.0
12
0.000000000000000
22
0.000000000000000
13
0.0
23
0.0
14
10.0
24
10.0
15
10.0
25
10.0
16
0.0
26
0.0
36
1.0
17
0.0
27
0.0
37
0.0
40
210.000000000000
41
1.42857142857143
42
1.0
43
0.0
44
0.0
50
0.0
51
0.0000000000007958
71
0
72
100
73
1
74
3
75
0
76
0
77
0
78
1
281
0
65
1
110
0.0
120
0.0
130
0.0
111
1.0
121
0.0
131
0.0
112
0.0
122
1.0
132
0.0
79
0
146
0.0
0
ENDTAB
0
TABLE
2
LTYPE
5
247
330
0
100
AcDbSymbolTable
70
25
0
LTYPE
5
256
330
247
100
AcDbSymbolTableRecord
100
AcDbLinetypeTableRecord
2
ByBlock
70
0
3

72
65
73
0
40
0.0
0
LTYPE
5
257
330
247
100
AcDbSymbolTableRecord
100
AcDbLinetypeTableRecord
2
ByLayer
70
0
3

72
65
73
0
40
0.0
0
LTYPE
5
258
330
247
100
AcDbSymbolTableRecord
100
AcDbLinetypeTableRecord
2
Continuous
70
0
3
Solid line
72
65
73
0
40
0.0
0
LTYPE
5
273
330
247
100
AcDbSymbolTableRecord
100
AcDbLinetypeTableRecord
2
CENTER
70
0
3
Center ____ _ ____ _ ____ _ ____ _ ____ _ ____
72
65
73
4
40
2.0
49
1.25
74
0
49
-0.25
74
0
49
0.25
74
0
49
-0.25
74
0
0
LTYPE
5
274
330
247
100
AcDbSymbolTableRecord
100
AcDbLinetypeTableRecord
2
DASHDOT
70
0
3
Dashdot __ . __ . __ . __ . __ . __ . __ . __
72
65
73
4
40
1.0
49
0.5
74
0
49
-0.25
74
0
49
0.0
74
0
49
-0.25
74
0
0
LTYPE
5
275
330
247
100
AcDbSymbolTableRecord
100
AcDbLinetypeTableRecord
2
DASHED
70
0
3
Dashed __ __ __ __ __ __ __ __ __ __ __ __ __ _
72
65
73
2
40
0.75
49
0.5
74
0
49
-0.25
74
0
0
LTYPE
5
276
330
247
100
AcDbSymbolTableRecord
100
AcDbLinetypeTableRecord
2
HIDDEN
70
0
3
Hidden __ __ __ __ __ __ __ __ __ __ __ __ __ __
72
65
73
2
40
0.375
49
0.25
74
0
49
-0.125
74
0
0
LTYPE
5
277
330
247
100
AcDbSymbolTableRecord
100
AcDbLinetypeTableRecord
2
HIDDEN2
70
0
3
Hidden2 _ _ _ _ _ _ _ _ _ _ _ _ _ _ _ _ _
72
65
73
2
40
0.1875
49
0.125
74
0
49
-0.0625
74
0
0
LTYPE
5
278
330
247
100
AcDbSymbolTableRecord
100
AcDbLinetypeTableRecord
2
BORDER
70
0
3
Border __ __ . __ __ . __ __ . __ __ . __ __ .
72
65
73
6
40
1.75
49
0.5
74
0
49
-0.25
74
0
49
0.5
74
0
49
-0.25
74
0
49
0.0
74
0
49
-0.25
74
0
0
LTYPE
5
279
330
247
100
AcDbSymbolTableRecord
100
AcDbLinetypeTableRecord
2
BORDER2
70
0
3
Border2 __.__.__.__.__.__.__.__.__.__.__.
72
65
73
6
40
0.875
49
0.25
74
0
49
-0.125
74
0
49
0.25
74
0
49
-0.125
74
0
49
0.0
74
0
49
-0.125
74
0
0
LTYPE
5
27A
330
247
100
AcDbSymbolTableRecord
100
AcDbLinetypeTableRecord
2
BORDERX2
70
0
3
Borderx2  ____  ____  .  ____  ____  .  ___
72
65
73
6
40
3.5
49
1.0
74
0
49
-0.5
74
0
49
1.0
74
0
49
-0.5
74
0
49
0.0
74
0
49
-0.5
74
0
0
LTYPE
5
27B
330
247
100
AcDbSymbolTableRecord
100
AcDbLinetypeTableRecord
2
CENTER2
70
0
3
Center2  ___ _ ___ _ ___ _ ___ _ ___ _ ___
72
65
73
4
40
1.125
49
0.75
74
0
49
-0.125
74
0
49
0.125
74
0
49
-0.125
74
0
0
LTYPE
5
27C
330
247
100
AcDbSymbolTableRecord
100
AcDbLinetypeTableRecord
2
CENTERX2
70
0
3
Centerx2  ________  __  ________  __  _____
72
65
73
4
40
4.0
49
2.5
74
0
49
-0.5
74
0
49
0.5
74
0
49
-0.5
74
0
0
LTYPE
5
27D
330
247
100
AcDbSymbolTableRecord
100
AcDbLinetypeTableRecord
2
DASHDOT2
70
0
3
Dashdot2  _._._._._._._._._._._._._._._.
72
65
73
4
40
0.5
49
0.25
74
0
49
-0.125
74
0
49
0.0
74
0
49
-0.125
74
0
0
LTYPE
5
27E
330
247
100
AcDbSymbolTableRecord
100
AcDbLinetypeTableRecord
2
DASHDOTX2
70
0
3
Dashdotx2 ____  .  ____  .  ____  .  ___
72
65
73
4
40
2.0
49
1.0
74
0
49
-0.5
74
0
49
0.0
74
0
49
-0.5
74
0
0
LTYPE
5
27F
330
247
100
AcDbSymbolTableRecord
100
AcDbLinetypeTableRecord
2
DASHED2
70
0
3
Dashed2 _ _ _ _ _ _ _ _ _ _ _ _ _ _ _ _ _
72
65
73
2
40
0.375
49
0.25
74
0
49
-0.125
74
0
0
LTYPE
5
280
330
247
100
AcDbSymbolTableRecord
100
AcDbLinetypeTableRecord
2
DASHEDX2
70
0
3
Dashedx2 ____  ____  ____  ____  ____  ___
72
65
73
2
40
1.5
49
1.0
74
0
49
-0.5
74
0
0
LTYPE
5
281
330
247
100
AcDbSymbolTableRecord
100
AcDbLinetypeTableRecord
2
DIVIDE
70
0
3
Divide ____ . . ____ . . ____ . . ____ . . ____
72
65
73
6
40
1.25
49
0.5
74
0
49
-0.25
74
0
49
0.0
74
0
49
-0.25
74
0
49
0.0
74
0
49
-0.25
74
0
0
LTYPE
5
282
330
247
100
AcDbSymbolTableRecord
100
AcDbLinetypeTableRecord
2
DIVIDE2
70
0
3
Divide2 __..__..__..__..__..__..__..__.._
72
65
73
6
40
0.625
49
0.25
74
0
49
-0.125
74
0
49
0.0
74
0
49
-0.125
74
0
49
0.0
74
0
49
-0.125
74
0
0
LTYPE
5
283
330
247
100
AcDbSymbolTableRecord
100
AcDbLinetypeTableRecord
2
DIVIDEX2
70
0
3
Dividex2 ________  .  .  ________  .  .  _
72
65
73
6
40
2.5
49
1.0
74
0
49
-0.5
74
0
49
0.0
74
0
49
-0.5
74
0
49
0.0
74
0
49
-0.5
74
0
0
LTYPE
5
284
330
247
100
AcDbSymbolTableRecord
100
AcDbLinetypeTableRecord
2
DOT
70
0
3
Dot . . . . . . . . . . . . . . . . . . . . . . . .
72
65
73
2
40
0.25
49
0.0
74
0
49
-0.25
74
0
0
LTYPE
5
285
330
247
100
AcDbSymbolTableRecord
100
AcDbLinetypeTableRecord
2
DOT2
70
0
3
Dot2 ........................................
72
65
73
2
40
0.125
49
0.0
74
0
49
-0.125
74
0
0
LTYPE
5
286
330
247
100
AcDbSymbolTableRecord
100
AcDbLinetypeTableRecord
2
DOTX2
70
0
3
Dotx2 .  .  .  .  .  .  .  .  .  .  .  .  .  .
72
65
73
2
40
0.5
49
0.0
74
0
49
-0.5
74
0
0
LTYPE
5
287
330
247
100
AcDbSymbolTableRecord
100
AcDbLinetypeTableRecord
2
HIDDENX2
70
0
3
Hiddenx2 ____ ____ ____ ____ ____ ____ ____
72
65
73
2
40
0.75
49
0.5
74
0
49
-0.25
74
0
0
LTYPE
5
288
330
247
100
AcDbSymbolTableRecord
100
AcDbLinetypeTableRecord
2
PHANTOM
70
0
3
Phantom ______  __  __  ______  __  __  ______
72
65
73
6
40
2.5
49
1.25
74
0
49
-0.25
74
0
49
0.25
74
0
49
-0.25
74
0
49
0.25
74
0
49
-0.25
74
0
0
LTYPE
5
289
330
247
100
AcDbSymbolTableRecord
100
AcDbLinetypeTableRecord
2
PHANTOM2
70
0
3
Phantom2 ___ _ _ ___ _ _ ___ _ _ ___ _ _
72
65
73
6
40
1.25
49
0.625
74
0
49
-0.125
74
0
49
0.125
74
0
49
-0.125
74
0
49
0.125
74
0
49
-0.125
74
0
0
LTYPE
5
28A
330
247
100
AcDbSymbolTableRecord
100
AcDbLinetypeTableRecord
2
PHANTOMX2
70
0
3
Phantomx2 ____________    ____    ____   _
72
65
73
6
40
5.0
49
2.5
74
0
49
-0.5
74
0
49
0.5
74
0
49
-0.5
74
0
49
0.5
74
0
49
-0.5
74
0
0
ENDTAB
0
TABLE
2
LAYER
5
244
330
0
100
AcDbSymbolTable
70
6
0
LAYER
5
252
330
244
100
AcDbSymbolTableRecord
100
AcDbLayerTableRecord
2
0
70
0
62
7
6
Continuous
370
0
390
251
0
LAYER
5
23F
330
244
100
AcDbSymbolTableRecord
100
AcDbLayerTableRecord
2
Bemassung
70
0
 62
   7
6
Continuous
370
0
390
251
0
LAYER
5
240
330
244
100
AcDbSymbolTableRecord
100
AcDbLayerTableRecord
2
Rahmen
70
0
 62
   7
6
Continuous
370
0
390
251
0
LAYER
5
241
330
244
100
AcDbSymbolTableRecord
100
AcDbLayerTableRecord
2
Geo
70
0
 62
   7
6
Continuous
370
0
390
251
0
LAYER
5
33A
330
244
100
AcDbSymbolTableRecord
100
AcDbLayerTableRecord
2
Defpoints
70
0
62
7
6
Continuous
290
0
370
-3
390
251
0
LAYER
5
57E
330
244
100
AcDbSymbolTableRecord
100
AcDbLayerTableRecord
2
Text
70
0
 62
   7
6
Continuous
370
0
390
251
1001
AcAecLayerStandard
1000

1000

0
ENDTAB
0
TABLE
2
STYLE
5
245
330
0
100
AcDbSymbolTable
70
2
0
STYLE
5
253
330
245
100
AcDbSymbolTableRecord
100
AcDbTextStyleTableRecord
2
Standard
70
0
40
0.0
41
1.0
50
0.0
71
0
42
0.2
3
Arial
4

1001
ACAD
1000
Arial
1071
0
0
STYLE
5
132
330
245
100
AcDbSymbolTableRecord
100
AcDbTextStyleTableRecord
2
Beschriftung
70
0
40
0.0
41
1.0
50
0.0
71
0
42
0.2
3
Arial
4

1001
ACAD
1000
Arial
1071
0
1001
AcadAnnotative
1000
AnnotativeData
1070
1
1070
1
0
ENDTAB
0
TABLE
2
VIEW
5
248
330
0
100
AcDbSymbolTable
70
0
0
ENDTAB
0
TABLE
2
UCS
5
249
330
0
100
AcDbSymbolTable
70
0
0
ENDTAB
0
TABLE
2
APPID
5
24B
330
0
100
AcDbSymbolTable
70
13
0
APPID
5
254
330
24B
100
AcDbSymbolTableRecord
100
AcDbRegAppTableRecord
2
ACAD
70
0
0
APPID
5
26C
330
24B
100
AcDbSymbolTableRecord
100
AcDbRegAppTableRecord
2
VD_INVISIBLE_NOT_FOR_READ
70
0
0
APPID
5
26D
330
24B
100
AcDbSymbolTableRecord
100
AcDbRegAppTableRecord
2
VD_TEMPHATCH
70
0
0
APPID
5
26E
330
24B
100
AcDbSymbolTableRecord
100
AcDbRegAppTableRecord
2
VDEXTRAPARAM
70
0
0
APPID
5
26F
330
24B
100
AcDbSymbolTableRecord
100
AcDbRegAppTableRecord
2
PE_URL
70
0
0
APPID
5
270
330
24B
100
AcDbSymbolTableRecord
100
AcDbRegAppTableRecord
2
VD_UNKNOWN
70
0
0
APPID
5
28F
330
24B
100
AcDbSymbolTableRecord
100
AcDbRegAppTableRecord
2
AcadAnnotative
70
0
0
APPID
5
290
330
24B
100
AcDbSymbolTableRecord
100
AcDbRegAppTableRecord
2
ACAD_DSTYLE_DIMJAG
70
0
0
APPID
5
291
330
24B
100
AcDbSymbolTableRecord
100
AcDbRegAppTableRecord
2
ACAD_DSTYLE_DIMTALN
70
0
0
APPID
5
293
330
24B
100
AcDbSymbolTableRecord
100
AcDbRegAppTableRecord
2
ACAD_PSEXT
70
0
0
APPID
5
42A
330
24B
100
AcDbSymbolTableRecord
100
AcDbRegAppTableRecord
2
ACAD_MLEADERVER
70
0
0
APPID
5
532
330
24B
100
AcDbSymbolTableRecord
100
AcDbRegAppTableRecord
2
ACAD_EXEMPT_FROM_CAD_STANDARDS
70
0
0
APPID
5
57F
330
24B
100
AcDbSymbolTableRecord
100
AcDbRegAppTableRecord
2
AcAecLayerStandard
70
0
0
ENDTAB
0
TABLE
2
DIMSTYLE
5
24C
330
0
100
AcDbSymbolTable
70
3
100
AcDbDimStyleTable
71
2
340
27
340
269
0
DIMSTYLE
105
269
330
24C
100
AcDbSymbolTableRecord
100
AcDbDimStyleTableRecord
2
Standard
70
0
172
1
174
1
288
1
340
253
342
23C
0
DIMSTYLE
105
137
330
24C
100
AcDbSymbolTableRecord
100
AcDbDimStyleTableRecord
2
Beschriftung
70
0
41
2.5
42
0.625
44
1.25
73
0
74
0
77
1
140
2.5
147
0.625
172
1
174
1
271
2
288
1
340
253
342
23C
1001
AcadAnnotative
1000
AnnotativeData
1070
1
1070
1
1001
ACAD_DSTYLE_DIMJAG
1070
388
1040
1.5
1001
ACAD_DSTYLE_DIMTALN
1070
392
1070
0
0
DIMSTYLE
105
27
102
{ACAD_REACTORS
330
F10017
330
F1001C
330
F10026
330
F1002B
330
F10003
330
F1000D
330
F10008
330
F10012
330
F10021
102
}
330
24C
100
AcDbSymbolTableRecord
100
AcDbDimStyleTableRecord
2
BEM-ISBE
70
0
41
2.5
42
0.625
44
1.25
48
0.000000001
71
1
73
0
74
0
77
1
140
2.5
144
1.00000000000000
146
0.5
147
0.625
171
 3
172
 1
179
 3
271
 3
272
 3
274
 3
340
253
342
23C
1001
ACAD_DSTYLE_DIMJAG
1070
388
1040
1.5
1001
ACAD_DSTYLE_DIMTALN
1070
392
1070
1
0
ENDTAB
0
TABLE
2
BLOCK_RECORD
5
243
330
0
100
AcDbSymbolTable
70
5
0
BLOCK_RECORD
5
261
330
243
100
AcDbSymbolTableRecord
100
AcDbBlockTableRecord
2
*Model_Space
340
FD0
0
BLOCK_RECORD
5
25D
330
243
100
AcDbSymbolTableRecord
100
AcDbBlockTableRecord
2
*Paper_Space
340
FD1
0
BLOCK_RECORD
5
265
330
243
100
AcDbSymbolTableRecord
100
AcDbBlockTableRecord
2
*Paper_Space0
340
0
0
BLOCK_RECORD
5
23C
330
243
100
AcDbSymbolTableRecord
100
AcDbBlockTableRecord
2
VDDIM_DEFAULT
340
0
102
{BLKREFS
102
}
0
BLOCK_RECORD
5
23E
330
243
100
AcDbSymbolTableRecord
100
AcDbBlockTableRecord
2
VDDIM_NONE
340
0
0
BLOCK_RECORD
5
F10016
330
243
100
AcDbSymbolTableRecord
100
AcDbBlockTableRecord
2
*D7
340
0
0
BLOCK_RECORD
5
F1001B
330
243
100
AcDbSymbolTableRecord
100
AcDbBlockTableRecord
2
*D8
340
0
0
BLOCK_RECORD
5
F10025
330
243
100
AcDbSymbolTableRecord
100
AcDbBlockTableRecord
2
*D10
340
0
0
BLOCK_RECORD
5
F1002A
330
243
100
AcDbSymbolTableRecord
100
AcDbBlockTableRecord
2
*D11
340
0
0
BLOCK_RECORD
5
F10002
330
243
100
AcDbSymbolTableRecord
100
AcDbBlockTableRecord
2
*D3
340
0
0
BLOCK_RECORD
5
F1000C
330
243
100
AcDbSymbolTableRecord
100
AcDbBlockTableRecord
2
*D5
340
0
0
BLOCK_RECORD
5
F10007
330
243
100
AcDbSymbolTableRecord
100
AcDbBlockTableRecord
2
*D4
340
0
0
BLOCK_RECORD
5
F10011
330
243
100
AcDbSymbolTableRecord
100
AcDbBlockTableRecord
2
*D6
340
0
0
BLOCK_RECORD
5
F10020
330
243
100
AcDbSymbolTableRecord
100
AcDbBlockTableRecord
2
*D9
340
0
0
ENDTAB
0
ENDSEC
0
SECTION
2
BLOCKS
0
BLOCK
5
262
330
261
100
AcDbEntity
8
0
100
AcDbBlockBegin
2
*Model_Space
70
0
10
0.0
20
0.0
30
0.0
3
*Model_Space
1

0
ENDBLK
5
263
330
261
100
AcDbEntity
8
0
100
AcDbBlockEnd
0
BLOCK
5
25E
330
25D
100
AcDbEntity
67
1
8
0
100
AcDbBlockBegin
2
*Paper_Space
70
0
10
0.0
20
0.0
30
0.0
3
*Paper_Space
1

0
ENDBLK
5
25F
330
25D
100
AcDbEntity
67
1
8
0
100
AcDbBlockEnd
0
BLOCK
5
266
330
265
100
AcDbEntity
8
0
100
AcDbBlockBegin
2
*Paper_Space0
70
0
10
0.0
20
0.0
30
0.0
3
*Paper_Space0
1

0
VIEWPORT
5
296
102
{ACAD_XDICTIONARY
360
58E
102
}
330
265
100
AcDbEntity
8
0
60
1
100
AcDbViewport
10
0.0
20
0.0
30
0.0
40
10.0
41
10.0
69
0
12
0.0
22
0.0
13
0.0
23
0.0
14
1.0
24
1.0
15
0.0
25
0.0
16
0.0
26
0.0
36
1.0
17
0.0
27
0.0
37
0.0
42
0.0
43
0.0
44
0.0
45
10.0
50
0.0
51
0.0000000000007958
72
100
90
163872
1

281
0
71
0
74
0
110
0.0
120
0.0
130
0.0
111
1.0
121
0.0
131
0.0
112
0.0
122
1.0
132
0.0
79
0
146
0.0
1001
VD_INVISIBLE_NOT_FOR_READ
1000
VD_INVISIBLE_NOT_FOR_READ
0
VIEWPORT
5
297
102
{ACAD_XDICTIONARY
360
590
102
}
330
265
100
AcDbEntity
8
0
60
1
100
AcDbViewport
10
0.0
20
0.0
30
0.0
40
10.0
41
10.0
69
0
12
0.0
22
0.0
13
0.0
23
0.0
14
1.0
24
1.0
15
0.0
25
0.0
16
0.0
26
0.0
36
1.0
17
0.0
27
0.0
37
0.0
42
0.0
43
0.0
44
0.0
45
10.0
50
0.0
51
0.0000000000007958
72
100
90
163872
1

281
0
71
0
74
0
110
0.0
120
0.0
130
0.0
111
1.0
121
0.0
131
0.0
112
0.0
122
1.0
132
0.0
79
0
146
0.0
1001
VD_INVISIBLE_NOT_FOR_READ
1000
VD_INVISIBLE_NOT_FOR_READ
0
ENDBLK
5
267
330
265
100
AcDbEntity
8
0
100
AcDbBlockEnd
0
BLOCK
5
28B
330
23C
100
AcDbEntity
8
0
100
AcDbBlockBegin
2
VDDIM_DEFAULT
70
0
10
0.0
20
0.0
30
0.0
3
VDDIM_DEFAULT
1

0
LWPOLYLINE
5
23D
330
23C
100
AcDbEntity
8
0
6
Continuous
62
0
100
AcDbPolyline
90
4
70
0
43
0.0
10
0.0
20
0.0
10
-1.0
20
-0.1665
10
-1.0
20
0.1665
10
0.0
20
0.0
1001
VDEXTRAPARAM
1071
1
1071
0
1071
0
1040
1.0
1000

1000

1040
0.0
1040
0.0
0
HATCH
5
292
330
23C
100
AcDbEntity
8
0
6
Continuous
62
0
100
AcDbHatch
10
0.0
20
0.0
30
0.0
210
0.0
220
0.0
230
1.0
2
SOLID
70
1
71
0
91
1
92
2
72
0
73
1
93
3
10
0.0
20
0.0
10
-1.0
20
-0.1665
10
-1.0
20
0.1665
97
0
75
0
76
1
98
1
10
0.0
20
0.0
1001
VDEXTRAPARAM
1071
1
1071
0
1071
0
1040
1.0
1000

1000

1040
0.0
1040
0.0
1001
VD_TEMPHATCH
1000
VD_TEMPHATCH
0
ENDBLK
5
28C
330
23C
100
AcDbEntity
8
0
100
AcDbBlockEnd
0
BLOCK
5
28D
330
23E
100
AcDbEntity
8
0
100
AcDbBlockBegin
2
VDDIM_NONE
70
0
10
0.0
20
0.0
30
0.0
3
VDDIM_NONE
1

0
ENDBLK
5
28E
330
23E
100
AcDbEntity
8
0
100
AcDbBlockEnd
  0
BLOCK
  5
F1002F
330
F10016
100
AcDbEntity
  8
0
100
AcDbBlockBegin
  2
*D7
 70
     1
 10
0.0
 20
0.0
 30
0.0
  3
*D7
  1

  0
LINE
  5
F10030
330
F10016
100
AcDbEntity
  8
Bemassung
 62
     0
370
    -2
100
AcDbLine
10
-97.4504753495189
20
-17.6368792561043
30
0.000000000000000
11
-97.4504753495189
21
31.3631207438957
31
0.000000000000000
  0
LINE
  5
F10031
330
F10016
100
AcDbEntity
  8
Bemassung
 62
     0
370
    -2
100
AcDbLine
10
-55.4504753495189
20
8.96312074389575
30
0.000000000000000
11
-55.4504753495189
21
21.3631207438957
31
0.000000000000000
  0
LINE
  5
F10032
330
F10016
100
AcDbEntity
  8
Bemassung
 62
     0
370
    -2
100
AcDbLine
10
-97.4504753495189
20
19.3631207438957
30
0.000000000000000
11
-54.8709284994495
21
19.3631207438957
31
0.000000000000000
  0
INSERT
  5
F10033
330
F10016
100
AcDbEntity
  8
Bemassung
 62
     0
370
    -2
100
AcDbBlockReference
  2
VDDIM_DEFAULT
10
-97.4504753495189
20
19.3631207438957
30
0.000000000000000
 41
2.50000000000000
 42
2.50000000000000
 43
2.50000000000000
 50
180.000000000000
  0
INSERT
  5
F10034
330
F10016
100
AcDbEntity
  8
Bemassung
 62
     0
370
    -2
100
AcDbBlockReference
  2
VDDIM_DEFAULT
10
-55.4504753495189
20
19.3631207438957
30
0.000000000000000
 41
2.50000000000000
 42
2.50000000000000
 43
2.50000000000000
  0
MTEXT
  5
F10035
330
F10016
100
AcDbEntity
  8
Bemassung
 62
     0
100
AcDbMText
10
-76.4504753495189
20
20.0297874105624
30
0.000000000000000
 40
2.50000000000000
 41
0.0
 71
     8
 72
     1
  1
42
 11
1.00000000000000
 21
0.000000000000000
 31
0.0
 73
     1
 44
1.0
1001
ACAD
1000
MTEXTBEGIN
1070
73
1070
1
1070
44
1040
1.0
1070
74
1070
0
1000
MTEXTEND
  0
POINT
  5
F10036
330
F10016
100
AcDbEntity
  8
Bemassung
 62
     0
100
AcDbPoint
10
-97.4504753495189
20
-17.6368792561043
30
0.000000000000000
  0
POINT
  5
F10037
330
F10016
100
AcDbEntity
  8
Bemassung
 62
     0
100
AcDbPoint
10
-55.4504753495189
20
8.96312074389575
30
0.000000000000000
  0
ENDBLK
  5
F10038
330
F10016
100
AcDbEntity
  8
0
100
AcDbBlockEnd
  0
BLOCK
  5
F10039
330
F1001B
100
AcDbEntity
  8
0
100
AcDbBlockBegin
  2
*D8
 70
     1
 10
0.0
 20
0.0
 30
0.0
  3
*D8
  1

  0
LINE
  5
F1003A
330
F1001B
100
AcDbEntity
  8
Bemassung
 62
     0
370
    -2
100
AcDbLine
10
-55.4504753495189
20
8.96312074389575
30
0.000000000000000
11
-55.4504753495189
21
26.3631207438957
31
0.000000000000000
  0
LINE
  5
F1003B
330
F1001B
100
AcDbEntity
  8
Bemassung
 62
     0
370
    -2
100
AcDbLine
10
4.54952465048115
20
8.36312074389575
30
0.000000000000000
11
4.54952465048115
21
31.3631207438957
31
0.000000000000000
  0
LINE
  5
F1003C
330
F1001B
100
AcDbEntity
  8
Bemassung
 62
     0
370
    -2
100
AcDbLine
10
-55.4504753495189
20
24.3631207438957
30
0.000000000000000
11
47.1441368037261
21
24.3631207438957
31
0.000000000000000
  0
INSERT
  5
F1003D
330
F1001B
100
AcDbEntity
  8
Bemassung
 62
     0
370
    -2
100
AcDbBlockReference
  2
VDDIM_DEFAULT
10
-55.4504753495189
20
24.3631207438957
30
0.000000000000000
 41
2.50000000000000
 42
2.50000000000000
 43
2.50000000000000
 50
180.000000000000
  0
INSERT
  5
F1003E
330
F1001B
100
AcDbEntity
  8
Bemassung
 62
     0
370
    -2
100
AcDbBlockReference
  2
VDDIM_DEFAULT
10
4.54952465048115
20
24.3631207438957
30
0.000000000000000
 41
2.50000000000000
 42
2.50000000000000
 43
2.50000000000000
  0
MTEXT
  5
F1003F
330
F1001B
100
AcDbEntity
  8
Bemassung
 62
     0
100
AcDbMText
10
-25.4504753495189
20
25.0297874105624
30
0.000000000000000
 40
2.50000000000000
 41
0.0
 71
     8
 72
     1
  1
60
 11
1.00000000000000
 21
0.000000000000000
 31
0.0
 73
     1
 44
1.0
1001
ACAD
1000
MTEXTBEGIN
1070
73
1070
1
1070
44
1040
1.0
1070
74
1070
0
1000
MTEXTEND
  0
POINT
  5
F10040
330
F1001B
100
AcDbEntity
  8
Bemassung
 62
     0
100
AcDbPoint
10
-55.4504753495189
20
8.96312074389575
30
0.000000000000000
  0
POINT
  5
F10041
330
F1001B
100
AcDbEntity
  8
Bemassung
 62
     0
100
AcDbPoint
10
4.54952465048115
20
8.36312074389575
30
0.000000000000000
  0
ENDBLK
  5
F10042
330
F1001B
100
AcDbEntity
  8
0
100
AcDbBlockEnd
  0
BLOCK
  5
F10043
330
F10025
100
AcDbEntity
  8
0
100
AcDbBlockBegin
  2
*D10
 70
     1
 10
0.0
 20
0.0
 30
0.0
  3
*D10
  1

  0
LINE
  5
F10044
330
F10025
100
AcDbEntity
  8
Bemassung
 62
     0
370
    -2
100
AcDbLine
10
-74.4504753495189
20
-10.2368792561043
30
0.000000000000000
11
-74.4504753495189
21
-17.6368792561043
31
0.000000000000000
  0
LINE
  5
F10045
330
F10025
100
AcDbEntity
  8
Bemassung
 62
     0
370
    -2
100
AcDbLine
10
-97.4504753495189
20
-17.6368792561043
30
0.000000000000000
11
-97.4504753495189
21
31.3631207438957
31
0.000000000000000
  0
LINE
  5
F10046
330
F10025
100
AcDbEntity
  8
Bemassung
 62
     0
370
    -2
100
AcDbLine
10
-73.8668372110753
20
-15.6368792561043
30
0.000000000000000
11
-97.4504753495189
21
-15.6368792561043
31
0.000000000000000
  0
INSERT
  5
F10047
330
F10025
100
AcDbEntity
  8
Bemassung
 62
     0
370
    -2
100
AcDbBlockReference
  2
VDDIM_DEFAULT
10
-74.4504753495189
20
-15.6368792561043
30
0.000000000000000
 41
2.50000000000000
 42
2.50000000000000
 43
2.50000000000000
  0
INSERT
  5
F10048
330
F10025
100
AcDbEntity
  8
Bemassung
 62
     0
370
    -2
100
AcDbBlockReference
  2
VDDIM_DEFAULT
10
-97.4504753495189
20
-15.6368792561043
30
0.000000000000000
 41
2.50000000000000
 42
2.50000000000000
 43
2.50000000000000
 50
180.000000000000
  0
MTEXT
  5
F10049
330
F10025
100
AcDbEntity
  8
Bemassung
 62
     0
100
AcDbMText
10
-85.9504753495189
20
-14.9702125894376
30
0.000000000000000
 40
2.50000000000000
 41
0.0
 71
     8
 72
     1
  1
23
 11
1.00000000000000
 21
0.000000000000000
 31
0.0
 73
     1
 44
1.0
1001
ACAD
1000
MTEXTBEGIN
1070
73
1070
1
1070
44
1040
1.0
1070
74
1070
0
1000
MTEXTEND
  0
POINT
  5
F1004A
330
F10025
100
AcDbEntity
  8
Bemassung
 62
     0
100
AcDbPoint
10
-74.4504753495189
20
-10.2368792561043
30
0.000000000000000
  0
POINT
  5
F1004B
330
F10025
100
AcDbEntity
  8
Bemassung
 62
     0
100
AcDbPoint
10
-97.4504753495189
20
-17.6368792561043
30
0.000000000000000
  0
ENDBLK
  5
F1004C
330
F10025
100
AcDbEntity
  8
0
100
AcDbBlockEnd
  0
BLOCK
  5
F1004D
330
F1002A
100
AcDbEntity
  8
0
100
AcDbBlockBegin
  2
*D11
 70
     1
 10
0.0
 20
0.0
 30
0.0
  3
*D11
  1

  0
LINE
  5
F1004E
330
F1002A
100
AcDbEntity
  8
Bemassung
 62
     0
370
    -2
100
AcDbLine
10
4.54952465048115
20
8.36312074389575
30
0.000000000000000
11
4.54952465048115
21
31.3631207438957
31
0.000000000000000
  0
LINE
  5
F1004F
330
F1002A
100
AcDbEntity
  8
Bemassung
 62
     0
370
    -2
100
AcDbLine
10
-97.4504753495189
20
-17.6368792561043
30
0.000000000000000
11
-97.4504753495189
21
31.3631207438957
31
0.000000000000000
  0
LINE
  5
F10050
330
F1002A
100
AcDbEntity
  8
Bemassung
 62
     0
370
    -2
100
AcDbLine
10
5.45867046432500
20
29.3631207438957
30
0.000000000000000
11
-97.4504753495189
21
29.3631207438957
31
0.000000000000000
  0
INSERT
  5
F10051
330
F1002A
100
AcDbEntity
  8
Bemassung
 62
     0
370
    -2
100
AcDbBlockReference
  2
VDDIM_DEFAULT
10
4.54952465048115
20
29.3631207438957
30
0.000000000000000
 41
2.50000000000000
 42
2.50000000000000
 43
2.50000000000000
  0
INSERT
  5
F10052
330
F1002A
100
AcDbEntity
  8
Bemassung
 62
     0
370
    -2
100
AcDbBlockReference
  2
VDDIM_DEFAULT
10
-97.4504753495189
20
29.3631207438957
30
0.000000000000000
 41
2.50000000000000
 42
2.50000000000000
 43
2.50000000000000
 50
180.000000000000
  0
MTEXT
  5
F10053
330
F1002A
100
AcDbEntity
  8
Bemassung
 62
     0
100
AcDbMText
10
-46.4504753495189
20
30.0297874105624
30
0.000000000000000
 40
2.50000000000000
 41
0.0
 71
     8
 72
     1
  1
102
 11
1.00000000000000
 21
0.000000000000000
 31
0.0
 73
     1
 44
1.0
1001
ACAD
1000
MTEXTBEGIN
1070
73
1070
1
1070
44
1040
1.0
1070
74
1070
0
1000
MTEXTEND
  0
POINT
  5
F10054
330
F1002A
100
AcDbEntity
  8
Bemassung
 62
     0
100
AcDbPoint
10
4.54952465048115
20
8.36312074389575
30
0.000000000000000
  0
POINT
  5
F10055
330
F1002A
100
AcDbEntity
  8
Bemassung
 62
     0
100
AcDbPoint
10
-97.4504753495189
20
-17.6368792561043
30
0.000000000000000
  0
ENDBLK
  5
F10056
330
F1002A
100
AcDbEntity
  8
0
100
AcDbBlockEnd
  0
BLOCK
  5
F10057
330
F10002
100
AcDbEntity
  8
0
100
AcDbBlockBegin
  2
*D3
 70
     1
 10
0.0
 20
0.0
 30
0.0
  3
*D3
  1

 0
ARC
  5
F10058
330
F10002
100
AcDbEntity
  8
Bemassung
 62
     0
370
   -2
100
AcDbCircle
10
-97.4498661765380
20
8.32822124719325
30
0.000000000000000
 40
18.9091232513799
100
AcDbArc
 50
90.0000000000000
 51
100.862002677435
  0
LINE
  5
F10059
330
F10002
100
AcDbEntity
  8
Bemassung
 62
     0
370
    -2
100
AcDbLine
10
-97.4498661765380
20
8.32822124719325
30
0.000000000000000
11
-97.4498661765380
21
29.2373444985732
31
0.000000000000000
  0
LINE
  5
F1005A
330
F10002
100
AcDbEntity
  8
Bemassung
 62
     0
370
    -2
100
AcDbLine
10
-97.4498661765380
20
8.32822124719325
30
0.000000000000000
11
-98.1795840545017
21
29.2246072256340
31
0.000000000000000
  0
INSERT
  5
F1005B
330
F10002
100
AcDbEntity
  8
Bemassung
 62
     0
370
    -2
100
AcDbBlockReference
  2
VDDIM_DEFAULT
10
-97.4498661765380
20
27.2373444985732
30
0.000000000000000
 41
2.50000000000000
 42
2.50000000000000
 43
2.50000000000000
 50
179.848496819447
  0
INSERT
  5
F1005C
330
F10002
100
AcDbEntity
  8
Bemassung
 62
     0
370
    -2
100
AcDbBlockReference
  2
VDDIM_DEFAULT
10
-98.1097850610967
20
27.2258255715958
30
0.000000000000000
 41
2.50000000000000
 42
2.50000000000000
 43
2.50000000000000
 50
2.15150318055986
  0
MTEXT
  5
F1005D
330
F10002
100
AcDbEntity
  8
Bemassung
 62
     0
100
AcDbMText
10
-101.946137957207
20
26.6949978345598
30
0.000000000000000
 40
2.50000000000000
 41
0.0
 71
     8
 72
     1
  1
2°
 11
0.972806214685367
 21
0.231620527306040
 31
0.0
 73
     1
 44
1.0
1001
ACAD
1000
MTEXTBEGIN
1070
73
1070
1
1070
44
1040
1.0
1070
74
1070
0
1000
MTEXTEND
  0
POINT
  5
F1005E
330
F10002
100
AcDbEntity
  8
Bemassung
 62
     0
100
AcDbPoint
10
-97.4498661765380
20
8.32822124719325
30
0.000000000000000
  0
POINT
  5
F1005F
330
F10002
100
AcDbEntity
  8
Bemassung
 62
     0
100
AcDbPoint
10
-97.4498661765380
20
27.2373444985732
30
0.000000000000000
  0
POINT
  5
F10060
330
F10002
100
AcDbEntity
  8
Bemassung
 62
     0
100
AcDbPoint
10
-98.1097850610967
20
27.2258255715958
30
0.000000000000000
  0
POINT
  5
F10061
330
F10002
100
AcDbEntity
  8
Bemassung
 62
     0
100
AcDbPoint
10
-97.7798758808937
20
27.2344645475136
30
0.000000000000000
  0
ENDBLK
  5
F10062
330
F10002
100
AcDbEntity
  8
0
100
AcDbBlockEnd
  0
BLOCK
  5
F10063
330
F1000C
100
AcDbEntity
  8
0
100
AcDbBlockBegin
  2
*D5
 70
     1
 10
0.0
 20
0.0
 30
0.0
  3
*D5
  1

  0
LINE
  5
F10064
330
F1000C
100
AcDbEntity
  8
Bemassung
 62
     0
370
    -2
100
AcDbLine
10
-97.1698151498575
20
9.05777911435475
30
0.000000000000000
11
-109.758233769350
21
21.2142736677707
31
0.000000000000000
  0
INSERT
  5
F10065
330
F1000C
100
AcDbEntity
  8
Bemassung
 62
     0
370
    -2
100
AcDbBlockReference
  2
VDDIM_DEFAULT
10
-97.1698151498575
20
9.05777911435475
30
0.000000000000000
 41
2.50000000000000
 42
2.50000000000000
 43
2.50000000000000
 50
316.000000000000
  0
MTEXT
  5
F10066
330
F1000C
100
AcDbEntity
  8
Bemassung
 62
     0
100
AcDbMText
10
-104.363213153244
20
16.0043628189447
30
0.000000000000000
 40
2.50000000000000
 41
0.0
 71
     8
 72
     1
  1
R1
 11
0.719339800338653
 21
-0.694658370458996
 31
0.0
 73
     1
 44
1.0
1001
ACAD
1000
MTEXTBEGIN
1070
73
1070
1
1070
44
1040
1.0
1070
74
1070
0
1000
MTEXTEND
  0
POINT
  5
F10067
330
F1000C
100
AcDbEntity
  8
Bemassung
 62
     0
100
AcDbPoint
10
-97.1698151498575
20
9.05777911435475
30
0.000000000000000
  0
POINT
  5
F10068
330
F1000C
100
AcDbEntity
  8
Bemassung
 62
     0
100
AcDbPoint
10
-96.4504753495189
20
8.36312074389575
30
0.000000000000000
  0
ENDBLK
  5
F10069
330
F1000C
100
AcDbEntity
  8
0
100
AcDbBlockEnd
  0
BLOCK
  5
F1006A
330
F10007
100
AcDbEntity
  8
0
100
AcDbBlockBegin
  2
*D4
 70
     1
 10
0.0
 20
0.0
 30
0.0
  3
*D4
  1

  0
LINE
  5
F1006B
330
F10007
100
AcDbEntity
  8
Bemassung
 62
     0
370
    -2
100
AcDbLine
10
-96.4504753495189
20
-10.6368792561043
30
0.000000000000000
11
-109.450475349519
21
-10.6368792561043
31
0.000000000000000
  0
LINE
  5
F1006C
330
F10007
100
AcDbEntity
  8
Bemassung
 62
     0
370
    -2
100
AcDbLine
10
-96.4504753495189
20
9.36312074389575
30
0.000000000000000
11
-109.450475349519
21
9.36312074389575
31
0.000000000000000
  0
LINE
  5
F1006D
330
F10007
100
AcDbEntity
  8
Bemassung
 62
     0
370
    -2
100
AcDbLine
10
-107.450475349519
20
-10.6368792561043
30
0.000000000000000
11
-107.450475349519
21
9.36312074389575
31
0.000000000000000
  0
INSERT
  5
F1006E
330
F10007
100
AcDbEntity
  8
Bemassung
 62
     0
370
    -2
100
AcDbBlockReference
  2
VDDIM_DEFAULT
10
-107.450475349519
20
-10.6368792561043
30
0.000000000000000
 41
2.50000000000000
 42
2.50000000000000
 43
2.50000000000000
 50
270.000000000000
  0
INSERT
  5
F1006F
330
F10007
100
AcDbEntity
  8
Bemassung
 62
     0
370
    -2
100
AcDbBlockReference
  2
VDDIM_DEFAULT
10
-107.450475349519
20
9.36312074389575
30
0.000000000000000
 41
2.50000000000000
 42
2.50000000000000
 43
2.50000000000000
 50
90.0000000000000
  0
MTEXT
  5
F10070
330
F10007
100
AcDbEntity
  8
Bemassung
 62
     0
100
AcDbMText
10
-106.783808682852
20
-0.636879256104251
30
0.000000000000000
 40
2.50000000000000
 41
0.0
 71
     8
 72
     1
  1
20
 11
6.12323399573677e-017
 21
1.00000000000000
 31
0.0
 73
     1
 44
1.0
1001
ACAD
1000
MTEXTBEGIN
1070
73
1070
1
1070
44
1040
1.0
1070
74
1070
0
1000
MTEXTEND
  0
POINT
  5
F10071
330
F10007
100
AcDbEntity
  8
Bemassung
 62
     0
100
AcDbPoint
10
-96.4504753495189
20
-10.6368792561043
30
0.000000000000000
  0
POINT
  5
F10072
330
F10007
100
AcDbEntity
  8
Bemassung
 62
     0
100
AcDbPoint
10
-96.4504753495189
20
9.36312074389575
30
0.000000000000000
  0
ENDBLK
  5
F10073
330
F10007
100
AcDbEntity
  8
0
100
AcDbBlockEnd
  0
BLOCK
  5
F10074
330
F10011
100
AcDbEntity
  8
0
100
AcDbBlockBegin
  2
*D6
 70
     1
 10
0.0
 20
0.0
 30
0.0
  3
*D6
  1

  0
LINE
  5
F10075
330
F10011
100
AcDbEntity
  8
Bemassung
 62
     0
370
    -2
100
AcDbLine
10
-74.4504753495189
20
-10.2368792561043
30
0.000000000000000
11
-64.4504753495189
21
-10.2368792561043
31
0.000000000000000
  0
LINE
  5
F10076
330
F10011
100
AcDbEntity
  8
Bemassung
 62
     0
370
    -2
100
AcDbLine
10
-74.4504753495189
20
8.96312074389575
30
0.000000000000000
11
-64.4504753495189
21
8.96312074389575
31
0.000000000000000
  0
LINE
  5
F10077
330
F10011
100
AcDbEntity
  8
Bemassung
 62
     0
370
    -2
100
AcDbLine
10
-66.4504753495189
20
-34.8780695938261
30
0.000000000000000
11
-66.4504753495189
21
8.96312074389575
31
0.000000000000000
  0
INSERT
  5
F10078
330
F10011
100
AcDbEntity
  8
Bemassung
 62
     0
370
    -2
100
AcDbBlockReference
  2
VDDIM_DEFAULT
10
-66.4504753495189
20
-10.2368792561043
30
0.000000000000000
 41
2.50000000000000
 42
2.50000000000000
 43
2.50000000000000
 50
270.000000000000
  0
INSERT
  5
F10079
330
F10011
100
AcDbEntity
  8
Bemassung
 62
     0
370
    -2
100
AcDbBlockReference
  2
VDDIM_DEFAULT
10
-66.4504753495189
20
8.96312074389575
30
0.000000000000000
 41
2.50000000000000
 42
2.50000000000000
 43
2.50000000000000
 50
90.0000000000000
  0
MTEXT
  5
F1007A
330
F10011
100
AcDbEntity
  8
Bemassung
 62
     0
100
AcDbMText
10
-65.7838086828522
20
-15.9985939887035
30
0.000000000000000
 40
2.50000000000000
 41
0.0
 71
     8
 72
     1
  1
19.2
 11
6.12323399573677e-017
 21
1.00000000000000
 31
0.0
 73
     1
 44
1.0
1001
ACAD
1000
MTEXTBEGIN
1070
73
1070
1
1070
44
1040
1.0
1070
74
1070
0
1000
MTEXTEND
  0
POINT
  5
F1007B
330
F10011
100
AcDbEntity
  8
Bemassung
 62
     0
100
AcDbPoint
10
-74.4504753495189
20
-10.2368792561043
30
0.000000000000000
  0
POINT
  5
F1007C
330
F10011
100
AcDbEntity
  8
Bemassung
 62
     0
100
AcDbPoint
10
-74.4504753495189
20
8.96312074389575
30
0.000000000000000
  0
ENDBLK
  5
F1007D
330
F10011
100
AcDbEntity
  8
0
100
AcDbBlockEnd
  0
BLOCK
  5
F1007E
330
F10020
100
AcDbEntity
  8
0
100
AcDbBlockBegin
  2
*D9
 70
     1
 10
0.0
 20
0.0
 30
0.0
  3
*D9
  1

  0
LINE
  5
F1007F
330
F10020
100
AcDbEntity
  8
Bemassung
 62
     0
370
    -2
100
AcDbLine
10
3.54952465048115
20
-10.6368792561043
30
0.000000000000000
11
16.5495246504811
21
-10.6368792561043
31
0.000000000000000
  0
LINE
  5
F10080
330
F10020
100
AcDbEntity
  8
Bemassung
 62
     0
370
    -2
100
AcDbLine
10
3.54952465048115
20
9.36312074389575
30
0.000000000000000
11
16.5495246504811
21
9.36312074389575
31
0.000000000000000
  0
LINE
  5
F10081
330
F10020
100
AcDbEntity
  8
Bemassung
 62
     0
370
    -2
100
AcDbLine
10
14.5495246504811
20
-10.6368792561043
30
0.000000000000000
11
14.5495246504811
21
9.36312074389575
31
0.000000000000000
  0
INSERT
  5
F10082
330
F10020
100
AcDbEntity
  8
Bemassung
 62
     0
370
    -2
100
AcDbBlockReference
  2
VDDIM_DEFAULT
10
14.5495246504811
20
-10.6368792561043
30
0.000000000000000
 41
2.50000000000000
 42
2.50000000000000
 43
2.50000000000000
 50
270.000000000000
  0
INSERT
  5
F10083
330
F10020
100
AcDbEntity
  8
Bemassung
 62
     0
370
    -2
100
AcDbBlockReference
  2
VDDIM_DEFAULT
10
14.5495246504811
20
9.36312074389575
30
0.000000000000000
 41
2.50000000000000
 42
2.50000000000000
 43
2.50000000000000
 50
90.0000000000000
  0
MTEXT
  5
F10084
330
F10020
100
AcDbEntity
  8
Bemassung
 62
     0
100
AcDbMText
10
15.2161913171478
20
-0.636879256104251
30
0.000000000000000
 40
2.50000000000000
 41
0.0
 71
     8
 72
     1
  1
20h6
 11
6.12323399573677e-017
 21
1.00000000000000
 31
0.0
 73
     1
 44
1.0
  0
POINT
  5
F10085
330
F10020
100
AcDbEntity
  8
Bemassung
 62
     0
100
AcDbPoint
10
3.54952465048115
20
-10.6368792561043
30
0.000000000000000
  0
POINT
  5
F10086
330
F10020
100
AcDbEntity
  8
Bemassung
 62
     0
100
AcDbPoint
10
3.54952465048115
20
9.36312074389575
30
0.000000000000000
  0
ENDBLK
  5
F10087
330
F10020
100
AcDbEntity
  8
0
100
AcDbBlockEnd
0
ENDSEC
0
SECTION
2
ENTITIES
  0
DIMENSION
  5
F10017
330
261
100
AcDbEntity
  8
Bemassung
100
AcDbDimension
  2
*D7
10
-55.4504753495189
20
19.3631207438957
30
0.000000000000000
11
-76.4504753495189
21
20.0297874105624
31
0.000000000000000
 70
32
 1
42
 71
     8
  3
BEM-ISBE
100
AcDbAlignedDimension
13
-97.4504753495189
23
-17.6368792561043
33
0.000000000000000
14
-55.4504753495189
24
8.96312074389575
34
0.000000000000000
100
AcDbRotatedDimension
1001
ACAD
1000
DSTYLE
1002
{
1070
284
1070
8
1070
78
1070
8
1070
144
1040
1.00000000000000
1070
147
1040
0.625
1070
 72
1070
 0
1070
 71
1070
 0
1002
}
  0
DIMENSION
  5
F1001C
330
261
100
AcDbEntity
  8
Bemassung
100
AcDbDimension
  2
*D8
10
4.54952465048115
20
24.3631207438957
30
0.000000000000000
11
-25.4504753495189
21
25.0297874105624
31
0.000000000000000
 70
32
 1
60
 71
     8
  3
BEM-ISBE
100
AcDbAlignedDimension
13
-55.4504753495189
23
8.96312074389575
33
0.000000000000000
14
4.54952465048115
24
8.36312074389575
34
0.000000000000000
100
AcDbRotatedDimension
1001
ACAD
1000
DSTYLE
1002
{
1070
284
1070
8
1070
78
1070
8
1070
144
1040
1.00000000000000
1070
147
1040
0.625
1070
 72
1070
 0
1070
 71
1070
 0
1002
}
  0
DIMENSION
  5
F10026
330
261
100
AcDbEntity
  8
Bemassung
100
AcDbDimension
  2
*D10
10
-97.4504753495189
20
-15.6368792561043
30
0.000000000000000
11
-85.9504753495189
21
-14.9702125894376
31
0.000000000000000
 70
32
 1
23
 71
     8
  3
BEM-ISBE
100
AcDbAlignedDimension
13
-74.4504753495189
23
-10.2368792561043
33
0.000000000000000
14
-97.4504753495189
24
-17.6368792561043
34
0.000000000000000
100
AcDbRotatedDimension
1001
ACAD
1000
DSTYLE
1002
{
1070
284
1070
8
1070
78
1070
8
1070
144
1040
1.00000000000000
1070
147
1040
0.625
1070
 72
1070
 0
1070
 71
1070
 0
1002
}
  0
DIMENSION
  5
F1002B
330
261
100
AcDbEntity
  8
Bemassung
100
AcDbDimension
  2
*D11
10
-97.4504753495189
20
29.3631207438957
30
0.000000000000000
11
-46.4504753495189
21
30.0297874105624
31
0.000000000000000
 70
32
 1
102
 71
     8
  3
BEM-ISBE
100
AcDbAlignedDimension
13
4.54952465048115
23
8.36312074389575
33
0.000000000000000
14
-97.4504753495189
24
-17.6368792561043
34
0.000000000000000
100
AcDbRotatedDimension
1001
ACAD
1000
DSTYLE
1002
{
1070
284
1070
8
1070
78
1070
8
1070
144
1040
1.00000000000000
1070
147
1040
0.625
1070
 72
1070
 0
1070
 71
1070
 0
1002
}
  0
DIMENSION
  5
F10003
330
261
100
AcDbEntity
  8
Bemassung
100
AcDbDimension
  2
*D3
10
-97.4498661765380
20
8.32822124719325
30
0.000000000000000
11
-101.946137957207
21
26.6949978345598
31
0.000000000000000
 70
34
 1
2°
 71
     8
  3
BEM-ISBE
100
AcDb2LineAngularDimension
13
-97.4498661765380
23
8.32822124719325
33
0.000000000000000
14
-101.013180547028
24
26.8985667699060
34
0.000000000000000
15
-97.4498661765380
25
27.2373444985732
35
0.000000000000000
16
-97.7798758808937
26
27.2344645475136
36
0.000000000000000
1001
ACAD
1000
DSTYLE
1002
{
1070
284
1070
8
1070
79
1070
2
1070
147
1040
0.625
1070
 72
1070
 0
1070
 71
1070
 0
1002
}
  0
DIMENSION
  5
F1000D
330
261
100
AcDbEntity
  8
Bemassung
100
AcDbDimension
  2
*D5
10
-96.4504753495189
20
8.36312074389575
30
0.000000000000000
11
-104.363213153244
21
16.0043628189447
31
0.000000000000000
 70
164
 1
R1
 71
     8
  3
BEM-ISBE
100
AcDbRadialDimension
15
-97.1698151498575
25
9.05777911435475
35
0.000000000000000
40
0.0
1001
ACAD
1000
DSTYLE
1002
{
1070
284
1070
8
1070
78
1070
8
1070
144
1040
1.00000000000000
1070
147
1040
0.625
1070
 72
1070
 0
1070
 71
1070
 0
1002
}
  0
DIMENSION
  5
F10008
330
261
100
AcDbEntity
  8
Bemassung
100
AcDbDimension
  2
*D4
10
-107.450475349519
20
9.36312074389575
30
0.000000000000000
11
-106.783808682852
21
-0.636879256104251
31
0.000000000000000
 70
32
 1
20
 71
     8
  3
BEM-ISBE
100
AcDbAlignedDimension
13
-96.4504753495189
23
-10.6368792561043
33
0.000000000000000
14
-96.4504753495189
24
9.36312074389575
34
0.000000000000000
50
90.0000000000000
100
AcDbRotatedDimension
1001
ACAD
1000
DSTYLE
1002
{
1070
284
1070
8
1070
78
1070
8
1070
144
1040
1.00000000000000
1070
147
1040
0.625
1070
 72
1070
 0
1070
 71
1070
 0
1002
}
  0
DIMENSION
  5
F10012
330
261
100
AcDbEntity
  8
Bemassung
100
AcDbDimension
  2
*D6
10
-66.4504753495189
20
8.96312074389575
30
0.000000000000000
11
-65.7838086828522
21
-15.9985939887035
31
0.000000000000000
 70
32
 1
19.2
 71
     8
  3
BEM-ISBE
100
AcDbAlignedDimension
13
-74.4504753495189
23
-10.2368792561043
33
0.000000000000000
14
-74.4504753495189
24
8.96312074389575
34
0.000000000000000
50
90.0000000000000
100
AcDbRotatedDimension
1001
ACAD
1000
DSTYLE
1002
{
1070
284
1070
8
1070
78
1070
8
1070
144
1040
1.00000000000000
1070
147
1040
0.625
1070
 72
1070
 0
1070
 71
1070
 0
1002
}
  0
DIMENSION
  5
F10021
330
261
100
AcDbEntity
  8
Bemassung
100
AcDbDimension
  2
*D9
10
14.5495246504811
20
9.36312074389575
30
0.000000000000000
11
15.2161913171478
21
-0.636879256104251
31
0.000000000000000
 70
32
 1
20h6
 71
     8
  3
BEM-ISBE
100
AcDbAlignedDimension
13
3.54952465048115
23
-10.6368792561043
33
0.000000000000000
14
3.54952465048115
24
9.36312074389575
34
0.000000000000000
50
90.0000000000000
100
AcDbRotatedDimension
1001
ACAD
1000
DSTYLE
1002
{
1070
284
1070
8
1070
78
1070
8
1070
144
1040
1.00000000000000
1070
147
1040
0.625
1070
 72
1070
 0
1070
 71
1070
 0
1002
}
  0
LINE
  5
F10088
330
F10089
100
AcDbEntity
8
Geo
100
AcDbLine
10
-97.1367979683919
20
-0.636879256104251
30
0.000000000000000
11
-97.4498661765380
21
8.32822124719325
31
0.000000000000000
  0
ARC
  5
F1008A
330
F1008B
100
AcDbEntity
8
Geo
100
AcDbCircle
10
-96.4504753495189
20
8.36312074389575
30
0.000000000000000
 40
1.00000000000000
100
AcDbArc
 50
90.0000000000000
 51
182.000000000000
  0
LINE
  5
F1008C
330
F1008D
100
AcDbEntity
8
Geo
100
AcDbLine
10
-96.4504753495189
20
9.36312074389575
30
0.000000000000000
11
-74.4504753495189
21
9.36312074389575
31
0.000000000000000
  0
LINE
  5
F1008E
330
F1008F
100
AcDbEntity
8
Geo
100
AcDbLine
10
-74.4504753495189
20
9.36312074389575
30
0.000000000000000
11
-74.4504753495189
21
8.96312074389575
31
0.000000000000000
  0
LINE
  5
F10090
330
F10091
100
AcDbEntity
8
Geo
100
AcDbLine
10
-74.4504753495189
20
8.96312074389575
30
0.000000000000000
11
-55.4504753495189
21
8.96312074389575
31
0.000000000000000
  0
LINE
  5
F10092
330
F10093
100
AcDbEntity
8
Geo
100
AcDbLine
10
-55.4504753495189
20
8.96312074389575
30
0.000000000000000
11
-55.4504753495189
21
9.36312074389575
31
0.000000000000000
  0
LINE
  5
F10094
330
F10095
100
AcDbEntity
8
Geo
100
AcDbLine
10
-55.4504753495189
20
9.36312074389575
30
0.000000000000000
11
3.54952465048115
21
9.36312074389575
31
0.000000000000000
  0
LINE
  5
F10096
330
F10097
100
AcDbEntity
8
Geo
100
AcDbLine
10
3.54952465048115
20
9.36312074389575
30
0.000000000000000
11
4.54952465048115
21
8.36312074389575
31
0.000000000000000
  0
LINE
  5
F10098
330
F10099
100
AcDbEntity
8
Geo
100
AcDbLine
10
-94.2504753495189
20
9.36000677426460
30
0.000000000000000
11
-94.1504753495189
21
9.36220497559625
31
0.000000000000000
  0
LINE
  5
F1009A
330
F1009B
100
AcDbEntity
8
Geo
100
AcDbLine
10
-94.1504753495189
20
9.36220497559625
30
0.000000000000000
11
-94.0504753495188
21
9.34959154753853
31
0.000000000000000
  0
LINE
  5
F1009C
330
F1009D
100
AcDbEntity
8
Geo
100
AcDbLine
10
-94.0504753495188
20
9.34959154753853
30
0.000000000000000
11
-93.9504753495189
21
9.32218517434467
31
0.000000000000000
  0
LINE
  5
F1009E
330
F1009F
100
AcDbEntity
8
Geo
100
AcDbLine
10
-93.9504753495189
20
9.32218517434467
30
0.000000000000000
11
-93.8504753495188
21
9.28002645303669
31
0.000000000000000
  0
LINE
  5
F100A0
330
F100A1
100
AcDbEntity
8
Geo
100
AcDbLine
10
-93.8504753495188
20
9.28002645303669
30
0.000000000000000
11
-93.7504753495189
21
9.22317783326907
31
0.000000000000000
  0
LINE
  5
F100A2
330
F100A3
100
AcDbEntity
8
Geo
100
AcDbLine
10
-93.7504753495189
20
9.22317783326907
30
0.000000000000000
11
-93.6504753495189
21
9.15172352482221
31
0.000000000000000
  0
LINE
  5
F100A4
330
F100A5
100
AcDbEntity
8
Geo
100
AcDbLine
10
-93.6504753495189
20
9.15172352482221
30
0.000000000000000
11
-93.5504753495188
21
9.06576937286258
31
0.000000000000000
  0
LINE
  5
F100A6
330
F100A7
100
AcDbEntity
8
Geo
100
AcDbLine
10
-93.5504753495188
20
9.06576937286258
30
0.000000000000000
11
-93.4504753495189
21
8.96544270115441
31
0.000000000000000
  0
LINE
  5
F100A8
330
F100A9
100
AcDbEntity
8
Geo
100
AcDbLine
10
-93.4504753495189
20
8.96544270115441
30
0.000000000000000
11
-93.3504753495189
21
8.85089212345520
31
0.000000000000000
  0
LINE
  5
F100AA
330
F100AB
100
AcDbEntity
8
Geo
100
AcDbLine
10
-93.3504753495189
20
8.85089212345520
30
0.000000000000000
11
-93.2504753495189
21
8.72228732337435
31
0.000000000000000
  0
LINE
  5
F100AC
330
F100AD
100
AcDbEntity
8
Geo
100
AcDbLine
10
-93.2504753495189
20
8.72228732337435
30
0.000000000000000
11
-93.1504753495189
21
8.57981880302111
31
0.000000000000000
  0
LINE
  5
F100AE
330
F100AF
100
AcDbEntity
8
Geo
100
AcDbLine
10
-93.1504753495189
20
8.57981880302111
30
0.000000000000000
11
-93.0504753495188
21
8.42369760081400
31
0.000000000000000
  0
LINE
  5
F100B0
330
F100B1
100
AcDbEntity
8
Geo
100
AcDbLine
10
-93.0504753495188
20
8.42369760081400
30
0.000000000000000
11
-92.9504753495189
21
8.25415497886998
31
0.000000000000000
  0
LINE
  5
F100B2
330
F100B3
100
AcDbEntity
8
Geo
100
AcDbLine
10
-92.9504753495189
20
8.25415497886998
30
0.000000000000000
11
-92.8504753495189
21
8.07144208043612
31
0.000000000000000
  0
LINE
  5
F100B4
330
F100B5
100
AcDbEntity
8
Geo
100
AcDbLine
10
-92.8504753495189
20
8.07144208043612
30
0.000000000000000
11
-92.7504753495189
21
7.87582955787156
31
0.000000000000000
  0
LINE
  5
F100B6
330
F100B7
100
AcDbEntity
8
Geo
100
AcDbLine
10
-92.7504753495189
20
7.87582955787156
30
0.000000000000000
11
-92.6504753495189
21
7.66760717173046
31
0.000000000000000
  0
LINE
  5
F100B8
330
F100B9
100
AcDbEntity
8
Geo
100
AcDbLine
10
-92.6504753495189
20
7.66760717173046
30
0.000000000000000
11
-92.5504753495188
21
7.44708336154013
31
0.000000000000000
  0
LINE
  5
F100BA
330
F100BB
100
AcDbEntity
8
Geo
100
AcDbLine
10
-92.5504753495188
20
7.44708336154013
30
0.000000000000000
11
-92.4504753495189
21
7.21458478891002
31
0.000000000000000
  0
LINE
  5
F100BC
330
F100BD
100
AcDbEntity
8
Geo
100
AcDbLine
10
-92.4504753495189
20
7.21458478891002
30
0.000000000000000
11
-92.3504753495189
21
6.97045585364831
31
0.000000000000000
  0
LINE
  5
F100BE
330
F100BF
100
AcDbEntity
8
Geo
100
AcDbLine
10
-92.3504753495189
20
6.97045585364831
30
0.000000000000000
11
-92.2504753495189
21
6.71505818360296
31
0.000000000000000
  0
LINE
  5
F100C0
330
F100C1
100
AcDbEntity
8
Geo
100
AcDbLine
10
-92.2504753495189
20
6.71505818360296
30
0.000000000000000
11
-92.1504753495189
21
6.44877009898289
31
0.000000000000000
  0
LINE
  5
F100C2
330
F100C3
100
AcDbEntity
8
Geo
100
AcDbLine
10
-92.1504753495189
20
6.44877009898289
30
0.000000000000000
11
-92.0504753495189
21
6.17198605195282
31
0.000000000000000
  0
LINE
  5
F100C4
330
F100C5
100
AcDbEntity
8
Geo
100
AcDbLine
10
-92.0504753495189
20
6.17198605195282
30
0.000000000000000
11
-91.9504753495189
21
5.88511604233176
31
0.000000000000000
  0
LINE
  5
F100C6
330
F100C7
100
AcDbEntity
8
Geo
100
AcDbLine
10
-91.9504753495189
20
5.88511604233176
30
0.000000000000000
11
-91.8504753495189
21
5.58858501026094
31
0.000000000000000
  0
LINE
  5
F100C8
330
F100C9
100
AcDbEntity
8
Geo
100
AcDbLine
10
-91.8504753495189
20
5.58858501026094
30
0.000000000000000
11
-91.7504753495189
21
5.28283220674051
31
0.000000000000000
  0
LINE
  5
F100CA
330
F100CB
100
AcDbEntity
8
Geo
100
AcDbLine
10
-91.7504753495189
20
5.28283220674051
30
0.000000000000000
11
-91.6504753495189
21
4.96831054296770
31
0.000000000000000
  0
LINE
  5
F100CC
330
F100CD
100
AcDbEntity
8
Geo
100
AcDbLine
10
-91.6504753495189
20
4.96831054296770
30
0.000000000000000
11
-91.5504753495189
21
4.64548591944007
31
0.000000000000000
  0
LINE
  5
F100CE
330
F100CF
100
AcDbEntity
8
Geo
100
AcDbLine
10
-91.5504753495189
20
4.64548591944007
30
0.000000000000000
11
-91.4504753495189
21
4.31483653581777
31
0.000000000000000
  0
LINE
  5
F100D0
330
F100D1
100
AcDbEntity
8
Geo
100
AcDbLine
10
-91.4504753495189
20
4.31483653581777
30
0.000000000000000
11
-91.3504753495189
21
3.97685218256708
31
0.000000000000000
  0
LINE
  5
F100D2
330
F100D3
100
AcDbEntity
8
Geo
100
AcDbLine
10
-91.3504753495189
20
3.97685218256708
30
0.000000000000000
11
-91.2504753495189
21
3.63203351543441
31
0.000000000000000
  0
LINE
  5
F100D4
330
F100D5
100
AcDbEntity
8
Geo
100
AcDbLine
10
-91.2504753495189
20
3.63203351543441
30
0.000000000000000
11
-91.1504753495189
21
3.28089131382575
31
0.000000000000000
  0
LINE
  5
F100D6
330
F100D7
100
AcDbEntity
8
Geo
100
AcDbLine
10
-91.1504753495189
20
3.28089131382575
30
0.000000000000000
11
-91.0504753495189
21
2.92394572418979
31
0.000000000000000
  0
LINE
  5
F100D8
330
F100D9
100
AcDbEntity
8
Geo
100
AcDbLine
10
-91.0504753495189
20
2.92394572418979
30
0.000000000000000
11
-90.9504753495189
21
2.56172548952570
31
0.000000000000000
  0
LINE
  5
F100DA
330
F100DB
100
AcDbEntity
8
Geo
100
AcDbLine
10
-90.9504753495189
20
2.56172548952570
30
0.000000000000000
11
-90.8504753495189
21
2.19476716615694
31
0.000000000000000
  0
LINE
  5
F100DC
330
F100DD
100
AcDbEntity
8
Geo
100
AcDbLine
10
-90.8504753495189
20
2.19476716615694
30
0.000000000000000
11
-90.7504753495189
21
1.82361432893107
31
0.000000000000000
  0
LINE
  5
F100DE
330
F100DF
100
AcDbEntity
8
Geo
100
AcDbLine
10
-90.7504753495189
20
1.82361432893107
30
0.000000000000000
11
-90.6504753495189
21
1.44881676602314
31
0.000000000000000
  0
LINE
  5
F100E0
330
F100E1
100
AcDbEntity
8
Geo
100
AcDbLine
10
-90.6504753495189
20
1.44881676602314
30
0.000000000000000
11
-90.5504753495189
21
1.07092966453519
31
0.000000000000000
  0
LINE
  5
F100E2
330
F100E3
100
AcDbEntity
8
Geo
100
AcDbLine
10
-90.5504753495189
20
1.07092966453519
30
0.000000000000000
11
-90.4504753495189
21
0.690512788098444
31
0.000000000000000
  0
LINE
  5
F100E4
330
F100E5
100
AcDbEntity
8
Geo
100
AcDbLine
10
-90.4504753495189
20
0.690512788098444
30
0.000000000000000
11
-90.3504753495189
21
0.308129647696163
31
0.000000000000000
  0
LINE
  5
F100E6
330
F100E7
100
AcDbEntity
8
Geo
100
AcDbLine
10
-90.3504753495189
20
0.308129647696163
30
0.000000000000000
11
-90.2504753495189
21
-0.0756533330643379
31
0.000000000000000
  0
LINE
  5
F100E8
330
F100E9
100
AcDbEntity
8
Geo
100
AcDbLine
10
-90.2504753495189
20
-0.0756533330643379
30
0.000000000000000
11
-90.1504753495189
21
-0.460267656994183
31
0.000000000000000
  0
LINE
  5
F100EA
330
F100EB
100
AcDbEntity
8
Geo
100
AcDbLine
10
-90.1504753495189
20
-0.460267656994183
30
0.000000000000000
11
-90.0504753495189
21
-0.845143595437044
31
0.000000000000000
  0
LINE
  5
F100EC
330
F100ED
100
AcDbEntity
8
Geo
100
AcDbLine
10
-90.0504753495189
20
-0.845143595437044
30
0.000000000000000
11
-89.9504753495189
21
-1.22971103220738
31
0.000000000000000
  0
LINE
  5
F100EE
330
F100EF
100
AcDbEntity
8
Geo
100
AcDbLine
10
-89.9504753495189
20
-1.22971103220738
30
0.000000000000000
11
-89.8504753495189
21
-1.61340030810274
31
0.000000000000000
  0
LINE
  5
F100F0
330
F100F1
100
AcDbEntity
8
Geo
100
AcDbLine
10
-89.8504753495189
20
-1.61340030810274
30
0.000000000000000
11
-89.7504753495189
21
-1.99564306473914
31
0.000000000000000
  0
LINE
  5
F100F2
330
F100F3
100
AcDbEntity
8
Geo
100
AcDbLine
10
-89.7504753495189
20
-1.99564306473914
30
0.000000000000000
11
-89.6504753495189
21
-2.37587308645954
31
0.000000000000000
  0
LINE
  5
F100F4
330
F100F5
100
AcDbEntity
8
Geo
100
AcDbLine
10
-89.6504753495189
20
-2.37587308645954
30
0.000000000000000
11
-89.5504753495189
21
-2.75352713906829
31
0.000000000000000
  0
LINE
  5
F100F6
330
F100F7
100
AcDbEntity
8
Geo
100
AcDbLine
10
-89.5504753495189
20
-2.75352713906829
30
0.000000000000000
11
-89.4504753495189
21
-3.12804580414917
31
0.000000000000000
  0
LINE
  5
F100F8
330
F100F9
100
AcDbEntity
8
Geo
100
AcDbLine
10
-89.4504753495189
20
-3.12804580414917
30
0.000000000000000
11
-89.3504753495189
21
-3.49887430773108
31
0.000000000000000
  0
LINE
  5
F100FA
330
F100FB
100
AcDbEntity
8
Geo
100
AcDbLine
10
-89.3504753495189
20
-3.49887430773108
30
0.000000000000000
11
-89.2504753495189
21
-3.86546334207395
31
0.000000000000000
  0
LINE
  5
F100FC
330
F100FD
100
AcDbEntity
8
Geo
100
AcDbLine
10
-89.2504753495189
20
-3.86546334207395
30
0.000000000000000
11
-89.1504753495189
21
-4.22726987935752
31
0.000000000000000
  0
LINE
  5
F100FE
330
F100FF
100
AcDbEntity
8
Geo
100
AcDbLine
10
-89.1504753495189
20
-4.22726987935752
30
0.000000000000000
11
-89.0504753495189
21
-4.58375797606770
31
0.000000000000000
  0
LINE
  5
F10100
330
F10101
100
AcDbEntity
8
Geo
100
AcDbLine
10
-89.0504753495189
20
-4.58375797606770
30
0.000000000000000
11
-88.9504753495189
21
-4.93439956688891
31
0.000000000000000
  0
LINE
  5
F10102
330
F10103
100
AcDbEntity
8
Geo
100
AcDbLine
10
-88.9504753495189
20
-4.93439956688891
30
0.000000000000000
11
-88.8504753495189
21
-5.27867524692654
31
0.000000000000000
  0
LINE
  5
F10104
330
F10105
100
AcDbEntity
8
Geo
100
AcDbLine
10
-88.8504753495189
20
-5.27867524692654
30
0.000000000000000
11
-88.7504753495189
21
-5.61607504110064
31
0.000000000000000
  0
LINE
  5
F10106
330
F10107
100
AcDbEntity
8
Geo
100
AcDbLine
10
-88.7504753495189
20
-5.61607504110064
30
0.000000000000000
11
-88.6504753495189
21
-5.94609915957130
31
0.000000000000000
  0
LINE
  5
F10108
330
F10109
100
AcDbEntity
8
Geo
100
AcDbLine
10
-88.6504753495189
20
-5.94609915957130
30
0.000000000000000
11
-88.5504753495189
21
-6.26825873807663
31
0.000000000000000
  0
LINE
  5
F1010A
330
F1010B
100
AcDbEntity
8
Geo
100
AcDbLine
10
-88.5504753495189
20
-6.26825873807663
30
0.000000000000000
11
-88.4504753495189
21
-6.58207656208676
31
0.000000000000000
  0
LINE
  5
F1010C
330
F1010D
100
AcDbEntity
8
Geo
100
AcDbLine
10
-88.4504753495189
20
-6.58207656208676
30
0.000000000000000
11
-88.3504753495189
21
-6.88708777370096
31
0.000000000000000
  0
LINE
  5
F1010E
330
F1010F
100
AcDbEntity
8
Geo
100
AcDbLine
10
-88.3504753495189
20
-6.88708777370096
30
0.000000000000000
11
-88.2504753495189
21
-7.18284056024105
31
0.000000000000000
  0
LINE
  5
F10110
330
F10111
100
AcDbEntity
8
Geo
100
AcDbLine
10
-88.2504753495189
20
-7.18284056024105
30
0.000000000000000
11
-88.1504753495189
21
-7.46889682352089
31
0.000000000000000
  0
LINE
  5
F10112
330
F10113
100
AcDbEntity
8
Geo
100
AcDbLine
10
-88.1504753495189
20
-7.46889682352089
30
0.000000000000000
11
-88.0504753495189
21
-7.74483282880057
31
0.000000000000000
  0
LINE
  5
F10114
330
F10115
100
AcDbEntity
8
Geo
100
AcDbLine
10
-88.0504753495189
20
-7.74483282880057
30
0.000000000000000
11
-87.9504753495189
21
-8.01023983246410
31
0.000000000000000
  0
LINE
  5
F10116
330
F10117
100
AcDbEntity
8
Geo
100
AcDbLine
10
-87.9504753495189
20
-8.01023983246410
30
0.000000000000000
11
-87.8504753495189
21
-8.26472468749077
31
0.000000000000000
  0
LINE
  5
F10118
330
F10119
100
AcDbEntity
8
Geo
100
AcDbLine
10
-87.8504753495189
20
-8.26472468749077
30
0.000000000000000
11
-87.7504753495189
21
-8.50791042582325
31
0.000000000000000
  0
LINE
  5
F1011A
330
F1011B
100
AcDbEntity
8
Geo
100
AcDbLine
10
-87.7504753495189
20
-8.50791042582325
30
0.000000000000000
11
-87.6504753495189
21
-8.73943681676987
31
0.000000000000000
  0
LINE
  5
F1011C
330
F1011D
100
AcDbEntity
8
Geo
100
AcDbLine
10
-87.6504753495189
20
-8.73943681676987
30
0.000000000000000
11
-87.5504753495189
21
-8.95896090061379
31
0.000000000000000
  0
LINE
  5
F1011E
330
F1011F
100
AcDbEntity
8
Geo
100
AcDbLine
10
-87.5504753495189
20
-8.95896090061379
30
0.000000000000000
11
-87.4504753495189
21
-9.16615749663882
31
0.000000000000000
  0
LINE
  5
F10120
330
F10121
100
AcDbEntity
8
Geo
100
AcDbLine
10
-87.4504753495189
20
-9.16615749663882
30
0.000000000000000
11
-87.3504753495189
21
-9.36071968481908
31
0.000000000000000
  0
LINE
  5
F10122
330
F10123
100
AcDbEntity
8
Geo
100
AcDbLine
10
-87.3504753495189
20
-9.36071968481908
30
0.000000000000000
11
-87.2504753495189
21
-9.54235926045924
31
0.000000000000000
  0
LINE
  5
F10124
330
F10125
100
AcDbEntity
8
Geo
100
AcDbLine
10
-87.2504753495189
20
-9.54235926045924
30
0.000000000000000
11
-87.1504753495189
21
-9.71080716111174
31
0.000000000000000
  0
LINE
  5
F10126
330
F10127
100
AcDbEntity
8
Geo
100
AcDbLine
10
-87.1504753495189
20
-9.71080716111174
30
0.000000000000000
11
-87.0504753495189
21
-9.86581386513860
31
0.000000000000000
  0
LINE
  5
F10128
330
F10129
100
AcDbEntity
8
Geo
100
AcDbLine
10
-87.0504753495189
20
-9.86581386513860
30
0.000000000000000
11
-86.9504753495189
21
-10.0071497613274
31
0.000000000000000
  0
LINE
  5
F1012A
330
F1012B
100
AcDbEntity
8
Geo
100
AcDbLine
10
-86.9504753495189
20
-10.0071497613274
30
0.000000000000000
11
-86.8504753495189
21
-10.1346054890143
31
0.000000000000000
  0
LINE
  5
F1012C
330
F1012D
100
AcDbEntity
8
Geo
100
AcDbLine
10
-86.8504753495189
20
-10.1346054890143
30
0.000000000000000
11
-86.7504753495189
21
-10.2479922482093
31
0.000000000000000
  0
LINE
  5
F1012E
330
F1012F
100
AcDbEntity
8
Geo
100
AcDbLine
10
-86.7504753495189
20
-10.2479922482093
30
0.000000000000000
11
-86.6504753495189
21
-10.3471420792657
31
0.000000000000000
  0
LINE
  5
F10130
330
F10131
100
AcDbEntity
8
Geo
100
AcDbLine
10
-86.6504753495189
20
-10.3471420792657
30
0.000000000000000
11
-86.5504753495189
21
-10.4319081116785
31
0.000000000000000
  0
LINE
  5
F10132
330
F10133
100
AcDbEntity
8
Geo
100
AcDbLine
10
-86.5504753495189
20
-10.4319081116785
30
0.000000000000000
11
-86.4504753495189
21
-10.5021647816431
31
0.000000000000000
  0
LINE
  5
F10134
330
F10135
100
AcDbEntity
8
Geo
100
AcDbLine
10
-86.4504753495189
20
-10.5021647816431
30
0.000000000000000
11
-86.3504753495189
21
-10.5578080180534
31
0.000000000000000
  0
LINE
  5
F10136
330
F10137
100
AcDbEntity
8
Geo
100
AcDbLine
10
-86.3504753495189
20
-10.5578080180534
30
0.000000000000000
11
-86.2504753495189
21
-10.5987553966616
31
0.000000000000000
  0
LINE
  5
F10138
330
F10139
100
AcDbEntity
8
Geo
100
AcDbLine
10
-86.2504753495189
20
-10.5987553966616
30
0.000000000000000
11
-86.1504753495189
21
-10.6249462621734
31
0.000000000000000
  0
LINE
  5
F1013A
330
F1013B
100
AcDbEntity
8
Geo
100
AcDbLine
10
-86.1504753495189
20
-10.6249462621734
30
0.000000000000000
11
-86.0504753495189
21
-10.6363418180967
31
0.000000000000000
  0
LINE
  5
F1013C
330
F1013D
100
AcDbEntity
8
Geo
100
AcDbLine
10
-77.8504753495188
20
9.36312074389575
30
0.000000000000000
11
-77.7504753495188
21
9.36283639115056
31
0.000000000000000
  0
LINE
  5
F1013E
330
F1013F
100
AcDbEntity
8
Geo
100
AcDbLine
10
-77.7504753495188
20
9.36283639115056
30
0.000000000000000
11
-77.6504753495188
21
9.35648420276988
31
0.000000000000000
  0
LINE
  5
F10140
330
F10141
100
AcDbEntity
8
Geo
100
AcDbLine
10
-77.6504753495188
20
9.35648420276988
30
0.000000000000000
11
-77.5504753495188
21
9.34233265295599
31
0.000000000000000
  0
LINE
  5
F10142
330
F10143
100
AcDbEntity
8
Geo
100
AcDbLine
10
-77.5504753495188
20
9.34233265295599
30
0.000000000000000
11
-77.4504753495188
21
9.32109584348549
31
0.000000000000000
  0
LINE
  5
F10144
330
F10145
100
AcDbEntity
8
Geo
100
AcDbLine
10
-77.4504753495188
20
9.32109584348549
30
0.000000000000000
11
-77.3504753495188
21
9.29347032068987
31
0.000000000000000
  0
LINE
  5
F10146
330
F10147
100
AcDbEntity
8
Geo
100
AcDbLine
10
-77.3504753495188
20
9.29347032068987
30
0.000000000000000
11
-77.2504753495188
21
9.26013360195643
31
0.000000000000000
  0
LINE
  5
F10148
330
F10149
100
AcDbEntity
8
Geo
100
AcDbLine
10
-77.2504753495188
20
9.26013360195643
30
0.000000000000000
11
-77.1504753495188
21
9.22174292162777
31
0.000000000000000
  0
LINE
  5
F1014A
330
F1014B
100
AcDbEntity
8
Geo
100
AcDbLine
10
-77.1504753495188
20
9.22174292162777
30
0.000000000000000
11
-77.0504753495188
21
9.17893418103977
31
0.000000000000000
  0
LINE
  5
F1014C
330
F1014D
100
AcDbEntity
8
Geo
100
AcDbLine
10
-77.0504753495188
20
9.17893418103977
30
0.000000000000000
11
-76.9504753495188
21
9.13232108746976
31
0.000000000000000
  0
LINE
  5
F1014E
330
F1014F
100
AcDbEntity
8
Geo
100
AcDbLine
10
-76.9504753495188
20
9.13232108746976
30
0.000000000000000
11
-76.8504753495188
21
9.08249446690558
31
0.000000000000000
  0
LINE
  5
F10150
330
F10151
100
AcDbEntity
8
Geo
100
AcDbLine
10
-76.8504753495188
20
9.08249446690558
30
0.000000000000000
11
-76.7504753495188
21
9.03002173578089
31
0.000000000000000
  0
LINE
  5
F10152
330
F10153
100
AcDbEntity
8
Geo
100
AcDbLine
10
-76.7504753495188
20
9.03002173578089
30
0.000000000000000
11
-76.6504753495188
21
8.97544651713766
31
0.000000000000000
  0
LINE
  5
F10154
330
F10155
100
AcDbEntity
8
Geo
100
AcDbLine
10
-76.6504753495188
20
8.97544651713766
30
0.000000000000000
11
-76.5504753495188
21
8.91928838706197
31
0.000000000000000
  0
LINE
  5
F10156
330
F10157
100
AcDbEntity
8
Geo
100
AcDbLine
10
-76.5504753495188
20
8.91928838706197
30
0.000000000000000
11
-76.4504753495188
21
8.86204273768304
31
0.000000000000000
  0
LINE
  5
F10158
330
F10159
100
AcDbEntity
8
Geo
100
AcDbLine
10
-76.4504753495188
20
8.86204273768304
30
0.000000000000000
11
-76.3504753495188
21
8.80418074351713
31
0.000000000000000
  0
LINE
  5
F1015A
330
F1015B
100
AcDbEntity
8
Geo
100
AcDbLine
10
-76.3504753495188
20
8.80418074351713
30
0.000000000000000
11
-76.2504753495188
21
8.74614941846802
31
0.000000000000000
  0
LINE
  5
F1015C
330
F1015D
100
AcDbEntity
8
Geo
100
AcDbLine
10
-76.2504753495188
20
8.74614941846802
30
0.000000000000000
11
-76.1504753495188
21
8.68837175135684
31
0.000000000000000
  0
LINE
  5
F1015E
330
F1015F
100
AcDbEntity
8
Geo
100
AcDbLine
10
-76.1504753495188
20
8.68837175135684
30
0.000000000000000
11
-76.0504753495188
21
8.63124690843673
31
0.000000000000000
  0
LINE
  5
F10160
330
F10161
100
AcDbEntity
8
Geo
100
AcDbLine
10
-76.0504753495188
20
8.63124690843673
30
0.000000000000000
11
-75.9504753495188
21
8.57515049194710
31
0.000000000000000
  0
LINE
  5
F10162
330
F10163
100
AcDbEntity
8
Geo
100
AcDbLine
10
-75.9504753495188
20
8.57515049194710
30
0.000000000000000
11
-75.8504753495188
21
8.52043484437104
31
0.000000000000000
  0
LINE
  5
F10164
330
F10165
100
AcDbEntity
8
Geo
100
AcDbLine
10
-75.8504753495188
20
8.52043484437104
30
0.000000000000000
11
-75.7504753495188
21
8.46742938867292
31
0.000000000000000
  0
LINE
  5
F10166
330
F10167
100
AcDbEntity
8
Geo
100
AcDbLine
10
-75.7504753495188
20
8.46742938867292
30
0.000000000000000
11
-75.6504753495188
21
8.41644099540694
31
0.000000000000000
  0
LINE
  5
F10168
330
F10169
100
AcDbEntity
8
Geo
100
AcDbLine
10
-75.6504753495188
20
8.41644099540694
30
0.000000000000000
11
-75.5504753495188
21
8.36775436819772
31
0.000000000000000
  0
LINE
  5
F1016A
330
F1016B
100
AcDbEntity
8
Geo
100
AcDbLine
10
-75.5504753495188
20
8.36775436819772
30
0.000000000000000
11
-75.4504753495188
21
8.32163243969734
31
0.000000000000000
  0
LINE
  5
F1016C
330
F1016D
100
AcDbEntity
8
Geo
100
AcDbLine
10
-75.4504753495188
20
8.32163243969734
30
0.000000000000000
11
-75.3504753495188
21
8.27831677071795
31
0.000000000000000
  0
LINE
  5
F1016E
330
F1016F
100
AcDbEntity
8
Geo
100
AcDbLine
10
-75.3504753495188
20
8.27831677071795
30
0.000000000000000
11
-75.2504753495188
21
8.23802794582214
31
0.000000000000000
  0
LINE
  5
F10170
330
F10171
100
AcDbEntity
8
Geo
100
AcDbLine
10
-75.2504753495188
20
8.23802794582214
30
0.000000000000000
11
-75.1504753495188
21
8.20096595922432
31
0.000000000000000
  0
LINE
  5
F10172
330
F10173
100
AcDbEntity
8
Geo
100
AcDbLine
10
-75.1504753495188
20
8.20096595922432
30
0.000000000000000
11
-75.0504753495188
21
8.16731058541375
31
0.000000000000000
  0
LINE
  5
F10174
330
F10175
100
AcDbEntity
8
Geo
100
AcDbLine
10
-75.0504753495188
20
8.16731058541375
30
0.000000000000000
11
-74.9504753495188
21
8.13722172945362
31
0.000000000000000
  0
LINE
  5
F10176
330
F10177
100
AcDbEntity
8
Geo
100
AcDbLine
10
-74.9504753495188
20
8.13722172945362
30
0.000000000000000
11
-74.8504753495188
21
8.11083975244007
31
0.000000000000000
  0
LINE
  5
F10178
330
F10179
100
AcDbEntity
8
Geo
100
AcDbLine
10
-74.8504753495188
20
8.11083975244007
30
0.000000000000000
11
-74.7504753495188
21
8.08828576812131
31
0.000000000000000
  0
LINE
  5
F1017A
330
F1017B
100
AcDbEntity
8
Geo
100
AcDbLine
10
-74.7504753495188
20
8.08828576812131
30
0.000000000000000
11
-74.6504753495188
21
8.06966190717958
31
0.000000000000000
  0
LINE
  5
F1017C
330
F1017D
100
AcDbEntity
8
Geo
100
AcDbLine
10
-74.6504753495188
20
8.06966190717958
30
0.000000000000000
11
-74.5504753495188
21
8.05505154616986
31
0.000000000000000
  0
LINE
  5
F1017E
330
F1017F
100
AcDbEntity
8
Geo
100
AcDbLine
10
-74.5504753495188
20
8.05505154616986
30
0.000000000000000
11
-74.4504753495189
21
8.04451949858861
31
0.000000000000000
  0
LINE
  5
F10180
330
F10181
100
AcDbEntity
8
Geo
100
AcDbLine
10
-97.4504753495189
20
8.36312074389575
30
0.000000000000000
11
-97.3504753495189
21
8.79202195304448
31
0.000000000000000
  0
LINE
  5
F10182
330
F10183
100
AcDbEntity
8
Geo
100
AcDbLine
10
-97.3504753495189
20
8.79202195304448
30
0.000000000000000
11
-97.2504753495189
21
8.93469034331618
31
0.000000000000000
  0
LINE
  5
F10184
330
F10185
100
AcDbEntity
8
Geo
100
AcDbLine
10
-97.2504753495189
20
8.93469034331618
30
0.000000000000000
11
-97.1504753495189
21
9.01257455910489
31
0.000000000000000
  0
LINE
  5
F10186
330
F10187
100
AcDbEntity
8
Geo
100
AcDbLine
10
-97.1504753495189
20
9.01257455910489
30
0.000000000000000
11
-97.0504753495188
21
9.04720184298831
31
0.000000000000000
  0
LINE
  5
F10188
330
F10189
100
AcDbEntity
8
Geo
100
AcDbLine
10
-97.0504753495188
20
9.04720184298831
30
0.000000000000000
11
-96.9504753495189
21
9.04700517959330
31
0.000000000000000
  0
LINE
  5
F1018A
330
F1018B
100
AcDbEntity
8
Geo
100
AcDbLine
10
-96.9504753495189
20
9.04700517959330
30
0.000000000000000
11
-96.8504753495189
21
9.01636868244670
31
0.000000000000000
  0
LINE
  5
F1018C
330
F1018D
100
AcDbEntity
8
Geo
100
AcDbLine
10
-96.8504753495189
20
9.01636868244670
30
0.000000000000000
11
-96.7504753495189
21
8.95794912530530
31
0.000000000000000
  0
LINE
  5
F1018E
330
F1018F
100
AcDbEntity
8
Geo
100
AcDbLine
10
-96.7504753495189
20
8.95794912530530
30
0.000000000000000
11
-96.6504753495189
21
8.87352679895705
31
0.000000000000000
  0
LINE
  5
F10190
330
F10191
100
AcDbEntity
8
Geo
100
AcDbLine
10
-96.6504753495189
20
8.87352679895705
30
0.000000000000000
11
-96.5504753495188
21
8.76438199060270
31
0.000000000000000
  0
LINE
  5
F10192
330
F10193
100
AcDbEntity
8
Geo
100
AcDbLine
10
-96.5504753495188
20
8.76438199060270
30
0.000000000000000
11
-96.4504753495189
21
8.63147990961248
31
0.000000000000000
  0
LINE
  5
F10194
330
F10195
100
AcDbEntity
8
Geo
100
AcDbLine
10
-96.4504753495189
20
8.63147990961248
30
0.000000000000000
11
-96.3504753495189
21
8.48013381659086
31
0.000000000000000
  0
LINE
  5
F10196
330
F10197
100
AcDbEntity
8
Geo
100
AcDbLine
10
-96.3504753495189
20
8.48013381659086
30
0.000000000000000
11
-96.2504753495189
21
8.31528270494537
31
0.000000000000000
  0
LINE
  5
F10198
330
F10199
100
AcDbEntity
8
Geo
100
AcDbLine
10
-96.2504753495189
20
8.31528270494537
30
0.000000000000000
11
-96.1504753495189
21
8.13717076839553
31
0.000000000000000
  0
LINE
  5
F1019A
330
F1019B
100
AcDbEntity
8
Geo
100
AcDbLine
10
-96.1504753495189
20
8.13717076839553
30
0.000000000000000
11
-96.0504753495188
21
7.94606184390206
31
0.000000000000000
  0
LINE
  5
F1019C
330
F1019D
100
AcDbEntity
8
Geo
100
AcDbLine
10
-96.0504753495188
20
7.94606184390206
30
0.000000000000000
11
-95.9504753495189
21
7.74223902084568
31
0.000000000000000
  0
LINE
  5
F1019E
330
F1019F
100
AcDbEntity
8
Geo
100
AcDbLine
10
-95.9504753495189
20
7.74223902084568
30
0.000000000000000
11
-95.8504753495189
21
7.52600422168709
31
0.000000000000000
  0
LINE
  5
F101A0
330
F101A1
100
AcDbEntity
8
Geo
100
AcDbLine
10
-95.8504753495189
20
7.52600422168709
30
0.000000000000000
11
-95.7504753495189
21
7.29767775472974
31
0.000000000000000
  0
LINE
  5
F101A2
330
F101A3
100
AcDbEntity
8
Geo
100
AcDbLine
10
-95.7504753495189
20
7.29767775472974
30
0.000000000000000
11
-95.6504753495189
21
7.05759783964755
31
0.000000000000000
  0
LINE
  5
F101A4
330
F101A5
100
AcDbEntity
8
Geo
100
AcDbLine
10
-95.6504753495189
20
7.05759783964755
30
0.000000000000000
11
-95.5504753495188
21
6.80612010648060
31
0.000000000000000
  0
LINE
  5
F101A6
330
F101A7
100
AcDbEntity
8
Geo
100
AcDbLine
10
-95.5504753495188
20
6.80612010648060
30
0.000000000000000
11
-95.4504753495189
21
6.54361706884082
31
0.000000000000000
  0
LINE
  5
F101A8
330
F101A9
100
AcDbEntity
8
Geo
100
AcDbLine
10
-95.4504753495189
20
6.54361706884082
30
0.000000000000000
11
-95.3504753495189
21
6.27047757210818
31
0.000000000000000
  0
LINE
  5
F101AA
330
F101AB
100
AcDbEntity
8
Geo
100
AcDbLine
10
-95.3504753495189
20
6.27047757210818
30
0.000000000000000
11
-95.2504753495189
21
5.98710621743446
31
0.000000000000000
  0
LINE
  5
F101AC
330
F101AD
100
AcDbEntity
8
Geo
100
AcDbLine
10
-95.2504753495189
20
5.98710621743446
30
0.000000000000000
11
-95.1504753495189
21
5.69392276240824
31
0.000000000000000
  0
LINE
  5
F101AE
330
F101AF
100
AcDbEntity
8
Geo
100
AcDbLine
10
-95.1504753495189
20
5.69392276240824
30
0.000000000000000
11
-95.0504753495188
21
5.39136149926853
31
0.000000000000000
  0
LINE
  5
F101B0
330
F101B1
100
AcDbEntity
8
Geo
100
AcDbLine
10
-95.0504753495188
20
5.39136149926853
30
0.000000000000000
11
-94.9504753495189
21
5.07987061158826
31
0.000000000000000
  0
LINE
  5
F101B2
330
F101B3
100
AcDbEntity
8
Geo
100
AcDbLine
10
-94.9504753495189
20
5.07987061158826
30
0.000000000000000
11
-94.8504753495189
21
4.75991151038065
31
0.000000000000000
  0
LINE
  5
F101B4
330
F101B5
100
AcDbEntity
8
Geo
100
AcDbLine
10
-94.8504753495189
20
4.75991151038065
30
0.000000000000000
11
-94.7504753495189
21
4.43195815061168
31
0.000000000000000
  0
LINE
  5
F101B6
330
F101B7
100
AcDbEntity
8
Geo
100
AcDbLine
10
-94.7504753495189
20
4.43195815061168
30
0.000000000000000
11
-94.6504753495189
21
4.09649632913127
31
0.000000000000000
  0
LINE
  5
F101B8
330
F101B9
100
AcDbEntity
8
Geo
100
AcDbLine
10
-94.6504753495189
20
4.09649632913127
30
0.000000000000000
11
-94.5504753495188
21
3.75402296506310
31
0.000000000000000
  0
LINE
  5
F101BA
330
F101BB
100
AcDbEntity
8
Geo
100
AcDbLine
10
-94.5504753495188
20
3.75402296506310
30
0.000000000000000
11
-94.4504753495189
21
3.40504536371902
31
0.000000000000000
  0
LINE
  5
F101BC
330
F101BD
100
AcDbEntity
8
Geo
100
AcDbLine
10
-94.4504753495189
20
3.40504536371902
30
0.000000000000000
11
-94.3504753495189
21
3.05008046512838
31
0.000000000000000
  0
LINE
  5
F101BE
330
F101BF
100
AcDbEntity
8
Geo
100
AcDbLine
10
-94.3504753495189
20
3.05008046512838
30
0.000000000000000
11
-94.2504753495189
21
2.68965407829552
31
0.000000000000000
  0
LINE
  5
F101C0
330
F101C1
100
AcDbEntity
8
Geo
100
AcDbLine
10
-94.2504753495189
20
2.68965407829552
30
0.000000000000000
11
-94.1504753495189
21
2.32430010231962
31
0.000000000000000
  0
LINE
  5
F101C2
330
F101C3
100
AcDbEntity
8
Geo
100
AcDbLine
10
-94.1504753495189
20
2.32430010231962
30
0.000000000000000
11
-94.0504753495188
21
1.95455973553072
31
0.000000000000000
  0
LINE
  5
F101C4
330
F101C5
100
AcDbEntity
8
Geo
100
AcDbLine
10
-94.0504753495188
20
1.95455973553072
30
0.000000000000000
11
-93.9504753495189
21
1.58098067381338
31
0.000000000000000
  0
LINE
  5
F101C6
330
F101C7
100
AcDbEntity
8
Geo
100
AcDbLine
10
-93.9504753495189
20
1.58098067381338
30
0.000000000000000
11
-93.8504753495188
21
1.20411629930556
31
0.000000000000000
  0
LINE
  5
F101C8
330
F101C9
100
AcDbEntity
8
Geo
100
AcDbLine
10
-93.8504753495188
20
1.20411629930556
30
0.000000000000000
11
-93.7504753495189
21
0.824524860674445
31
0.000000000000000
  0
LINE
  5
F101CA
330
F101CB
100
AcDbEntity
8
Geo
100
AcDbLine
10
-93.7504753495189
20
0.824524860674445
30
0.000000000000000
11
-93.6504753495189
21
0.442768646183434
31
0.000000000000000
  0
LINE
  5
F101CC
330
F101CD
100
AcDbEntity
8
Geo
100
AcDbLine
10
-93.6504753495189
20
0.442768646183434
30
0.000000000000000
11
-93.5504753495188
21
0.0594131507753763
31
0.000000000000000
  0
LINE
  5
F101CE
330
F101CF
100
AcDbEntity
8
Geo
100
AcDbLine
10
-93.5504753495188
20
0.0594131507753763
30
0.000000000000000
11
-93.4504753495189
21
-0.324973761594305
31
0.000000000000000
  0
LINE
  5
F101D0
330
F101D1
100
AcDbEntity
8
Geo
100
AcDbLine
10
-93.4504753495189
20
-0.324973761594305
30
0.000000000000000
11
-93.3504753495189
21
-0.709822699133706
31
0.000000000000000
  0
LINE
  5
F101D2
330
F101D3
100
AcDbEntity
8
Geo
100
AcDbLine
10
-93.3504753495189
20
-0.709822699133706
30
0.000000000000000
11
-93.2504753495189
21
-1.09456358565369
31
0.000000000000000
  0
LINE
  5
F101D4
330
F101D5
100
AcDbEntity
8
Geo
100
AcDbLine
10
-93.2504753495189
20
-1.09456358565369
30
0.000000000000000
11
-93.1504753495189
21
-1.47862650502092
31
0.000000000000000
  0
LINE
  5
F101D6
330
F101D7
100
AcDbEntity
8
Geo
100
AcDbLine
10
-93.1504753495189
20
-1.47862650502092
30
0.000000000000000
11
-93.0504753495188
21
-1.86144254537388
31
0.000000000000000
  0
LINE
  5
F101D8
330
F101D9
100
AcDbEntity
8
Geo
100
AcDbLine
10
-93.0504753495188
20
-1.86144254537388
30
0.000000000000000
11
-92.9504753495189
21
-2.24244464185117
31
0.000000000000000
  0
LINE
  5
F101DA
330
F101DB
100
AcDbEntity
8
Geo
100
AcDbLine
10
-92.9504753495189
20
-2.24244464185117
30
0.000000000000000
11
-92.8504753495189
21
-2.62106841658388
31
0.000000000000000
  0
LINE
  5
F101DC
330
F101DD
100
AcDbEntity
8
Geo
100
AcDbLine
10
-92.8504753495189
20
-2.62106841658388
30
0.000000000000000
11
-92.7504753495189
21
-2.99675301470777
31
0.000000000000000
  0
LINE
  5
F101DE
330
F101DF
100
AcDbEntity
8
Geo
100
AcDbLine
10
-92.7504753495189
20
-2.99675301470777
30
0.000000000000000
11
-92.6504753495189
21
-3.36894193515678
31
0.000000000000000
  0
LINE
  5
F101E0
330
F101E1
100
AcDbEntity
8
Geo
100
AcDbLine
10
-92.6504753495189
20
-3.36894193515678
30
0.000000000000000
11
-92.5504753495188
21
-3.73708385500723
31
0.000000000000000
  0
LINE
  5
F101E2
330
F101E3
100
AcDbEntity
8
Geo
100
AcDbLine
10
-92.5504753495188
20
-3.73708385500723
30
0.000000000000000
11
-92.4504753495189
21
-4.10063344615177
31
0.000000000000000
  0
LINE
  5
F101E4
330
F101E5
100
AcDbEntity
8
Geo
100
AcDbLine
10
-92.4504753495189
20
-4.10063344615177
30
0.000000000000000
11
-92.3504753495189
21
-4.45905218309307
31
0.000000000000000
  0
LINE
  5
F101E6
330
F101E7
100
AcDbEntity
8
Geo
100
AcDbLine
10
-92.3504753495189
20
-4.45905218309307
30
0.000000000000000
11
-92.2504753495189
21
-4.81180914066089
31
0.000000000000000
  0
LINE
  5
F101E8
330
F101E9
100
AcDbEntity
8
Geo
100
AcDbLine
10
-92.2504753495189
20
-4.81180914066089
30
0.000000000000000
11
-92.1504753495189
21
-5.15838178047085
31
0.000000000000000
  0
LINE
  5
F101EA
330
F101EB
100
AcDbEntity
8
Geo
100
AcDbLine
10
-92.1504753495189
20
-5.15838178047085
30
0.000000000000000
11
-92.0504753495189
21
-5.49825672495969
31
0.000000000000000
  0
LINE
  5
F101EC
330
F101ED
100
AcDbEntity
8
Geo
100
AcDbLine
10
-92.0504753495189
20
-5.49825672495969
30
0.000000000000000
11
-91.9504753495189
21
-5.83093051785086
31
0.000000000000000
  0
LINE
  5
F101EE
330
F101EF
100
AcDbEntity
8
Geo
100
AcDbLine
10
-91.9504753495189
20
-5.83093051785086
30
0.000000000000000
11
-91.8504753495189
21
-6.15591036992349
31
0.000000000000000
  0
LINE
  5
F101F0
330
F101F1
100
AcDbEntity
8
Geo
100
AcDbLine
10
-91.8504753495189
20
-6.15591036992349
30
0.000000000000000
11
-91.7504753495189
21
-6.47271488898042
31
0.000000000000000
  0
LINE
  5
F101F2
330
F101F3
100
AcDbEntity
8
Geo
100
AcDbLine
10
-91.7504753495189
20
-6.47271488898042
30
0.000000000000000
11
-91.6504753495189
21
-6.78087479293375
31
0.000000000000000
  0
LINE
  5
F101F4
330
F101F5
100
AcDbEntity
8
Geo
100
AcDbLine
10
-91.6504753495189
20
-6.78087479293375
30
0.000000000000000
11
-91.5504753495189
21
-7.07993360495181
31
0.000000000000000
  0
LINE
  5
F101F6
330
F101F7
100
AcDbEntity
8
Geo
100
AcDbLine
10
-91.5504753495189
20
-7.07993360495181
30
0.000000000000000
11
-91.4504753495189
21
-7.36944832963753
31
0.000000000000000
  0
LINE
  5
F101F8
330
F101F9
100
AcDbEntity
8
Geo
100
AcDbLine
10
-91.4504753495189
20
-7.36944832963753
30
0.000000000000000
11
-91.3504753495189
21
-7.64899010923702
31
0.000000000000000
  0
LINE
  5
F101FA
330
F101FB
100
AcDbEntity
8
Geo
100
AcDbLine
10
-91.3504753495189
20
-7.64899010923702
30
0.000000000000000
11
-91.2504753495189
21
-7.91814485890587
31
0.000000000000000
  0
LINE
  5
F101FC
330
F101FD
100
AcDbEntity
8
Geo
100
AcDbLine
10
-91.2504753495189
20
-7.91814485890587
30
0.000000000000000
11
-91.1504753495189
21
-8.17651388009248
31
0.000000000000000
  0
LINE
  5
F101FE
330
F101FF
100
AcDbEntity
8
Geo
100
AcDbLine
10
-91.1504753495189
20
-8.17651388009248
30
0.000000000000000
11
-91.0504753495189
21
-8.42371445112966
31
0.000000000000000
  0
LINE
  5
F10200
330
F10201
100
AcDbEntity
8
Geo
100
AcDbLine
10
-91.0504753495189
20
-8.42371445112966
30
0.000000000000000
11
-90.9504753495189
21
-8.65938039415970
31
0.000000000000000
  0
LINE
  5
F10202
330
F10203
100
AcDbEntity
8
Geo
100
AcDbLine
10
-90.9504753495189
20
-8.65938039415970
30
0.000000000000000
11
-90.8504753495189
21
-8.88316261755310
31
0.000000000000000
  0
LINE
  5
F10204
330
F10205
100
AcDbEntity
8
Geo
100
AcDbLine
10
-90.8504753495189
20
-8.88316261755310
30
0.000000000000000
11
-90.7504753495189
21
-9.09472963301756
31
0.000000000000000
  0
LINE
  5
F10206
330
F10207
100
AcDbEntity
8
Geo
100
AcDbLine
10
-90.7504753495189
20
-9.09472963301756
30
0.000000000000000
11
-90.6504753495189
21
-9.29376804663102
31
0.000000000000000
  0
LINE
  5
F10208
330
F10209
100
AcDbEntity
8
Geo
100
AcDbLine
10
-90.6504753495189
20
-9.29376804663102
30
0.000000000000000
11
-90.5504753495189
21
-9.47998302307174
31
0.000000000000000
  0
LINE
  5
F1020A
330
F1020B
100
AcDbEntity
8
Geo
100
AcDbLine
10
-90.5504753495189
20
-9.47998302307174
30
0.000000000000000
11
-90.4504753495189
21
-9.65309872235738
31
0.000000000000000
  0
LINE
  5
F1020C
330
F1020D
100
AcDbEntity
8
Geo
100
AcDbLine
10
-90.4504753495189
20
-9.65309872235738
30
0.000000000000000
11
-90.3504753495189
21
-9.81285870844643
31
0.000000000000000
  0
LINE
  5
F1020E
330
F1020F
100
AcDbEntity
8
Geo
100
AcDbLine
10
-90.3504753495189
20
-9.81285870844643
30
0.000000000000000
11
-90.2504753495189
21
-9.95902632909649
31
0.000000000000000
  0
LINE
  5
F10210
330
F10211
100
AcDbEntity
8
Geo
100
AcDbLine
10
-90.2504753495189
20
-9.95902632909649
30
0.000000000000000
11
-90.1504753495189
21
-10.0913850664170
31
0.000000000000000
  0
LINE
  5
F10212
330
F10213
100
AcDbEntity
8
Geo
100
AcDbLine
10
-90.1504753495189
20
-10.0913850664170
30
0.000000000000000
11
-90.0504753495189
21
-10.2097388575967
31
0.000000000000000
  0
LINE
  5
F10214
330
F10215
100
AcDbEntity
8
Geo
100
AcDbLine
10
-90.0504753495189
20
-10.2097388575967
30
0.000000000000000
11
-89.9504753495189
21
-10.3139123853315
31
0.000000000000000
  0
LINE
  5
F10216
330
F10217
100
AcDbEntity
8
Geo
100
AcDbLine
10
-89.9504753495189
20
-10.3139123853315
30
0.000000000000000
11
-89.8504753495189
21
-10.4037513375214
31
0.000000000000000
  0
LINE
  5
F10218
330
F10219
100
AcDbEntity
8
Geo
100
AcDbLine
10
-89.8504753495189
20
-10.4037513375214
30
0.000000000000000
11
-89.7504753495189
21
-10.4791226358531
31
0.000000000000000
  0
LINE
  5
F1021A
330
F1021B
100
AcDbEntity
8
Geo
100
AcDbLine
10
-89.7504753495189
20
-10.4791226358531
30
0.000000000000000
11
-89.6504753495189
21
-10.5399146329286
31
0.000000000000000
  0
LINE
  5
F1021C
330
F1021D
100
AcDbEntity
8
Geo
100
AcDbLine
10
-89.6504753495189
20
-10.5399146329286
30
0.000000000000000
11
-89.5504753495189
21
-10.5860372776482
31
0.000000000000000
  0
LINE
  5
F1021E
330
F1021F
100
AcDbEntity
8
Geo
100
AcDbLine
10
-89.5504753495189
20
-10.5860372776482
30
0.000000000000000
11
-89.4504753495189
21
-10.6174222486031
31
0.000000000000000
  0
LINE
  5
F10220
330
F10221
100
AcDbEntity
8
Geo
100
AcDbLine
10
-89.4504753495189
20
-10.6174222486031
30
0.000000000000000
11
-89.3504753495189
21
-10.6340230552803
31
0.000000000000000
  0
LINE
  5
F10222
330
F10223
100
AcDbEntity
8
Geo
100
AcDbLine
10
-81.1504753495189
20
9.36268714473802
30
0.000000000000000
11
-81.0504753495189
21
9.35886437367365
31
0.000000000000000
  0
LINE
  5
F10224
330
F10225
100
AcDbEntity
8
Geo
100
AcDbLine
10
-81.0504753495189
20
9.35886437367365
30
0.000000000000000
11
-80.9504753495189
21
9.34023492164885
31
0.000000000000000
  0
LINE
  5
F10226
330
F10227
100
AcDbEntity
8
Geo
100
AcDbLine
10
-80.9504753495189
20
9.34023492164885
30
0.000000000000000
11
-80.8504753495189
21
9.30682638444466
31
0.000000000000000
  0
LINE
  5
F10228
330
F10229
100
AcDbEntity
8
Geo
100
AcDbLine
10
-80.8504753495189
20
9.30682638444466
30
0.000000000000000
11
-80.7504753495189
21
9.25868825008019
31
0.000000000000000
  0
LINE
  5
F1022A
330
F1022B
100
AcDbEntity
8
Geo
100
AcDbLine
10
-80.7504753495189
20
9.25868825008019
30
0.000000000000000
11
-80.6504753495189
21
9.19589182550607
31
0.000000000000000
  0
LINE
  5
F1022C
330
F1022D
100
AcDbEntity
8
Geo
100
AcDbLine
10
-80.6504753495189
20
9.19589182550607
30
0.000000000000000
11
-80.5504753495189
21
9.11853013097758
31
0.000000000000000
  0
LINE
  5
F1022E
330
F1022F
100
AcDbEntity
8
Geo
100
AcDbLine
10
-80.5504753495189
20
9.11853013097758
30
0.000000000000000
11
-80.4504753495189
21
9.02671776226387
31
0.000000000000000
  0
LINE
  5
F10230
330
F10231
100
AcDbEntity
8
Geo
100
AcDbLine
10
-80.4504753495189
20
9.02671776226387
30
0.000000000000000
11
-80.3504753495189
21
8.92059072089739
31
0.000000000000000
  0
LINE
  5
F10232
330
F10233
100
AcDbEntity
8
Geo
100
AcDbLine
10
-80.3504753495189
20
8.92059072089739
30
0.000000000000000
11
-80.2504753495189
21
8.80030621271506
31
0.000000000000000
  0
LINE
  5
F10234
330
F10235
100
AcDbEntity
8
Geo
100
AcDbLine
10
-80.2504753495189
20
8.80030621271506
30
0.000000000000000
11
-80.1504753495189
21
8.66604241498943
31
0.000000000000000
  0
LINE
  5
F10236
330
F10237
100
AcDbEntity
8
Geo
100
AcDbLine
10
-80.1504753495189
20
8.66604241498943
30
0.000000000000000
11
-80.0504753495189
21
8.51799821249496
31
0.000000000000000
  0
LINE
  5
F10238
330
F10239
100
AcDbEntity
8
Geo
100
AcDbLine
10
-80.0504753495189
20
8.51799821249496
30
0.000000000000000
11
-79.9504753495189
21
8.35639290290031
31
0.000000000000000
  0
LINE
  5
F1023A
330
F1023B
100
AcDbEntity
8
Geo
100
AcDbLine
10
-79.9504753495189
20
8.35639290290031
30
0.000000000000000
11
-79.8504753495189
21
8.18146587192297
31
0.000000000000000
  0
LINE
  5
F1023C
330
F1023D
100
AcDbEntity
8
Geo
100
AcDbLine
10
-79.8504753495189
20
8.18146587192297
30
0.000000000000000
11
-79.7504753495189
21
7.99347623872755
31
0.000000000000000
  0
LINE
  5
F1023E
330
F1023F
100
AcDbEntity
8
Geo
100
AcDbLine
10
-79.7504753495189
20
7.99347623872755
30
0.000000000000000
11
-79.6504753495189
21
7.79270247209293
31
0.000000000000000
  0
LINE
  5
F10240
330
F10241
100
AcDbEntity
8
Geo
100
AcDbLine
10
-79.6504753495189
20
7.79270247209293
30
0.000000000000000
11
-79.5504753495189
21
7.57944197791684
31
0.000000000000000
  0
LINE
  5
F10242
330
F10243
100
AcDbEntity
8
Geo
100
AcDbLine
10
-79.5504753495189
20
7.57944197791684
30
0.000000000000000
11
-79.4504753495189
21
7.35401065866892
31
0.000000000000000
  0
LINE
  5
F10244
330
F10245
100
AcDbEntity
8
Geo
100
AcDbLine
10
-79.4504753495189
20
7.35401065866892
30
0.000000000000000
11
-79.3504753495189
21
7.38271892640250
31
0.000000000000000
  0
LINE
  5
F10246
330
F10247
100
AcDbEntity
8
Geo
100
AcDbLine
10
-79.3504753495189
20
7.38271892640250
30
0.000000000000000
11
-79.2504753495189
21
7.41069150003120
31
0.000000000000000
  0
LINE
  5
F10248
330
F10249
100
AcDbEntity
8
Geo
100
AcDbLine
10
-79.2504753495189
20
7.41069150003120
30
0.000000000000000
11
-79.1504753495188
21
7.43793828380758
31
0.000000000000000
  0
LINE
  5
F1024A
330
F1024B
100
AcDbEntity
8
Geo
100
AcDbLine
10
-79.1504753495188
20
7.43793828380758
30
0.000000000000000
11
-79.0504753495188
21
7.46446904883011
31
0.000000000000000
  0
LINE
  5
F1024C
330
F1024D
100
AcDbEntity
8
Geo
100
AcDbLine
10
-79.0504753495188
20
7.46446904883011
30
0.000000000000000
11
-78.9504753495189
21
7.49029342879317
31
0.000000000000000
  0
LINE
  5
F1024E
330
F1024F
100
AcDbEntity
8
Geo
100
AcDbLine
10
-78.9504753495189
20
7.49029342879317
30
0.000000000000000
11
-78.8504753495188
21
7.51542091586965
31
0.000000000000000
  0
LINE
  5
F10250
330
F10251
100
AcDbEntity
8
Geo
100
AcDbLine
10
-78.8504753495188
20
7.51542091586965
30
0.000000000000000
11
-78.7504753495188
21
7.53986085672376
31
0.000000000000000
  0
LINE
  5
F10252
330
F10253
100
AcDbEntity
8
Geo
100
AcDbLine
10
-78.7504753495188
20
7.53986085672376
30
0.000000000000000
11
-78.6504753495188
21
7.56362244865113
31
0.000000000000000
  0
LINE
  5
F10254
330
F10255
100
AcDbEntity
8
Geo
100
AcDbLine
10
-78.6504753495188
20
7.56362244865113
30
0.000000000000000
11
-78.5504753495188
21
7.58671473584419
31
0.000000000000000
  0
LINE
  5
F10256
330
F10257
100
AcDbEntity
8
Geo
100
AcDbLine
10
-78.5504753495188
20
7.58671473584419
30
0.000000000000000
11
-78.4504753495188
21
7.60914660577988
31
0.000000000000000
  0
LINE
  5
F10258
330
F10259
100
AcDbEntity
8
Geo
100
AcDbLine
10
-78.4504753495188
20
7.60914660577988
30
0.000000000000000
11
-78.3504753495188
21
7.63092678572750
31
0.000000000000000
  0
LINE
  5
F1025A
330
F1025B
100
AcDbEntity
8
Geo
100
AcDbLine
10
-78.3504753495188
20
7.63092678572750
30
0.000000000000000
11
-78.2504753495188
21
7.65206383937417
31
0.000000000000000
  0
LINE
  5
F1025C
330
F1025D
100
AcDbEntity
8
Geo
100
AcDbLine
10
-78.2504753495188
20
7.65206383937417
30
0.000000000000000
11
-78.1504753495188
21
7.67256616356546
31
0.000000000000000
  0
LINE
  5
F1025E
330
F1025F
100
AcDbEntity
8
Geo
100
AcDbLine
10
-78.1504753495188
20
7.67256616356546
30
0.000000000000000
11
-78.0504753495188
21
7.69244198515890
31
0.000000000000000
  0
LINE
  5
F10260
330
F10261
100
AcDbEntity
8
Geo
100
AcDbLine
10
-78.0504753495188
20
7.69244198515890
30
0.000000000000000
11
-77.9504753495188
21
7.71169935798788
31
0.000000000000000
  0
LINE
  5
F10262
330
F10263
100
AcDbEntity
8
Geo
100
AcDbLine
10
-77.9504753495188
20
7.71169935798788
30
0.000000000000000
11
-77.8504753495188
21
7.73034615993386
31
0.000000000000000
  0
LINE
  5
F10264
330
F10265
100
AcDbEntity
8
Geo
100
AcDbLine
10
-77.8504753495188
20
7.73034615993386
30
0.000000000000000
11
-77.7504753495188
21
7.74839009010431
31
0.000000000000000
  0
LINE
  5
F10266
330
F10267
100
AcDbEntity
8
Geo
100
AcDbLine
10
-77.7504753495188
20
7.74839009010431
30
0.000000000000000
11
-77.6504753495188
21
7.76583866611448
31
0.000000000000000
  0
LINE
  5
F10268
330
F10269
100
AcDbEntity
8
Geo
100
AcDbLine
10
-77.6504753495188
20
7.76583866611448
30
0.000000000000000
11
-77.5504753495188
21
7.78269922147054
31
0.000000000000000
  0
LINE
  5
F1026A
330
F1026B
100
AcDbEntity
8
Geo
100
AcDbLine
10
-77.5504753495188
20
7.78269922147054
30
0.000000000000000
11
-77.4504753495188
21
7.79897890305212
31
0.000000000000000
  0
LINE
  5
F1026C
330
F1026D
100
AcDbEntity
8
Geo
100
AcDbLine
10
-77.4504753495188
20
7.79897890305212
30
0.000000000000000
11
-77.3504753495188
21
7.81468466869201
31
0.000000000000000
  0
LINE
  5
F1026E
330
F1026F
100
AcDbEntity
8
Geo
100
AcDbLine
10
-77.3504753495188
20
7.81468466869201
30
0.000000000000000
11
-77.2504753495188
21
7.82982328485114
31
0.000000000000000
  0
LINE
  5
F10270
330
F10271
100
AcDbEntity
8
Geo
100
AcDbLine
10
-77.2504753495188
20
7.82982328485114
30
0.000000000000000
11
-77.1504753495188
21
7.84440132438659
31
0.000000000000000
  0
LINE
  5
F10272
330
F10273
100
AcDbEntity
8
Geo
100
AcDbLine
10
-77.1504753495188
20
7.84440132438659
30
0.000000000000000
11
-77.0504753495188
21
7.85842516441092
31
0.000000000000000
  0
LINE
  5
F10274
330
F10275
100
AcDbEntity
8
Geo
100
AcDbLine
10
-77.0504753495188
20
7.85842516441092
30
0.000000000000000
11
-76.9504753495188
21
7.87190098424077
31
0.000000000000000
  0
LINE
  5
F10276
330
F10277
100
AcDbEntity
8
Geo
100
AcDbLine
10
-76.9504753495188
20
7.87190098424077
30
0.000000000000000
11
-76.8504753495188
21
7.88483476343281
31
0.000000000000000
  0
LINE
  5
F10278
330
F10279
100
AcDbEntity
8
Geo
100
AcDbLine
10
-76.8504753495188
20
7.88483476343281
30
0.000000000000000
11
-76.7504753495188
21
7.89723227990544
31
0.000000000000000
  0
LINE
  5
F1027A
330
F1027B
100
AcDbEntity
8
Geo
100
AcDbLine
10
-76.7504753495188
20
7.89723227990544
30
0.000000000000000
11
-76.6504753495188
21
7.90909910814430
31
0.000000000000000
  0
LINE
  5
F1027C
330
F1027D
100
AcDbEntity
8
Geo
100
AcDbLine
10
-76.6504753495188
20
7.90909910814430
30
0.000000000000000
11
-76.5504753495188
21
7.92044061748997
31
0.000000000000000
  0
LINE
  5
F1027E
330
F1027F
100
AcDbEntity
8
Geo
100
AcDbLine
10
-76.5504753495188
20
7.92044061748997
30
0.000000000000000
11
-76.4504753495188
21
7.93126197050621
31
0.000000000000000
  0
LINE
  5
F10280
330
F10281
100
AcDbEntity
8
Geo
100
AcDbLine
10
-76.4504753495188
20
7.93126197050621
30
0.000000000000000
11
-76.3504753495188
21
7.94156812142716
31
0.000000000000000
  0
LINE
  5
F10282
330
F10283
100
AcDbEntity
8
Geo
100
AcDbLine
10
-76.3504753495188
20
7.94156812142716
30
0.000000000000000
11
-76.2504753495188
21
7.95136381468195
31
0.000000000000000
  0
LINE
  5
F10284
330
F10285
100
AcDbEntity
8
Geo
100
AcDbLine
10
-76.2504753495188
20
7.95136381468195
30
0.000000000000000
11
-76.1504753495188
21
7.96065358349529
31
0.000000000000000
  0
LINE
  5
F10286
330
F10287
100
AcDbEntity
8
Geo
100
AcDbLine
10
-76.1504753495188
20
7.96065358349529
30
0.000000000000000
11
-76.0504753495188
21
7.96944174856261
31
0.000000000000000
  0
LINE
  5
F10288
330
F10289
100
AcDbEntity
8
Geo
100
AcDbLine
10
-76.0504753495188
20
7.96944174856261
30
0.000000000000000
11
-75.9504753495188
21
7.97773241679838
31
0.000000000000000
  0
LINE
  5
F1028A
330
F1028B
100
AcDbEntity
8
Geo
100
AcDbLine
10
-75.9504753495188
20
7.97773241679838
30
0.000000000000000
11
-75.8504753495188
21
7.98552948015634
31
0.000000000000000
  0
LINE
  5
F1028C
330
F1028D
100
AcDbEntity
8
Geo
100
AcDbLine
10
-75.8504753495188
20
7.98552948015634
30
0.000000000000000
11
-75.7504753495188
21
7.99283661452045
31
0.000000000000000
  0
LINE
  5
F1028E
330
F1028F
100
AcDbEntity
8
Geo
100
AcDbLine
10
-75.7504753495188
20
7.99283661452045
30
0.000000000000000
11
-75.6504753495188
21
7.99965727866536
31
0.000000000000000
  0
LINE
  5
F10290
330
F10291
100
AcDbEntity
8
Geo
100
AcDbLine
10
-75.6504753495188
20
7.99965727866536
30
0.000000000000000
11
-75.5504753495188
21
8.00599471328527
31
0.000000000000000
  0
LINE
  5
F10292
330
F10293
100
AcDbEntity
8
Geo
100
AcDbLine
10
-75.5504753495188
20
8.00599471328527
30
0.000000000000000
11
-75.4504753495188
21
8.01185194009021
31
0.000000000000000
  0
LINE
  5
F10294
330
F10295
100
AcDbEntity
8
Geo
100
AcDbLine
10
-75.4504753495188
20
8.01185194009021
30
0.000000000000000
11
-75.3504753495188
21
8.01723176096874
31
0.000000000000000
  0
LINE
  5
F10296
330
F10297
100
AcDbEntity
8
Geo
100
AcDbLine
10
-75.3504753495188
20
8.01723176096874
30
0.000000000000000
11
-75.2504753495188
21
8.02213675721616
31
0.000000000000000
  0
LINE
  5
F10298
330
F10299
100
AcDbEntity
8
Geo
100
AcDbLine
10
-75.2504753495188
20
8.02213675721616
30
0.000000000000000
11
-75.1504753495188
21
8.02656928882736
31
0.000000000000000
  0
LINE
  5
F1029A
330
F1029B
100
AcDbEntity
8
Geo
100
AcDbLine
10
-75.1504753495188
20
8.02656928882736
30
0.000000000000000
11
-75.0504753495188
21
8.03053149385357
31
0.000000000000000
  0
LINE
  5
F1029C
330
F1029D
100
AcDbEntity
8
Geo
100
AcDbLine
10
-75.0504753495188
20
8.03053149385357
30
0.000000000000000
11
-74.9504753495188
21
8.03402528782235
31
0.000000000000000
  0
LINE
  5
F1029E
330
F1029F
100
AcDbEntity
8
Geo
100
AcDbLine
10
-74.9504753495188
20
8.03402528782235
30
0.000000000000000
11
-74.8504753495188
21
8.03705236322001
31
0.000000000000000
  0
LINE
  5
F102A0
330
F102A1
100
AcDbEntity
8
Geo
100
AcDbLine
10
-74.8504753495188
20
8.03705236322001
30
0.000000000000000
11
-74.7504753495188
21
8.03961418903609
31
0.000000000000000
  0
LINE
  5
F102A2
330
F102A3
100
AcDbEntity
8
Geo
100
AcDbLine
10
-74.7504753495188
20
8.03961418903609
30
0.000000000000000
11
-74.6504753495188
21
8.04171201036921
31
0.000000000000000
  0
LINE
  5
F102A4
330
F102A5
100
AcDbEntity
8
Geo
100
AcDbLine
10
-74.6504753495188
20
8.04171201036921
30
0.000000000000000
11
-74.5504753495188
21
8.04334684809401
31
0.000000000000000
  0
LINE
  5
F102A6
330
F102A7
100
AcDbEntity
8
Geo
100
AcDbLine
10
-74.5504753495188
20
8.04334684809401
30
0.000000000000000
11
-74.4504753495189
21
8.04451949858861
31
0.000000000000000
  0
LINE
  5
F102A8
330
F102A9
100
AcDbEntity
8
Geo
100
AcDbLine
10
-97.4504753495189
20
7.92262939055212
30
0.000000000000000
11
-97.3504753495189
21
8.21833525799874
31
0.000000000000000
  0
LINE
  5
F102AA
330
F102AB
100
AcDbEntity
8
Geo
100
AcDbLine
10
-97.3504753495189
20
8.21833525799874
30
0.000000000000000
11
-97.2504753495189
21
8.23808372512553
31
0.000000000000000
  0
LINE
  5
F102AC
330
F102AD
100
AcDbEntity
8
Geo
100
AcDbLine
10
-97.2504753495189
20
8.23808372512553
30
0.000000000000000
11
-97.1504753495189
21
8.19444435651184
31
0.000000000000000
  0
LINE
  5
F102AE
330
F102AF
100
AcDbEntity
8
Geo
100
AcDbLine
10
-97.1504753495189
20
8.19444435651184
30
0.000000000000000
11
-97.0504753495188
21
8.10882143059612
31
0.000000000000000
  0
LINE
  5
F102B0
330
F102B1
100
AcDbEntity
8
Geo
100
AcDbLine
10
-97.0504753495188
20
8.10882143059612
30
0.000000000000000
11
-96.9504753495189
21
7.98992129824132
31
0.000000000000000
  0
LINE
  5
F102B2
330
F102B3
100
AcDbEntity
8
Geo
100
AcDbLine
10
-96.9504753495189
20
7.98992129824132
30
0.000000000000000
11
-96.8504753495189
21
7.84249255989828
31
0.000000000000000
  0
LINE
  5
F102B4
330
F102B5
100
AcDbEntity
8
Geo
100
AcDbLine
10
-96.8504753495189
20
7.84249255989828
30
0.000000000000000
11
-96.7504753495189
21
7.66958539507307
31
0.000000000000000
  0
LINE
  5
F102B6
330
F102B7
100
AcDbEntity
8
Geo
100
AcDbLine
10
-96.7504753495189
20
7.66958539507307
30
0.000000000000000
11
-96.6504753495189
21
7.47338638867493
31
0.000000000000000
  0
LINE
  5
F102B8
330
F102B9
100
AcDbEntity
8
Geo
100
AcDbLine
10
-96.6504753495189
20
7.47338638867493
30
0.000000000000000
11
-96.5504753495188
21
7.25559239108696
31
0.000000000000000
  0
LINE
  5
F102BA
330
F102BB
100
AcDbEntity
8
Geo
100
AcDbLine
10
-96.5504753495188
20
7.25559239108696
30
0.000000000000000
11
-96.4504753495189
21
7.01759845561801
31
0.000000000000000
  0
LINE
  5
F102BC
330
F102BD
100
AcDbEntity
8
Geo
100
AcDbLine
10
-96.4504753495189
20
7.01759845561801
30
0.000000000000000
11
-96.3504753495189
21
6.76430781800383
31
0.000000000000000
  0
LINE
  5
F102BE
330
F102BF
100
AcDbEntity
8
Geo
100
AcDbLine
10
-96.3504753495189
20
6.76430781800383
30
0.000000000000000
11
-96.2504753495189
21
6.50005381240087
31
0.000000000000000
  0
LINE
  5
F102C0
330
F102C1
100
AcDbEntity
8
Geo
100
AcDbLine
10
-96.2504753495189
20
6.50005381240087
30
0.000000000000000
11
-96.1504753495189
21
6.22522787789543
31
0.000000000000000
  0
LINE
  5
F102C2
330
F102C3
100
AcDbEntity
8
Geo
100
AcDbLine
10
-96.1504753495189
20
6.22522787789543
30
0.000000000000000
11
-96.0504753495188
21
5.94023711375724
31
0.000000000000000
  0
LINE
  5
F102C4
330
F102C5
100
AcDbEntity
8
Geo
100
AcDbLine
10
-96.0504753495188
20
5.94023711375724
30
0.000000000000000
11
-95.9504753495189
21
5.64550367640381
31
0.000000000000000
  0
LINE
  5
F102C6
330
F102C7
100
AcDbEntity
8
Geo
100
AcDbLine
10
-95.9504753495189
20
5.64550367640381
30
0.000000000000000
11
-95.8504753495189
21
5.34146415406078
31
0.000000000000000
  0
LINE
  5
F102C8
330
F102C9
100
AcDbEntity
8
Geo
100
AcDbLine
10
-95.8504753495189
20
5.34146415406078
30
0.000000000000000
11
-95.7504753495189
21
5.02856892004439
31
0.000000000000000
  0
LINE
  5
F102CA
330
F102CB
100
AcDbEntity
8
Geo
100
AcDbLine
10
-95.7504753495189
20
5.02856892004439
30
0.000000000000000
11
-95.6504753495189
21
4.70728146562408
31
0.000000000000000
  0
LINE
  5
F102CC
330
F102CD
100
AcDbEntity
8
Geo
100
AcDbLine
10
-95.6504753495189
20
4.70728146562408
30
0.000000000000000
11
-95.5504753495188
21
4.37807771345358
31
0.000000000000000
  0
LINE
  5
F102CE
330
F102CF
100
AcDbEntity
8
Geo
100
AcDbLine
10
-95.5504753495188
20
4.37807771345358
30
0.000000000000000
11
-95.4504753495189
21
4.04144531258731
31
0.000000000000000
  0
LINE
  5
F102D0
330
F102D1
100
AcDbEntity
8
Geo
100
AcDbLine
10
-95.4504753495189
20
4.04144531258731
30
0.000000000000000
11
-95.3504753495189
21
3.69788291612656
31
0.000000000000000
  0
LINE
  5
F102D2
330
F102D3
100
AcDbEntity
8
Geo
100
AcDbLine
10
-95.3504753495189
20
3.69788291612656
30
0.000000000000000
11
-95.2504753495189
21
3.34789944256531
31
0.000000000000000
  0
LINE
  5
F102D4
330
F102D5
100
AcDbEntity
8
Geo
100
AcDbLine
10
-95.2504753495189
20
3.34789944256531
30
0.000000000000000
11
-95.1504753495189
21
2.99201332193003
31
0.000000000000000
  0
LINE
  5
F102D6
330
F102D7
100
AcDbEntity
8
Geo
100
AcDbLine
10
-95.1504753495189
20
2.99201332193003
30
0.000000000000000
11
-95.0504753495188
21
2.63075172782996
31
0.000000000000000
  0
LINE
  5
F102D8
330
F102D9
100
AcDbEntity
8
Geo
100
AcDbLine
10
-95.0504753495188
20
2.63075172782996
30
0.000000000000000
11
-94.9504753495189
21
2.26464979655564
31
0.000000000000000
  0
LINE
  5
F102DA
330
F102DB
100
AcDbEntity
8
Geo
100
AcDbLine
10
-94.9504753495189
20
2.26464979655564
30
0.000000000000000
11
-94.8504753495189
21
1.89424983438223
31
0.000000000000000
  0
LINE
  5
F102DC
330
F102DD
100
AcDbEntity
8
Geo
100
AcDbLine
10
-94.8504753495189
20
1.89424983438223
30
0.000000000000000
11
-94.7504753495189
21
1.52010051425201
31
0.000000000000000
  0
LINE
  5
F102DE
330
F102DF
100
AcDbEntity
8
Geo
100
AcDbLine
10
-94.7504753495189
20
1.52010051425201
30
0.000000000000000
11
-94.6504753495189
21
1.14275606302592
31
0.000000000000000
  0
LINE
  5
F102E0
330
F102E1
100
AcDbEntity
8
Geo
100
AcDbLine
10
-94.6504753495189
20
1.14275606302592
30
0.000000000000000
11
-94.5504753495188
21
0.762775440508115
31
0.000000000000000
  0
LINE
  5
F102E2
330
F102E3
100
AcDbEntity
8
Geo
100
AcDbLine
10
-94.5504753495188
20
0.762775440508115
30
0.000000000000000
11
-94.4504753495189
21
0.380721511459537
31
0.000000000000000
  0
LINE
  5
F102E4
330
F102E5
100
AcDbEntity
8
Geo
100
AcDbLine
10
-94.4504753495189
20
0.380721511459537
30
0.000000000000000
11
-94.3504753495189
21
-0.00283978817280883
31
0.000000000000000
  0
LINE
  5
F102E6
330
F102E7
100
AcDbEntity
8
Geo
100
AcDbLine
10
-94.3504753495189
20
-0.00283978817280883
30
0.000000000000000
11
-94.2504753495189
21
-0.387340289575998
31
0.000000000000000
  0
LINE
  5
F102E8
330
F102E9
100
AcDbEntity
8
Geo
100
AcDbLine
10
-94.2504753495189
20
-0.387340289575998
30
0.000000000000000
11
-94.1504753495189
21
-0.772210432698848
31
0.000000000000000
  0
LINE
  5
F102EA
330
F102EB
100
AcDbEntity
8
Geo
100
AcDbLine
10
-94.1504753495189
20
-0.772210432698848
30
0.000000000000000
11
-94.0504753495188
21
-1.15688010994041
31
0.000000000000000
  0
LINE
  5
F102EC
330
F102ED
100
AcDbEntity
8
Geo
100
AcDbLine
10
-94.0504753495188
20
-1.15688010994041
30
0.000000000000000
11
-93.9504753495189
21
-1.54077951064958
31
0.000000000000000
  0
LINE
  5
F102EE
330
F102EF
100
AcDbEntity
8
Geo
100
AcDbLine
10
-93.9504753495189
20
-1.54077951064958
30
0.000000000000000
11
-93.8504753495188
21
-1.92333996518477
31
0.000000000000000
  0
LINE
  5
F102F0
330
F102F1
100
AcDbEntity
8
Geo
100
AcDbLine
10
-93.8504753495188
20
-1.92333996518477
30
0.000000000000000
11
-93.7504753495189
21
-2.30399478728349
31
0.000000000000000
  0
LINE
  5
F102F2
330
F102F3
100
AcDbEntity
8
Geo
100
AcDbLine
10
-93.7504753495189
20
-2.30399478728349
30
0.000000000000000
11
-93.6504753495189
21
-2.68218011349391
31
0.000000000000000
  0
LINE
  5
F102F4
330
F102F5
100
AcDbEntity
8
Geo
100
AcDbLine
10
-93.6504753495189
20
-2.68218011349391
30
0.000000000000000
11
-93.5504753495188
21
-3.05733573842494
31
0.000000000000000
  0
LINE
  5
F102F6
330
F102F7
100
AcDbEntity
8
Geo
100
AcDbLine
10
-93.5504753495188
20
-3.05733573842494
30
0.000000000000000
11
-93.4504753495189
21
-3.42890594457777
31
0.000000000000000
  0
LINE
  5
F102F8
330
F102F9
100
AcDbEntity
8
Geo
100
AcDbLine
10
-93.4504753495189
20
-3.42890594457777
30
0.000000000000000
11
-93.3504753495189
21
-3.79634032552935
31
0.000000000000000
  0
LINE
  5
F102FA
330
F102FB
100
AcDbEntity
8
Geo
100
AcDbLine
10
-93.3504753495189
20
-3.79634032552935
30
0.000000000000000
11
-93.2504753495189
21
-4.15909460124869
31
0.000000000000000
  0
LINE
  5
F102FC
330
F102FD
100
AcDbEntity
8
Geo
100
AcDbLine
10
-93.2504753495189
20
-4.15909460124869
30
0.000000000000000
11
-93.1504753495189
21
-4.51663142433808
31
0.000000000000000
  0
LINE
  5
F102FE
330
F102FF
100
AcDbEntity
8
Geo
100
AcDbLine
10
-93.1504753495189
20
-4.51663142433808
30
0.000000000000000
11
-93.0504753495188
21
-4.86842117600504
31
0.000000000000000
  0
LINE
  5
F10300
330
F10301
100
AcDbEntity
8
Geo
100
AcDbLine
10
-93.0504753495188
20
-4.86842117600504
30
0.000000000000000
11
-92.9504753495189
21
-5.21394275058590
31
0.000000000000000
  0
LINE
  5
F10302
330
F10303
100
AcDbEntity
8
Geo
100
AcDbLine
10
-92.9504753495189
20
-5.21394275058590
30
0.000000000000000
11
-92.8504753495189
21
-5.55268432745889
31
0.000000000000000
  0
LINE
  5
F10304
330
F10305
100
AcDbEntity
8
Geo
100
AcDbLine
10
-92.8504753495189
20
-5.55268432745889
30
0.000000000000000
11
-92.7504753495189
21
-5.88414412920327
31
0.000000000000000
  0
LINE
  5
F10306
330
F10307
100
AcDbEntity
8
Geo
100
AcDbLine
10
-92.7504753495189
20
-5.88414412920327
30
0.000000000000000
11
-92.6504753495189
21
-6.20783116488156
31
0.000000000000000
  0
LINE
  5
F10308
330
F10309
100
AcDbEntity
8
Geo
100
AcDbLine
10
-92.6504753495189
20
-6.20783116488156
30
0.000000000000000
11
-92.5504753495188
21
-6.52326595734370
31
0.000000000000000
  0
LINE
  5
F1030A
330
F1030B
100
AcDbEntity
8
Geo
100
AcDbLine
10
-92.5504753495188
20
-6.52326595734370
30
0.000000000000000
11
-92.4504753495189
21
-6.82998125347588
31
0.000000000000000
  0
LINE
  5
F1030C
330
F1030D
100
AcDbEntity
8
Geo
100
AcDbLine
10
-92.4504753495189
20
-6.82998125347588
30
0.000000000000000
11
-92.3504753495189
21
-7.12752271634195
31
0.000000000000000
  0
LINE
  5
F1030E
330
F1030F
100
AcDbEntity
8
Geo
100
AcDbLine
10
-92.3504753495189
20
-7.12752271634195
30
0.000000000000000
11
-92.2504753495189
21
-7.41544959819201
31
0.000000000000000
  0
LINE
  5
F10310
330
F10311
100
AcDbEntity
8
Geo
100
AcDbLine
10
-92.2504753495189
20
-7.41544959819201
30
0.000000000000000
11
-92.1504753495189
21
-7.69333539334152
31
0.000000000000000
  0
LINE
  5
F10312
330
F10313
100
AcDbEntity
8
Geo
100
AcDbLine
10
-92.1504753495189
20
-7.69333539334152
30
0.000000000000000
11
-92.0504753495189
21
-7.96076846995349
31
0.000000000000000
  0
LINE
  5
F10314
330
F10315
100
AcDbEntity
8
Geo
100
AcDbLine
10
-92.0504753495189
20
-7.96076846995349
30
0.000000000000000
11
-91.9504753495189
21
-8.21735267978822
31
0.000000000000000
  0
LINE
  5
F10316
330
F10317
100
AcDbEntity
8
Geo
100
AcDbLine
10
-91.9504753495189
20
-8.21735267978822
30
0.000000000000000
11
-91.8504753495189
21
-8.46270794501704
31
0.000000000000000
  0
LINE
  5
F10318
330
F10319
100
AcDbEntity
8
Geo
100
AcDbLine
10
-91.8504753495189
20
-8.46270794501704
30
0.000000000000000
11
-91.7504753495189
21
-8.69647082123115
31
0.000000000000000
  0
LINE
  5
F1031A
330
F1031B
100
AcDbEntity
8
Geo
100
AcDbLine
10
-91.7504753495189
20
-8.69647082123115
30
0.000000000000000
11
-91.6504753495189
21
-8.91829503581125
31
0.000000000000000
  0
LINE
  5
F1031C
330
F1031D
100
AcDbEntity
8
Geo
100
AcDbLine
10
-91.6504753495189
20
-8.91829503581125
30
0.000000000000000
11
-91.5504753495189
21
-9.12785200086070
31
0.000000000000000
  0
LINE
  5
F1031E
330
F1031F
100
AcDbEntity
8
Geo
100
AcDbLine
10
-91.5504753495189
20
-9.12785200086070
30
0.000000000000000
11
-91.4504753495189
21
-9.32483129994233
31
0.000000000000000
  0
LINE
  5
F10320
330
F10321
100
AcDbEntity
8
Geo
100
AcDbLine
10
-91.4504753495189
20
-9.32483129994233
30
0.000000000000000
11
-91.3504753495189
21
-9.50894114789784
31
0.000000000000000
  0
LINE
  5
F10322
330
F10323
100
AcDbEntity
8
Geo
100
AcDbLine
10
-91.3504753495189
20
-9.50894114789784
30
0.000000000000000
11
-91.2504753495189
21
-9.67990882306876
31
0.000000000000000
  0
LINE
  5
F10324
330
F10325
100
AcDbEntity
8
Geo
100
AcDbLine
10
-91.2504753495189
20
-9.67990882306876
30
0.000000000000000
11
-91.1504753495189
21
-9.83748107127866
31
0.000000000000000
  0
LINE
  5
F10326
330
F10327
100
AcDbEntity
8
Geo
100
AcDbLine
10
-91.1504753495189
20
-9.83748107127866
30
0.000000000000000
11
-91.0504753495189
21
-9.98142448097818
31
0.000000000000000
  0
LINE
  5
F10328
330
F10329
100
AcDbEntity
8
Geo
100
AcDbLine
10
-91.0504753495189
20
-9.98142448097818
30
0.000000000000000
11
-90.9504753495189
21
-10.1115258289973
31
0.000000000000000
  0
LINE
  5
F1032A
330
F1032B
100
AcDbEntity
8
Geo
100
AcDbLine
10
-90.9504753495189
20
-10.1115258289973
30
0.000000000000000
11
-90.8504753495189
21
-10.2275923963924
31
0.000000000000000
  0
LINE
  5
F1032C
330
F1032D
100
AcDbEntity
8
Geo
100
AcDbLine
10
-90.8504753495189
20
-10.2275923963924
30
0.000000000000000
11
-90.7504753495189
21
-10.3294522539207
31
0.000000000000000
  0
LINE
  5
F1032E
330
F1032F
100
AcDbEntity
8
Geo
100
AcDbLine
10
-90.7504753495189
20
-10.3294522539207
30
0.000000000000000
11
-90.6504753495189
21
-10.4169545167187
31
0.000000000000000
  0
LINE
  5
F10330
330
F10331
100
AcDbEntity
8
Geo
100
AcDbLine
10
-90.6504753495189
20
-10.4169545167187
30
0.000000000000000
11
-90.5504753495189
21
-10.4899695678077
31
0.000000000000000
  0
LINE
  5
F10332
330
F10333
100
AcDbEntity
8
Geo
100
AcDbLine
10
-90.5504753495189
20
-10.4899695678077
30
0.000000000000000
11
-90.4504753495189
21
-10.5483892500955
31
0.000000000000000
  0
LINE
  5
F10334
330
F10335
100
AcDbEntity
8
Geo
100
AcDbLine
10
-90.4504753495189
20
-10.5483892500955
30
0.000000000000000
11
-90.3504753495189
21
-10.5921270265888
31
0.000000000000000
  0
LINE
  5
F10336
330
F10337
100
AcDbEntity
8
Geo
100
AcDbLine
10
-90.3504753495189
20
-10.5921270265888
30
0.000000000000000
11
-90.2504753495189
21
-10.6211181085811
31
0.000000000000000
  0
LINE
  5
F10338
330
F10339
100
AcDbEntity
8
Geo
100
AcDbLine
10
-90.2504753495189
20
-10.6211181085811
30
0.000000000000000
11
-90.1504753495189
21
-10.6353195516233
31
0.000000000000000
  0
LINE
  5
F1033A
330
F1033B
100
AcDbEntity
8
Geo
100
AcDbLine
10
-81.9504753495189
20
9.36307351929180
30
0.000000000000000
11
-81.8504753495189
21
9.35684966579758
31
0.000000000000000
  0
LINE
  5
F1033C
330
F1033D
100
AcDbEntity
8
Geo
100
AcDbLine
10
-81.8504753495189
20
9.35684966579758
30
0.000000000000000
11
-81.7504753495189
21
9.33582211572686
31
0.000000000000000
  0
LINE
  5
F1033E
330
F1033F
100
AcDbEntity
8
Geo
100
AcDbLine
10
-81.7504753495189
20
9.33582211572686
30
0.000000000000000
11
-81.6504753495189
21
9.30002201715996
31
0.000000000000000
  0
LINE
  5
F10340
330
F10341
100
AcDbEntity
8
Geo
100
AcDbLine
10
-81.6504753495189
20
9.30002201715996
30
0.000000000000000
11
-81.5504753495189
21
9.24950240073244
31
0.000000000000000
  0
LINE
  5
F10342
330
F10343
100
AcDbEntity
8
Geo
100
AcDbLine
10
-81.5504753495189
20
9.24950240073244
30
0.000000000000000
11
-81.4504753495189
21
9.18433810108098
31
0.000000000000000
  0
LINE
  5
F10344
330
F10345
100
AcDbEntity
8
Geo
100
AcDbLine
10
-81.4504753495189
20
9.18433810108098
30
0.000000000000000
11
-81.3504753495189
21
9.10462564599087
31
0.000000000000000
  0
LINE
  5
F10346
330
F10347
100
AcDbEntity
8
Geo
100
AcDbLine
10
-81.3504753495189
20
9.10462564599087
30
0.000000000000000
11
-81.2504753495189
21
9.01048311340956
31
0.000000000000000
  0
LINE
  5
F10348
330
F10349
100
AcDbEntity
8
Geo
100
AcDbLine
10
-81.2504753495189
20
9.01048311340956
30
0.000000000000000
11
-81.1504753495189
21
8.90204995653798
31
0.000000000000000
  0
LINE
  5
F1034A
330
F1034B
100
AcDbEntity
8
Geo
100
AcDbLine
10
-81.1504753495189
20
8.90204995653798
30
0.000000000000000
11
-81.0504753495189
21
8.77948679725866
31
0.000000000000000
  0
LINE
  5
F1034C
330
F1034D
100
AcDbEntity
8
Geo
100
AcDbLine
10
-81.0504753495189
20
8.77948679725866
30
0.000000000000000
11
-80.9504753495189
21
8.64297518820684
31
0.000000000000000
  0
LINE
  5
F1034E
330
F1034F
100
AcDbEntity
8
Geo
100
AcDbLine
10
-80.9504753495189
20
8.64297518820684
30
0.000000000000000
11
-80.8504753495189
21
8.49271734383674
31
0.000000000000000
  0
LINE
  5
F10350
330
F10351
100
AcDbEntity
8
Geo
100
AcDbLine
10
-80.8504753495189
20
8.49271734383674
30
0.000000000000000
11
-80.7504753495189
21
8.32893584088158
31
0.000000000000000
  0
LINE
  5
F10352
330
F10353
100
AcDbEntity
8
Geo
100
AcDbLine
10
-80.7504753495189
20
8.32893584088158
30
0.000000000000000
11
-80.6504753495189
21
8.15187328865103
31
0.000000000000000
  0
LINE
  5
F10354
330
F10355
100
AcDbEntity
8
Geo
100
AcDbLine
10
-80.6504753495189
20
8.15187328865103
30
0.000000000000000
11
-80.5504753495189
21
7.96179196965432
31
0.000000000000000
  0
LINE
  5
F10356
330
F10357
100
AcDbEntity
8
Geo
100
AcDbLine
10
-80.5504753495189
20
7.96179196965432
30
0.000000000000000
11
-80.4504753495189
21
7.75897345108156
31
0.000000000000000
  0
LINE
  5
F10358
330
F10359
100
AcDbEntity
8
Geo
100
AcDbLine
10
-80.4504753495189
20
7.75897345108156
30
0.000000000000000
11
-80.3504753495189
21
7.54371816771866
31
0.000000000000000
  0
LINE
  5
F1035A
330
F1035B
100
AcDbEntity
8
Geo
100
AcDbLine
10
-80.3504753495189
20
7.54371816771866
30
0.000000000000000
11
-80.2504753495189
21
7.31634497691369
31
0.000000000000000
  0
LINE
  5
F1035C
330
F1035D
100
AcDbEntity
8
Geo
100
AcDbLine
10
-80.2504753495189
20
7.31634497691369
30
0.000000000000000
11
-80.1504753495189
21
7.07719068625395
31
0.000000000000000
  0
LINE
  5
F1035E
330
F1035F
100
AcDbEntity
8
Geo
100
AcDbLine
10
-80.1504753495189
20
7.07719068625395
30
0.000000000000000
11
-80.0504753495189
21
6.82660955465336
31
0.000000000000000
  0
LINE
  5
F10360
330
F10361
100
AcDbEntity
8
Geo
100
AcDbLine
10
-80.0504753495189
20
6.82660955465336
30
0.000000000000000
11
-79.9504753495189
21
6.56497276758923
31
0.000000000000000
  0
LINE
  5
F10362
330
F10363
100
AcDbEntity
8
Geo
100
AcDbLine
10
-79.9504753495189
20
6.56497276758923
30
0.000000000000000
11
-79.8504753495189
21
6.29266788726576
31
0.000000000000000
  0
LINE
  5
F10364
330
F10365
100
AcDbEntity
8
Geo
100
AcDbLine
10
-79.8504753495189
20
6.29266788726576
30
0.000000000000000
11
-79.7504753495189
21
6.01009827851862
31
0.000000000000000
  0
LINE
  5
F10366
330
F10367
100
AcDbEntity
8
Geo
100
AcDbLine
10
-79.7504753495189
20
6.01009827851862
30
0.000000000000000
11
-79.6504753495189
21
5.71768251131128
31
0.000000000000000
  0
LINE
  5
F10368
330
F10369
100
AcDbEntity
8
Geo
100
AcDbLine
10
-79.6504753495189
20
5.71768251131128
30
0.000000000000000
11
-79.5504753495189
21
5.41585374070785
31
0.000000000000000
  0
LINE
  5
F1036A
330
F1036B
100
AcDbEntity
8
Geo
100
AcDbLine
10
-79.5504753495189
20
5.41585374070785
30
0.000000000000000
11
-79.4504753495189
21
5.10505906524108
31
0.000000000000000
  0
LINE
  5
F1036C
330
F1036D
100
AcDbEntity
8
Geo
100
AcDbLine
10
-79.4504753495189
20
5.10505906524108
30
0.000000000000000
11
-79.3504753495189
21
4.74685879683134
31
0.000000000000000
  0
LINE
  5
F1036E
330
F1036F
100
AcDbEntity
8
Geo
100
AcDbLine
10
-79.3504753495189
20
4.74685879683134
30
0.000000000000000
11
-79.2504753495189
21
4.38588794108245
31
0.000000000000000
  0
LINE
  5
F10370
330
F10371
100
AcDbEntity
8
Geo
100
AcDbLine
10
-79.2504753495189
20
4.38588794108245
30
0.000000000000000
11
-79.1504753495188
21
4.02334370451321
31
0.000000000000000
  0
LINE
  5
F10372
330
F10373
100
AcDbEntity
8
Geo
100
AcDbLine
10
-79.1504753495188
20
4.02334370451321
30
0.000000000000000
11
-79.0504753495188
21
3.66035221636614
31
0.000000000000000
  0
LINE
  5
F10374
330
F10375
100
AcDbEntity
8
Geo
100
AcDbLine
10
-79.0504753495188
20
3.66035221636614
30
0.000000000000000
11
-78.9504753495189
21
3.29796837319622
31
0.000000000000000
  0
LINE
  5
F10376
330
F10377
100
AcDbEntity
8
Geo
100
AcDbLine
10
-78.9504753495189
20
3.29796837319622
30
0.000000000000000
11
-78.8504753495188
21
2.93717614510761
31
0.000000000000000
  0
LINE
  5
F10378
330
F10379
100
AcDbEntity
8
Geo
100
AcDbLine
10
-78.8504753495188
20
2.93717614510761
30
0.000000000000000
11
-78.7504753495188
21
2.57888929888557
31
0.000000000000000
  0
LINE
  5
F1037A
330
F1037B
100
AcDbEntity
8
Geo
100
AcDbLine
10
-78.7504753495188
20
2.57888929888557
30
0.000000000000000
11
-78.6504753495188
21
2.22395249455218
31
0.000000000000000
  0
LINE
  5
F1037C
330
F1037D
100
AcDbEntity
8
Geo
100
AcDbLine
10
-78.6504753495188
20
2.22395249455218
30
0.000000000000000
11
-78.5504753495188
21
1.87314271339925
31
0.000000000000000
  0
LINE
  5
F1037E
330
F1037F
100
AcDbEntity
8
Geo
100
AcDbLine
10
-78.5504753495188
20
1.87314271339925
30
0.000000000000000
11
-78.4504753495188
21
1.52717097727538
31
0.000000000000000
  0
LINE
  5
F10380
330
F10381
100
AcDbEntity
8
Geo
100
AcDbLine
10
-78.4504753495188
20
1.52717097727538
30
0.000000000000000
11
-78.3504753495188
21
1.18668432078775
31
0.000000000000000
  0
LINE
  5
F10382
330
F10383
100
AcDbEntity
8
Geo
100
AcDbLine
10
-78.3504753495188
20
1.18668432078775
30
0.000000000000000
11
-78.2504753495188
21
0.852267980086548
31
0.000000000000000
  0
LINE
  5
F10384
330
F10385
100
AcDbEntity
8
Geo
100
AcDbLine
10
-78.2504753495188
20
0.852267980086548
30
0.000000000000000
11
-78.1504753495188
21
0.524447763996266
31
0.000000000000000
  0
LINE
  5
F10386
330
F10387
100
AcDbEntity
8
Geo
100
AcDbLine
10
-78.1504753495188
20
0.524447763996266
30
0.000000000000000
11
-78.0504753495188
21
0.203692575414815
31
0.000000000000000
  0
LINE
  5
F10388
330
F10389
100
AcDbEntity
8
Geo
100
AcDbLine
10
-78.0504753495188
20
0.203692575414815
30
0.000000000000000
11
-77.9504753495188
21
-0.109582946910504
31
0.000000000000000
  0
LINE
  5
F1038A
330
F1038B
100
AcDbEntity
8
Geo
100
AcDbLine
10
-77.9504753495188
20
-0.109582946910504
30
0.000000000000000
11
-77.8504753495188
21
-0.415015693924734
31
0.000000000000000
  0
LINE
  5
F1038C
330
F1038D
100
AcDbEntity
8
Geo
100
AcDbLine
10
-77.8504753495188
20
-0.415015693924734
30
0.000000000000000
11
-77.7504753495188
21
-0.712291284636901
31
0.000000000000000
  0
LINE
  5
F1038E
330
F1038F
100
AcDbEntity
8
Geo
100
AcDbLine
10
-77.7504753495188
20
-0.712291284636901
30
0.000000000000000
11
-77.6504753495188
21
-1.00114122068378
31
0.000000000000000
  0
LINE
  5
F10390
330
F10391
100
AcDbEntity
8
Geo
100
AcDbLine
10
-77.6504753495188
20
-1.00114122068378
30
0.000000000000000
11
-77.5504753495188
21
-1.28134001834690
31
0.000000000000000
  0
LINE
  5
F10392
330
F10393
100
AcDbEntity
8
Geo
100
AcDbLine
10
-77.5504753495188
20
-1.28134001834690
30
0.000000000000000
11
-77.4504753495188
21
-1.55270233724531
31
0.000000000000000
  0
LINE
  5
F10394
330
F10395
100
AcDbEntity
8
Geo
100
AcDbLine
10
-77.4504753495188
20
-1.55270233724531
30
0.000000000000000
11
-77.3504753495188
21
-1.81508012296225
31
0.000000000000000
  0
LINE
  5
F10396
330
F10397
100
AcDbEntity
8
Geo
100
AcDbLine
10
-77.3504753495188
20
-1.81508012296225
30
0.000000000000000
11
-77.2504753495188
21
-2.06835977898314
31
0.000000000000000
  0
LINE
  5
F10398
330
F10399
100
AcDbEntity
8
Geo
100
AcDbLine
10
-77.2504753495188
20
-2.06835977898314
30
0.000000000000000
11
-77.1504753495188
21
-2.31245938153262
31
0.000000000000000
  0
LINE
  5
F1039A
330
F1039B
100
AcDbEntity
8
Geo
100
AcDbLine
10
-77.1504753495188
20
-2.31245938153262
30
0.000000000000000
11
-77.0504753495188
21
-2.54732594920588
31
0.000000000000000
  0
LINE
  5
F1039C
330
F1039D
100
AcDbEntity
8
Geo
100
AcDbLine
10
-77.0504753495188
20
-2.54732594920588
30
0.000000000000000
11
-76.9504753495188
21
-2.77293277769811
31
0.000000000000000
  0
LINE
  5
F1039E
330
F1039F
100
AcDbEntity
8
Geo
100
AcDbLine
10
-76.9504753495188
20
-2.77293277769811
30
0.000000000000000
11
-76.8504753495188
21
-2.98927684844834
31
0.000000000000000
  0
LINE
  5
F103A0
330
F103A1
100
AcDbEntity
8
Geo
100
AcDbLine
10
-76.8504753495188
20
-2.98927684844834
30
0.000000000000000
11
-76.7504753495188
21
-3.19637631863241
31
0.000000000000000
  0
LINE
  5
F103A2
330
F103A3
100
AcDbEntity
8
Geo
100
AcDbLine
10
-76.7504753495188
20
-3.19637631863241
30
0.000000000000000
11
-76.6504753495188
21
-3.39426809866336
31
0.000000000000000
  0
LINE
  5
F103A4
330
F103A5
100
AcDbEntity
8
Geo
100
AcDbLine
10
-76.6504753495188
20
-3.39426809866336
30
0.000000000000000
11
-76.5504753495188
21
-3.58300552218709
31
0.000000000000000
  0
LINE
  5
F103A6
330
F103A7
100
AcDbEntity
8
Geo
100
AcDbLine
10
-76.5504753495188
20
-3.58300552218709
30
0.000000000000000
11
-76.4504753495188
21
-3.76265611249440
31
0.000000000000000
  0
LINE
  5
F103A8
330
F103A9
100
AcDbEntity
8
Geo
100
AcDbLine
10
-76.4504753495188
20
-3.76265611249440
30
0.000000000000000
11
-76.3504753495188
21
-3.93329944830509
31
0.000000000000000
  0
LINE
  5
F103AA
330
F103AB
100
AcDbEntity
8
Geo
100
AcDbLine
10
-76.3504753495188
20
-3.93329944830509
30
0.000000000000000
11
-76.2504753495188
21
-4.09502513101392
31
0.000000000000000
  0
LINE
  5
F103AC
330
F103AD
100
AcDbEntity
8
Geo
100
AcDbLine
10
-76.2504753495188
20
-4.09502513101392
30
0.000000000000000
11
-76.1504753495188
21
-4.24793085471733
31
0.000000000000000
  0
LINE
  5
F103AE
330
F103AF
100
AcDbEntity
8
Geo
100
AcDbLine
10
-76.1504753495188
20
-4.24793085471733
30
0.000000000000000
11
-76.0504753495188
21
-4.39212057966138
31
0.000000000000000
  0
LINE
  5
F103B0
330
F103B1
100
AcDbEntity
8
Geo
100
AcDbLine
10
-76.0504753495188
20
-4.39212057966138
30
0.000000000000000
11
-75.9504753495188
21
-4.52770280916050
31
0.000000000000000
  0
LINE
  5
F103B2
330
F103B3
100
AcDbEntity
8
Geo
100
AcDbLine
10
-75.9504753495188
20
-4.52770280916050
30
0.000000000000000
11
-75.8504753495188
21
-4.65478896952947
31
0.000000000000000
  0
LINE
  5
F103B4
330
F103B5
100
AcDbEntity
8
Geo
100
AcDbLine
10
-75.8504753495188
20
-4.65478896952947
30
0.000000000000000
11
-75.7504753495188
21
-4.77349189214306
31
0.000000000000000
  0
LINE
  5
F103B6
330
F103B7
100
AcDbEntity
8
Geo
100
AcDbLine
10
-75.7504753495188
20
-4.77349189214306
30
0.000000000000000
11
-75.6504753495188
21
-4.88392439638444
31
0.000000000000000
  0
LINE
  5
F103B8
330
F103B9
100
AcDbEntity
8
Geo
100
AcDbLine
10
-75.6504753495188
20
-4.88392439638444
30
0.000000000000000
11
-75.5504753495188
21
-4.98619797195972
31
0.000000000000000
  0
LINE
  5
F103BA
330
F103BB
100
AcDbEntity
8
Geo
100
AcDbLine
10
-75.5504753495188
20
-4.98619797195972
30
0.000000000000000
11
-75.4504753495188
21
-5.08042155883823
31
0.000000000000000
  0
LINE
  5
F103BC
330
F103BD
100
AcDbEntity
8
Geo
100
AcDbLine
10
-75.4504753495188
20
-5.08042155883823
30
0.000000000000000
11
-75.3504753495188
21
-5.16670042292021
31
0.000000000000000
  0
LINE
  5
F103BE
330
F103BF
100
AcDbEntity
8
Geo
100
AcDbLine
10
-75.3504753495188
20
-5.16670042292021
30
0.000000000000000
11
-75.2504753495188
21
-5.24513512543218
31
0.000000000000000
  0
LINE
  5
F103C0
330
F103C1
100
AcDbEntity
8
Geo
100
AcDbLine
10
-75.2504753495188
20
-5.24513512543218
30
0.000000000000000
11
-75.1504753495188
21
-5.31582058400035
31
0.000000000000000
  0
LINE
  5
F103C2
330
F103C3
100
AcDbEntity
8
Geo
100
AcDbLine
10
-75.1504753495188
20
-5.31582058400035
30
0.000000000000000
11
-75.0504753495188
21
-5.37884522334943
31
0.000000000000000
  0
LINE
  5
F103C4
330
F103C5
100
AcDbEntity
8
Geo
100
AcDbLine
10
-75.0504753495188
20
-5.37884522334943
30
0.000000000000000
11
-74.9504753495188
21
-5.43429021361381
31
0.000000000000000
  0
LINE
  5
F103C6
330
F103C7
100
AcDbEntity
8
Geo
100
AcDbLine
10
-74.9504753495188
20
-5.43429021361381
30
0.000000000000000
11
-74.8504753495188
21
-5.48222879432671
31
0.000000000000000
  0
LINE
  5
F103C8
330
F103C9
100
AcDbEntity
8
Geo
100
AcDbLine
10
-74.8504753495188
20
-5.48222879432671
30
0.000000000000000
11
-74.7504753495188
21
-5.52272568226536
31
0.000000000000000
  0
LINE
  5
F103CA
330
F103CB
100
AcDbEntity
8
Geo
100
AcDbLine
10
-74.7504753495188
20
-5.52272568226536
30
0.000000000000000
11
-74.6504753495188
21
-5.55583656147340
31
0.000000000000000
  0
LINE
  5
F103CC
330
F103CD
100
AcDbEntity
8
Geo
100
AcDbLine
10
-74.6504753495188
20
-5.55583656147340
30
0.000000000000000
11
-74.5504753495188
21
-5.58160765395168
31
0.000000000000000
  0
LINE
  5
F103CE
330
F103CF
100
AcDbEntity
8
Geo
100
AcDbLine
10
-74.5504753495188
20
-5.58160765395168
30
0.000000000000000
11
-74.4504753495189
21
-5.60007536970057
31
0.000000000000000
  0
LINE
  5
F103D0
330
F103D1
100
AcDbEntity
8
Geo
100
AcDbLine
10
-97.4504753495189
20
-0.636879256104283
30
0.000000000000000
11
-97.3504753495189
21
-0.999977158173097
31
0.000000000000000
  0
LINE
  5
F103D2
330
F103D3
100
AcDbEntity
8
Geo
100
AcDbLine
10
-97.3504753495189
20
-0.999977158173097
30
0.000000000000000
11
-97.2504753495189
21
-1.37515793211390
31
0.000000000000000
  0
LINE
  5
F103D4
330
F103D5
100
AcDbEntity
8
Geo
100
AcDbLine
10
-97.2504753495189
20
-1.37515793211390
30
0.000000000000000
11
-97.1504753495189
21
-1.75608086418165
31
0.000000000000000
  0
LINE
  5
F103D6
330
F103D7
100
AcDbEntity
8
Geo
100
AcDbLine
10
-97.1504753495189
20
-1.75608086418165
30
0.000000000000000
11
-97.0504753495188
21
-2.13973429442246
31
0.000000000000000
  0
LINE
  5
F103D8
330
F103D9
100
AcDbEntity
8
Geo
100
AcDbLine
10
-97.0504753495188
20
-2.13973429442246
30
0.000000000000000
11
-96.9504753495189
21
-2.52389793756313
31
0.000000000000000
  0
LINE
  5
F103DA
330
F103DB
100
AcDbEntity
8
Geo
100
AcDbLine
10
-96.9504753495189
20
-2.52389793756313
30
0.000000000000000
11
-96.8504753495189
21
-2.90669791377341
31
0.000000000000000
  0
LINE
  5
F103DC
330
F103DD
100
AcDbEntity
8
Geo
100
AcDbLine
10
-96.8504753495189
20
-2.90669791377341
30
0.000000000000000
11
-96.7504753495189
21
-3.28644034368140
31
0.000000000000000
  0
LINE
  5
F103DE
330
F103DF
100
AcDbEntity
8
Geo
100
AcDbLine
10
-96.7504753495189
20
-3.28644034368140
30
0.000000000000000
11
-96.6504753495189
21
-3.66152846153162
31
0.000000000000000
  0
LINE
  5
F103E0
330
F103E1
100
AcDbEntity
8
Geo
100
AcDbLine
10
-96.6504753495189
20
-3.66152846153162
30
0.000000000000000
11
-96.5504753495188
21
-4.03041146297740
31
0.000000000000000
  0
LINE
  5
F103E2
330
F103E3
100
AcDbEntity
8
Geo
100
AcDbLine
10
-96.5504753495188
20
-4.03041146297740
30
0.000000000000000
11
-96.4504753495189
21
-4.39154546966770
31
0.000000000000000
  0
LINE
  5
F103E4
330
F103E5
100
AcDbEntity
8
Geo
100
AcDbLine
10
-96.4504753495189
20
-4.39154546966770
30
0.000000000000000
11
-96.3504753495189
21
-4.74541581214300
31
0.000000000000000
  0
LINE
  5
F103E6
330
F103E7
100
AcDbEntity
8
Geo
100
AcDbLine
10
-96.3504753495189
20
-4.74541581214300
30
0.000000000000000
11
-96.2504753495189
21
-5.09320018520444
31
0.000000000000000
  0
LINE
  5
F103E8
330
F103E9
100
AcDbEntity
8
Geo
100
AcDbLine
10
-96.2504753495189
20
-5.09320018520444
30
0.000000000000000
11
-96.1504753495189
21
-5.43438341635005
31
0.000000000000000
  0
LINE
  5
F103EA
330
F103EB
100
AcDbEntity
8
Geo
100
AcDbLine
10
-96.1504753495189
20
-5.43438341635005
30
0.000000000000000
11
-96.0504753495188
21
-5.76846011134006
31
0.000000000000000
  0
LINE
  5
F103EC
330
F103ED
100
AcDbEntity
8
Geo
100
AcDbLine
10
-96.0504753495188
20
-5.76846011134006
30
0.000000000000000
11
-95.9504753495189
21
-6.09493540283671
31
0.000000000000000
  0
LINE
  5
F103EE
330
F103EF
100
AcDbEntity
8
Geo
100
AcDbLine
10
-95.9504753495189
20
-6.09493540283671
30
0.000000000000000
11
-95.8504753495189
21
-6.41332568345052
31
0.000000000000000
  0
LINE
  5
F103F0
330
F103F1
100
AcDbEntity
8
Geo
100
AcDbLine
10
-95.8504753495189
20
-6.41332568345052
30
0.000000000000000
11
-95.7504753495189
21
-6.72315932210725
31
0.000000000000000
  0
LINE
  5
F103F2
330
F103F3
100
AcDbEntity
8
Geo
100
AcDbLine
10
-95.7504753495189
20
-6.72315932210725
30
0.000000000000000
11
-95.6504753495189
21
-7.02397736267434
31
0.000000000000000
  0
LINE
  5
F103F4
330
F103F5
100
AcDbEntity
8
Geo
100
AcDbLine
10
-95.6504753495189
20
-7.02397736267434
30
0.000000000000000
11
-95.5504753495188
21
-7.31533420381198
31
0.000000000000000
  0
LINE
  5
F103F6
330
F103F7
100
AcDbEntity
8
Geo
100
AcDbLine
10
-95.5504753495188
20
-7.31533420381198
30
0.000000000000000
11
-95.4504753495189
21
-7.59679825904176
31
0.000000000000000
  0
LINE
  5
F103F8
330
F103F9
100
AcDbEntity
8
Geo
100
AcDbLine
10
-95.4504753495189
20
-7.59679825904176
30
0.000000000000000
11
-95.3504753495189
21
-7.86795259605507
31
0.000000000000000
  0
LINE
  5
F103FA
330
F103FB
100
AcDbEntity
8
Geo
100
AcDbLine
10
-95.3504753495189
20
-7.86795259605507
30
0.000000000000000
11
-95.2504753495189
21
-8.12839555431442
31
0.000000000000000
  0
LINE
  5
F103FC
330
F103FD
100
AcDbEntity
8
Geo
100
AcDbLine
10
-95.2504753495189
20
-8.12839555431442
30
0.000000000000000
11
-95.1504753495189
21
-8.37774134003253
31
0.000000000000000
  0
LINE
  5
F103FE
330
F103FF
100
AcDbEntity
8
Geo
100
AcDbLine
10
-95.1504753495189
20
-8.37774134003253
30
0.000000000000000
11
-95.0504753495188
21
-8.61562059764823
31
0.000000000000000
  0
LINE
  5
F10400
330
F10401
100
AcDbEntity
8
Geo
100
AcDbLine
10
-95.0504753495188
20
-8.61562059764823
30
0.000000000000000
11
-94.9504753495189
21
-8.84168095695224
31
0.000000000000000
  0
LINE
  5
F10402
330
F10403
100
AcDbEntity
8
Geo
100
AcDbLine
10
-94.9504753495189
20
-8.84168095695224
30
0.000000000000000
11
-94.8504753495189
21
-9.05558755505271
31
0.000000000000000
  0
LINE
  5
F10404
330
F10405
100
AcDbEntity
8
Geo
100
AcDbLine
10
-94.8504753495189
20
-9.05558755505271
30
0.000000000000000
11
-94.7504753495189
21
-9.25702353240715
31
0.000000000000000
  0
LINE
  5
F10406
330
F10407
100
AcDbEntity
8
Geo
100
AcDbLine
10
-94.7504753495189
20
-9.25702353240715
30
0.000000000000000
11
-94.6504753495189
21
-9.44569050218602
31
0.000000000000000
  0
LINE
  5
F10408
330
F10409
100
AcDbEntity
8
Geo
100
AcDbLine
10
-94.6504753495189
20
-9.44569050218602
30
0.000000000000000
11
-94.5504753495188
21
-9.62130899227270
31
0.000000000000000
  0
LINE
  5
F1040A
330
F1040B
100
AcDbEntity
8
Geo
100
AcDbLine
10
-94.5504753495188
20
-9.62130899227270
30
0.000000000000000
11
-94.4504753495189
21
-9.78361885924519
31
0.000000000000000
  0
LINE
  5
F1040C
330
F1040D
100
AcDbEntity
8
Geo
100
AcDbLine
10
-94.4504753495189
20
-9.78361885924519
30
0.000000000000000
11
-94.3504753495189
21
-9.93237967372613
31
0.000000000000000
  0
LINE
  5
F1040E
330
F1040F
100
AcDbEntity
8
Geo
100
AcDbLine
10
-94.3504753495189
20
-9.93237967372613
30
0.000000000000000
11
-94.2504753495189
21
-10.0673710765306
31
0.000000000000000
  0
LINE
  5
F10410
330
F10411
100
AcDbEntity
8
Geo
100
AcDbLine
10
-94.2504753495189
20
-10.0673710765306
30
0.000000000000000
11
-94.1504753495189
21
-10.1883931050836
31
0.000000000000000
  0
LINE
  5
F10412
330
F10413
100
AcDbEntity
8
Geo
100
AcDbLine
10
-94.1504753495189
20
-10.1883931050836
30
0.000000000000000
11
-94.0504753495188
21
-10.2952664896249
31
0.000000000000000
  0
LINE
  5
F10414
330
F10415
100
AcDbEntity
8
Geo
100
AcDbLine
10
-94.0504753495188
20
-10.2952664896249
30
0.000000000000000
11
-93.9504753495189
21
-10.3878329187603
31
0.000000000000000
  0
LINE
  5
F10416
330
F10417
100
AcDbEntity
8
Geo
100
AcDbLine
10
-93.9504753495189
20
-10.3878329187603
30
0.000000000000000
11
-93.8504753495188
21
-10.4659552739689
31
0.000000000000000
  0
LINE
  5
F10418
330
F10419
100
AcDbEntity
8
Geo
100
AcDbLine
10
-93.8504753495188
20
-10.4659552739689
30
0.000000000000000
11
-93.7504753495189
21
-10.5295178327158
31
0.000000000000000
  0
LINE
  5
F1041A
330
F1041B
100
AcDbEntity
8
Geo
100
AcDbLine
10
-93.7504753495189
20
-10.5295178327158
30
0.000000000000000
11
-93.6504753495189
21
-10.5784264398723
31
0.000000000000000
  0
LINE
  5
F1041C
330
F1041D
100
AcDbEntity
8
Geo
100
AcDbLine
10
-93.6504753495189
20
-10.5784264398723
30
0.000000000000000
11
-93.5504753495188
21
-10.6126086471875
31
0.000000000000000
  0
LINE
  5
F1041E
330
F1041F
100
AcDbEntity
8
Geo
100
AcDbLine
10
-93.5504753495188
20
-10.6126086471875
30
0.000000000000000
11
-93.4504753495189
21
-10.6320138206058
31
0.000000000000000
  0
LINE
  5
F10420
330
F10421
100
AcDbEntity
8
Geo
100
AcDbLine
10
-85.2504753495189
20
9.36174184805359
30
0.000000000000000
11
-85.1504753495189
21
9.36072646133185
31
0.000000000000000
  0
LINE
  5
F10422
330
F10423
100
AcDbEntity
8
Geo
100
AcDbLine
10
-85.1504753495189
20
9.36072646133185
30
0.000000000000000
11
-85.0504753495189
21
9.34490163534185
31
0.000000000000000
  0
LINE
  5
F10424
330
F10425
100
AcDbEntity
8
Geo
100
AcDbLine
10
-85.0504753495189
20
9.34490163534185
30
0.000000000000000
11
-84.9504753495189
21
9.31429081137604
31
0.000000000000000
  0
LINE
  5
F10426
330
F10427
100
AcDbEntity
8
Geo
100
AcDbLine
10
-84.9504753495189
20
9.31429081137604
30
0.000000000000000
11
-84.8504753495189
21
9.26893933320485
31
0.000000000000000
  0
LINE
  5
F10428
330
F10429
100
AcDbEntity
8
Geo
100
AcDbLine
10
-84.8504753495189
20
9.26893933320485
30
0.000000000000000
11
-84.7504753495189
21
9.20891437990902
31
0.000000000000000
  0
LINE
  5
F1042A
330
F1042B
100
AcDbEntity
8
Geo
100
AcDbLine
10
-84.7504753495189
20
9.20891437990902
30
0.000000000000000
11
-84.6504753495189
21
9.13430486636732
31
0.000000000000000
  0
LINE
  5
F1042C
330
F1042D
100
AcDbEntity
8
Geo
100
AcDbLine
10
-84.6504753495189
20
9.13430486636732
30
0.000000000000000
11
-84.5504753495189
21
9.04522131154709
31
0.000000000000000
  0
LINE
  5
F1042E
330
F1042F
100
AcDbEntity
8
Geo
100
AcDbLine
10
-84.5504753495189
20
9.04522131154709
30
0.000000000000000
11
-84.4504753495189
21
8.94179567479260
31
0.000000000000000
  0
LINE
  5
F10430
330
F10431
100
AcDbEntity
8
Geo
100
AcDbLine
10
-84.4504753495189
20
8.94179567479260
30
0.000000000000000
11
-84.3504753495189
21
8.82418116035392
31
0.000000000000000
  0
LINE
  5
F10432
330
F10433
100
AcDbEntity
8
Geo
100
AcDbLine
10
-84.3504753495189
20
8.82418116035392
30
0.000000000000000
11
-84.2504753495189
21
8.69255199044562
31
0.000000000000000
  0
LINE
  5
F10434
330
F10435
100
AcDbEntity
8
Geo
100
AcDbLine
10
-84.2504753495189
20
8.69255199044562
30
0.000000000000000
11
-84.1504753495189
21
8.54710314717171
31
0.000000000000000
  0
LINE
  5
F10436
330
F10437
100
AcDbEntity
8
Geo
100
AcDbLine
10
-84.1504753495189
20
8.54710314717171
30
0.000000000000000
11
-84.0504753495189
21
8.38805008369887
31
0.000000000000000
  0
LINE
  5
F10438
330
F10439
100
AcDbEntity
8
Geo
100
AcDbLine
10
-84.0504753495189
20
8.38805008369887
30
0.000000000000000
11
-83.9504753495189
21
8.21562840510601
31
0.000000000000000
  0
LINE
  5
F1043A
330
F1043B
100
AcDbEntity
8
Geo
100
AcDbLine
10
-83.9504753495189
20
8.21562840510601
30
0.000000000000000
11
-83.8504753495189
21
8.03009351938277
31
0.000000000000000
  0
LINE
  5
F1043C
330
F1043D
100
AcDbEntity
8
Geo
100
AcDbLine
10
-83.8504753495189
20
8.03009351938277
30
0.000000000000000
11
-83.7504753495189
21
7.83172025909408
31
0.000000000000000
  0
LINE
  5
F1043E
330
F1043F
100
AcDbEntity
8
Geo
100
AcDbLine
10
-83.7504753495189
20
7.83172025909408
30
0.000000000000000
11
-83.6504753495189
21
7.62080247427100
31
0.000000000000000
  0
LINE
  5
F10440
330
F10441
100
AcDbEntity
8
Geo
100
AcDbLine
10
-83.6504753495189
20
7.62080247427100
30
0.000000000000000
11
-83.5504753495189
21
7.39765259713112
31
0.000000000000000
  0
LINE
  5
F10442
330
F10443
100
AcDbEntity
8
Geo
100
AcDbLine
10
-83.5504753495189
20
7.39765259713112
30
0.000000000000000
11
-83.4504753495189
21
7.16260117927316
31
0.000000000000000
  0
LINE
  5
F10444
330
F10445
100
AcDbEntity
8
Geo
100
AcDbLine
10
-83.4504753495189
20
7.16260117927316
30
0.000000000000000
11
-83.3504753495189
21
6.91599640203133
31
0.000000000000000
  0
LINE
  5
F10446
330
F10447
100
AcDbEntity
8
Geo
100
AcDbLine
10
-83.3504753495189
20
6.91599640203133
30
0.000000000000000
11
-83.2504753495189
21
6.65820356071485
31
0.000000000000000
  0
LINE
  5
F10448
330
F10449
100
AcDbEntity
8
Geo
100
AcDbLine
10
-83.2504753495189
20
6.65820356071485
30
0.000000000000000
11
-83.1504753495189
21
6.38960452349645
31
0.000000000000000
  0
LINE
  5
F1044A
330
F1044B
100
AcDbEntity
8
Geo
100
AcDbLine
10
-83.1504753495189
20
6.38960452349645
30
0.000000000000000
11
-83.0504753495189
21
6.11059716575168
31
0.000000000000000
  0
LINE
  5
F1044C
330
F1044D
100
AcDbEntity
8
Geo
100
AcDbLine
10
-83.0504753495189
20
6.11059716575168
30
0.000000000000000
11
-82.9504753495189
21
5.82159478068661
31
0.000000000000000
  0
LINE
  5
F1044E
330
F1044F
100
AcDbEntity
8
Geo
100
AcDbLine
10
-82.9504753495189
20
5.82159478068661
30
0.000000000000000
11
-82.8504753495189
21
5.52302546712717
31
0.000000000000000
  0
LINE
  5
F10450
330
F10451
100
AcDbEntity
8
Geo
100
AcDbLine
10
-82.8504753495189
20
5.52302546712717
30
0.000000000000000
11
-82.7504753495189
21
5.21533149537704
31
0.000000000000000
  0
LINE
  5
F10452
330
F10453
100
AcDbEntity
8
Geo
100
AcDbLine
10
-82.7504753495189
20
5.21533149537704
30
0.000000000000000
11
-82.6504753495189
21
4.89896865208319
31
0.000000000000000
  0
LINE
  5
F10454
330
F10455
100
AcDbEntity
8
Geo
100
AcDbLine
10
-82.6504753495189
20
4.89896865208319
30
0.000000000000000
11
-82.5504753495189
21
4.57440556507984
31
0.000000000000000
  0
LINE
  5
F10456
330
F10457
100
AcDbEntity
8
Geo
100
AcDbLine
10
-82.5504753495189
20
4.57440556507984
30
0.000000000000000
11
-82.4504753495189
21
4.24212300921061
31
0.000000000000000
  0
LINE
  5
F10458
330
F10459
100
AcDbEntity
8
Geo
100
AcDbLine
10
-82.4504753495189
20
4.24212300921061
30
0.000000000000000
11
-82.3504753495189
21
3.90261319415754
31
0.000000000000000
  0
LINE
  5
F1045A
330
F1045B
100
AcDbEntity
8
Geo
100
AcDbLine
10
-82.3504753495189
20
3.90261319415754
30
0.000000000000000
11
-82.2504753495189
21
3.55637903533147
31
0.000000000000000
  0
LINE
  5
F1045C
330
F1045D
100
AcDbEntity
8
Geo
100
AcDbLine
10
-82.2504753495189
20
3.55637903533147
30
0.000000000000000
11
-82.1504753495189
21
3.20393340890422
31
0.000000000000000
  0
LINE
  5
F1045E
330
F1045F
100
AcDbEntity
8
Geo
100
AcDbLine
10
-82.1504753495189
20
3.20393340890422
30
0.000000000000000
11
-82.0504753495189
21
2.84579839208584
31
0.000000000000000
  0
LINE
  5
F10460
330
F10461
100
AcDbEntity
8
Geo
100
AcDbLine
10
-82.0504753495189
20
2.84579839208584
30
0.000000000000000
11
-81.9504753495189
21
2.48250448977232
31
0.000000000000000
  0
LINE
  5
F10462
330
F10463
100
AcDbEntity
8
Geo
100
AcDbLine
10
-81.9504753495189
20
2.48250448977232
30
0.000000000000000
11
-81.8504753495189
21
2.11458984870948
31
0.000000000000000
  0
LINE
  5
F10464
330
F10465
100
AcDbEntity
8
Geo
100
AcDbLine
10
-81.8504753495189
20
2.11458984870948
30
0.000000000000000
11
-81.7504753495189
21
1.74259946033695
31
0.000000000000000
  0
LINE
  5
F10466
330
F10467
100
AcDbEntity
8
Geo
100
AcDbLine
10
-81.7504753495189
20
1.74259946033695
30
0.000000000000000
11
-81.6504753495189
21
1.36708435349309
31
0.000000000000000
  0
LINE
  5
F10468
330
F10469
100
AcDbEntity
8
Geo
100
AcDbLine
10
-81.6504753495189
20
1.36708435349309
30
0.000000000000000
11
-81.5504753495189
21
0.988600778176790
31
0.000000000000000
  0
LINE
  5
F1046A
330
F1046B
100
AcDbEntity
8
Geo
100
AcDbLine
10
-81.5504753495189
20
0.988600778176790
30
0.000000000000000
11
-81.4504753495189
21
0.607709381575093
31
0.000000000000000
  0
LINE
  5
F1046C
330
F1046D
100
AcDbEntity
8
Geo
100
AcDbLine
10
-81.4504753495189
20
0.607709381575093
30
0.000000000000000
11
-81.3504753495189
21
0.224974377577323
31
0.000000000000000
  0
LINE
  5
F1046E
330
F1046F
100
AcDbEntity
8
Geo
100
AcDbLine
10
-81.3504753495189
20
0.224974377577323
30
0.000000000000000
11
-81.2504753495189
21
-0.159037288994164
31
0.000000000000000
  0
LINE
  5
F10470
330
F10471
100
AcDbEntity
8
Geo
100
AcDbLine
10
-81.2504753495189
20
-0.159037288994164
30
0.000000000000000
11
-81.1504753495189
21
-0.543756782198521
31
0.000000000000000
  0
LINE
  5
F10472
330
F10473
100
AcDbEntity
8
Geo
100
AcDbLine
10
-81.1504753495189
20
-0.543756782198521
30
0.000000000000000
11
-81.0504753495189
21
-0.928614217592318
31
0.000000000000000
  0
LINE
  5
F10474
330
F10475
100
AcDbEntity
8
Geo
100
AcDbLine
10
-81.0504753495189
20
-0.928614217592318
30
0.000000000000000
11
-80.9504753495189
21
-1.31303950639855
31
0.000000000000000
  0
LINE
  5
F10476
330
F10477
100
AcDbEntity
8
Geo
100
AcDbLine
10
-80.9504753495189
20
-1.31303950639855
30
0.000000000000000
11
-80.8504753495189
21
-1.69646319997835
31
0.000000000000000
  0
LINE
  5
F10478
330
F10479
100
AcDbEntity
8
Geo
100
AcDbLine
10
-80.8504753495189
20
-1.69646319997835
30
0.000000000000000
11
-80.7504753495189
21
-2.07831733335445
31
0.000000000000000
  0
LINE
  5
F1047A
330
F1047B
100
AcDbEntity
8
Geo
100
AcDbLine
10
-80.7504753495189
20
-2.07831733335445
30
0.000000000000000
11
-80.6504753495189
21
-2.45803626653688
31
0.000000000000000
  0
LINE
  5
F1047C
330
F1047D
100
AcDbEntity
8
Geo
100
AcDbLine
10
-80.6504753495189
20
-2.45803626653688
30
0.000000000000000
11
-80.5504753495189
21
-2.83505752240474
31
0.000000000000000
  0
LINE
  5
F1047E
330
F1047F
100
AcDbEntity
8
Geo
100
AcDbLine
10
-80.5504753495189
20
-2.83505752240474
30
0.000000000000000
11
-80.4504753495189
21
-3.20882261990272
31
0.000000000000000
  0
LINE
  5
F10480
330
F10481
100
AcDbEntity
8
Geo
100
AcDbLine
10
-80.4504753495189
20
-3.20882261990272
30
0.000000000000000
11
-80.3504753495189
21
-3.57877790131833
31
0.000000000000000
  0
LINE
  5
F10482
330
F10483
100
AcDbEntity
8
Geo
100
AcDbLine
10
-80.3504753495189
20
-3.57877790131833
30
0.000000000000000
11
-80.2504753495189
21
-3.94437535241426
31
0.000000000000000
  0
LINE
  5
F10484
330
F10485
100
AcDbEntity
8
Geo
100
AcDbLine
10
-80.2504753495189
20
-3.94437535241426
30
0.000000000000000
11
-80.1504753495189
21
-4.30507341420110
31
0.000000000000000
  0
LINE
  5
F10486
330
F10487
100
AcDbEntity
8
Geo
100
AcDbLine
10
-80.1504753495189
20
-4.30507341420110
30
0.000000000000000
11
-80.0504753495189
21
-4.66033778514797
31
0.000000000000000
  0
LINE
  5
F10488
330
F10489
100
AcDbEntity
8
Geo
100
AcDbLine
10
-80.0504753495189
20
-4.66033778514797
30
0.000000000000000
11
-79.9504753495189
21
-5.00964221264256
31
0.000000000000000
  0
LINE
  5
F1048A
330
F1048B
100
AcDbEntity
8
Geo
100
AcDbLine
10
-79.9504753495189
20
-5.00964221264256
30
0.000000000000000
11
-79.8504753495189
21
-5.35246927252837
31
0.000000000000000
  0
LINE
  5
F1048C
330
F1048D
100
AcDbEntity
8
Geo
100
AcDbLine
10
-79.8504753495189
20
-5.35246927252837
30
0.000000000000000
11
-79.7504753495189
21
-5.68831113556446
31
0.000000000000000
  0
LINE
  5
F1048E
330
F1048F
100
AcDbEntity
8
Geo
100
AcDbLine
10
-79.7504753495189
20
-5.68831113556446
30
0.000000000000000
11
-79.6504753495189
21
-6.01667031967211
31
0.000000000000000
  0
LINE
  5
F10490
330
F10491
100
AcDbEntity
8
Geo
100
AcDbLine
10
-79.6504753495189
20
-6.01667031967211
30
0.000000000000000
11
-79.5504753495189
21
-6.33706042685438
31
0.000000000000000
  0
LINE
  5
F10492
330
F10493
100
AcDbEntity
8
Geo
100
AcDbLine
10
-79.5504753495189
20
-6.33706042685438
30
0.000000000000000
11
-79.4504753495189
21
-6.64900686369682
31
0.000000000000000
  0
LINE
  5
F10494
330
F10495
100
AcDbEntity
8
Geo
100
AcDbLine
10
-79.4504753495189
20
-6.64900686369682
30
0.000000000000000
11
-79.3504753495189
21
-6.61065904708540
31
0.000000000000000
  0
LINE
  5
F10496
330
F10497
100
AcDbEntity
8
Geo
100
AcDbLine
10
-79.3504753495189
20
-6.61065904708540
30
0.000000000000000
11
-79.2504753495189
21
-6.57292212362078
31
0.000000000000000
  0
LINE
  5
F10498
330
F10499
100
AcDbEntity
8
Geo
100
AcDbLine
10
-79.2504753495189
20
-6.57292212362078
30
0.000000000000000
11
-79.1504753495188
21
-6.53580472580909
31
0.000000000000000
  0
LINE
  5
F1049A
330
F1049B
100
AcDbEntity
8
Geo
100
AcDbLine
10
-79.1504753495188
20
-6.53580472580909
30
0.000000000000000
11
-79.0504753495188
21
-6.49931523802656
31
0.000000000000000
  0
LINE
  5
F1049C
330
F1049D
100
AcDbEntity
8
Geo
100
AcDbLine
10
-79.0504753495188
20
-6.49931523802656
30
0.000000000000000
11
-78.9504753495189
21
-6.46346180077464
31
0.000000000000000
  0
LINE
  5
F1049E
330
F1049F
100
AcDbEntity
8
Geo
100
AcDbLine
10
-78.9504753495189
20
-6.46346180077464
30
0.000000000000000
11
-78.8504753495188
21
-6.42825231489044
31
0.000000000000000
  0
LINE
  5
F104A0
330
F104A1
100
AcDbEntity
8
Geo
100
AcDbLine
10
-78.8504753495188
20
-6.42825231489044
30
0.000000000000000
11
-78.7504753495188
21
-6.39369444570950
31
0.000000000000000
  0
LINE
  5
F104A2
330
F104A3
100
AcDbEntity
8
Geo
100
AcDbLine
10
-78.7504753495188
20
-6.39369444570950
30
0.000000000000000
11
-78.6504753495188
21
-6.35979562717804
31
0.000000000000000
  0
LINE
  5
F104A4
330
F104A5
100
AcDbEntity
8
Geo
100
AcDbLine
10
-78.6504753495188
20
-6.35979562717804
30
0.000000000000000
11
-78.5504753495188
21
-6.32656306591212
31
0.000000000000000
  0
LINE
  5
F104A6
330
F104A7
100
AcDbEntity
8
Geo
100
AcDbLine
10
-78.5504753495188
20
-6.32656306591212
30
0.000000000000000
11
-78.4504753495188
21
-6.29400374520102
31
0.000000000000000
  0
LINE
  5
F104A8
330
F104A9
100
AcDbEntity
8
Geo
100
AcDbLine
10
-78.4504753495188
20
-6.29400374520102
30
0.000000000000000
11
-78.3504753495188
21
-6.26212442895233
31
0.000000000000000
  0
LINE
  5
F104AA
330
F104AB
100
AcDbEntity
8
Geo
100
AcDbLine
10
-78.3504753495188
20
-6.26212442895233
30
0.000000000000000
11
-78.2504753495188
21
-6.23093166557638
31
0.000000000000000
  0
LINE
  5
F104AC
330
F104AD
100
AcDbEntity
8
Geo
100
AcDbLine
10
-78.2504753495188
20
-6.23093166557638
30
0.000000000000000
11
-78.1504753495188
21
-6.20043179180752
31
0.000000000000000
  0
LINE
  5
F104AE
330
F104AF
100
AcDbEntity
8
Geo
100
AcDbLine
10
-78.1504753495188
20
-6.20043179180752
30
0.000000000000000
11
-78.0504753495188
21
-6.17063093646025
31
0.000000000000000
  0
LINE
  5
F104B0
330
F104B1
100
AcDbEntity
8
Geo
100
AcDbLine
10
-78.0504753495188
20
-6.17063093646025
30
0.000000000000000
11
-77.9504753495188
21
-6.14153502411770
31
0.000000000000000
  0
LINE
  5
F104B2
330
F104B3
100
AcDbEntity
8
Geo
100
AcDbLine
10
-77.9504753495188
20
-6.14153502411770
30
0.000000000000000
11
-77.8504753495188
21
-6.11314977875068
31
0.000000000000000
  0
LINE
  5
F104B4
330
F104B5
100
AcDbEntity
8
Geo
100
AcDbLine
10
-77.8504753495188
20
-6.11314977875068
30
0.000000000000000
11
-77.7504753495188
21
-6.08548072726503
31
0.000000000000000
  0
LINE
  5
F104B6
330
F104B7
100
AcDbEntity
8
Geo
100
AcDbLine
10
-77.7504753495188
20
-6.08548072726503
30
0.000000000000000
11
-77.6504753495188
21
-6.05853320297549
31
0.000000000000000
  0
LINE
  5
F104B8
330
F104B9
100
AcDbEntity
8
Geo
100
AcDbLine
10
-77.6504753495188
20
-6.05853320297549
30
0.000000000000000
11
-77.5504753495188
21
-6.03231234900418
31
0.000000000000000
  0
LINE
  5
F104BA
330
F104BB
100
AcDbEntity
8
Geo
100
AcDbLine
10
-77.5504753495188
20
-6.03231234900418
30
0.000000000000000
11
-77.4504753495188
21
-6.00682312160184
31
0.000000000000000
  0
LINE
  5
F104BC
330
F104BD
100
AcDbEntity
8
Geo
100
AcDbLine
10
-77.4504753495188
20
-6.00682312160184
30
0.000000000000000
11
-77.3504753495188
21
-5.98207029339026
31
0.000000000000000
  0
LINE
  5
F104BE
330
F104BF
100
AcDbEntity
8
Geo
100
AcDbLine
10
-77.3504753495188
20
-5.98207029339026
30
0.000000000000000
11
-77.2504753495188
21
-5.95805845652401
31
0.000000000000000
  0
LINE
  5
F104C0
330
F104C1
100
AcDbEntity
8
Geo
100
AcDbLine
10
-77.2504753495188
20
-5.95805845652401
30
0.000000000000000
11
-77.1504753495188
21
-5.93479202577018
31
0.000000000000000
  0
LINE
  5
F104C2
330
F104C3
100
AcDbEntity
8
Geo
100
AcDbLine
10
-77.1504753495188
20
-5.93479202577018
30
0.000000000000000
11
-77.0504753495188
21
-5.91227524150436
31
0.000000000000000
  0
LINE
  5
F104C4
330
F104C5
100
AcDbEntity
8
Geo
100
AcDbLine
10
-77.0504753495188
20
-5.91227524150436
30
0.000000000000000
11
-76.9504753495188
21
-5.89051217262158
31
0.000000000000000
  0
LINE
  5
F104C6
330
F104C7
100
AcDbEntity
8
Geo
100
AcDbLine
10
-76.9504753495188
20
-5.89051217262158
30
0.000000000000000
11
-76.8504753495188
21
-5.86950671936072
31
0.000000000000000
  0
LINE
  5
F104C8
330
F104C9
100
AcDbEntity
8
Geo
100
AcDbLine
10
-76.8504753495188
20
-5.86950671936072
30
0.000000000000000
11
-76.7504753495188
21
-5.84926261604110
31
0.000000000000000
  0
LINE
  5
F104CA
330
F104CB
100
AcDbEntity
8
Geo
100
AcDbLine
10
-76.7504753495188
20
-5.84926261604110
30
0.000000000000000
11
-76.6504753495188
21
-5.82978343371006
31
0.000000000000000
  0
LINE
  5
F104CC
330
F104CD
100
AcDbEntity
8
Geo
100
AcDbLine
10
-76.6504753495188
20
-5.82978343371006
30
0.000000000000000
11
-76.5504753495188
21
-5.81107258270016
31
0.000000000000000
  0
LINE
  5
F104CE
330
F104CF
100
AcDbEntity
8
Geo
100
AcDbLine
10
-76.5504753495188
20
-5.81107258270016
30
0.000000000000000
11
-76.4504753495188
21
-5.79313331509499
31
0.000000000000000
  0
LINE
  5
F104D0
330
F104D1
100
AcDbEntity
8
Geo
100
AcDbLine
10
-76.4504753495188
20
-5.79313331509499
30
0.000000000000000
11
-76.3504753495188
21
-5.77596872710247
31
0.000000000000000
  0
LINE
  5
F104D2
330
F104D3
100
AcDbEntity
8
Geo
100
AcDbLine
10
-76.3504753495188
20
-5.77596872710247
30
0.000000000000000
11
-76.2504753495188
21
-5.75958176133459
31
0.000000000000000
  0
LINE
  5
F104D4
330
F104D5
100
AcDbEntity
8
Geo
100
AcDbLine
10
-76.2504753495188
20
-5.75958176133459
30
0.000000000000000
11
-76.1504753495188
21
-5.74397520899253
31
0.000000000000000
  0
LINE
  5
F104D6
330
F104D7
100
AcDbEntity
8
Geo
100
AcDbLine
10
-76.1504753495188
20
-5.74397520899253
30
0.000000000000000
11
-76.0504753495188
21
-5.72915171195638
31
0.000000000000000
  0
LINE
  5
F104D8
330
F104D9
100
AcDbEntity
8
Geo
100
AcDbLine
10
-76.0504753495188
20
-5.72915171195638
30
0.000000000000000
11
-75.9504753495188
21
-5.71511376477850
31
0.000000000000000
  0
LINE
  5
F104DA
330
F104DB
100
AcDbEntity
8
Geo
100
AcDbLine
10
-75.9504753495188
20
-5.71511376477850
30
0.000000000000000
11
-75.8504753495188
21
-5.70186371657966
31
0.000000000000000
  0
LINE
  5
F104DC
330
F104DD
100
AcDbEntity
8
Geo
100
AcDbLine
10
-75.8504753495188
20
-5.70186371657966
30
0.000000000000000
11
-75.7504753495188
21
-5.68940377284718
31
0.000000000000000
  0
LINE
  5
F104DE
330
F104DF
100
AcDbEntity
8
Geo
100
AcDbLine
10
-75.7504753495188
20
-5.68940377284718
30
0.000000000000000
11
-75.6504753495188
21
-5.67773599713449
31
0.000000000000000
  0
LINE
  5
F104E0
330
F104E1
100
AcDbEntity
8
Geo
100
AcDbLine
10
-75.6504753495188
20
-5.67773599713449
30
0.000000000000000
11
-75.5504753495188
21
-5.66686231266114
31
0.000000000000000
  0
LINE
  5
F104E2
330
F104E3
100
AcDbEntity
8
Geo
100
AcDbLine
10
-75.5504753495188
20
-5.66686231266114
30
0.000000000000000
11
-75.4504753495188
21
-5.65678450381292
31
0.000000000000000
  0
LINE
  5
F104E4
330
F104E5
100
AcDbEntity
8
Geo
100
AcDbLine
10
-75.4504753495188
20
-5.65678450381292
30
0.000000000000000
11
-75.3504753495188
21
-5.64750421754131
31
0.000000000000000
  0
LINE
  5
F104E6
330
F104E7
100
AcDbEntity
8
Geo
100
AcDbLine
10
-75.3504753495188
20
-5.64750421754131
30
0.000000000000000
11
-75.2504753495188
21
-5.63902296466171
31
0.000000000000000
  0
LINE
  5
F104E8
330
F104E9
100
AcDbEntity
8
Geo
100
AcDbLine
10
-75.2504753495188
20
-5.63902296466171
30
0.000000000000000
11
-75.1504753495188
21
-5.63134212105006
31
0.000000000000000
  0
LINE
  5
F104EA
330
F104EB
100
AcDbEntity
8
Geo
100
AcDbLine
10
-75.1504753495188
20
-5.63134212105006
30
0.000000000000000
11
-75.0504753495188
21
-5.62446292873731
31
0.000000000000000
  0
LINE
  5
F104EC
330
F104ED
100
AcDbEntity
8
Geo
100
AcDbLine
10
-75.0504753495188
20
-5.62446292873731
30
0.000000000000000
11
-74.9504753495188
21
-5.61838649690129
31
0.000000000000000
  0
LINE
  5
F104EE
330
F104EF
100
AcDbEntity
8
Geo
100
AcDbLine
10
-74.9504753495188
20
-5.61838649690129
30
0.000000000000000
11
-74.8504753495188
21
-5.61311380275568
31
0.000000000000000
  0
LINE
  5
F104F0
330
F104F1
100
AcDbEntity
8
Geo
100
AcDbLine
10
-74.8504753495188
20
-5.61311380275568
30
0.000000000000000
11
-74.7504753495188
21
-5.60864569233565
31
0.000000000000000
  0
LINE
  5
F104F2
330
F104F3
100
AcDbEntity
8
Geo
100
AcDbLine
10
-74.7504753495188
20
-5.60864569233565
30
0.000000000000000
11
-74.6504753495188
21
-5.60498288118000
31
0.000000000000000
  0
LINE
  5
F104F4
330
F104F5
100
AcDbEntity
8
Geo
100
AcDbLine
10
-74.6504753495188
20
-5.60498288118000
30
0.000000000000000
11
-74.5504753495188
21
-5.60212595490940
31
0.000000000000000
  0
LINE
  5
F104F6
330
F104F7
100
AcDbEntity
8
Geo
100
AcDbLine
10
-74.5504753495188
20
-5.60212595490940
30
0.000000000000000
11
-74.4504753495189
21
-5.60007536970057
31
0.000000000000000
  0
LINE
  5
F104F8
330
F104F9
100
AcDbEntity
8
Geo
100
AcDbLine
10
-97.4504753495189
20
-3.41803220547875
30
0.000000000000000
11
-97.3504753495189
21
-3.89589659382931
31
0.000000000000000
  0
LINE
  5
F104FA
330
F104FB
100
AcDbEntity
8
Geo
100
AcDbLine
10
-97.3504753495189
20
-3.89589659382931
30
0.000000000000000
11
-97.2504753495189
21
-4.29680167082845
31
0.000000000000000
  0
LINE
  5
F104FC
330
F104FD
100
AcDbEntity
8
Geo
100
AcDbLine
10
-97.2504753495189
20
-4.29680167082845
30
0.000000000000000
11
-97.1504753495189
21
-4.68314845385002
31
0.000000000000000
  0
LINE
  5
F104FE
330
F104FF
100
AcDbEntity
8
Geo
100
AcDbLine
10
-97.1504753495189
20
-4.68314845385002
30
0.000000000000000
11
-97.0504753495188
21
-5.05872496786854
31
0.000000000000000
  0
LINE
  5
F10500
330
F10501
100
AcDbEntity
8
Geo
100
AcDbLine
10
-97.0504753495188
20
-5.05872496786854
30
0.000000000000000
11
-96.9504753495189
21
-5.42402553166994
31
0.000000000000000
  0
LINE
  5
F10502
330
F10503
100
AcDbEntity
8
Geo
100
AcDbLine
10
-96.9504753495189
20
-5.42402553166994
30
0.000000000000000
11
-96.8504753495189
21
-5.77862274521594
31
0.000000000000000
  0
LINE
  5
F10504
330
F10505
100
AcDbEntity
8
Geo
100
AcDbLine
10
-96.8504753495189
20
-5.77862274521594
30
0.000000000000000
11
-96.7504753495189
21
-6.12172662173313
31
0.000000000000000
  0
LINE
  5
F10506
330
F10507
100
AcDbEntity
8
Geo
100
AcDbLine
10
-96.7504753495189
20
-6.12172662173313
30
0.000000000000000
11
-96.6504753495189
21
-6.45236868685319
31
0.000000000000000
  0
LINE
  5
F10508
330
F10509
100
AcDbEntity
8
Geo
100
AcDbLine
10
-96.6504753495189
20
-6.45236868685319
30
0.000000000000000
11
-96.5504753495188
21
-6.76946966849944
31
0.000000000000000
  0
LINE
  5
F1050A
330
F1050B
100
AcDbEntity
8
Geo
100
AcDbLine
10
-96.5504753495188
20
-6.76946966849944
30
0.000000000000000
11
-96.4504753495189
21
-7.07185951720424
31
0.000000000000000
  0
LINE
  5
F1050C
330
F1050D
100
AcDbEntity
8
Geo
100
AcDbLine
10
-96.4504753495189
20
-7.07185951720424
30
0.000000000000000
11
-96.3504753495189
21
-7.36164169756304
31
0.000000000000000
  0
LINE
  5
F1050E
330
F1050F
100
AcDbEntity
8
Geo
100
AcDbLine
10
-96.3504753495189
20
-7.36164169756304
30
0.000000000000000
11
-96.2504753495189
21
-7.64146249678870
31
0.000000000000000
  0
LINE
  5
F10510
330
F10511
100
AcDbEntity
8
Geo
100
AcDbLine
10
-96.2504753495189
20
-7.64146249678870
30
0.000000000000000
11
-96.1504753495189
21
-7.91090741672543
31
0.000000000000000
  0
LINE
  5
F10512
330
F10513
100
AcDbEntity
8
Geo
100
AcDbLine
10
-96.1504753495189
20
-7.91090741672543
30
0.000000000000000
11
-96.0504753495188
21
-8.16957732899283
31
0.000000000000000
  0
LINE
  5
F10514
330
F10515
100
AcDbEntity
8
Geo
100
AcDbLine
10
-96.0504753495188
20
-8.16957732899283
30
0.000000000000000
11
-95.9504753495189
21
-8.41708906621418
31
0.000000000000000
  0
LINE
  5
F10516
330
F10517
100
AcDbEntity
8
Geo
100
AcDbLine
10
-95.9504753495189
20
-8.41708906621418
30
0.000000000000000
11
-95.8504753495189
21
-8.65307598960173
31
0.000000000000000
  0
LINE
  5
F10518
330
F10519
100
AcDbEntity
8
Geo
100
AcDbLine
10
-95.8504753495189
20
-8.65307598960173
30
0.000000000000000
11
-95.7504753495189
21
-8.87718853205824
31
0.000000000000000
  0
LINE
  5
F1051A
330
F1051B
100
AcDbEntity
8
Geo
100
AcDbLine
10
-95.7504753495189
20
-8.87718853205824
30
0.000000000000000
11
-95.6504753495189
21
-9.08909471599023
31
0.000000000000000
  0
LINE
  5
F1051C
330
F1051D
100
AcDbEntity
8
Geo
100
AcDbLine
10
-95.6504753495189
20
-9.08909471599023
30
0.000000000000000
11
-95.5504753495188
21
-9.28848064506588
31
0.000000000000000
  0
LINE
  5
F1051E
330
F1051F
100
AcDbEntity
8
Geo
100
AcDbLine
10
-95.5504753495188
20
-9.28848064506588
30
0.000000000000000
11
-95.4504753495189
21
-9.47505096918928
31
0.000000000000000
  0
LINE
  5
F10520
330
F10521
100
AcDbEntity
8
Geo
100
AcDbLine
10
-95.4504753495189
20
-9.47505096918928
30
0.000000000000000
11
-95.3504753495189
21
-9.64852932200208
31
0.000000000000000
  0
LINE
  5
F10522
330
F10523
100
AcDbEntity
8
Geo
100
AcDbLine
10
-95.3504753495189
20
-9.64852932200208
30
0.000000000000000
11
-95.2504753495189
21
-9.80865873026458
31
0.000000000000000
  0
LINE
  5
F10524
330
F10525
100
AcDbEntity
8
Geo
100
AcDbLine
10
-95.2504753495189
20
-9.80865873026458
30
0.000000000000000
11
-95.1504753495189
21
-9.95520199450987
31
0.000000000000000
  0
LINE
  5
F10526
330
F10527
100
AcDbEntity
8
Geo
100
AcDbLine
10
-95.1504753495189
20
-9.95520199450987
30
0.000000000000000
11
-95.0504753495188
21
-10.0879420404070
31
0.000000000000000
  0
LINE
  5
F10528
330
F10529
100
AcDbEntity
8
Geo
100
AcDbLine
10
-95.0504753495188
20
-10.0879420404070
30
0.000000000000000
11
-94.9504753495189
21
-10.2066822403130
31
0.000000000000000
  0
LINE
  5
F1052A
330
F1052B
100
AcDbEntity
8
Geo
100
AcDbLine
10
-94.9504753495189
20
-10.2066822403130
30
0.000000000000000
11
-94.8504753495189
21
-10.3112467045369
31
0.000000000000000
  0
LINE
  5
F1052C
330
F1052D
100
AcDbEntity
8
Geo
100
AcDbLine
10
-94.8504753495189
20
-10.3112467045369
30
0.000000000000000
11
-94.7504753495189
21
-10.4014805418851
31
0.000000000000000
  0
LINE
  5
F1052E
330
F1052F
100
AcDbEntity
8
Geo
100
AcDbLine
10
-94.7504753495189
20
-10.4014805418851
30
0.000000000000000
11
-94.6504753495189
21
-10.4772500891016
31
0.000000000000000
  0
LINE
  5
F10530
330
F10531
100
AcDbEntity
8
Geo
100
AcDbLine
10
-94.6504753495189
20
-10.4772500891016
30
0.000000000000000
11
-94.5504753495188
21
-10.5384431088626
31
0.000000000000000
  0
LINE
  5
F10532
330
F10533
100
AcDbEntity
8
Geo
100
AcDbLine
10
-94.5504753495188
20
-10.5384431088626
30
0.000000000000000
11
-94.4504753495189
21
-10.5849689560343
31
0.000000000000000
  0
LINE
  5
F10534
330
F10535
100
AcDbEntity
8
Geo
100
AcDbLine
10
-94.4504753495189
20
-10.5849689560343
30
0.000000000000000
11
-94.3504753495189
21
-10.6167587119446
31
0.000000000000000
  0
LINE
  5
F10536
330
F10537
100
AcDbEntity
8
Geo
100
AcDbLine
10
-94.3504753495189
20
-10.6167587119446
30
0.000000000000000
11
-94.2504753495189
21
-10.6337652864731
31
0.000000000000000
  0
LINE
  5
F10538
330
F10539
100
AcDbEntity
8
Geo
100
AcDbLine
10
-86.0504753495189
20
9.36258330588821
30
0.000000000000000
11
-85.9504753495189
21
9.35916667200201
31
0.000000000000000
  0
LINE
  5
F1053A
330
F1053B
100
AcDbEntity
8
Geo
100
AcDbLine
10
-85.9504753495189
20
9.35916667200201
30
0.000000000000000
11
-85.8504753495189
21
9.34094290936129
31
0.000000000000000
  0
LINE
  5
F1053C
330
F1053D
100
AcDbEntity
8
Geo
100
AcDbLine
10
-85.8504753495189
20
9.34094290936129
30
0.000000000000000
11
-85.7504753495189
21
9.30793901279998
31
0.000000000000000
  0
LINE
  5
F1053E
330
F1053F
100
AcDbEntity
8
Geo
100
AcDbLine
10
-85.7504753495189
20
9.30793901279998
30
0.000000000000000
11
-85.6504753495189
21
9.26020387094358
31
0.000000000000000
  0
LINE
  5
F10540
330
F10541
100
AcDbEntity
8
Geo
100
AcDbLine
10
-85.6504753495189
20
9.26020387094358
30
0.000000000000000
11
-85.5504753495189
21
9.19780819379048
31
0.000000000000000
  0
LINE
  5
F10542
330
F10543
100
AcDbEntity
8
Geo
100
AcDbLine
10
-85.5504753495189
20
9.19780819379048
30
0.000000000000000
11
-85.4504753495189
21
9.12084440796936
31
0.000000000000000
  0
LINE
  5
F10544
330
F10545
100
AcDbEntity
8
Geo
100
AcDbLine
10
-85.4504753495189
20
9.12084440796936
30
0.000000000000000
11
-85.3504753495189
21
9.02942651982778
31
0.000000000000000
  0
LINE
  5
F10546
330
F10547
100
AcDbEntity
8
Geo
100
AcDbLine
10
-85.3504753495189
20
9.02942651982778
30
0.000000000000000
11
-85.2504753495189
21
8.92368994655467
31
0.000000000000000
  0
LINE
  5
F10548
330
F10549
100
AcDbEntity
8
Geo
100
AcDbLine
10
-85.2504753495189
20
8.92368994655467
30
0.000000000000000
11
-85.1504753495189
21
8.80379131558710
31
0.000000000000000
  0
LINE
  5
F1054A
330
F1054B
100
AcDbEntity
8
Geo
100
AcDbLine
10
-85.1504753495189
20
8.80379131558710
30
0.000000000000000
11
-85.0504753495189
21
8.66990823259826
31
0.000000000000000
  0
LINE
  5
F1054C
330
F1054D
100
AcDbEntity
8
Geo
100
AcDbLine
10
-85.0504753495189
20
8.66990823259826
30
0.000000000000000
11
-84.9504753495189
21
8.52223901841041
31
0.000000000000000
  0
LINE
  5
F1054E
330
F1054F
100
AcDbEntity
8
Geo
100
AcDbLine
10
-84.9504753495189
20
8.52223901841041
30
0.000000000000000
11
-84.8504753495189
21
8.36100241522254
31
0.000000000000000
  0
LINE
  5
F10550
330
F10551
100
AcDbEntity
8
Geo
100
AcDbLine
10
-84.8504753495189
20
8.36100241522254
30
0.000000000000000
11
-84.7504753495189
21
8.18643726258787
31
0.000000000000000
  0
LINE
  5
F10552
330
F10553
100
AcDbEntity
8
Geo
100
AcDbLine
10
-84.7504753495189
20
8.18643726258787
30
0.000000000000000
11
-84.6504753495189
21
7.99880214362113
31
0.000000000000000
  0
LINE
  5
F10554
330
F10555
100
AcDbEntity
8
Geo
100
AcDbLine
10
-84.6504753495189
20
7.99880214362113
30
0.000000000000000
11
-84.5504753495189
21
7.79837500195977
31
0.000000000000000
  0
LINE
  5
F10556
330
F10557
100
AcDbEntity
8
Geo
100
AcDbLine
10
-84.5504753495189
20
7.79837500195977
30
0.000000000000000
11
-84.4504753495189
21
7.58545273004645
31
0.000000000000000
  0
LINE
  5
F10558
330
F10559
100
AcDbEntity
8
Geo
100
AcDbLine
10
-84.4504753495189
20
7.58545273004645
30
0.000000000000000
11
-84.3504753495189
21
7.36035072934266
31
0.000000000000000
  0
LINE
  5
F1055A
330
F1055B
100
AcDbEntity
8
Geo
100
AcDbLine
10
-84.3504753495189
20
7.36035072934266
30
0.000000000000000
11
-84.2504753495189
21
7.12340244312501
31
0.000000000000000
  0
LINE
  5
F1055C
330
F1055D
100
AcDbEntity
8
Geo
100
AcDbLine
10
-84.2504753495189
20
7.12340244312501
30
0.000000000000000
11
-84.1504753495189
21
6.87495886255614
31
0.000000000000000
  0
LINE
  5
F1055E
330
F1055F
100
AcDbEntity
8
Geo
100
AcDbLine
10
-84.1504753495189
20
6.87495886255614
30
0.000000000000000
11
-84.0504753495189
21
6.61538800676204
31
0.000000000000000
  0
LINE
  5
F10560
330
F10561
100
AcDbEntity
8
Geo
100
AcDbLine
10
-84.0504753495189
20
6.61538800676204
30
0.000000000000000
11
-83.9504753495189
21
6.34507437768580
31
0.000000000000000
  0
LINE
  5
F10562
330
F10563
100
AcDbEntity
8
Geo
100
AcDbLine
10
-83.9504753495189
20
6.34507437768580
30
0.000000000000000
11
-83.8504753495189
21
6.06441839052546
31
0.000000000000000
  0
LINE
  5
F10564
330
F10565
100
AcDbEntity
8
Geo
100
AcDbLine
10
-83.8504753495189
20
6.06441839052546
30
0.000000000000000
11
-83.7504753495189
21
5.77383578059951
31
0.000000000000000
  0
LINE
  5
F10566
330
F10567
100
AcDbEntity
8
Geo
100
AcDbLine
10
-83.7504753495189
20
5.77383578059951
30
0.000000000000000
11
-83.6504753495189
21
5.47375698751876
31
0.000000000000000
  0
LINE
  5
F10568
330
F10569
100
AcDbEntity
8
Geo
100
AcDbLine
10
-83.6504753495189
20
5.47375698751876
30
0.000000000000000
11
-83.5504753495189
21
5.16462651757677
31
0.000000000000000
  0
LINE
  5
F1056A
330
F1056B
100
AcDbEntity
8
Geo
100
AcDbLine
10
-83.5504753495189
20
5.16462651757677
30
0.000000000000000
11
-83.4504753495189
21
4.84690228530327
31
0.000000000000000
  0
LINE
  5
F1056C
330
F1056D
100
AcDbEntity
8
Geo
100
AcDbLine
10
-83.4504753495189
20
4.84690228530327
30
0.000000000000000
11
-83.3504753495189
21
4.52105493515604
31
0.000000000000000
  0
LINE
  5
F1056E
330
F1056F
100
AcDbEntity
8
Geo
100
AcDbLine
10
-83.3504753495189
20
4.52105493515604
30
0.000000000000000
11
-83.2504753495189
21
4.18756714435590
31
0.000000000000000
  0
LINE
  5
F10570
330
F10571
100
AcDbEntity
8
Geo
100
AcDbLine
10
-83.2504753495189
20
4.18756714435590
30
0.000000000000000
11
-83.1504753495189
21
3.84693290789769
31
0.000000000000000
  0
LINE
  5
F10572
330
F10573
100
AcDbEntity
8
Geo
100
AcDbLine
10
-83.1504753495189
20
3.84693290789769
30
0.000000000000000
11
-83.0504753495189
21
3.49965680679609
31
0.000000000000000
  0
LINE
  5
F10574
330
F10575
100
AcDbEntity
8
Geo
100
AcDbLine
10
-83.0504753495189
20
3.49965680679609
30
0.000000000000000
11
-82.9504753495189
21
3.14625326065057
31
0.000000000000000
  0
LINE
  5
F10576
330
F10577
100
AcDbEntity
8
Geo
100
AcDbLine
10
-82.9504753495189
20
3.14625326065057
30
0.000000000000000
11
-82.8504753495189
21
2.78724576563627
31
0.000000000000000
  0
LINE
  5
F10578
330
F10579
100
AcDbEntity
8
Geo
100
AcDbLine
10
-82.8504753495189
20
2.78724576563627
30
0.000000000000000
11
-82.7504753495189
21
2.42316611904992
31
0.000000000000000
  0
LINE
  5
F1057A
330
F1057B
100
AcDbEntity
8
Geo
100
AcDbLine
10
-82.7504753495189
20
2.42316611904992
30
0.000000000000000
11
-82.6504753495189
21
2.05455363155924
31
0.000000000000000
  0
LINE
  5
F1057C
330
F1057D
100
AcDbEntity
8
Geo
100
AcDbLine
10
-82.6504753495189
20
2.05455363155924
30
0.000000000000000
11
-82.5504753495189
21
1.68195432832276
31
0.000000000000000
  0
LINE
  5
F1057E
330
F1057F
100
AcDbEntity
8
Geo
100
AcDbLine
10
-82.5504753495189
20
1.68195432832276
30
0.000000000000000
11
-82.4504753495189
21
1.30592014016361
31
0.000000000000000
  0
LINE
  5
F10580
330
F10581
100
AcDbEntity
8
Geo
100
AcDbLine
10
-82.4504753495189
20
1.30592014016361
30
0.000000000000000
11
-82.3504753495189
21
0.927008085995062
31
0.000000000000000
  0
LINE
  5
F10582
330
F10583
100
AcDbEntity
8
Geo
100
AcDbLine
10
-82.3504753495189
20
0.927008085995062
30
0.000000000000000
11
-82.2504753495189
21
0.545779447709300
31
0.000000000000000
  0
LINE
  5
F10584
330
F10585
100
AcDbEntity
8
Geo
100
AcDbLine
10
-82.2504753495189
20
0.545779447709300
30
0.000000000000000
11
-82.1504753495189
21
0.162798938751260
31
0.000000000000000
  0
LINE
  5
F10586
330
F10587
100
AcDbEntity
8
Geo
100
AcDbLine
10
-82.1504753495189
20
0.162798938751260
30
0.000000000000000
11
-82.0504753495189
21
-0.221366132390507
31
0.000000000000000
  0
LINE
  5
F10588
330
F10589
100
AcDbEntity
8
Geo
100
AcDbLine
10
-82.0504753495189
20
-0.221366132390507
30
0.000000000000000
11
-81.9504753495189
21
-0.606146702537208
31
0.000000000000000
  0
LINE
  5
F1058A
330
F1058B
100
AcDbEntity
8
Geo
100
AcDbLine
10
-81.9504753495189
20
-0.606146702537208
30
0.000000000000000
11
-81.8504753495189
21
-0.990972796772223
31
0.000000000000000
  0
LINE
  5
F1058C
330
F1058D
100
AcDbEntity
8
Geo
100
AcDbLine
10
-81.8504753495189
20
-0.990972796772223
30
0.000000000000000
11
-81.7504753495189
21
-1.37527437274416
31
0.000000000000000
  0
LINE
  5
F1058E
330
F1058F
100
AcDbEntity
8
Geo
100
AcDbLine
10
-81.7504753495189
20
-1.37527437274416
30
0.000000000000000
11
-81.6504753495189
21
-1.75848216506981
31
0.000000000000000
  0
LINE
  5
F10590
330
F10591
100
AcDbEntity
8
Geo
100
AcDbLine
10
-81.6504753495189
20
-1.75848216506981
30
0.000000000000000
11
-81.5504753495189
21
-2.14002852858611
31
0.000000000000000
  0
LINE
  5
F10592
330
F10593
100
AcDbEntity
8
Geo
100
AcDbLine
10
-81.5504753495189
20
-2.14002852858611
30
0.000000000000000
11
-81.4504753495189
21
-2.51934827920217
31
0.000000000000000
  0
LINE
  5
F10594
330
F10595
100
AcDbEntity
8
Geo
100
AcDbLine
10
-81.4504753495189
20
-2.51934827920217
30
0.000000000000000
11
-81.3504753495189
21
-2.89587953110565
31
0.000000000000000
  0
LINE
  5
F10596
330
F10597
100
AcDbEntity
8
Geo
100
AcDbLine
10
-81.3504753495189
20
-2.89587953110565
30
0.000000000000000
11
-81.2504753495189
21
-3.26906452908342
31
0.000000000000000
  0
LINE
  5
F10598
330
F10599
100
AcDbEntity
8
Geo
100
AcDbLine
10
-81.2504753495189
20
-3.26906452908342
30
0.000000000000000
11
-81.1504753495189
21
-3.63835047472361
31
0.000000000000000
  0
LINE
  5
F1059A
330
F1059B
100
AcDbEntity
8
Geo
100
AcDbLine
10
-81.1504753495189
20
-3.63835047472361
30
0.000000000000000
11
-81.0504753495189
21
-4.00319034527502
31
0.000000000000000
  0
LINE
  5
F1059C
330
F1059D
100
AcDbEntity
8
Geo
100
AcDbLine
10
-81.0504753495189
20
-4.00319034527502
30
0.000000000000000
11
-80.9504753495189
21
-4.36304370395129
31
0.000000000000000
  0
LINE
  5
F1059E
330
F1059F
100
AcDbEntity
8
Geo
100
AcDbLine
10
-80.9504753495189
20
-4.36304370395129
30
0.000000000000000
11
-80.8504753495189
21
-4.71737750047900
31
0.000000000000000
  0
LINE
  5
F105A0
330
F105A1
100
AcDbEntity
8
Geo
100
AcDbLine
10
-80.8504753495189
20
-4.71737750047900
30
0.000000000000000
11
-80.7504753495189
21
-5.06566686070446
31
0.000000000000000
  0
LINE
  5
F105A2
330
F105A3
100
AcDbEntity
8
Geo
100
AcDbLine
10
-80.7504753495189
20
-5.06566686070446
30
0.000000000000000
11
-80.6504753495189
21
-5.40739586408887
31
0.000000000000000
  0
LINE
  5
F105A4
330
F105A5
100
AcDbEntity
8
Geo
100
AcDbLine
10
-80.6504753495189
20
-5.40739586408887
30
0.000000000000000
11
-80.5504753495189
21
-5.74205830794083
31
0.000000000000000
  0
LINE
  5
F105A6
330
F105A7
100
AcDbEntity
8
Geo
100
AcDbLine
10
-80.5504753495189
20
-5.74205830794083
30
0.000000000000000
11
-80.4504753495189
21
-6.06915845725363
31
0.000000000000000
  0
LINE
  5
F105A8
330
F105A9
100
AcDbEntity
8
Geo
100
AcDbLine
10
-80.4504753495189
20
-6.06915845725363
30
0.000000000000000
11
-80.3504753495189
21
-6.38821177903677
31
0.000000000000000
  0
LINE
  5
F105AA
330
F105AB
100
AcDbEntity
8
Geo
100
AcDbLine
10
-80.3504753495189
20
-6.38821177903677
30
0.000000000000000
11
-80.2504753495189
21
-6.69874566005408
31
0.000000000000000
  0
LINE
  5
F105AC
330
F105AD
100
AcDbEntity
8
Geo
100
AcDbLine
10
-80.2504753495189
20
-6.69874566005408
30
0.000000000000000
11
-80.1504753495189
21
-7.00030010690495
31
0.000000000000000
  0
LINE
  5
F105AE
330
F105AF
100
AcDbEntity
8
Geo
100
AcDbLine
10
-80.1504753495189
20
-7.00030010690495
30
0.000000000000000
11
-80.0504753495189
21
-7.29242842741201
31
0.000000000000000
  0
LINE
  5
F105B0
330
F105B1
100
AcDbEntity
8
Geo
100
AcDbLine
10
-80.0504753495189
20
-7.29242842741201
30
0.000000000000000
11
-79.9504753495189
21
-7.57469789230550
31
0.000000000000000
  0
LINE
  5
F105B2
330
F105B3
100
AcDbEntity
8
Geo
100
AcDbLine
10
-79.9504753495189
20
-7.57469789230550
30
0.000000000000000
11
-79.8504753495189
21
-7.84669037622466
31
0.000000000000000
  0
LINE
  5
F105B4
330
F105B5
100
AcDbEntity
8
Geo
100
AcDbLine
10
-79.8504753495189
20
-7.84669037622466
30
0.000000000000000
11
-79.7504753495189
21
-8.10800297708614
31
0.000000000000000
  0
LINE
  5
F105B6
330
F105B7
100
AcDbEntity
8
Geo
100
AcDbLine
10
-79.7504753495189
20
-8.10800297708614
30
0.000000000000000
11
-79.6504753495189
21
-8.35824861290232
31
0.000000000000000
  0
LINE
  5
F105B8
330
F105B9
100
AcDbEntity
8
Geo
100
AcDbLine
10
-79.6504753495189
20
-8.35824861290232
30
0.000000000000000
11
-79.5504753495189
21
-8.59705659516532
31
0.000000000000000
  0
LINE
  5
F105BA
330
F105BB
100
AcDbEntity
8
Geo
100
AcDbLine
10
-79.5504753495189
20
-8.59705659516532
30
0.000000000000000
11
-79.4504753495189
21
-8.82407317794739
31
0.000000000000000
  0
LINE
  5
F105BC
330
F105BD
100
AcDbEntity
8
Geo
100
AcDbLine
10
-79.4504753495189
20
-8.82407317794739
30
0.000000000000000
11
-79.3504753495189
21
-9.06394069989192
31
0.000000000000000
  0
LINE
  5
F105BE
330
F105BF
100
AcDbEntity
8
Geo
100
AcDbLine
10
-79.3504753495189
20
-9.06394069989192
30
0.000000000000000
11
-79.2504753495189
21
-9.28394868353830
31
0.000000000000000
  0
LINE
  5
F105C0
330
F105C1
100
AcDbEntity
8
Geo
100
AcDbLine
10
-79.2504753495189
20
-9.28394868353830
30
0.000000000000000
11
-79.1504753495188
21
-9.48460901900576
31
0.000000000000000
  0
LINE
  5
F105C2
330
F105C3
100
AcDbEntity
8
Geo
100
AcDbLine
10
-79.1504753495188
20
-9.48460901900576
30
0.000000000000000
11
-79.0504753495188
21
-9.66648620613310
31
0.000000000000000
  0
LINE
  5
F105C4
330
F105C5
100
AcDbEntity
8
Geo
100
AcDbLine
10
-79.0504753495188
20
-9.66648620613310
30
0.000000000000000
11
-78.9504753495189
21
-9.83019063635174
31
0.000000000000000
  0
LINE
  5
F105C6
330
F105C7
100
AcDbEntity
8
Geo
100
AcDbLine
10
-78.9504753495189
20
-9.83019063635174
30
0.000000000000000
11
-78.8504753495188
21
-9.97637217537282
31
0.000000000000000
  0
LINE
  5
F105C8
330
F105C9
100
AcDbEntity
8
Geo
100
AcDbLine
10
-78.8504753495188
20
-9.97637217537282
30
0.000000000000000
11
-78.7504753495188
21
-10.1057140630242
31
0.000000000000000
  0
LINE
  5
F105CA
330
F105CB
100
AcDbEntity
8
Geo
100
AcDbLine
10
-78.7504753495188
20
-10.1057140630242
30
0.000000000000000
11
-78.6504753495188
21
-10.2189271423567
31
0.000000000000000
  0
LINE
  5
F105CC
330
F105CD
100
AcDbEntity
8
Geo
100
AcDbLine
10
-78.6504753495188
20
-10.2189271423567
30
0.000000000000000
11
-78.5504753495188
21
-10.3167444262711
31
0.000000000000000
  0
LINE
  5
F105CE
330
F105CF
100
AcDbEntity
8
Geo
100
AcDbLine
10
-78.5504753495188
20
-10.3167444262711
30
0.000000000000000
11
-78.4504753495188
21
-10.3999160063889
31
0.000000000000000
  0
LINE
  5
F105D0
330
F105D1
100
AcDbEntity
8
Geo
100
AcDbLine
10
-78.4504753495188
20
-10.3999160063889
30
0.000000000000000
11
-78.3504753495188
21
-10.4692043057063
31
0.000000000000000
  0
LINE
  5
F105D2
330
F105D3
100
AcDbEntity
8
Geo
100
AcDbLine
10
-78.3504753495188
20
-10.4692043057063
30
0.000000000000000
11
-78.2504753495188
21
-10.5253796737078
31
0.000000000000000
  0
LINE
  5
F105D4
330
F105D5
100
AcDbEntity
8
Geo
100
AcDbLine
10
-78.2504753495188
20
-10.5253796737078
30
0.000000000000000
11
-78.1504753495188
21
-10.5692163200779
31
0.000000000000000
  0
LINE
  5
F105D6
330
F105D7
100
AcDbEntity
8
Geo
100
AcDbLine
10
-78.1504753495188
20
-10.5692163200779
30
0.000000000000000
11
-78.0504753495188
21
-10.6014885809126
31
0.000000000000000
  0
LINE
  5
F105D8
330
F105D9
100
AcDbEntity
8
Geo
100
AcDbLine
10
-78.0504753495188
20
-10.6014885809126
30
0.000000000000000
11
-77.9504753495188
21
-10.6229675093849
31
0.000000000000000
  0
LINE
  5
F105DA
330
F105DB
100
AcDbEntity
8
Geo
100
AcDbLine
10
-77.9504753495188
20
-10.6229675093849
30
0.000000000000000
11
-77.8504753495188
21
-10.6344177811502
31
0.000000000000000
  0
LINE
  5
F105DC
330
F105DD
100
AcDbEntity
8
Geo
100
AcDbLine
10
-77.8504753495188
20
-10.6344177811502
30
0.000000000000000
11
-77.7504753495188
21
-10.6368792561043
31
0.000000000000000
  0
LINE
  5
F105DE
330
F105DF
100
AcDbEntity
8
Geo
100
AcDbLine
10
-89.3504753495189
20
9.36026454307179
30
0.000000000000000
11
-89.2504753495189
21
9.36205659471955
31
0.000000000000000
  0
LINE
  5
F105E0
330
F105E1
100
AcDbEntity
8
Geo
100
AcDbLine
10
-89.2504753495189
20
9.36205659471955
30
0.000000000000000
11
-89.1504753495189
21
9.34903723677434
31
0.000000000000000
  0
LINE
  5
F105E2
330
F105E3
100
AcDbEntity
8
Geo
100
AcDbLine
10
-89.1504753495189
20
9.34903723677434
30
0.000000000000000
11
-89.0504753495189
21
9.32122575479274
31
0.000000000000000
  0
LINE
  5
F105E4
330
F105E5
100
AcDbEntity
8
Geo
100
AcDbLine
10
-89.0504753495189
20
9.32122575479274
30
0.000000000000000
11
-88.9504753495189
21
9.27866334588384
31
0.000000000000000
  0
LINE
  5
F105E6
330
F105E7
100
AcDbEntity
8
Geo
100
AcDbLine
10
-88.9504753495189
20
9.27866334588384
30
0.000000000000000
11
-88.8504753495189
21
9.22141305768401
31
0.000000000000000
  0
LINE
  5
F105E8
330
F105E9
100
AcDbEntity
8
Geo
100
AcDbLine
10
-88.8504753495189
20
9.22141305768401
30
0.000000000000000
11
-88.7504753495189
21
9.14955969496453
31
0.000000000000000
  0
LINE
  5
F105EA
330
F105EB
100
AcDbEntity
8
Geo
100
AcDbLine
10
-88.7504753495189
20
9.14955969496453
30
0.000000000000000
11
-88.6504753495189
21
9.06320969401040
31
0.000000000000000
  0
LINE
  5
F105EC
330
F105ED
100
AcDbEntity
8
Geo
100
AcDbLine
10
-88.6504753495189
20
9.06320969401040
30
0.000000000000000
11
-88.5504753495189
21
8.96249096495641
31
0.000000000000000
  0
LINE
  5
F105EE
330
F105EF
100
AcDbEntity
8
Geo
100
AcDbLine
10
-88.5504753495189
20
8.96249096495641
30
0.000000000000000
11
-88.4504753495189
21
8.84755270231405
31
0.000000000000000
  0
LINE
  5
F105F0
330
F105F1
100
AcDbEntity
8
Geo
100
AcDbLine
10
-88.4504753495189
20
8.84755270231405
30
0.000000000000000
11
-88.3504753495189
21
8.71856516396990
31
0.000000000000000
  0
LINE
  5
F105F2
330
F105F3
100
AcDbEntity
8
Geo
100
AcDbLine
10
-88.3504753495189
20
8.71856516396990
30
0.000000000000000
11
-88.2504753495189
21
8.57571941898282
31
0.000000000000000
  0
LINE
  5
F105F4
330
F105F5
100
AcDbEntity
8
Geo
100
AcDbLine
10
-88.2504753495189
20
8.57571941898282
30
0.000000000000000
11
-88.1504753495189
21
8.41922706455368
31
0.000000000000000
  0
LINE
  5
F105F6
330
F105F7
100
AcDbEntity
8
Geo
100
AcDbLine
10
-88.1504753495189
20
8.41922706455368
30
0.000000000000000
11
-88.0504753495189
21
8.24931991258669
31
0.000000000000000
  0
LINE
  5
F105F8
330
F105F9
100
AcDbEntity
8
Geo
100
AcDbLine
10
-88.0504753495189
20
8.24931991258669
30
0.000000000000000
11
-87.9504753495189
21
8.06624964630676
31
0.000000000000000
  0
LINE
  5
F105FA
330
F105FB
100
AcDbEntity
8
Geo
100
AcDbLine
10
-87.9504753495189
20
8.06624964630676
30
0.000000000000000
11
-87.8504753495189
21
7.87028744744147
31
0.000000000000000
  0
LINE
  5
F105FC
330
F105FD
100
AcDbEntity
8
Geo
100
AcDbLine
10
-87.8504753495189
20
7.87028744744147
30
0.000000000000000
11
-87.7504753495189
21
7.66172359452001
31
0.000000000000000
  0
LINE
  5
F105FE
330
F105FF
100
AcDbEntity
8
Geo
100
AcDbLine
10
-87.7504753495189
20
7.66172359452001
30
0.000000000000000
11
-87.6504753495189
21
7.44086703288397
31
0.000000000000000
  0
LINE
  5
F10600
330
F10601
100
AcDbEntity
8
Geo
100
AcDbLine
10
-87.6504753495189
20
7.44086703288397
30
0.000000000000000
11
-87.5504753495189
21
7.20804491704703
31
0.000000000000000
  0
LINE
  5
F10602
330
F10603
100
AcDbEntity
8
Geo
100
AcDbLine
10
-87.5504753495189
20
7.20804491704703
30
0.000000000000000
11
-87.4504753495189
21
6.96360212608146
31
0.000000000000000
  0
LINE
  5
F10604
330
F10605
100
AcDbEntity
8
Geo
100
AcDbLine
10
-87.4504753495189
20
6.96360212608146
30
0.000000000000000
11
-87.3504753495189
21
6.70790075274925
31
0.000000000000000
  0
LINE
  5
F10606
330
F10607
100
AcDbEntity
8
Geo
100
AcDbLine
10
-87.3504753495189
20
6.70790075274925
30
0.000000000000000
11
-87.2504753495189
21
6.44131956713457
31
0.000000000000000
  0
LINE
  5
F10608
330
F10609
100
AcDbEntity
8
Geo
100
AcDbLine
10
-87.2504753495189
20
6.44131956713457
30
0.000000000000000
11
-87.1504753495189
21
6.16425345557221
31
0.000000000000000
  0
LINE
  5
F1060A
330
F1060B
100
AcDbEntity
8
Geo
100
AcDbLine
10
-87.1504753495189
20
6.16425345557221
30
0.000000000000000
11
-87.0504753495189
21
5.87711283570299
31
0.000000000000000
  0
LINE
  5
F1060C
330
F1060D
100
AcDbEntity
8
Geo
100
AcDbLine
10
-87.0504753495189
20
5.87711283570299
30
0.000000000000000
11
-86.9504753495189
21
5.58032304852272
31
0.000000000000000
  0
LINE
  5
F1060E
330
F1060F
100
AcDbEntity
8
Geo
100
AcDbLine
10
-86.9504753495189
20
5.58032304852272
30
0.000000000000000
11
-86.8504753495189
21
5.27432372832513
31
0.000000000000000
  0
LINE
  5
F10610
330
F10611
100
AcDbEntity
8
Geo
100
AcDbLine
10
-86.8504753495189
20
5.27432372832513
30
0.000000000000000
11
-86.7504753495189
21
4.95956815147225
31
0.000000000000000
  0
LINE
  5
F10612
330
F10613
100
AcDbEntity
8
Geo
100
AcDbLine
10
-86.7504753495189
20
4.95956815147225
30
0.000000000000000
11
-86.6504753495189
21
4.63652256495676
31
0.000000000000000
  0
LINE
  5
F10614
330
F10615
100
AcDbEntity
8
Geo
100
AcDbLine
10
-86.6504753495189
20
4.63652256495676
30
0.000000000000000
11
-86.5504753495189
21
4.30566549575098
31
0.000000000000000
  0
LINE
  5
F10616
330
F10617
100
AcDbEntity
8
Geo
100
AcDbLine
10
-86.5504753495189
20
4.30566549575098
30
0.000000000000000
11
-86.4504753495189
21
3.96748704196552
31
0.000000000000000
  0
LINE
  5
F10618
330
F10619
100
AcDbEntity
8
Geo
100
AcDbLine
10
-86.4504753495189
20
3.96748704196552
30
0.000000000000000
11
-86.3504753495189
21
3.62248814686769
31
0.000000000000000
  0
LINE
  5
F1061A
330
F1061B
100
AcDbEntity
8
Geo
100
AcDbLine
10
-86.3504753495189
20
3.62248814686769
30
0.000000000000000
11
-86.2504753495189
21
3.27117985683488
31
0.000000000000000
  0
LINE
  5
F1061C
330
F1061D
100
AcDbEntity
8
Geo
100
AcDbLine
10
-86.2504753495189
20
3.27117985683488
30
0.000000000000000
11
-86.1504753495189
21
2.91408256434231
31
0.000000000000000
  0
LINE
  5
F1061E
330
F1061F
100
AcDbEntity
8
Geo
100
AcDbLine
10
-86.1504753495189
20
2.91408256434231
30
0.000000000000000
11
-86.0504753495189
21
2.55172523710641
31
0.000000000000000
  0
LINE
  5
F10620
330
F10621
100
AcDbEntity
8
Geo
100
AcDbLine
10
-86.0504753495189
20
2.55172523710641
30
0.000000000000000
11
-85.9504753495189
21
2.18464463452567
31
0.000000000000000
  0
LINE
  5
F10622
330
F10623
100
AcDbEntity
8
Geo
100
AcDbLine
10
-85.9504753495189
20
2.18464463452567
30
0.000000000000000
11
-85.8504753495189
21
1.81338451257967
31
0.000000000000000
  0
LINE
  5
F10624
330
F10625
100
AcDbEntity
8
Geo
100
AcDbLine
10
-85.8504753495189
20
1.81338451257967
30
0.000000000000000
11
-85.7504753495189
21
1.43849481836416
31
0.000000000000000
  0
LINE
  5
F10626
330
F10627
100
AcDbEntity
8
Geo
100
AcDbLine
10
-85.7504753495189
20
1.43849481836416
30
0.000000000000000
11
-85.6504753495189
21
1.06053087545517
31
0.000000000000000
  0
LINE
  5
F10628
330
F10629
100
AcDbEntity
8
Geo
100
AcDbLine
10
-85.6504753495189
20
1.06053087545517
30
0.000000000000000
11
-85.5504753495189
21
0.680052561308986
31
0.000000000000000
  0
LINE
  5
F1062A
330
F1062B
100
AcDbEntity
8
Geo
100
AcDbLine
10
-85.5504753495189
20
0.680052561308986
30
0.000000000000000
11
-85.4504753495189
21
0.297623477916484
31
0.000000000000000
  0
LINE
  5
F1062C
330
F1062D
100
AcDbEntity
8
Geo
100
AcDbLine
10
-85.4504753495189
20
0.297623477916484
30
0.000000000000000
11
-85.3504753495189
21
-0.0861898830597362
31
0.000000000000000
  0
LINE
  5
F1062E
330
F1062F
100
AcDbEntity
8
Geo
100
AcDbLine
10
-85.3504753495189
20
-0.0861898830597362
30
0.000000000000000
11
-85.2504753495189
21
-0.470818979428637
31
0.000000000000000
  0
LINE
  5
F10630
330
F10631
100
AcDbEntity
8
Geo
100
AcDbLine
10
-85.2504753495189
20
-0.470818979428637
30
0.000000000000000
11
-85.1504753495189
21
-0.855694060651501
31
0.000000000000000
  0
LINE
  5
F10632
330
F10633
100
AcDbEntity
8
Geo
100
AcDbLine
10
-85.1504753495189
20
-0.855694060651501
30
0.000000000000000
11
-85.0504753495189
21
-1.24024501181257
31
0.000000000000000
  0
LINE
  5
F10634
330
F10635
100
AcDbEntity
8
Geo
100
AcDbLine
10
-85.0504753495189
20
-1.24024501181257
30
0.000000000000000
11
-84.9504753495189
21
-1.62390219812950
31
0.000000000000000
  0
LINE
  5
F10636
330
F10637
100
AcDbEntity
8
Geo
100
AcDbLine
10
-84.9504753495189
20
-1.62390219812950
30
0.000000000000000
11
-84.8504753495189
21
-2.00609730875258
31
0.000000000000000
  0
LINE
  5
F10638
330
F10639
100
AcDbEntity
8
Geo
100
AcDbLine
10
-84.8504753495189
20
-2.00609730875258
30
0.000000000000000
11
-84.7504753495189
21
-2.38626419860272
31
0.000000000000000
  0
LINE
  5
F1063A
330
F1063B
100
AcDbEntity
8
Geo
100
AcDbLine
10
-84.7504753495189
20
-2.38626419860272
30
0.000000000000000
11
-84.6504753495189
21
-2.76383972700143
31
0.000000000000000
  0
LINE
  5
F1063C
330
F1063D
100
AcDbEntity
8
Geo
100
AcDbLine
10
-84.6504753495189
20
-2.76383972700143
30
0.000000000000000
11
-84.5504753495189
21
-3.13826459185028
31
0.000000000000000
  0
LINE
  5
F1063E
330
F1063F
100
AcDbEntity
8
Geo
100
AcDbLine
10
-84.5504753495189
20
-3.13826459185028
30
0.000000000000000
11
-84.4504753495189
21
-3.50898415812434
31
0.000000000000000
  0
LINE
  5
F10640
330
F10641
100
AcDbEntity
8
Geo
100
AcDbLine
10
-84.4504753495189
20
-3.50898415812434
30
0.000000000000000
11
-84.3504753495189
21
-3.87544927945221
31
0.000000000000000
  0
LINE
  5
F10642
330
F10643
100
AcDbEntity
8
Geo
100
AcDbLine
10
-84.3504753495189
20
-3.87544927945221
30
0.000000000000000
11
-84.2504753495189
21
-4.23711711156580
31
0.000000000000000
  0
LINE
  5
F10644
330
F10645
100
AcDbEntity
8
Geo
100
AcDbLine
10
-84.2504753495189
20
-4.23711711156580
30
0.000000000000000
11
-84.1504753495189
21
-4.59345191641480
31
0.000000000000000
  0
LINE
  5
F10646
330
F10647
100
AcDbEntity
8
Geo
100
AcDbLine
10
-84.1504753495189
20
-4.59345191641480
30
0.000000000000000
11
-84.0504753495189
21
-4.94392585575466
31
0.000000000000000
  0
LINE
  5
F10648
330
F10649
100
AcDbEntity
8
Geo
100
AcDbLine
10
-84.0504753495189
20
-4.94392585575466
30
0.000000000000000
11
-83.9504753495189
21
-5.28801977303266
31
0.000000000000000
  0
LINE
  5
F1064A
330
F1064B
100
AcDbEntity
8
Geo
100
AcDbLine
10
-83.9504753495189
20
-5.28801977303266
30
0.000000000000000
11
-83.8504753495189
21
-5.62522396241375
31
0.000000000000000
  0
LINE
  5
F1064C
330
F1064D
100
AcDbEntity
8
Geo
100
AcDbLine
10
-83.8504753495189
20
-5.62522396241375
30
0.000000000000000
11
-83.7504753495189
21
-5.95503892380715
31
0.000000000000000
  0
LINE
  5
F1064E
330
F1064F
100
AcDbEntity
8
Geo
100
AcDbLine
10
-83.7504753495189
20
-5.95503892380715
30
0.000000000000000
11
-83.6504753495189
21
-6.27697610277507
31
0.000000000000000
  0
LINE
  5
F10650
330
F10651
100
AcDbEntity
8
Geo
100
AcDbLine
10
-83.6504753495189
20
-6.27697610277507
30
0.000000000000000
11
-83.5504753495189
21
-6.59055861422772
31
0.000000000000000
  0
LINE
  5
F10652
330
F10653
100
AcDbEntity
8
Geo
100
AcDbLine
10
-83.5504753495189
20
-6.59055861422772
30
0.000000000000000
11
-83.4504753495189
21
-6.89532194883255
31
0.000000000000000
  0
LINE
  5
F10654
330
F10655
100
AcDbEntity
8
Geo
100
AcDbLine
10
-83.4504753495189
20
-6.89532194883255
30
0.000000000000000
11
-83.3504753495189
21
-7.19081466109126
31
0.000000000000000
  0
LINE
  5
F10656
330
F10657
100
AcDbEntity
8
Geo
100
AcDbLine
10
-83.3504753495189
20
-7.19081466109126
30
0.000000000000000
11
-83.2504753495189
21
-7.47659903806535
31
0.000000000000000
  0
LINE
  5
F10658
330
F10659
100
AcDbEntity
8
Geo
100
AcDbLine
10
-83.2504753495189
20
-7.47659903806535
30
0.000000000000000
11
-83.1504753495189
21
-7.75225174775973
31
0.000000000000000
  0
LINE
  5
F1065A
330
F1065B
100
AcDbEntity
8
Geo
100
AcDbLine
10
-83.1504753495189
20
-7.75225174775973
30
0.000000000000000
11
-83.0504753495189
21
-8.01736446620375
31
0.000000000000000
  0
LINE
  5
F1065C
330
F1065D
100
AcDbEntity
8
Geo
100
AcDbLine
10
-83.0504753495189
20
-8.01736446620375
30
0.000000000000000
11
-82.9504753495189
21
-8.27154448230099
31
0.000000000000000
  0
LINE
  5
F1065E
330
F1065F
100
AcDbEntity
8
Geo
100
AcDbLine
10
-82.9504753495189
20
-8.27154448230099
30
0.000000000000000
11
-82.8504753495189
21
-8.51441527955159
31
0.000000000000000
  0
LINE
  5
F10660
330
F10661
100
AcDbEntity
8
Geo
100
AcDbLine
10
-82.8504753495189
20
-8.51441527955159
30
0.000000000000000
11
-82.7504753495189
21
-8.74561709378566
31
0.000000000000000
  0
LINE
  5
F10662
330
F10663
100
AcDbEntity
8
Geo
100
AcDbLine
10
-82.7504753495189
20
-8.74561709378566
30
0.000000000000000
11
-82.6504753495189
21
-8.96480744608140
31
0.000000000000000
  0
LINE
  5
F10664
330
F10665
100
AcDbEntity
8
Geo
100
AcDbLine
10
-82.6504753495189
20
-8.96480744608140
30
0.000000000000000
11
-82.5504753495189
21
-9.17166165007867
31
0.000000000000000
  0
LINE
  5
F10666
330
F10667
100
AcDbEntity
8
Geo
100
AcDbLine
10
-82.5504753495189
20
-9.17166165007867
30
0.000000000000000
11
-82.4504753495189
21
-9.36587329293643
31
0.000000000000000
  0
LINE
  5
F10668
330
F10669
100
AcDbEntity
8
Geo
100
AcDbLine
10
-82.4504753495189
20
-9.36587329293643
30
0.000000000000000
11
-82.3504753495189
21
-9.54715468922166
31
0.000000000000000
  0
LINE
  5
F1066A
330
F1066B
100
AcDbEntity
8
Geo
100
AcDbLine
10
-82.3504753495189
20
-9.54715468922166
30
0.000000000000000
11
-82.2504753495189
21
-9.71523730705735
31
0.000000000000000
  0
LINE
  5
F1066C
330
F1066D
100
AcDbEntity
8
Geo
100
AcDbLine
10
-82.2504753495189
20
-9.71523730705735
30
0.000000000000000
11
-82.1504753495189
21
-9.86987216589846
31
0.000000000000000
  0
LINE
  5
F1066E
330
F1066F
100
AcDbEntity
8
Geo
100
AcDbLine
10
-82.1504753495189
20
-9.86987216589846
30
0.000000000000000
11
-82.0504753495189
21
-10.0108302053463
31
0.000000000000000
  0
LINE
  5
F10670
330
F10671
100
AcDbEntity
8
Geo
100
AcDbLine
10
-82.0504753495189
20
-10.0108302053463
30
0.000000000000000
11
-81.9504753495189
21
-10.1379026244557
31
0.000000000000000
  0
LINE
  5
F10672
330
F10673
100
AcDbEntity
8
Geo
100
AcDbLine
10
-81.9504753495189
20
-10.1379026244557
30
0.000000000000000
11
-81.8504753495189
21
-10.2509011910311
31
0.000000000000000
  0
LINE
  5
F10674
330
F10675
100
AcDbEntity
8
Geo
100
AcDbLine
10
-81.8504753495189
20
-10.2509011910311
30
0.000000000000000
11
-81.7504753495189
21
-10.3496585204551
31
0.000000000000000
  0
LINE
  5
F10676
330
F10677
100
AcDbEntity
8
Geo
100
AcDbLine
10
-81.7504753495189
20
-10.3496585204551
30
0.000000000000000
11
-81.6504753495189
21
-10.4340283236345
31
0.000000000000000
  0
LINE
  5
F10678
330
F10679
100
AcDbEntity
8
Geo
100
AcDbLine
10
-81.6504753495189
20
-10.4340283236345
30
0.000000000000000
11
-81.5504753495189
21
-10.5038856236989
31
0.000000000000000
  0
LINE
  5
F1067A
330
F1067B
100
AcDbEntity
8
Geo
100
AcDbLine
10
-81.5504753495189
20
-10.5038856236989
30
0.000000000000000
11
-81.4504753495189
21
-10.5591269411280
31
0.000000000000000
  0
LINE
  5
F1067C
330
F1067D
100
AcDbEntity
8
Geo
100
AcDbLine
10
-81.4504753495189
20
-10.5591269411280
30
0.000000000000000
11
-81.3504753495189
21
-10.5996704470361
31
0.000000000000000
  0
LINE
  5
F1067E
330
F1067F
100
AcDbEntity
8
Geo
100
AcDbLine
10
-81.3504753495189
20
-10.5996704470361
30
0.000000000000000
11
-81.2504753495189
21
-10.6254560843851
31
0.000000000000000
  0
LINE
  5
F10680
330
F10681
100
AcDbEntity
8
Geo
100
AcDbLine
10
-81.2504753495189
20
-10.6254560843851
30
0.000000000000000
11
-81.1504753495189
21
-10.6364456569465
31
0.000000000000000
  0
LINE
  5
F10682
330
F10683
100
AcDbEntity
8
Geo
100
AcDbLine
10
-90.1504753495189
20
9.36156103941483
30
0.000000000000000
11
-90.0504753495189
21
9.36095180692949
31
0.000000000000000
  0
LINE
  5
F10684
330
F10685
100
AcDbEntity
8
Geo
100
AcDbLine
10
-90.0504753495189
20
9.36095180692949
30
0.000000000000000
11
-89.9504753495189
21
9.34553280137176
31
0.000000000000000
  0
LINE
  5
F10686
330
F10687
100
AcDbEntity
8
Geo
100
AcDbLine
10
-89.9504753495189
20
9.34553280137176
30
0.000000000000000
11
-89.8504753495189
21
9.31532686289287
31
0.000000000000000
  0
LINE
  5
F10688
330
F10689
100
AcDbEntity
8
Geo
100
AcDbLine
10
-89.8504753495189
20
9.31532686289287
30
0.000000000000000
11
-89.7504753495189
21
9.27037873550695
31
0.000000000000000
  0
LINE
  5
F1068A
330
F1068B
100
AcDbEntity
8
Geo
100
AcDbLine
10
-89.7504753495189
20
9.27037873550695
30
0.000000000000000
11
-89.6504753495189
21
9.21075500081179
31
0.000000000000000
  0
LINE
  5
F1068C
330
F1068D
100
AcDbEntity
8
Geo
100
AcDbLine
10
-89.6504753495189
20
9.21075500081179
30
0.000000000000000
11
-89.5504753495189
21
9.13654397936160
31
0.000000000000000
  0
LINE
  5
F1068E
330
F1068F
100
AcDbEntity
8
Geo
100
AcDbLine
10
-89.5504753495189
20
9.13654397936160
30
0.000000000000000
11
-89.4504753495189
21
9.04785559983796
31
0.000000000000000
  0
LINE
  5
F10690
330
F10691
100
AcDbEntity
8
Geo
100
AcDbLine
10
-89.4504753495189
20
9.04785559983796
30
0.000000000000000
11
-89.3504753495189
21
8.94482123621253
31
0.000000000000000
  0
LINE
  5
F10692
330
F10693
100
AcDbEntity
8
Geo
100
AcDbLine
10
-89.3504753495189
20
8.94482123621253
30
0.000000000000000
11
-89.2504753495189
21
8.82759351314303
31
0.000000000000000
  0
LINE
  5
F10694
330
F10695
100
AcDbEntity
8
Geo
100
AcDbLine
10
-89.2504753495189
20
8.82759351314303
30
0.000000000000000
11
-89.1504753495189
21
8.69634607989054
31
0.000000000000000
  0
LINE
  5
F10696
330
F10697
100
AcDbEntity
8
Geo
100
AcDbLine
10
-89.1504753495189
20
8.69634607989054
30
0.000000000000000
11
-89.0504753495189
21
8.55127335309308
31
0.000000000000000
  0
LINE
  5
F10698
330
F10699
100
AcDbEntity
8
Geo
100
AcDbLine
10
-89.0504753495189
20
8.55127335309308
30
0.000000000000000
11
-88.9504753495189
21
8.39259022877653
31
0.000000000000000
  0
LINE
  5
F1069A
330
F1069B
100
AcDbEntity
8
Geo
100
AcDbLine
10
-88.9504753495189
20
8.39259022877653
30
0.000000000000000
11
-88.8504753495189
21
8.22053176402946
31
0.000000000000000
  0
LINE
  5
F1069C
330
F1069D
100
AcDbEntity
8
Geo
100
AcDbLine
10
-88.8504753495189
20
8.22053176402946
30
0.000000000000000
11
-88.7504753495189
21
8.03535282881334
31
0.000000000000000
  0
LINE
  5
F1069E
330
F1069F
100
AcDbEntity
8
Geo
100
AcDbLine
10
-88.7504753495189
20
8.03535282881334
30
0.000000000000000
11
-88.6504753495189
21
7.83732772842412
31
0.000000000000000
  0
LINE
  5
F106A0
330
F106A1
100
AcDbEntity
8
Geo
100
AcDbLine
10
-88.6504753495189
20
7.83732772842412
30
0.000000000000000
11
-88.5504753495189
21
7.62674979716408
31
0.000000000000000
  0
LINE
  5
F106A2
330
F106A3
100
AcDbEntity
8
Geo
100
AcDbLine
10
-88.5504753495189
20
7.62674979716408
30
0.000000000000000
11
-88.4504753495189
21
7.40393096382622
31
0.000000000000000
  0
LINE
  5
F106A4
330
F106A5
100
AcDbEntity
8
Geo
100
AcDbLine
10
-88.4504753495189
20
7.40393096382622
30
0.000000000000000
11
-88.3504753495189
21
7.16920128963454
31
0.000000000000000
  0
LINE
  5
F106A6
330
F106A7
100
AcDbEntity
8
Geo
100
AcDbLine
10
-88.3504753495189
20
7.16920128963454
30
0.000000000000000
11
-88.2504753495189
21
6.92290847932481
31
0.000000000000000
  0
LINE
  5
F106A8
330
F106A9
100
AcDbEntity
8
Geo
100
AcDbLine
10
-88.2504753495189
20
6.92290847932481
30
0.000000000000000
11
-88.1504753495189
21
6.66541736609006
31
0.000000000000000
  0
LINE
  5
F106AA
330
F106AB
100
AcDbEntity
8
Geo
100
AcDbLine
10
-88.1504753495189
20
6.66541736609006
30
0.000000000000000
11
-88.0504753495189
21
6.39710937115367
31
0.000000000000000
  0
LINE
  5
F106AC
330
F106AD
100
AcDbEntity
8
Geo
100
AcDbLine
10
-88.0504753495189
20
6.39710937115367
30
0.000000000000000
11
-87.9504753495189
21
6.11838193877063
31
0.000000000000000
  0
LINE
  5
F106AE
330
F106AF
100
AcDbEntity
8
Geo
100
AcDbLine
10
-87.9504753495189
20
6.11838193877063
30
0.000000000000000
11
-87.8504753495189
21
5.82964794749397
31
0.000000000000000
  0
LINE
  5
F106B0
330
F106B1
100
AcDbEntity
8
Geo
100
AcDbLine
10
-87.8504753495189
20
5.82964794749397
30
0.000000000000000
11
-87.7504753495189
21
5.53133509857830
31
0.000000000000000
  0
LINE
  5
F106B2
330
F106B3
100
AcDbEntity
8
Geo
100
AcDbLine
10
-87.7504753495189
20
5.53133509857830
30
0.000000000000000
11
-87.6504753495189
21
5.22388528242658
31
0.000000000000000
  0
LINE
  5
F106B4
330
F106B5
100
AcDbEntity
8
Geo
100
AcDbLine
10
-87.6504753495189
20
5.22388528242658
30
0.000000000000000
11
-87.5504753495189
21
4.90775392401843
31
0.000000000000000
  0
LINE
  5
F106B6
330
F106B7
100
AcDbEntity
8
Geo
100
AcDbLine
10
-87.5504753495189
20
4.90775392401843
30
0.000000000000000
11
-87.4504753495189
21
4.58340930828983
31
0.000000000000000
  0
LINE
  5
F106B8
330
F106B9
100
AcDbEntity
8
Geo
100
AcDbLine
10
-87.4504753495189
20
4.58340930828983
30
0.000000000000000
11
-87.3504753495189
21
4.25133188646321
31
0.000000000000000
  0
LINE
  5
F106BA
330
F106BB
100
AcDbEntity
8
Geo
100
AcDbLine
10
-87.3504753495189
20
4.25133188646321
30
0.000000000000000
11
-87.2504753495189
21
3.91201356435585
31
0.000000000000000
  0
LINE
  5
F106BC
330
F106BD
100
AcDbEntity
8
Geo
100
AcDbLine
10
-87.2504753495189
20
3.91201356435585
30
0.000000000000000
11
-87.1504753495189
21
3.56595697372036
31
0.000000000000000
  0
LINE
  5
F106BE
330
F106BF
100
AcDbEntity
8
Geo
100
AcDbLine
10
-87.1504753495189
20
3.56595697372036
30
0.000000000000000
11
-87.0504753495189
21
3.21367472769705
31
0.000000000000000
  0
LINE
  5
F106C0
330
F106C1
100
AcDbEntity
8
Geo
100
AcDbLine
10
-87.0504753495189
20
3.21367472769705
30
0.000000000000000
11
-86.9504753495189
21
2.85568866148080
31
0.000000000000000
  0
LINE
  5
F106C2
330
F106C3
100
AcDbEntity
8
Geo
100
AcDbLine
10
-86.9504753495189
20
2.85568866148080
30
0.000000000000000
11
-86.8504753495189
21
2.49252905932728
31
0.000000000000000
  0
LINE
  5
F106C4
330
F106C5
100
AcDbEntity
8
Geo
100
AcDbLine
10
-86.8504753495189
20
2.49252905932728
30
0.000000000000000
11
-86.7504753495189
21
2.12473386904368
31
0.000000000000000
  0
LINE
  5
F106C6
330
F106C7
100
AcDbEntity
8
Geo
100
AcDbLine
10
-86.7504753495189
20
2.12473386904368
30
0.000000000000000
11
-86.6504753495189
21
1.75284790512735
31
0.000000000000000
  0
LINE
  5
F106C8
330
F106C9
100
AcDbEntity
8
Geo
100
AcDbLine
10
-86.6504753495189
20
1.75284790512735
30
0.000000000000000
11
-86.5504753495189
21
1.37742204173286
31
0.000000000000000
  0
LINE
  5
F106CA
330
F106CB
100
AcDbEntity
8
Geo
100
AcDbLine
10
-86.5504753495189
20
1.37742204173286
30
0.000000000000000
11
-86.4504753495189
21
0.999012396662900
31
0.000000000000000
  0
LINE
  5
F106CC
330
F106CD
100
AcDbEntity
8
Geo
100
AcDbLine
10
-86.4504753495189
20
0.999012396662900
30
0.000000000000000
11
-86.3504753495189
21
0.618179507591743
31
0.000000000000000
  0
LINE
  5
F106CE
330
F106CF
100
AcDbEntity
8
Geo
100
AcDbLine
10
-86.3504753495189
20
0.618179507591743
30
0.000000000000000
11
-86.2504753495189
21
0.235487501741592
31
0.000000000000000
  0
LINE
  5
F106D0
330
F106D1
100
AcDbEntity
8
Geo
100
AcDbLine
10
-86.2504753495189
20
0.235487501741592
30
0.000000000000000
11
-86.1504753495189
21
-0.148496739758284
31
0.000000000000000
  0
LINE
  5
F106D2
330
F106D3
100
AcDbEntity
8
Geo
100
AcDbLine
10
-86.1504753495189
20
-0.148496739758284
30
0.000000000000000
11
-86.0504753495189
21
-0.533204421591777
31
0.000000000000000
  0
LINE
  5
F106D4
330
F106D5
100
AcDbEntity
8
Geo
100
AcDbLine
10
-86.0504753495189
20
-0.533204421591777
30
0.000000000000000
11
-85.9504753495189
21
-0.918065676811605
31
0.000000000000000
  0
LINE
  5
F106D6
330
F106D7
100
AcDbEntity
8
Geo
100
AcDbLine
10
-85.9504753495189
20
-0.918065676811605
30
0.000000000000000
11
-85.8504753495189
21
-1.30251041098247
31
0.000000000000000
  0
LINE
  5
F106D8
330
F106D9
100
AcDbEntity
8
Geo
100
AcDbLine
10
-85.8504753495189
20
-1.30251041098247
30
0.000000000000000
11
-85.7504753495189
21
-1.68596914666112
31
0.000000000000000
  0
LINE
  5
F106DA
330
F106DB
100
AcDbEntity
8
Geo
100
AcDbLine
10
-85.7504753495189
20
-1.68596914666112
30
0.000000000000000
11
-85.6504753495189
21
-2.06787386696246
31
0.000000000000000
  0
LINE
  5
F106DC
330
F106DD
100
AcDbEntity
8
Geo
100
AcDbLine
10
-85.6504753495189
20
-2.06787386696246
30
0.000000000000000
11
-85.5504753495189
21
-2.44765885696218
31
0.000000000000000
  0
LINE
  5
F106DE
330
F106DF
100
AcDbEntity
8
Geo
100
AcDbLine
10
-85.5504753495189
20
-2.44765885696218
30
0.000000000000000
11
-85.4504753495189
21
-2.82476154168953
31
0.000000000000000
  0
LINE
  5
F106E0
330
F106E1
100
AcDbEntity
8
Geo
100
AcDbLine
10
-85.4504753495189
20
-2.82476154168953
30
0.000000000000000
11
-85.3504753495189
21
-3.19862331946874
31
0.000000000000000
  0
LINE
  5
F106E2
330
F106E3
100
AcDbEntity
8
Geo
100
AcDbLine
10
-85.3504753495189
20
-3.19862331946874
30
0.000000000000000
11
-85.2504753495189
21
-3.56869038937493
31
0.000000000000000
  0
LINE
  5
F106E4
330
F106E5
100
AcDbEntity
8
Geo
100
AcDbLine
10
-85.2504753495189
20
-3.56869038937493
30
0.000000000000000
11
-85.1504753495189
21
-3.93441457157869
31
0.000000000000000
  0
LINE
  5
F106E6
330
F106E7
100
AcDbEntity
8
Geo
100
AcDbLine
10
-85.1504753495189
20
-3.93441457157869
30
0.000000000000000
11
-85.0504753495189
21
-4.29525411936399
31
0.000000000000000
  0
LINE
  5
F106E8
330
F106E9
100
AcDbEntity
8
Geo
100
AcDbLine
10
-85.0504753495189
20
-4.29525411936399
30
0.000000000000000
11
-84.9504753495189
21
-4.65067452161692
31
0.000000000000000
  0
LINE
  5
F106EA
330
F106EB
100
AcDbEntity
8
Geo
100
AcDbLine
10
-84.9504753495189
20
-4.65067452161692
30
0.000000000000000
11
-84.8504753495189
21
-5.00014929459622
31
0.000000000000000
  0
LINE
  5
F106EC
330
F106ED
100
AcDbEntity
8
Geo
100
AcDbLine
10
-84.8504753495189
20
-5.00014929459622
30
0.000000000000000
11
-84.7504753495189
21
-5.34316076181288
31
0.000000000000000
  0
LINE
  5
F106EE
330
F106EF
100
AcDbEntity
8
Geo
100
AcDbLine
10
-84.7504753495189
20
-5.34316076181288
30
0.000000000000000
11
-84.6504753495189
21
-5.67920082086363
31
0.000000000000000
  0
LINE
  5
F106F0
330
F106F1
100
AcDbEntity
8
Geo
100
AcDbLine
10
-84.6504753495189
20
-5.67920082086363
30
0.000000000000000
11
-84.5504753495189
21
-6.00777169608228
31
0.000000000000000
  0
LINE
  5
F106F2
330
F106F3
100
AcDbEntity
8
Geo
100
AcDbLine
10
-84.5504753495189
20
-6.00777169608228
30
0.000000000000000
11
-84.4504753495189
21
-6.32838667589415
31
0.000000000000000
  0
LINE
  5
F106F4
330
F106F5
100
AcDbEntity
8
Geo
100
AcDbLine
10
-84.4504753495189
20
-6.32838667589415
30
0.000000000000000
11
-84.3504753495189
21
-6.64057083378120
31
0.000000000000000
  0
LINE
  5
F106F6
330
F106F7
100
AcDbEntity
8
Geo
100
AcDbLine
10
-84.3504753495189
20
-6.64057083378120
30
0.000000000000000
11
-84.2504753495189
21
-6.94386173179005
31
0.000000000000000
  0
LINE
  5
F106F8
330
F106F9
100
AcDbEntity
8
Geo
100
AcDbLine
10
-84.2504753495189
20
-6.94386173179005
30
0.000000000000000
11
-84.1504753495189
21
-7.23781010554065
31
0.000000000000000
  0
LINE
  5
F106FA
330
F106FB
100
AcDbEntity
8
Geo
100
AcDbLine
10
-84.1504753495189
20
-7.23781010554065
30
0.000000000000000
11
-84.0504753495189
21
-7.52198052972095
31
0.000000000000000
  0
LINE
  5
F106FC
330
F106FD
100
AcDbEntity
8
Geo
100
AcDbLine
10
-84.0504753495189
20
-7.52198052972095
30
0.000000000000000
11
-83.9504753495189
21
-7.79595206308186
31
0.000000000000000
  0
LINE
  5
F106FE
330
F106FF
100
AcDbEntity
8
Geo
100
AcDbLine
10
-83.9504753495189
20
-7.79595206308186
30
0.000000000000000
11
-83.8504753495189
21
-8.05931887197688
31
0.000000000000000
  0
LINE
  5
F10700
330
F10701
100
AcDbEntity
8
Geo
100
AcDbLine
10
-83.8504753495189
20
-8.05931887197688
30
0.000000000000000
11
-83.7504753495189
21
-8.31169083152294
31
0.000000000000000
  0
LINE
  5
F10702
330
F10703
100
AcDbEntity
8
Geo
100
AcDbLine
10
-83.7504753495189
20
-8.31169083152294
30
0.000000000000000
11
-83.6504753495189
21
-8.55269410349180
31
0.000000000000000
  0
LINE
  5
F10704
330
F10705
100
AcDbEntity
8
Geo
100
AcDbLine
10
-83.6504753495189
20
-8.55269410349180
30
0.000000000000000
11
-83.5504753495189
21
-8.78197169007614
31
0.000000000000000
  0
LINE
  5
F10706
330
F10707
100
AcDbEntity
8
Geo
100
AcDbLine
10
-83.5504753495189
20
-8.78197169007614
30
0.000000000000000
11
-83.4504753495189
21
-8.99918396270987
31
0.000000000000000
  0
LINE
  5
F10708
330
F10709
100
AcDbEntity
8
Geo
100
AcDbLine
10
-83.4504753495189
20
-8.99918396270987
30
0.000000000000000
11
-83.3504753495189
21
-9.20400916515946
31
0.000000000000000
  0
LINE
  5
F1070A
330
F1070B
100
AcDbEntity
8
Geo
100
AcDbLine
10
-83.3504753495189
20
-9.20400916515946
30
0.000000000000000
11
-83.2504753495189
21
-9.39614389014102
31
0.000000000000000
  0
LINE
  5
F1070C
330
F1070D
100
AcDbEntity
8
Geo
100
AcDbLine
10
-83.2504753495189
20
-9.39614389014102
30
0.000000000000000
11
-83.1504753495189
21
-9.57530352875704
31
0.000000000000000
  0
LINE
  5
F1070E
330
F1070F
100
AcDbEntity
8
Geo
100
AcDbLine
10
-83.1504753495189
20
-9.57530352875704
30
0.000000000000000
11
-83.0504753495189
21
-9.74122269208717
31
0.000000000000000
  0
LINE
  5
F10710
330
F10711
100
AcDbEntity
8
Geo
100
AcDbLine
10
-83.0504753495189
20
-9.74122269208717
30
0.000000000000000
11
-82.9504753495189
21
-9.89365560430845
31
0.000000000000000
  0
LINE
  5
F10712
330
F10713
100
AcDbEntity
8
Geo
100
AcDbLine
10
-82.9504753495189
20
-9.89365560430845
30
0.000000000000000
11
-82.8504753495189
21
-10.0323764667627
31
0.000000000000000
  0
LINE
  5
F10714
330
F10715
100
AcDbEntity
8
Geo
100
AcDbLine
10
-82.8504753495189
20
-10.0323764667627
30
0.000000000000000
11
-82.7504753495189
21
-10.1571797924318
31
0.000000000000000
  0
LINE
  5
F10716
330
F10717
100
AcDbEntity
8
Geo
100
AcDbLine
10
-82.7504753495189
20
-10.1571797924318
30
0.000000000000000
11
-82.6504753495189
21
-10.2678807103251
31
0.000000000000000
  0
LINE
  5
F10718
330
F10719
100
AcDbEntity
8
Geo
100
AcDbLine
10
-82.6504753495189
20
-10.2678807103251
30
0.000000000000000
11
-82.5504753495189
21
-10.3643152393289
31
0.000000000000000
  0
LINE
  5
F1071A
330
F1071B
100
AcDbEntity
8
Geo
100
AcDbLine
10
-82.5504753495189
20
-10.3643152393289
30
0.000000000000000
11
-82.4504753495189
21
-10.4463405311112
31
0.000000000000000
  0
LINE
  5
F1071C
330
F1071D
100
AcDbEntity
8
Geo
100
AcDbLine
10
-82.4504753495189
20
-10.4463405311112
30
0.000000000000000
11
-82.3504753495189
21
-10.5138350817229
31
0.000000000000000
  0
LINE
  5
F1071E
330
F1071F
100
AcDbEntity
8
Geo
100
AcDbLine
10
-82.3504753495189
20
-10.5138350817229
30
0.000000000000000
11
-82.2504753495189
21
-10.5666989115811
31
0.000000000000000
  0
LINE
  5
F10720
330
F10721
100
AcDbEntity
8
Geo
100
AcDbLine
10
-82.2504753495189
20
-10.5666989115811
30
0.000000000000000
11
-82.1504753495189
21
-10.6048537135692
31
0.000000000000000
  0
LINE
  5
F10722
330
F10723
100
AcDbEntity
8
Geo
100
AcDbLine
10
-82.1504753495189
20
-10.6048537135692
30
0.000000000000000
11
-82.0504753495189
21
-10.6282429690326
31
0.000000000000000
  0
LINE
  5
F10724
330
F10725
100
AcDbEntity
8
Geo
100
AcDbLine
10
-82.0504753495189
20
-10.6282429690326
30
0.000000000000000
11
-81.9504753495189
21
-10.6368320315003
31
0.000000000000000
  0
LINE
  5
F10726
330
F10727
100
AcDbEntity
8
Geo
100
AcDbLine
10
-93.4504753495189
20
9.35825530839734
30
0.000000000000000
11
-93.3504753495189
21
9.36285470306281
31
0.000000000000000
  0
LINE
  5
F10728
330
F10729
100
AcDbEntity
8
Geo
100
AcDbLine
10
-93.3504753495189
20
9.36285470306281
30
0.000000000000000
11
-93.2504753495189
21
9.35264150589854
31
0.000000000000000
  0
LINE
  5
F1072A
330
F1072B
100
AcDbEntity
8
Geo
100
AcDbLine
10
-93.2504753495189
20
9.35264150589854
30
0.000000000000000
11
-93.1504753495189
21
9.32763084569911
31
0.000000000000000
  0
LINE
  5
F1072C
330
F1072D
100
AcDbEntity
8
Geo
100
AcDbLine
10
-93.1504753495189
20
9.32763084569911
30
0.000000000000000
11
-93.0504753495188
21
9.28785977072024
31
0.000000000000000
  0
LINE
  5
F1072E
330
F1072F
100
AcDbEntity
8
Geo
100
AcDbLine
10
-93.0504753495188
20
9.28785977072024
30
0.000000000000000
11
-92.9504753495189
21
9.23338719379928
31
0.000000000000000
  0
LINE
  5
F10730
330
F10731
100
AcDbEntity
8
Geo
100
AcDbLine
10
-92.9504753495189
20
9.23338719379928
30
0.000000000000000
11
-92.8504753495189
21
9.16429380508772
31
0.000000000000000
  0
LINE
  5
F10732
330
F10733
100
AcDbEntity
8
Geo
100
AcDbLine
10
-92.8504753495189
20
9.16429380508772
30
0.000000000000000
11
-92.7504753495189
21
9.08068195252492
31
0.000000000000000
  0
LINE
  5
F10734
330
F10735
100
AcDbEntity
8
Geo
100
AcDbLine
10
-92.7504753495189
20
9.08068195252492
30
0.000000000000000
11
-92.6504753495189
21
8.98267549023034
31
0.000000000000000
  0
LINE
  5
F10736
330
F10737
100
AcDbEntity
8
Geo
100
AcDbLine
10
-92.6504753495189
20
8.98267549023034
30
0.000000000000000
11
-92.5504753495188
21
8.87041959503853
31
0.000000000000000
  0
LINE
  5
F10738
330
F10739
100
AcDbEntity
8
Geo
100
AcDbLine
10
-92.5504753495188
20
8.87041959503853
30
0.000000000000000
11
-92.4504753495189
21
8.74408055144893
31
0.000000000000000
  0
LINE
  5
F1073A
330
F1073B
100
AcDbEntity
8
Geo
100
AcDbLine
10
-92.4504753495189
20
8.74408055144893
30
0.000000000000000
11
-92.3504753495189
21
8.60384550530888
31
0.000000000000000
  0
LINE
  5
F1073C
330
F1073D
100
AcDbEntity
8
Geo
100
AcDbLine
10
-92.3504753495189
20
8.60384550530888
30
0.000000000000000
11
-92.2504753495189
21
8.44992218659471
31
0.000000000000000
  0
LINE
  5
F1073E
330
F1073F
100
AcDbEntity
8
Geo
100
AcDbLine
10
-92.2504753495189
20
8.44992218659471
30
0.000000000000000
11
-92.1504753495189
21
8.28253860170163
31
0.000000000000000
  0
LINE
  5
F10740
330
F10741
100
AcDbEntity
8
Geo
100
AcDbLine
10
-92.1504753495189
20
8.28253860170163
30
0.000000000000000
11
-92.0504753495189
21
8.10194269569822
31
0.000000000000000
  0
LINE
  5
F10742
330
F10743
100
AcDbEntity
8
Geo
100
AcDbLine
10
-92.0504753495189
20
8.10194269569822
30
0.000000000000000
11
-91.9504753495189
21
7.90840198504566
31
0.000000000000000
  0
LINE
  5
F10744
330
F10745
100
AcDbEntity
8
Geo
100
AcDbLine
10
-91.9504753495189
20
7.90840198504566
30
0.000000000000000
11
-91.8504753495189
21
7.70220316132605
31
0.000000000000000
  0
LINE
  5
F10746
330
F10747
100
AcDbEntity
8
Geo
100
AcDbLine
10
-91.8504753495189
20
7.70220316132605
30
0.000000000000000
11
-91.7504753495189
21
7.48365166656656
31
0.000000000000000
  0
LINE
  5
F10748
330
F10749
100
AcDbEntity
8
Geo
100
AcDbLine
10
-91.7504753495189
20
7.48365166656656
30
0.000000000000000
11
-91.6504753495189
21
7.25307124078856
31
0.000000000000000
  0
LINE
  5
F1074A
330
F1074B
100
AcDbEntity
8
Geo
100
AcDbLine
10
-91.6504753495189
20
7.25307124078856
30
0.000000000000000
11
-91.5504753495189
21
7.01080344245200
31
0.000000000000000
  0
LINE
  5
F1074C
330
F1074D
100
AcDbEntity
8
Geo
100
AcDbLine
10
-91.5504753495189
20
7.01080344245200
30
0.000000000000000
11
-91.4504753495189
21
6.75720714250533
31
0.000000000000000
  0
LINE
  5
F1074E
330
F1074F
100
AcDbEntity
8
Geo
100
AcDbLine
10
-91.4504753495189
20
6.75720714250533
30
0.000000000000000
11
-91.3504753495189
21
6.49265799279049
31
0.000000000000000
  0
LINE
  5
F10750
330
F10751
100
AcDbEntity
8
Geo
100
AcDbLine
10
-91.3504753495189
20
6.49265799279049
30
0.000000000000000
11
-91.2504753495189
21
6.21754786959035
31
0.000000000000000
  0
LINE
  5
F10752
330
F10753
100
AcDbEntity
8
Geo
100
AcDbLine
10
-91.2504753495189
20
6.21754786959035
30
0.000000000000000
11
-91.1504753495189
21
5.93228429314293
31
0.000000000000000
  0
LINE
  5
F10754
330
F10755
100
AcDbEntity
8
Geo
100
AcDbLine
10
-91.1504753495189
20
5.93228429314293
30
0.000000000000000
11
-91.0504753495189
21
5.63728982398226
31
0.000000000000000
  0
LINE
  5
F10756
330
F10757
100
AcDbEntity
8
Geo
100
AcDbLine
10
-91.0504753495189
20
5.63728982398226
30
0.000000000000000
11
-90.9504753495189
21
5.33300143700001
31
0.000000000000000
  0
LINE
  5
F10758
330
F10759
100
AcDbEntity
8
Geo
100
AcDbLine
10
-90.9504753495189
20
5.33300143700001
30
0.000000000000000
11
-90.8504753495189
21
5.01986987415526
31
0.000000000000000
  0
LINE
  5
F1075A
330
F1075B
100
AcDbEntity
8
Geo
100
AcDbLine
10
-90.8504753495189
20
5.01986987415526
30
0.000000000000000
11
-90.7504753495189
21
4.69835897679102
31
0.000000000000000
  0
LINE
  5
F1075C
330
F1075D
100
AcDbEntity
8
Geo
100
AcDbLine
10
-90.7504753495189
20
4.69835897679102
30
0.000000000000000
11
-90.6504753495189
21
4.36894499854673
31
0.000000000000000
  0
LINE
  5
F1075E
330
F1075F
100
AcDbEntity
8
Geo
100
AcDbLine
10
-90.6504753495189
20
4.36894499854673
30
0.000000000000000
11
-90.5504753495189
21
4.03211589988440
31
0.000000000000000
  0
LINE
  5
F10760
330
F10761
100
AcDbEntity
8
Geo
100
AcDbLine
10
-90.5504753495189
20
4.03211589988440
30
0.000000000000000
11
-90.4504753495189
21
3.68837062527348
31
0.000000000000000
  0
LINE
  5
F10762
330
F10763
100
AcDbEntity
8
Geo
100
AcDbLine
10
-90.4504753495189
20
3.68837062527348
30
0.000000000000000
11
-90.3504753495189
21
3.33821836410511
31
0.000000000000000
  0
LINE
  5
F10764
330
F10765
100
AcDbEntity
8
Geo
100
AcDbLine
10
-90.3504753495189
20
3.33821836410511
30
0.000000000000000
11
-90.2504753495189
21
2.98217779643059
31
0.000000000000000
  0
LINE
  5
F10766
330
F10767
100
AcDbEntity
8
Geo
100
AcDbLine
10
-90.2504753495189
20
2.98217779643059
30
0.000000000000000
11
-90.1504753495189
21
2.62077632464136
31
0.000000000000000
  0
LINE
  5
F10768
330
F10769
100
AcDbEntity
8
Geo
100
AcDbLine
10
-90.1504753495189
20
2.62077632464136
30
0.000000000000000
11
-90.0504753495189
21
2.25454929222857
31
0.000000000000000
  0
LINE
  5
F1076A
330
F1076B
100
AcDbEntity
8
Geo
100
AcDbLine
10
-90.0504753495189
20
2.25454929222857
30
0.000000000000000
11
-89.9504753495189
21
1.88403919077952
31
0.000000000000000
  0
LINE
  5
F1076C
330
F1076D
100
AcDbEntity
8
Geo
100
AcDbLine
10
-89.9504753495189
20
1.88403919077952
30
0.000000000000000
11
-89.8504753495189
21
1.50979485638565
31
0.000000000000000
  0
LINE
  5
F1076E
330
F1076F
100
AcDbEntity
8
Geo
100
AcDbLine
10
-89.8504753495189
20
1.50979485638565
30
0.000000000000000
11
-89.7504753495189
21
1.13237065665239
31
0.000000000000000
  0
LINE
  5
F10770
330
F10771
100
AcDbEntity
8
Geo
100
AcDbLine
10
-89.7504753495189
20
1.13237065665239
30
0.000000000000000
11
-89.6504753495189
21
0.752325669515249
31
0.000000000000000
  0
LINE
  5
F10772
330
F10773
100
AcDbEntity
8
Geo
100
AcDbLine
10
-89.6504753495189
20
0.752325669515249
30
0.000000000000000
11
-89.5504753495189
21
0.370222855078391
31
0.000000000000000
  0
LINE
  5
F10774
330
F10775
100
AcDbEntity
8
Geo
100
AcDbLine
10
-89.5504753495189
20
0.370222855078391
30
0.000000000000000
11
-89.4504753495189
21
-0.0133717782973226
31
0.000000000000000
  0
LINE
  5
F10776
330
F10777
100
AcDbEntity
8
Geo
100
AcDbLine
10
-89.4504753495189
20
-0.0133717782973226
30
0.000000000000000
11
-89.3504753495189
21
-0.397890012421742
31
0.000000000000000
  0
LINE
  5
F10778
330
F10779
100
AcDbEntity
8
Geo
100
AcDbLine
10
-89.3504753495189
20
-0.397890012421742
30
0.000000000000000
11
-89.2504753495189
21
-0.782762260976237
31
0.000000000000000
  0
LINE
  5
F1077A
330
F1077B
100
AcDbEntity
8
Geo
100
AcDbLine
10
-89.2504753495189
20
-0.782762260976237
30
0.000000000000000
11
-89.1504753495189
21
-1.16741841324107
31
0.000000000000000
  0
LINE
  5
F1077C
330
F1077D
100
AcDbEntity
8
Geo
100
AcDbLine
10
-89.1504753495189
20
-1.16741841324107
30
0.000000000000000
11
-89.0504753495189
21
-1.55128867859967
31
0.000000000000000
  0
LINE
  5
F1077E
330
F1077F
100
AcDbEntity
8
Geo
100
AcDbLine
10
-89.0504753495189
20
-1.55128867859967
30
0.000000000000000
11
-88.9504753495189
21
-1.93380443056861
31
0.000000000000000
  0
LINE
  5
F10780
330
F10781
100
AcDbEntity
8
Geo
100
AcDbLine
10
-88.9504753495189
20
-1.93380443056861
30
0.000000000000000
11
-88.8504753495189
21
-2.31439904910326
31
0.000000000000000
  0
LINE
  5
F10782
330
F10783
100
AcDbEntity
8
Geo
100
AcDbLine
10
-88.8504753495189
20
-2.31439904910326
30
0.000000000000000
11
-88.7504753495189
21
-2.69250875993121
31
0.000000000000000
  0
LINE
  5
F10784
330
F10785
100
AcDbEntity
8
Geo
100
AcDbLine
10
-88.7504753495189
20
-2.69250875993121
30
0.000000000000000
11
-88.6504753495189
21
-3.06757346967036
31
0.000000000000000
  0
LINE
  5
F10786
330
F10787
100
AcDbEntity
8
Geo
100
AcDbLine
10
-88.6504753495189
20
-3.06757346967036
30
0.000000000000000
11
-88.5504753495189
21
-3.43903759549444
31
0.000000000000000
  0
LINE
  5
F10788
330
F10789
100
AcDbEntity
8
Geo
100
AcDbLine
10
-88.5504753495189
20
-3.43903759549444
30
0.000000000000000
11
-88.4504753495189
21
-3.80635088811703
31
0.000000000000000
  0
LINE
  5
F1078A
330
F1078B
100
AcDbEntity
8
Geo
100
AcDbLine
10
-88.4504753495189
20
-3.80635088811703
30
0.000000000000000
11
-88.3504753495189
21
-4.16896924687512
31
0.000000000000000
  0
LINE
  5
F1078C
330
F1078D
100
AcDbEntity
8
Geo
100
AcDbLine
10
-88.3504753495189
20
-4.16896924687512
30
0.000000000000000
11
-88.2504753495189
21
-4.52635552570459
31
0.000000000000000
  0
LINE
  5
F1078E
330
F1078F
100
AcDbEntity
8
Geo
100
AcDbLine
10
-88.2504753495189
20
-4.52635552570459
30
0.000000000000000
11
-88.1504753495189
21
-4.87798032881399
31
0.000000000000000
  0
LINE
  5
F10790
330
F10791
100
AcDbEntity
8
Geo
100
AcDbLine
10
-88.1504753495189
20
-4.87798032881399
30
0.000000000000000
11
-88.0504753495189
21
-5.22332279487769
31
0.000000000000000
  0
LINE
  5
F10792
330
F10793
100
AcDbEntity
8
Geo
100
AcDbLine
10
-88.0504753495189
20
-5.22332279487769
30
0.000000000000000
11
-87.9504753495189
21
-5.56187136858712
31
0.000000000000000
  0
LINE
  5
F10794
330
F10795
100
AcDbEntity
8
Geo
100
AcDbLine
10
-87.9504753495189
20
-5.56187136858712
30
0.000000000000000
11
-87.8504753495189
21
-5.89312455841685
31
0.000000000000000
  0
LINE
  5
F10796
330
F10797
100
AcDbEntity
8
Geo
100
AcDbLine
10
-87.8504753495189
20
-5.89312455841685
30
0.000000000000000
11
-87.7504753495189
21
-6.21659167948337
31
0.000000000000000
  0
LINE
  5
F10798
330
F10799
100
AcDbEntity
8
Geo
100
AcDbLine
10
-87.7504753495189
20
-6.21659167948337
30
0.000000000000000
11
-87.6504753495189
21
-6.53179358039578
31
0.000000000000000
  0
LINE
  5
F1079A
330
F1079B
100
AcDbEntity
8
Geo
100
AcDbLine
10
-87.6504753495189
20
-6.53179358039578
30
0.000000000000000
11
-87.5504753495189
21
-6.83826335302223
31
0.000000000000000
  0
LINE
  5
F1079C
330
F1079D
100
AcDbEntity
8
Geo
100
AcDbLine
10
-87.5504753495189
20
-6.83826335302223
30
0.000000000000000
11
-87.4504753495189
21
-7.13554702412015
31
0.000000000000000
  0
LINE
  5
F1079E
330
F1079F
100
AcDbEntity
8
Geo
100
AcDbLine
10
-87.4504753495189
20
-7.13554702412015
30
0.000000000000000
11
-87.3504753495189
21
-7.42320422780627
31
0.000000000000000
  0
LINE
  5
F107A0
330
F107A1
100
AcDbEntity
8
Geo
100
AcDbLine
10
-87.3504753495189
20
-7.42320422780627
30
0.000000000000000
11
-87.2504753495189
21
-7.70080885786990
31
0.000000000000000
  0
LINE
  5
F107A2
330
F107A3
100
AcDbEntity
8
Geo
100
AcDbLine
10
-87.2504753495189
20
-7.70080885786990
30
0.000000000000000
11
-87.1504753495189
21
-7.96794969896352
31
0.000000000000000
  0
LINE
  5
F107A4
330
F107A5
100
AcDbEntity
8
Geo
100
AcDbLine
10
-87.1504753495189
20
-7.96794969896352
30
0.000000000000000
11
-87.0504753495189
21
-8.22423103573547
31
0.000000000000000
  0
LINE
  5
F107A6
330
F107A7
100
AcDbEntity
8
Geo
100
AcDbLine
10
-87.0504753495189
20
-8.22423103573547
30
0.000000000000000
11
-86.9504753495189
21
-8.46927323900255
31
0.000000000000000
  0
LINE
  5
F107A8
330
F107A9
100
AcDbEntity
8
Geo
100
AcDbLine
10
-86.9504753495189
20
-8.46927323900255
30
0.000000000000000
11
-86.8504753495189
21
-8.70271332809417
31
0.000000000000000
  0
LINE
  5
F107AA
330
F107AB
100
AcDbEntity
8
Geo
100
AcDbLine
10
-86.8504753495189
20
-8.70271332809417
30
0.000000000000000
11
-86.7504753495189
21
-8.92420550853516
31
0.000000000000000
  0
LINE
  5
F107AC
330
F107AD
100
AcDbEntity
8
Geo
100
AcDbLine
10
-86.7504753495189
20
-8.92420550853516
30
0.000000000000000
11
-86.6504753495189
21
-9.13342168427059
31
0.000000000000000
  0
LINE
  5
F107AE
330
F107AF
100
AcDbEntity
8
Geo
100
AcDbLine
10
-86.6504753495189
20
-9.13342168427059
30
0.000000000000000
11
-86.5504753495189
21
-9.33005194367400
31
0.000000000000000
  0
LINE
  5
F107B0
330
F107B1
100
AcDbEntity
8
Geo
100
AcDbLine
10
-86.5504753495189
20
-9.33005194367400
30
0.000000000000000
11
-86.4504753495189
21
-9.51380501861908
31
0.000000000000000
  0
LINE
  5
F107B2
330
F107B3
100
AcDbEntity
8
Geo
100
AcDbLine
10
-86.4504753495189
20
-9.51380501861908
30
0.000000000000000
11
-86.3504753495189
21
-9.68440871593473
31
0.000000000000000
  0
LINE
  5
F107B4
330
F107B5
100
AcDbEntity
8
Geo
100
AcDbLine
10
-86.3504753495189
20
-9.68440871593473
30
0.000000000000000
11
-86.2504753495189
21
-9.84161032060438
31
0.000000000000000
  0
LINE
  5
F107B6
330
F107B7
100
AcDbEntity
8
Geo
100
AcDbLine
10
-86.2504753495189
20
-9.84161032060438
30
0.000000000000000
11
-86.1504753495189
21
-9.98517697011246
31
0.000000000000000
  0
LINE
  5
F107B8
330
F107B9
100
AcDbEntity
8
Geo
100
AcDbLine
10
-86.1504753495189
20
-9.98517697011246
30
0.000000000000000
11
-86.0504753495189
21
-10.1148959993832
31
0.000000000000000
  0
LINE
  5
F107BA
330
F107BB
100
AcDbEntity
8
Geo
100
AcDbLine
10
-86.0504753495189
20
-10.1148959993832
30
0.000000000000000
11
-85.9504753495189
21
-10.2305752558014
31
0.000000000000000
  0
LINE
  5
F107BC
330
F107BD
100
AcDbEntity
8
Geo
100
AcDbLine
10
-85.9504753495189
20
-10.2305752558014
30
0.000000000000000
11
-85.8504753495189
21
-10.3320433838473
31
0.000000000000000
  0
LINE
  5
F107BE
330
F107BF
100
AcDbEntity
8
Geo
100
AcDbLine
10
-85.8504753495189
20
-10.3320433838473
30
0.000000000000000
11
-85.7504753495189
21
-10.4191500789257
31
0.000000000000000
  0
LINE
  5
F107C0
330
F107C1
100
AcDbEntity
8
Geo
100
AcDbLine
10
-85.7504753495189
20
-10.4191500789257
30
0.000000000000000
11
-85.6504753495189
21
-10.4917663100121
31
0.000000000000000
  0
LINE
  5
F107C2
330
F107C3
100
AcDbEntity
8
Geo
100
AcDbLine
10
-85.6504753495189
20
-10.4917663100121
30
0.000000000000000
11
-85.5504753495189
21
-10.5497845107854
31
0.000000000000000
  0
LINE
  5
F107C4
330
F107C5
100
AcDbEntity
8
Geo
100
AcDbLine
10
-85.5504753495189
20
-10.5497845107854
30
0.000000000000000
11
-85.4504753495189
21
-10.5931187389666
31
0.000000000000000
  0
LINE
  5
F107C6
330
F107C7
100
AcDbEntity
8
Geo
100
AcDbLine
10
-85.4504753495189
20
-10.5931187389666
30
0.000000000000000
11
-85.3504753495189
21
-10.6217048036246
31
0.000000000000000
  0
LINE
  5
F107C8
330
F107C9
100
AcDbEntity
8
Geo
100
AcDbLine
10
-85.3504753495189
20
-10.6217048036246
30
0.000000000000000
11
-85.2504753495189
21
-10.6355003602621
31
0.000000000000000
  0
LINE
  5
F107CA
330
F107CB
100
AcDbEntity
8
Geo
100
AcDbLine
10
-97.4504753495189
20
8.34575592612906
30
0.000000000000000
11
-97.3504753495189
21
8.77088040557238
31
0.000000000000000
  0
LINE
  5
F107CC
330
F107CD
100
AcDbEntity
8
Geo
100
AcDbLine
10
-97.4504753495189
20
-0.735360031405471
30
0.000000000000000
11
-97.3504753495189
21
-1.09771678662791
31
0.000000000000000
  0
LINE
  5
F107CE
330
F107CF
100
AcDbEntity
8
Geo
100
AcDbLine
10
-97.3504753495189
20
8.77088040557238
30
0.000000000000000
11
-97.2504753495189
21
8.90980338308317
31
0.000000000000000
  0
LINE
  5
F107D0
330
F107D1
100
AcDbEntity
8
Geo
100
AcDbLine
10
-97.3504753495189
20
-1.09771678662791
30
0.000000000000000
11
-97.2504753495189
21
-1.47201163214834
31
0.000000000000000
  0
LINE
  5
F107D2
330
F107D3
100
AcDbEntity
8
Geo
100
AcDbLine
10
-97.2504753495189
20
8.90980338308317
30
0.000000000000000
11
-97.1504753495189
21
8.98397905113010
31
0.000000000000000
  0
LINE
  5
F107D4
330
F107D5
100
AcDbEntity
8
Geo
100
AcDbLine
10
-97.2504753495189
20
-1.47201163214834
30
0.000000000000000
11
-97.1504753495189
21
-1.85190516654626
31
0.000000000000000
  0
LINE
  5
F107D6
330
F107D7
100
AcDbEntity
8
Geo
100
AcDbLine
10
-97.1504753495189
20
8.98397905113010
30
0.000000000000000
11
-97.0504753495188
21
9.01494014575744
31
0.000000000000000
  0
LINE
  5
F107D8
330
F107D9
100
AcDbEntity
8
Geo
100
AcDbLine
10
-97.1504753495189
20
-1.85190516654626
30
0.000000000000000
11
-97.0504753495188
21
-2.23438725471311
31
0.000000000000000
  0
LINE
  5
F107DA
330
F107DB
100
AcDbEntity
8
Geo
100
AcDbLine
10
-97.0504753495188
20
9.01494014575744
30
0.000000000000000
11
-96.9504753495189
21
9.01112508231301
31
0.000000000000000
  0
LINE
  5
F107DC
330
F107DD
100
AcDbEntity
8
Geo
100
AcDbLine
10
-97.0504753495188
20
-2.23438725471311
30
0.000000000000000
11
-96.9504753495189
21
-2.61723934648305
31
0.000000000000000
  0
LINE
  5
F107DE
330
F107DF
100
AcDbEntity
8
Geo
100
AcDbLine
10
-96.9504753495189
20
9.01112508231301
30
0.000000000000000
11
-96.8504753495189
21
8.97692333425457
31
0.000000000000000
  0
LINE
  5
F107E0
330
F107E1
100
AcDbEntity
8
Geo
100
AcDbLine
10
-96.9504753495189
20
-2.61723934648305
30
0.000000000000000
11
-96.8504753495189
21
-2.99858950482505
31
0.000000000000000
  0
LINE
  5
F107E2
330
F107E3
100
AcDbEntity
8
Geo
100
AcDbLine
10
-96.8504753495189
20
8.97692333425457
30
0.000000000000000
11
-96.7504753495189
21
8.91499695654004
31
0.000000000000000
  0
LINE
  5
F107E4
330
F107E5
100
AcDbEntity
8
Geo
100
AcDbLine
10
-96.8504753495189
20
-2.99858950482505
30
0.000000000000000
11
-96.7504753495189
21
-3.37674599798034
31
0.000000000000000
  0
LINE
  5
F107E6
330
F107E7
100
AcDbEntity
8
Geo
100
AcDbLine
10
-96.7504753495189
20
8.91499695654004
30
0.000000000000000
11
-96.6504753495189
21
8.82713143460576
31
0.000000000000000
  0
LINE
  5
F107E8
330
F107E9
100
AcDbEntity
8
Geo
100
AcDbLine
10
-96.7504753495189
20
-3.37674599798034
30
0.000000000000000
11
-96.6504753495189
21
-3.75011440943935
31
0.000000000000000
  0
LINE
  5
F107EA
330
F107EB
100
AcDbEntity
8
Geo
100
AcDbLine
10
-96.6504753495189
20
8.82713143460576
30
0.000000000000000
11
-96.5504753495188
21
8.71461215605325
31
0.000000000000000
  0
LINE
  5
F107EC
330
F107ED
100
AcDbEntity
8
Geo
100
AcDbLine
10
-96.6504753495189
20
-3.75011440943935
30
0.000000000000000
11
-96.5504753495188
21
-4.11714648225405
31
0.000000000000000
  0
LINE
  5
F107EE
330
F107EF
100
AcDbEntity
8
Geo
100
AcDbLine
10
-96.5504753495188
20
8.71461215605325
30
0.000000000000000
11
-96.4504753495189
21
8.57840932885069
31
0.000000000000000
  0
LINE
  5
F107F0
330
F107F1
100
AcDbEntity
8
Geo
100
AcDbLine
10
-96.5504753495188
20
-4.11714648225405
30
0.000000000000000
11
-96.4504753495189
21
-4.47630107985136
31
0.000000000000000
  0
LINE
  5
F107F2
330
F107F3
100
AcDbEntity
8
Geo
100
AcDbLine
10
-96.4504753495189
20
8.57840932885069
30
0.000000000000000
11
-96.3504753495189
21
8.42384110299326
31
0.000000000000000
  0
LINE
  5
F107F4
330
F107F5
100
AcDbEntity
8
Geo
100
AcDbLine
10
-96.4504753495189
20
-4.47630107985136
30
0.000000000000000
11
-96.3504753495189
21
-4.82806646486769
31
0.000000000000000
  0
LINE
  5
F107F6
330
F107F7
100
AcDbEntity
8
Geo
100
AcDbLine
10
-96.3504753495189
20
8.42384110299326
30
0.000000000000000
11
-96.2504753495189
21
8.25585124482934
31
0.000000000000000
  0
LINE
  5
F107F8
330
F107F9
100
AcDbEntity
8
Geo
100
AcDbLine
10
-96.3504753495189
20
-4.82806646486769
30
0.000000000000000
11
-96.2504753495189
21
-5.17362345017470
31
0.000000000000000
  0
LINE
  5
F107FA
330
F107FB
100
AcDbEntity
8
Geo
100
AcDbLine
10
-96.2504753495189
20
8.25585124482934
30
0.000000000000000
11
-96.1504753495189
21
8.07468859749921
31
0.000000000000000
  0
LINE
  5
F107FC
330
F107FD
100
AcDbEntity
8
Geo
100
AcDbLine
10
-96.2504753495189
20
-5.17362345017470
30
0.000000000000000
11
-96.1504753495189
21
-5.51246016269673
31
0.000000000000000
  0
LINE
  5
F107FE
330
F107FF
100
AcDbEntity
8
Geo
100
AcDbLine
10
-96.1504753495189
20
8.07468859749921
30
0.000000000000000
11
-96.0504753495188
21
7.88062151697722
31
0.000000000000000
  0
LINE
  5
F10800
330
F10801
100
AcDbEntity
8
Geo
100
AcDbLine
10
-96.1504753495189
20
-5.51246016269673
30
0.000000000000000
11
-96.0504753495188
21
-5.84407468408877
31
0.000000000000000
  0
LINE
  5
F10802
330
F10803
100
AcDbEntity
8
Geo
100
AcDbLine
10
-96.0504753495188
20
7.88062151697722
30
0.000000000000000
11
-95.9504753495189
21
7.67393747455642
31
0.000000000000000
  0
LINE
  5
F10804
330
F10805
100
AcDbEntity
8
Geo
100
AcDbLine
10
-96.0504753495188
20
-5.84407468408877
30
0.000000000000000
11
-95.9504753495189
21
-6.16797579422734
31
0.000000000000000
  0
LINE
  5
F10806
330
F10807
100
AcDbEntity
8
Geo
100
AcDbLine
10
-95.9504753495189
20
7.67393747455642
30
0.000000000000000
11
-95.8504753495189
21
7.45494263101773
31
0.000000000000000
  0
LINE
  5
F10808
330
F10809
100
AcDbEntity
8
Geo
100
AcDbLine
10
-95.9504753495189
20
-6.16797579422734
30
0.000000000000000
11
-95.8504753495189
21
-6.48368369885417
31
0.000000000000000
  0
LINE
  5
F1080A
330
F1080B
100
AcDbEntity
8
Geo
100
AcDbLine
10
-95.8504753495189
20
7.45494263101773
30
0.000000000000000
11
-95.7504753495189
21
7.22396138311445
31
0.000000000000000
  0
LINE
  5
F1080C
330
F1080D
100
AcDbEntity
8
Geo
100
AcDbLine
10
-95.8504753495189
20
-6.48368369885417
30
0.000000000000000
11
-95.7504753495189
21
-6.79073074029480
31
0.000000000000000
  0
LINE
  5
F1080E
330
F1080F
100
AcDbEntity
8
Geo
100
AcDbLine
10
-95.7504753495189
20
7.22396138311445
30
0.000000000000000
11
-95.6504753495189
21
6.98133588304378
31
0.000000000000000
  0
LINE
  5
F10810
330
F10811
100
AcDbEntity
8
Geo
100
AcDbLine
10
-95.7504753495189
20
-6.79073074029480
30
0.000000000000000
11
-95.6504753495189
21
-7.08866209019920
31
0.000000000000000
  0
LINE
  5
F10812
330
F10813
100
AcDbEntity
8
Geo
100
AcDbLine
10
-95.6504753495189
20
6.98133588304378
30
0.000000000000000
11
-95.5504753495188
21
6.72742553161725
31
0.000000000000000
  0
LINE
  5
F10814
330
F10815
100
AcDbEntity
8
Geo
100
AcDbLine
10
-95.6504753495189
20
-7.08866209019920
30
0.000000000000000
11
-95.5504753495188
21
-7.37703642327837
31
0.000000000000000
  0
LINE
  5
F10816
330
F10817
100
AcDbEntity
8
Geo
100
AcDbLine
10
-95.5504753495188
20
6.72742553161725
30
0.000000000000000
11
-95.4504753495189
21
6.46260644588082
31
0.000000000000000
  0
LINE
  5
F10818
330
F10819
100
AcDbEntity
8
Geo
100
AcDbLine
10
-95.5504753495188
20
-7.37703642327837
30
0.000000000000000
11
-95.4504753495189
21
-7.65542657103888
31
0.000000000000000
  0
LINE
  5
F1081A
330
F1081B
100
AcDbEntity
8
Geo
100
AcDbLine
10
-95.4504753495189
20
6.46260644588082
30
0.000000000000000
11
-95.3504753495189
21
6.18727090197320
31
0.000000000000000
  0
LINE
  5
F1081C
330
F1081D
100
AcDbEntity
8
Geo
100
AcDbLine
10
-95.4504753495189
20
-7.65542657103888
30
0.000000000000000
11
-95.3504753495189
21
-7.92342015454694
31
0.000000000000000
  0
LINE
  5
F1081E
330
F1081F
100
AcDbEntity
8
Geo
100
AcDbLine
10
-95.3504753495189
20
6.18727090197320
30
0.000000000000000
11
-95.2504753495189
21
5.90182675404779
31
0.000000000000000
  0
LINE
  5
F10820
330
F10821
100
AcDbEntity
8
Geo
100
AcDbLine
10
-95.3504753495189
20
-7.92342015454694
30
0.000000000000000
11
-95.2504753495189
21
-8.18062019528476
31
0.000000000000000
  0
LINE
  5
F10822
330
F10823
100
AcDbEntity
8
Geo
100
AcDbLine
10
-95.2504753495189
20
5.90182675404779
30
0.000000000000000
11
-95.1504753495189
21
5.60669683011888
31
0.000000000000000
  0
LINE
  5
F10824
330
F10825
100
AcDbEntity
8
Geo
100
AcDbLine
10
-95.2504753495189
20
-8.18062019528476
30
0.000000000000000
11
-95.1504753495189
21
-8.42664570319424
31
0.000000000000000
  0
LINE
  5
F10826
330
F10827
100
AcDbEntity
8
Geo
100
AcDbLine
10
-95.1504753495189
20
5.60669683011888
30
0.000000000000000
11
-95.0504753495188
21
5.30231830572713
31
0.000000000000000
  0
LINE
  5
F10828
330
F10829
100
AcDbEntity
8
Geo
100
AcDbLine
10
-95.1504753495189
20
-8.42664570319424
30
0.000000000000000
11
-95.0504753495188
21
-8.66113224103703
31
0.000000000000000
  0
LINE
  5
F1082A
330
F1082B
100
AcDbEntity
8
Geo
100
AcDbLine
10
-95.0504753495188
20
5.30231830572713
30
0.000000000000000
11
-94.9504753495189
21
4.98914205635201
31
0.000000000000000
  0
LINE
  5
F1082C
330
F1082D
100
AcDbEntity
8
Geo
100
AcDbLine
10
-95.0504753495188
20
-8.66113224103703
30
0.000000000000000
11
-94.9504753495189
21
-8.88373246423488
31
0.000000000000000
  0
LINE
  5
F1082E
330
F1082F
100
AcDbEntity
8
Geo
100
AcDbLine
10
-94.9504753495189
20
4.98914205635201
30
0.000000000000000
11
-94.8504753495189
21
4.66763198953063
31
0.000000000000000
  0
LINE
  5
F10830
330
F10831
100
AcDbEntity
8
Geo
100
AcDbLine
10
-94.9504753495189
20
-8.88373246423488
30
0.000000000000000
11
-94.8504753495189
21
-9.09411663539068
31
0.000000000000000
  0
LINE
  5
F10832
330
F10833
100
AcDbEntity
8
Geo
100
AcDbLine
10
-94.8504753495189
20
4.66763198953063
30
0.000000000000000
11
-94.7504753495189
21
4.33826435767215
31
0.000000000000000
  0
LINE
  5
F10834
330
F10835
100
AcDbEntity
8
Geo
100
AcDbLine
10
-94.8504753495189
20
-9.09411663539068
30
0.000000000000000
11
-94.7504753495189
21
-9.29197311272801
31
0.000000000000000
  0
LINE
  5
F10836
330
F10837
100
AcDbEntity
8
Geo
100
AcDbLine
10
-94.7504753495189
20
4.33826435767215
30
0.000000000000000
11
-94.6504753495189
21
4.00152705258575
31
0.000000000000000
  0
LINE
  5
F10838
330
F10839
100
AcDbEntity
8
Geo
100
AcDbLine
10
-94.7504753495189
20
-9.29197311272801
30
0.000000000000000
11
-94.6504753495189
21
-9.47700881172566
31
0.000000000000000
  0
LINE
  5
F1083A
330
F1083B
100
AcDbEntity
8
Geo
100
AcDbLine
10
-94.6504753495189
20
4.00152705258575
30
0.000000000000000
11
-94.5504753495188
21
3.65791888276719
31
0.000000000000000
  0
LINE
  5
F1083C
330
F1083D
100
AcDbEntity
8
Geo
100
AcDbLine
10
-94.6504753495189
20
-9.47700881172566
30
0.000000000000000
11
-94.5504753495188
21
-9.64894963926332
31
0.000000000000000
  0
LINE
  5
F1083E
330
F1083F
100
AcDbEntity
8
Geo
100
AcDbLine
10
-94.5504753495188
20
3.65791888276719
30
0.000000000000000
11
-94.4504753495189
21
3.30794883451445
31
0.000000000000000
  0
LINE
  5
F10840
330
F10841
100
AcDbEntity
8
Geo
100
AcDbLine
10
-94.5504753495188
20
-9.64894963926332
30
0.000000000000000
11
-94.4504753495189
21
-9.80754089963532
31
0.000000000000000
  0
LINE
  5
F10842
330
F10843
100
AcDbEntity
8
Geo
100
AcDbLine
10
-94.4504753495189
20
3.30794883451445
30
0.000000000000000
11
-94.3504753495189
21
2.95213531796712
31
0.000000000000000
  0
LINE
  5
F10844
330
F10845
100
AcDbEntity
8
Geo
100
AcDbLine
10
-94.4504753495189
20
-9.80754089963532
30
0.000000000000000
11
-94.3504753495189
21
-9.95254767183104
31
0.000000000000000
  0
LINE
  5
F10846
330
F10847
100
AcDbEntity
8
Geo
100
AcDbLine
10
-94.3504753495189
20
2.95213531796712
30
0.000000000000000
11
-94.2504753495189
21
2.59100539918611
31
0.000000000000000
  0
LINE
  5
F10848
330
F10849
100
AcDbEntity
8
Geo
100
AcDbLine
10
-94.3504753495189
20
-9.95254767183104
30
0.000000000000000
11
-94.2504753495189
21
-10.0837551575231
31
0.000000000000000
  0
LINE
  5
F1084A
330
F1084B
100
AcDbEntity
8
Geo
100
AcDbLine
10
-94.2504753495189
20
2.59100539918611
30
0.000000000000000
11
-94.1504753495189
21
2.22509401941148
31
0.000000000000000
  0
LINE
  5
F1084C
330
F1084D
100
AcDbEntity
8
Geo
100
AcDbLine
10
-94.2504753495189
20
-10.0837551575231
30
0.000000000000000
11
-94.1504753495189
21
-10.2009689992476
31
0.000000000000000
  0
LINE
  5
F1084E
330
F1084F
100
AcDbEntity
8
Geo
100
AcDbLine
10
-94.1504753495189
20
2.22509401941148
30
0.000000000000000
11
-94.0504753495188
21
1.85494320265474
31
0.000000000000000
  0
LINE
  5
F10850
330
F10851
100
AcDbEntity
8
Geo
100
AcDbLine
10
-94.1504753495189
20
-10.2009689992476
30
0.000000000000000
11
-94.0504753495188
21
-10.3040155683061
31
0.000000000000000
  0
LINE
  5
F10852
330
F10853
100
AcDbEntity
8
Geo
100
AcDbLine
10
-94.0504753495188
20
1.85494320265474
30
0.000000000000000
11
-93.9504753495189
21
1.48110125279941
31
0.000000000000000
  0
LINE
  5
F10854
330
F10855
100
AcDbEntity
8
Geo
100
AcDbLine
10
-94.0504753495188
20
-10.3040155683061
30
0.000000000000000
11
-93.9504753495189
21
-10.3927422219608
31
0.000000000000000
  0
LINE
  5
F10856
330
F10857
100
AcDbEntity
8
Geo
100
AcDbLine
10
-93.9504753495189
20
1.48110125279941
30
0.000000000000000
11
-93.8504753495188
21
1.10412194139927
31
0.000000000000000
  0
LINE
  5
F10858
330
F10859
100
AcDbEntity
8
Geo
100
AcDbLine
10
-93.9504753495189
20
-10.3927422219608
30
0.000000000000000
11
-93.8504753495188
21
-10.4670175295446
31
0.000000000000000
  0
LINE
  5
F1085A
330
F1085B
100
AcDbEntity
8
Geo
100
AcDbLine
10
-93.8504753495188
20
1.10412194139927
30
0.000000000000000
11
-93.7504753495189
21
0.724563687377363
31
0.000000000000000
  0
LINE
  5
F1085C
330
F1085D
100
AcDbEntity
8
Geo
100
AcDbLine
10
-93.8504753495188
20
-10.4670175295446
30
0.000000000000000
11
-93.7504753495189
21
-10.5267314671492
31
0.000000000000000
  0
LINE
  5
F1085E
330
F1085F
100
AcDbEntity
8
Geo
100
AcDbLine
10
-93.7504753495189
20
0.724563687377363
30
0.000000000000000
11
-93.6504753495189
21
0.342988729840778
31
0.000000000000000
  0
LINE
  5
F10860
330
F10861
100
AcDbEntity
8
Geo
100
AcDbLine
10
-93.7504753495189
20
-10.5267314671492
30
0.000000000000000
11
-93.6504753495189
21
-10.5717955806027
31
0.000000000000000
  0
LINE
  5
F10862
330
F10863
100
AcDbEntity
8
Geo
100
AcDbLine
10
-93.6504753495189
20
0.342988729840778
30
0.000000000000000
11
-93.5504753495188
21
-0.0400377047633085
31
0.000000000000000
  0
LINE
  5
F10864
330
F10865
100
AcDbEntity
8
Geo
100
AcDbLine
10
-93.6504753495189
20
-10.5717955806027
30
0.000000000000000
11
-93.5504753495188
21
-10.6021431164975
31
0.000000000000000
  0
LINE
  5
F10866
330
F10867
100
AcDbEntity
8
Geo
100
AcDbLine
10
-93.5504753495188
20
-0.0400377047633085
30
0.000000000000000
11
-93.4504753495189
21
-0.423948239916779
31
0.000000000000000
  0
LINE
  5
F10868
330
F10869
100
AcDbEntity
8
Geo
100
AcDbLine
10
-93.5504753495188
20
-10.6021431164975
30
0.000000000000000
11
-93.4504753495189
21
-10.6177291210712
31
0.000000000000000
  0
LINE
  5
F1086A
330
F1086B
100
AcDbEntity
8
Geo
100
AcDbLine
10
-93.4504753495189
20
-0.423948239916779
30
0.000000000000000
11
-93.3504753495189
21
-0.808174189484629
31
0.000000000000000
  0
LINE
  5
F1086C
330
F1086D
100
AcDbEntity
8
Geo
100
AcDbLine
10
-93.3504753495189
20
-0.808174189484629
30
0.000000000000000
11
-93.2504753495189
21
-1.19214640010892
31
0.000000000000000
  0
LINE
  5
F1086E
330
F1086F
100
AcDbEntity
8
Geo
100
AcDbLine
10
-93.3504753495189
20
9.34477199458891
30
0.000000000000000
11
-93.2504753495189
21
9.33078757437594
31
0.000000000000000
  0
LINE
  5
F10870
330
F10871
100
AcDbEntity
8
Geo
100
AcDbLine
10
-93.2504753495189
20
-1.19214640010892
30
0.000000000000000
11
-93.1504753495189
21
-1.57529609429486
31
0.000000000000000
  0
LINE
  5
F10872
330
F10873
100
AcDbEntity
8
Geo
100
AcDbLine
10
-93.2504753495189
20
9.33078757437594
30
0.000000000000000
11
-93.1504753495189
21
9.30203806332579
31
0.000000000000000
  0
LINE
  5
F10874
330
F10875
100
AcDbEntity
8
Geo
100
AcDbLine
10
-93.1504753495189
20
-1.57529609429486
30
0.000000000000000
11
-93.0504753495188
21
-1.95705571294008
31
0.000000000000000
  0
LINE
  5
F10876
330
F10877
100
AcDbEntity
8
Geo
100
AcDbLine
10
-93.1504753495189
20
9.30203806332579
30
0.000000000000000
11
-93.0504753495188
21
9.25856604804869
31
0.000000000000000
  0
LINE
  5
F10878
330
F10879
100
AcDbEntity
8
Geo
100
AcDbLine
10
-93.0504753495188
20
-1.95705571294008
30
0.000000000000000
11
-92.9504753495189
21
-2.33685975605918
31
0.000000000000000
  0
LINE
  5
F1087A
330
F1087B
100
AcDbEntity
8
Geo
100
AcDbLine
10
-93.0504753495188
20
9.25856604804869
30
0.000000000000000
11
-92.9504753495189
21
9.20043592357964
31
0.000000000000000
  0
LINE
  5
F1087C
330
F1087D
100
AcDbEntity
8
Geo
100
AcDbLine
10
-92.9504753495189
20
-2.33685975605918
30
0.000000000000000
11
-92.8504753495189
21
-2.71414562045800
31
0.000000000000000
  0
LINE
  5
F1087E
330
F1087F
100
AcDbEntity
8
Geo
100
AcDbLine
10
-92.9504753495189
20
9.20043592357964
30
0.000000000000000
11
-92.8504753495189
21
9.12773379799015
31
0.000000000000000
  0
LINE
  5
F10880
330
F10881
100
AcDbEntity
8
Geo
100
AcDbLine
10
-92.8504753495189
20
-2.71414562045800
30
0.000000000000000
11
-92.7504753495189
21
-3.08835443311700
31
0.000000000000000
  0
LINE
  5
F10882
330
F10883
100
AcDbEntity
8
Geo
100
AcDbLine
10
-92.8504753495189
20
9.12773379799015
30
0.000000000000000
11
-92.7504753495189
21
9.04056736483644
31
0.000000000000000
  0
LINE
  5
F10884
330
F10885
100
AcDbEntity
8
Geo
100
AcDbLine
10
-92.7504753495189
20
-3.08835443311700
30
0.000000000000000
11
-92.6504753495189
21
-3.45893187904904
31
0.000000000000000
  0
LINE
  5
F10886
330
F10887
100
AcDbEntity
8
Geo
100
AcDbLine
10
-92.7504753495189
20
9.04056736483644
30
0.000000000000000
11
-92.6504753495189
21
8.93906574363320
31
0.000000000000000
  0
LINE
  5
F10888
330
F10889
100
AcDbEntity
8
Geo
100
AcDbLine
10
-92.6504753495189
20
-3.45893187904904
30
0.000000000000000
11
-92.5504753495188
21
-3.82532902240539
31
0.000000000000000
  0
LINE
  5
F1088A
330
F1088B
100
AcDbEntity
8
Geo
100
AcDbLine
10
-92.6504753495189
20
8.93906574363320
30
0.000000000000000
11
-92.5504753495188
21
8.82337928858893
31
0.000000000000000
  0
LINE
  5
F1088C
330
F1088D
100
AcDbEntity
8
Geo
100
AcDbLine
10
-92.5504753495188
20
-3.82532902240539
30
0.000000000000000
11
-92.4504753495189
21
-4.18700311961363
31
0.000000000000000
  0
LINE
  5
F1088E
330
F1088F
100
AcDbEntity
8
Geo
100
AcDbLine
10
-92.5504753495188
20
8.82337928858893
30
0.000000000000000
11
-92.4504753495189
21
8.69367936588657
31
0.000000000000000
  0
LINE
  5
F10890
330
F10891
100
AcDbEntity
8
Geo
100
AcDbLine
10
-92.4504753495189
20
-4.18700311961363
30
0.000000000000000
11
-92.3504753495189
21
-4.54341842334299
31
0.000000000000000
  0
LINE
  5
F10892
330
F10893
100
AcDbEntity
8
Geo
100
AcDbLine
10
-92.4504753495189
20
8.69367936588657
30
0.000000000000000
11
-92.3504753495189
21
8.55015809983895
31
0.000000000000000
  0
LINE
  5
F10894
330
F10895
100
AcDbEntity
8
Geo
100
AcDbLine
10
-92.3504753495189
20
-4.54341842334299
30
0.000000000000000
11
-92.2504753495189
21
-4.89404697610601
31
0.000000000000000
  0
LINE
  5
F10896
330
F10897
100
AcDbEntity
8
Geo
100
AcDbLine
10
-92.3504753495189
20
8.55015809983895
30
0.000000000000000
11
-92.2504753495189
21
8.39302808829531
31
0.000000000000000
  0
LINE
  5
F10898
330
F10899
100
AcDbEntity
8
Geo
100
AcDbLine
10
-92.2504753495189
20
-4.89404697610601
30
0.000000000000000
11
-92.1504753495189
21
-5.23836939232135
31
0.000000000000000
  0
LINE
  5
F1089A
330
F1089B
100
AcDbEntity
8
Geo
100
AcDbLine
10
-92.2504753495189
20
8.39302808829531
30
0.000000000000000
11
-92.1504753495189
21
8.22252208772045
31
0.000000000000000
  0
LINE
  5
F1089C
330
F1089D
100
AcDbEntity
8
Geo
100
AcDbLine
10
-92.1504753495189
20
-5.23836939232135
30
0.000000000000000
11
-92.0504753495189
21
-5.57587562767880
31
0.000000000000000
  0
LINE
  5
F1089E
330
F1089F
100
AcDbEntity
8
Geo
100
AcDbLine
10
-92.1504753495189
20
8.22252208772045
30
0.000000000000000
11
-92.0504753495189
21
8.03889266841288
31
0.000000000000000
  0
LINE
  5
F108A0
330
F108A1
100
AcDbEntity
8
Geo
100
AcDbLine
10
-92.0504753495189
20
-5.57587562767880
30
0.000000000000000
11
-91.9504753495189
21
-5.90606573466730
31
0.000000000000000
  0
LINE
  5
F108A2
330
F108A3
100
AcDbEntity
8
Geo
100
AcDbLine
10
-92.0504753495189
20
8.03889266841288
30
0.000000000000000
11
-91.9504753495189
21
7.84241184037278
31
0.000000000000000
  0
LINE
  5
F108A4
330
F108A5
100
AcDbEntity
8
Geo
100
AcDbLine
10
-91.9504753495189
20
-5.90606573466730
30
0.000000000000000
11
-91.8504753495189
21
-6.22845060314640
31
0.000000000000000
  0
LINE
  5
F108A6
330
F108A7
100
AcDbEntity
8
Geo
100
AcDbLine
10
-91.9504753495189
20
7.84241184037278
30
0.000000000000000
11
-91.8504753495189
21
7.63337065037399
31
0.000000000000000
  0
LINE
  5
F108A8
330
F108A9
100
AcDbEntity
8
Geo
100
AcDbLine
10
-91.8504753495189
20
-6.22845060314640
30
0.000000000000000
11
-91.7504753495189
21
-6.54255268486451
31
0.000000000000000
  0
LINE
  5
F108AA
330
F108AB
100
AcDbEntity
8
Geo
100
AcDbLine
10
-91.8504753495189
20
7.63337065037399
30
0.000000000000000
11
-91.7504753495189
21
7.41207875083685
31
0.000000000000000
  0
LINE
  5
F108AC
330
F108AD
100
AcDbEntity
8
Geo
100
AcDbLine
10
-91.7504753495189
20
-6.54255268486451
30
0.000000000000000
11
-91.6504753495189
21
-6.84790670085034
31
0.000000000000000
  0
LINE
  5
F108AE
330
F108AF
100
AcDbEntity
8
Geo
100
AcDbLine
10
-91.7504753495189
20
7.41207875083685
30
0.000000000000000
11
-91.6504753495189
21
7.17886394114046
31
0.000000000000000
  0
LINE
  5
F108B0
330
F108B1
100
AcDbEntity
8
Geo
100
AcDbLine
10
-91.6504753495189
20
-6.84790670085034
30
0.000000000000000
11
-91.5504753495189
21
-7.14406033063010
31
0.000000000000000
  0
LINE
  5
F108B2
330
F108B3
100
AcDbEntity
8
Geo
100
AcDbLine
10
-91.6504753495189
20
7.17886394114046
30
0.000000000000000
11
-91.5504753495189
21
6.93407168205397
31
0.000000000000000
  0
LINE
  5
F108B4
330
F108B5
100
AcDbEntity
8
Geo
100
AcDbLine
10
-91.5504753495189
20
-7.14406033063010
30
0.000000000000000
11
-91.4504753495189
21
-7.43057488224911
31
0.000000000000000
  0
LINE
  5
F108B6
330
F108B7
100
AcDbEntity
8
Geo
100
AcDbLine
10
-91.5504753495189
20
6.93407168205397
30
0.000000000000000
11
-91.4504753495189
21
6.67806458400597
31
0.000000000000000
  0
LINE
  5
F108B8
330
F108B9
100
AcDbEntity
8
Geo
100
AcDbLine
10
-91.4504753495189
20
-7.43057488224911
30
0.000000000000000
11
-91.3504753495189
21
-7.70702594210558
31
0.000000000000000
  0
LINE
  5
F108BA
330
F108BB
100
AcDbEntity
8
Geo
100
AcDbLine
10
-91.4504753495189
20
6.67806458400597
30
0.000000000000000
11
-91.3504753495189
21
6.41122186995024
31
0.000000000000000
  0
LINE
  5
F108BC
330
F108BD
100
AcDbEntity
8
Geo
100
AcDbLine
10
-91.3504753495189
20
-7.70702594210558
30
0.000000000000000
11
-91.2504753495189
21
-7.97300400363393
31
0.000000000000000
  0
LINE
  5
F108BE
330
F108BF
100
AcDbEntity
8
Geo
100
AcDbLine
10
-91.3504753495189
20
6.41122186995024
30
0.000000000000000
11
-91.2504753495189
21
6.13393881362327
31
0.000000000000000
  0
LINE
  5
F108C0
330
F108C1
100
AcDbEntity
8
Geo
100
AcDbLine
10
-91.2504753495189
20
-7.97300400363393
30
0.000000000000000
11
-91.1504753495189
21
-8.22811507390622
31
0.000000000000000
  0
LINE
  5
F108C2
330
F108C3
100
AcDbEntity
8
Geo
100
AcDbLine
10
-91.2504753495189
20
6.13393881362327
30
0.000000000000000
11
-91.1504753495189
21
5.84662615402588
31
0.000000000000000
  0
LINE
  5
F108C4
330
F108C5
100
AcDbEntity
8
Geo
100
AcDbLine
10
-91.1504753495189
20
-8.22811507390622
30
0.000000000000000
11
-91.0504753495189
21
-8.47198125725336
31
0.000000000000000
  0
LINE
  5
F108C6
330
F108C7
100
AcDbEntity
8
Geo
100
AcDbLine
10
-91.1504753495189
20
5.84662615402588
30
0.000000000000000
11
-91.0504753495189
21
5.54970948699605
31
0.000000000000000
  0
LINE
  5
F108C8
330
F108C9
100
AcDbEntity
8
Geo
100
AcDbLine
10
-91.0504753495189
20
-8.47198125725336
30
0.000000000000000
11
-90.9504753495189
21
-8.70424131504143
31
0.000000000000000
  0
LINE
  5
F108CA
330
F108CB
100
AcDbEntity
8
Geo
100
AcDbLine
10
-91.0504753495189
20
5.54970948699605
30
0.000000000000000
11
-90.9504753495189
21
5.24362863477449
31
0.000000000000000
  0
LINE
  5
F108CC
330
F108CD
100
AcDbEntity
8
Geo
100
AcDbLine
10
-90.9504753495189
20
-8.70424131504143
30
0.000000000000000
11
-90.8504753495189
21
-8.92455120077395
31
0.000000000000000
  0
LINE
  5
F108CE
330
F108CF
100
AcDbEntity
8
Geo
100
AcDbLine
10
-90.9504753495189
20
5.24362863477449
30
0.000000000000000
11
-90.8504753495189
21
4.92883699449647
31
0.000000000000000
  0
LINE
  5
F108D0
330
F108D1
100
AcDbEntity
8
Geo
100
AcDbLine
10
-90.8504753495189
20
-8.92455120077395
30
0.000000000000000
11
-90.7504753495189
21
-9.13258456972748
31
0.000000000000000
  0
LINE
  5
F108D2
330
F108D3
100
AcDbEntity
8
Geo
100
AcDbLine
10
-90.8504753495189
20
4.92883699449647
30
0.000000000000000
11
-90.7504753495189
21
4.60580086657539
31
0.000000000000000
  0
LINE
  5
F108D4
330
F108D5
100
AcDbEntity
8
Geo
100
AcDbLine
10
-90.7504753495189
20
-9.13258456972748
30
0.000000000000000
11
-90.6504753495189
21
-9.32803326236558
31
0.000000000000000
  0
LINE
  5
F108D6
330
F108D7
100
AcDbEntity
8
Geo
100
AcDbLine
10
-90.7504753495189
20
4.60580086657539
30
0.000000000000000
11
-90.6504753495189
21
4.27499876397257
31
0.000000000000000
  0
LINE
  5
F108D8
330
F108D9
100
AcDbEntity
8
Geo
100
AcDbLine
10
-90.6504753495189
20
-9.32803326236558
30
0.000000000000000
11
-90.5504753495189
21
-9.51060776081514
31
0.000000000000000
  0
LINE
  5
F108DA
330
F108DB
100
AcDbEntity
8
Geo
100
AcDbLine
10
-90.6504753495189
20
4.27499876397257
30
0.000000000000000
11
-90.5504753495189
21
3.93692070337666
31
0.000000000000000
  0
LINE
  5
F108DC
330
F108DD
100
AcDbEntity
8
Geo
100
AcDbLine
10
-90.5504753495189
20
-9.51060776081514
30
0.000000000000000
11
-90.4504753495189
21
-9.68003761772874
31
0.000000000000000
  0
LINE
  5
F108DE
330
F108DF
100
AcDbEntity
8
Geo
100
AcDbLine
10
-90.5504753495189
20
3.93692070337666
30
0.000000000000000
11
-90.4504753495189
21
3.59206747934267
31
0.000000000000000
  0
LINE
  5
F108E0
330
F108E1
100
AcDbEntity
8
Geo
100
AcDbLine
10
-90.4504753495189
20
-9.68003761772874
30
0.000000000000000
11
-90.3504753495189
21
-9.83607185689797
31
0.000000000000000
  0
LINE
  5
F108E2
330
F108E3
100
AcDbEntity
8
Geo
100
AcDbLine
10
-90.4504753495189
20
3.59206747934267
30
0.000000000000000
11
-90.3504753495189
21
3.24094992246566
31
0.000000000000000
  0
LINE
  5
F108E4
330
F108E5
100
AcDbEntity
8
Geo
100
AcDbLine
10
-90.3504753495189
20
-9.83607185689797
30
0.000000000000000
11
-90.2504753495189
21
-9.97847934502411
31
0.000000000000000
  0
LINE
  5
F108E6
330
F108E7
100
AcDbEntity
8
Geo
100
AcDbLine
10
-90.3504753495189
20
3.24094992246566
30
0.000000000000000
11
-90.2504753495189
21
2.88408814268811
31
0.000000000000000
  0
LINE
  5
F108E8
330
F108E9
100
AcDbEntity
8
Geo
100
AcDbLine
10
-90.2504753495189
20
-9.97847934502411
30
0.000000000000000
11
-90.1504753495189
21
-10.1070491340956
31
0.000000000000000
  0
LINE
  5
F108EA
330
F108EB
100
AcDbEntity
8
Geo
100
AcDbLine
10
-90.2504753495189
20
2.88408814268811
30
0.000000000000000
11
-90.1504753495189
21
2.52201075886178
31
0.000000000000000
  0
LINE
  5
F108EC
330
F108ED
100
AcDbEntity
8
Geo
100
AcDbLine
10
-90.1504753495189
20
-10.1070491340956
30
0.000000000000000
11
-90.0504753495189
21
-10.2215907738649
31
0.000000000000000
  0
LINE
  5
F108EE
330
F108EF
100
AcDbEntity
8
Geo
100
AcDbLine
10
-90.1504753495189
20
2.52201075886178
30
0.000000000000000
11
-90.0504753495189
21
2.15525411570538
31
0.000000000000000
  0
LINE
  5
F108F0
330
F108F1
100
AcDbEntity
8
Geo
100
AcDbLine
10
-90.0504753495189
20
-10.2215907738649
30
0.000000000000000
11
-89.9504753495189
21
-10.3219345939624
31
0.000000000000000
  0
LINE
  5
F108F2
330
F108F3
100
AcDbEntity
8
Geo
100
AcDbLine
10
-90.0504753495189
20
2.15525411570538
30
0.000000000000000
11
-89.9504753495189
21
1.78436148931785
31
0.000000000000000
  0
LINE
  5
F108F4
330
F108F5
100
AcDbEntity
8
Geo
100
AcDbLine
10
-89.9504753495189
20
-10.3219345939624
30
0.000000000000000
11
-89.8504753495189
21
-10.4079319552287
31
0.000000000000000
  0
LINE
  5
F108F6
330
F108F7
100
AcDbEntity
8
Geo
100
AcDbLine
10
-89.9504753495189
20
1.78436148931785
30
0.000000000000000
11
-89.8504753495189
21
1.40988228242428
31
0.000000000000000
  0
LINE
  5
F108F8
330
F108F9
100
AcDbEntity
8
Geo
100
AcDbLine
10
-89.8504753495189
20
-10.4079319552287
30
0.000000000000000
11
-89.7504753495189
21
-10.4794554698936
31
0.000000000000000
  0
LINE
  5
F108FA
330
F108FB
100
AcDbEntity
8
Geo
100
AcDbLine
10
-89.8504753495189
20
1.40988228242428
30
0.000000000000000
11
-89.7504753495189
21
1.03237121054642
31
0.000000000000000
  0
LINE
  5
F108FC
330
F108FD
100
AcDbEntity
8
Geo
100
AcDbLine
10
-89.7504753495189
20
-10.4794554698936
30
0.000000000000000
11
-89.6504753495189
21
-10.5363991902758
31
0.000000000000000
  0
LINE
  5
F108FE
330
F108FF
100
AcDbEntity
8
Geo
100
AcDbLine
10
-89.7504753495189
20
1.03237121054642
30
0.000000000000000
11
-89.6504753495189
21
0.652387480303344
31
0.000000000000000
  0
LINE
  5
F10900
330
F10901
100
AcDbEntity
8
Geo
100
AcDbLine
10
-89.6504753495189
20
-10.5363991902758
30
0.000000000000000
11
-89.5504753495189
21
-10.5786787657222
31
0.000000000000000
  0
LINE
  5
F10902
330
F10903
100
AcDbEntity
8
Geo
100
AcDbLine
10
-89.6504753495189
20
0.652387480303344
30
0.000000000000000
11
-89.5504753495189
21
0.270493961059477
31
0.000000000000000
  0
LINE
  5
F10904
330
F10905
100
AcDbEntity
8
Geo
100
AcDbLine
10
-89.5504753495189
20
-10.5786787657222
30
0.000000000000000
11
-89.4504753495189
21
-10.6062315675575
31
0.000000000000000
  0
LINE
  5
F10906
330
F10907
100
AcDbEntity
8
Geo
100
AcDbLine
10
-89.5504753495189
20
0.270493961059477
30
0.000000000000000
11
-89.4504753495189
21
-0.112743648852997
31
0.000000000000000
  0
LINE
  5
F10908
330
F10909
100
AcDbEntity
8
Geo
100
AcDbLine
10
-89.4504753495189
20
-10.6062315675575
30
0.000000000000000
11
-89.3504753495189
21
-10.6190167818549
31
0.000000000000000
  0
LINE
  5
F1090A
330
F1090B
100
AcDbEntity
8
Geo
100
AcDbLine
10
-89.4504753495189
20
-0.112743648852997
30
0.000000000000000
11
-89.3504753495189
21
-0.496757660102282
31
0.000000000000000
  0
LINE
  5
F1090C
330
F1090D
100
AcDbEntity
8
Geo
100
AcDbLine
10
-89.3504753495189
20
-0.496757660102282
30
0.000000000000000
11
-89.2504753495189
21
-0.880979233274382
31
0.000000000000000
  0
LINE
  5
F1090E
330
F1090F
100
AcDbEntity
8
Geo
100
AcDbLine
10
-89.2504753495189
20
9.34325695768621
30
0.000000000000000
11
-89.1504753495189
21
9.32647208400886
31
0.000000000000000
  0
LINE
  5
F10910
330
F10911
100
AcDbEntity
8
Geo
100
AcDbLine
10
-89.2504753495189
20
-0.880979233274382
30
0.000000000000000
11
-89.1504753495189
21
-1.26483922149409
31
0.000000000000000
  0
LINE
  5
F10912
330
F10913
100
AcDbEntity
8
Geo
100
AcDbLine
10
-89.1504753495189
20
9.32647208400886
30
0.000000000000000
11
-89.0504753495189
21
9.29492851202415
31
0.000000000000000
  0
LINE
  5
F10914
330
F10915
100
AcDbEntity
8
Geo
100
AcDbLine
10
-89.1504753495189
20
-1.26483922149409
30
0.000000000000000
11
-89.0504753495189
21
-1.64776901350151
31
0.000000000000000
  0
LINE
  5
F10916
330
F10917
100
AcDbEntity
8
Geo
100
AcDbLine
10
-89.0504753495189
20
9.29492851202415
30
0.000000000000000
11
-88.9504753495189
21
9.24867296718080
31
0.000000000000000
  0
LINE
  5
F10918
330
F10919
100
AcDbEntity
8
Geo
100
AcDbLine
10
-89.0504753495189
20
-1.64776901350151
30
0.000000000000000
11
-88.9504753495189
21
-2.02920137593506
31
0.000000000000000
  0
LINE
  5
F1091A
330
F1091B
100
AcDbEntity
8
Geo
100
AcDbLine
10
-88.9504753495189
20
9.24867296718080
30
0.000000000000000
11
-88.8504753495189
21
9.18777396775227
31
0.000000000000000
  0
LINE
  5
F1091C
330
F1091D
100
AcDbEntity
8
Geo
100
AcDbLine
10
-88.9504753495189
20
-2.02920137593506
30
0.000000000000000
11
-88.8504753495189
21
-2.40857129357351
31
0.000000000000000
  0
LINE
  5
F1091E
330
F1091F
100
AcDbEntity
8
Geo
100
AcDbLine
10
-88.8504753495189
20
9.18777396775227
30
0.000000000000000
11
-88.7504753495189
21
9.11232172334062
31
0.000000000000000
  0
LINE
  5
F10920
330
F10921
100
AcDbEntity
8
Geo
100
AcDbLine
10
-88.8504753495189
20
-2.40857129357351
30
0.000000000000000
11
-88.7504753495189
21
-2.78531680629216
31
0.000000000000000
  0
LINE
  5
F10922
330
F10923
100
AcDbEntity
8
Geo
100
AcDbLine
10
-88.7504753495189
20
9.11232172334062
30
0.000000000000000
11
-88.6504753495189
21
9.02242800124924
31
0.000000000000000
  0
LINE
  5
F10924
330
F10925
100
AcDbEntity
8
Geo
100
AcDbLine
10
-88.7504753495189
20
-2.78531680629216
30
0.000000000000000
11
-88.6504753495189
21
-3.15887984149366
31
0.000000000000000
  0
LINE
  5
F10926
330
F10927
100
AcDbEntity
8
Geo
100
AcDbLine
10
-88.6504753495189
20
9.02242800124924
30
0.000000000000000
11
-88.5504753495189
21
8.91822596092205
31
0.000000000000000
  0
LINE
  5
F10928
330
F10929
100
AcDbEntity
8
Geo
100
AcDbLine
10
-88.6504753495189
20
-3.15887984149366
30
0.000000000000000
11
-88.5504753495189
21
-3.52870704078010
31
0.000000000000000
  0
LINE
  5
F1092A
330
F1092B
100
AcDbEntity
8
Geo
100
AcDbLine
10
-88.5504753495189
20
8.91822596092205
30
0.000000000000000
11
-88.4504753495189
21
8.79986995669461
31
0.000000000000000
  0
LINE
  5
F1092C
330
F1092D
100
AcDbEntity
8
Geo
100
AcDbLine
10
-88.5504753495189
20
-3.52870704078010
30
0.000000000000000
11
-88.4504753495189
21
-3.89425057964204
31
0.000000000000000
  0
LINE
  5
F1092E
330
F1092F
100
AcDbEntity
8
Geo
100
AcDbLine
10
-88.4504753495189
20
8.79986995669461
30
0.000000000000000
11
-88.3504753495189
21
8.66753530914932
31
0.000000000000000
  0
LINE
  5
F10930
330
F10931
100
AcDbEntity
8
Geo
100
AcDbLine
10
-88.4504753495189
20
-3.89425057964204
30
0.000000000000000
11
-88.3504753495189
21
-4.25496897895023
31
0.000000000000000
  0
LINE
  5
F10932
330
F10933
100
AcDbEntity
8
Geo
100
AcDbLine
10
-88.3504753495189
20
8.66753530914932
30
0.000000000000000
11
-88.2504753495189
21
8.52141804541317
31
0.000000000000000
  0
LINE
  5
F10934
330
F10935
100
AcDbEntity
8
Geo
100
AcDbLine
10
-88.3504753495189
20
-4.25496897895023
30
0.000000000000000
11
-88.2504753495189
21
-4.61032790704780
31
0.000000000000000
  0
LINE
  5
F10936
330
F10937
100
AcDbEntity
8
Geo
100
AcDbLine
10
-88.2504753495189
20
8.52141804541317
30
0.000000000000000
11
-88.1504753495189
21
8.36173460878315
31
0.000000000000000
  0
LINE
  5
F10938
330
F10939
100
AcDbEntity
8
Geo
100
AcDbLine
10
-88.2504753495189
20
-4.61032790704780
30
0.000000000000000
11
-88.1504753495189
21
-4.95980097125508
31
0.000000000000000
  0
LINE
  5
F1093A
330
F1093B
100
AcDbEntity
8
Geo
100
AcDbLine
10
-88.1504753495189
20
8.36173460878315
30
0.000000000000000
11
-88.0504753495189
21
8.18872153810904
31
0.000000000000000
  0
LINE
  5
F1093C
330
F1093D
100
AcDbEntity
8
Geo
100
AcDbLine
10
-88.1504753495189
20
-4.95980097125508
30
0.000000000000000
11
-88.0504753495189
21
-5.30287049761426
31
0.000000000000000
  0
LINE
  5
F1093E
330
F1093F
100
AcDbEntity
8
Geo
100
AcDbLine
10
-88.0504753495189
20
8.18872153810904
30
0.000000000000000
11
-87.9504753495189
21
8.00263511740874
31
0.000000000000000
  0
LINE
  5
F10940
330
F10941
100
AcDbEntity
8
Geo
100
AcDbLine
10
-88.0504753495189
20
-5.30287049761426
30
0.000000000000000
11
-87.9504753495189
21
-5.63902829771914
31
0.000000000000000
  0
LINE
  5
F10942
330
F10943
100
AcDbEntity
8
Geo
100
AcDbLine
10
-87.9504753495189
20
8.00263511740874
30
0.000000000000000
11
-87.8504753495189
21
7.80375099623516
31
0.000000000000000
  0
LINE
  5
F10944
330
F10945
100
AcDbEntity
8
Geo
100
AcDbLine
10
-87.9504753495189
20
-5.63902829771914
30
0.000000000000000
11
-87.8504753495189
21
-5.96777642149388
31
0.000000000000000
  0
LINE
  5
F10946
330
F10947
100
AcDbEntity
8
Geo
100
AcDbLine
10
-87.8504753495189
20
7.80375099623516
30
0.000000000000000
11
-87.7504753495189
21
7.59236378135686
31
0.000000000000000
  0
LINE
  5
F10948
330
F10949
100
AcDbEntity
8
Geo
100
AcDbLine
10
-87.8504753495189
20
-5.96777642149388
30
0.000000000000000
11
-87.7504753495189
21
-6.28862789480576
31
0.000000000000000
  0
LINE
  5
F1094A
330
F1094B
100
AcDbEntity
8
Geo
100
AcDbLine
10
-87.7504753495189
20
7.59236378135686
30
0.000000000000000
11
-87.6504753495189
21
7.36878660035753
31
0.000000000000000
  0
LINE
  5
F1094C
330
F1094D
100
AcDbEntity
8
Geo
100
AcDbLine
10
-87.7504753495189
20
-6.28862789480576
30
0.000000000000000
11
-87.6504753495189
21
-6.60110744081923
31
0.000000000000000
  0
LINE
  5
F1094E
330
F1094F
100
AcDbEntity
8
Geo
100
AcDbLine
10
-87.6504753495189
20
7.36878660035753
30
0.000000000000000
11
-87.5504753495189
21
7.13335063780048
31
0.000000000000000
  0
LINE
  5
F10950
330
F10951
100
AcDbEntity
8
Geo
100
AcDbLine
10
-87.6504753495189
20
-6.60110744081923
30
0.000000000000000
11
-87.5504753495189
21
-6.90475218402293
31
0.000000000000000
  0
LINE
  5
F10952
330
F10953
100
AcDbEntity
8
Geo
100
AcDbLine
10
-87.5504753495189
20
7.13335063780048
30
0.000000000000000
11
-87.4504753495189
21
6.88640464464545
31
0.000000000000000
  0
LINE
  5
F10954
330
F10955
100
AcDbEntity
8
Geo
100
AcDbLine
10
-87.5504753495189
20
-6.90475218402293
30
0.000000000000000
11
-87.4504753495189
21
-7.19911233588638
31
0.000000000000000
  0
LINE
  5
F10956
330
F10957
100
AcDbEntity
8
Geo
100
AcDbLine
10
-87.4504753495189
20
6.88640464464545
30
0.000000000000000
11
-87.3504753495189
21
6.62831442164430
31
0.000000000000000
  0
LINE
  5
F10958
330
F10959
100
AcDbEntity
8
Geo
100
AcDbLine
10
-87.4504753495189
20
-7.19911233588638
30
0.000000000000000
11
-87.3504753495189
21
-7.48375186113123
31
0.000000000000000
  0
LINE
  5
F1095A
330
F1095B
100
AcDbEntity
8
Geo
100
AcDbLine
10
-87.3504753495189
20
6.62831442164430
30
0.000000000000000
11
-87.2504753495189
21
6.35946227748086
31
0.000000000000000
  0
LINE
  5
F1095C
330
F1095D
100
AcDbEntity
8
Geo
100
AcDbLine
10
-87.3504753495189
20
-7.48375186113123
30
0.000000000000000
11
-87.2504753495189
21
-7.75824912362963
31
0.000000000000000
  0
LINE
  5
F1095E
330
F1095F
100
AcDbEntity
8
Geo
100
AcDbLine
10
-87.2504753495189
20
6.35946227748086
30
0.000000000000000
11
-87.1504753495189
21
6.08024646245761
31
0.000000000000000
  0
LINE
  5
F10960
330
F10961
100
AcDbEntity
8
Geo
100
AcDbLine
10
-87.2504753495189
20
-7.75824912362963
30
0.000000000000000
11
-87.1504753495189
21
-8.02219751097326
31
0.000000000000000
  0
LINE
  5
F10962
330
F10963
100
AcDbEntity
8
Geo
100
AcDbLine
10
-87.1504753495189
20
6.08024646245761
30
0.000000000000000
11
-87.0504753495189
21
5.79108057856809
31
0.000000000000000
  0
LINE
  5
F10964
330
F10965
100
AcDbEntity
8
Geo
100
AcDbLine
10
-87.1504753495189
20
-8.02219751097326
30
0.000000000000000
11
-87.0504753495189
21
-8.27520603678768
31
0.000000000000000
  0
LINE
  5
F10966
330
F10967
100
AcDbEntity
8
Geo
100
AcDbLine
10
-87.0504753495189
20
5.79108057856809
30
0.000000000000000
11
-86.9504753495189
21
5.49239296682883
31
0.000000000000000
  0
LINE
  5
F10968
330
F10969
100
AcDbEntity
8
Geo
100
AcDbLine
10
-87.0504753495189
20
-8.27520603678768
30
0.000000000000000
11
-86.9504753495189
21
-8.51689991989997
31
0.000000000000000
  0
LINE
  5
F1096A
330
F1096B
100
AcDbEntity
8
Geo
100
AcDbLine
10
-86.9504753495189
20
5.49239296682883
30
0.000000000000000
11
-86.8504753495189
21
5.18462607277842
31
0.000000000000000
  0
LINE
  5
F1096C
330
F1096D
100
AcDbEntity
8
Geo
100
AcDbLine
10
-86.9504753495189
20
-8.51689991989997
30
0.000000000000000
11
-86.8504753495189
21
-8.74692113950147
31
0.000000000000000
  0
LINE
  5
F1096E
330
F1096F
100
AcDbEntity
8
Geo
100
AcDbLine
10
-86.8504753495189
20
5.18462607277842
30
0.000000000000000
11
-86.7504753495189
21
4.86823579108355
31
0.000000000000000
  0
LINE
  5
F10970
330
F10971
100
AcDbEntity
8
Geo
100
AcDbLine
10
-86.8504753495189
20
-8.74692113950147
30
0.000000000000000
11
-86.7504753495189
21
-8.96492896548357
31
0.000000000000000
  0
LINE
  5
F10972
330
F10973
100
AcDbEntity
8
Geo
100
AcDbLine
10
-86.7504753495189
20
4.86823579108355
30
0.000000000000000
11
-86.6504753495189
21
4.54369079022288
31
0.000000000000000
  0
LINE
  5
F10974
330
F10975
100
AcDbEntity
8
Geo
100
AcDbLine
10
-86.7504753495189
20
-8.96492896548357
30
0.000000000000000
11
-86.6504753495189
21
-9.17060046316067
31
0.000000000000000
  0
LINE
  5
F10976
330
F10977
100
AcDbEntity
8
Geo
100
AcDbLine
10
-86.6504753495189
20
4.54369079022288
30
0.000000000000000
11
-86.5504753495189
21
4.21147181824908
31
0.000000000000000
  0
LINE
  5
F10978
330
F10979
100
AcDbEntity
8
Geo
100
AcDbLine
10
-86.6504753495189
20
-9.17060046316067
30
0.000000000000000
11
-86.5504753495189
21
-9.36363097163296
31
0.000000000000000
  0
LINE
  5
F1097A
330
F1097B
100
AcDbEntity
8
Geo
100
AcDbLine
10
-86.5504753495189
20
4.21147181824908
30
0.000000000000000
11
-86.4504753495189
21
3.87207099065743
31
0.000000000000000
  0
LINE
  5
F1097C
330
F1097D
100
AcDbEntity
8
Geo
100
AcDbLine
10
-86.5504753495189
20
-9.36363097163296
30
0.000000000000000
11
-86.4504753495189
21
-9.54373455508010
31
0.000000000000000
  0
LINE
  5
F1097E
330
F1097F
100
AcDbEntity
8
Geo
100
AcDbLine
10
-86.4504753495189
20
3.87207099065743
30
0.000000000000000
11
-86.3504753495189
21
3.52599106141582
31
0.000000000000000
  0
LINE
  5
F10980
330
F10981
100
AcDbEntity
8
Geo
100
AcDbLine
10
-86.4504753495189
20
-9.54373455508010
30
0.000000000000000
11
-86.3504753495189
21
-9.71064442631759
31
0.000000000000000
  0
LINE
  5
F10982
330
F10983
100
AcDbEntity
8
Geo
100
AcDbLine
10
-86.3504753495189
20
3.52599106141582
30
0.000000000000000
11
-86.2504753495189
21
3.17374467823599
31
0.000000000000000
  0
LINE
  5
F10984
330
F10985
100
AcDbEntity
8
Geo
100
AcDbLine
10
-86.3504753495189
20
-9.71064442631759
30
0.000000000000000
11
-86.2504753495189
21
-9.86411334198826
31
0.000000000000000
  0
LINE
  5
F10986
330
F10987
100
AcDbEntity
8
Geo
100
AcDbLine
10
-86.2504753495189
20
3.17374467823599
30
0.000000000000000
11
-86.1504753495189
21
2.81585362318924
31
0.000000000000000
  0
LINE
  5
F10988
330
F10989
100
AcDbEntity
8
Geo
100
AcDbLine
10
-86.2504753495189
20
-9.86411334198826
30
0.000000000000000
11
-86.1504753495189
21
-10.0039139688035
31
0.000000000000000
  0
LINE
  5
F1098A
330
F1098B
100
AcDbEntity
8
Geo
100
AcDbLine
10
-86.1504753495189
20
2.81585362318924
30
0.000000000000000
11
-86.0504753495189
21
2.45284803979133
31
0.000000000000000
  0
LINE
  5
F1098C
330
F1098D
100
AcDbEntity
8
Geo
100
AcDbLine
10
-86.1504753495189
20
-10.0039139688035
30
0.000000000000000
11
-86.0504753495189
21
-10.1298392202916
31
0.000000000000000
  0
LINE
  5
F1098E
330
F1098F
100
AcDbEntity
8
Geo
100
AcDbLine
10
-86.0504753495189
20
2.45284803979133
30
0.000000000000000
11
-85.9504753495189
21
2.08526564770171
31
0.000000000000000
  0
LINE
  5
F10990
330
F10991
100
AcDbEntity
8
Geo
100
AcDbLine
10
-86.0504753495189
20
-10.1298392202916
30
0.000000000000000
11
-85.9504753495189
21
-10.2417025635550
31
0.000000000000000
  0
LINE
  5
F10992
330
F10993
100
AcDbEntity
8
Geo
100
AcDbLine
10
-85.9504753495189
20
2.08526564770171
30
0.000000000000000
11
-85.8504753495189
21
1.71365094620004
31
0.000000000000000
  0
LINE
  5
F10994
330
F10995
100
AcDbEntity
8
Geo
100
AcDbLine
10
-85.9504753495189
20
-10.2417025635550
30
0.000000000000000
11
-85.8504753495189
21
-10.3393382955809
31
0.000000000000000
  0
LINE
  5
F10996
330
F10997
100
AcDbEntity
8
Geo
100
AcDbLine
10
-85.8504753495189
20
1.71365094620004
30
0.000000000000000
11
-85.7504753495189
21
1.33855440762027
31
0.000000000000000
  0
LINE
  5
F10998
330
F10999
100
AcDbEntity
8
Geo
100
AcDbLine
10
-85.8504753495189
20
-10.3393382955809
30
0.000000000000000
11
-85.7504753495189
21
-10.4226017886968
31
0.000000000000000
  0
LINE
  5
F1099A
330
F1099B
100
AcDbEntity
8
Geo
100
AcDbLine
10
-85.7504753495189
20
1.33855440762027
30
0.000000000000000
11
-85.6504753495189
21
0.960531661936691
31
0.000000000000000
  0
LINE
  5
F1099C
330
F1099D
100
AcDbEntity
8
Geo
100
AcDbLine
10
-85.7504753495189
20
-10.4226017886968
30
0.000000000000000
11
-85.6504753495189
21
-10.4913697048078
31
0.000000000000000
  0
LINE
  5
F1099E
330
F1099F
100
AcDbEntity
8
Geo
100
AcDbLine
10
-85.6504753495189
20
0.960531661936691
30
0.000000000000000
11
-85.5504753495189
21
0.580142673710069
31
0.000000000000000
  0
LINE
  5
F109A0
330
F109A1
100
AcDbEntity
8
Geo
100
AcDbLine
10
-85.6504753495189
20
-10.4913697048078
30
0.000000000000000
11
-85.5504753495189
21
-10.5455401780965
31
0.000000000000000
  0
LINE
  5
F109A2
330
F109A3
100
AcDbEntity
8
Geo
100
AcDbLine
10
-85.5504753495189
20
0.580142673710069
30
0.000000000000000
11
-85.4504753495189
21
0.197950912612909
31
0.000000000000000
  0
LINE
  5
F109A4
330
F109A5
100
AcDbEntity
8
Geo
100
AcDbLine
10
-85.5504753495189
20
-10.5455401780965
30
0.000000000000000
11
-85.4504753495189
21
-10.5850329659172
31
0.000000000000000
  0
LINE
  5
F109A6
330
F109A7
100
AcDbEntity
8
Geo
100
AcDbLine
10
-85.4504753495189
20
0.197950912612909
30
0.000000000000000
11
-85.3504753495189
21
-0.185477481237367
31
0.000000000000000
  0
LINE
  5
F109A8
330
F109A9
100
AcDbEntity
8
Geo
100
AcDbLine
10
-85.4504753495189
20
-10.5850329659172
30
0.000000000000000
11
-85.3504753495189
21
-10.6097895676589
31
0.000000000000000
  0
LINE
  5
F109AA
330
F109AB
100
AcDbEntity
8
Geo
100
AcDbLine
10
-85.3504753495189
20
-0.185477481237367
30
0.000000000000000
11
-85.2504753495189
21
-0.569574535900983
31
0.000000000000000
  0
LINE
  5
F109AC
330
F109AD
100
AcDbEntity
8
Geo
100
AcDbLine
10
-85.3504753495189
20
-10.6097895676589
30
0.000000000000000
11
-85.2504753495189
21
-10.6197733114023
31
0.000000000000000
  0
LINE
  5
F109AE
330
F109AF
100
AcDbEntity
8
Geo
100
AcDbLine
10
-85.2504753495189
20
-0.569574535900983
30
0.000000000000000
11
-85.1504753495189
21
-0.953771288951842
31
0.000000000000000
  0
LINE
  5
F109B0
330
F109B1
100
AcDbEntity
8
Geo
100
AcDbLine
10
-85.1504753495189
20
9.34121089603327
30
0.000000000000000
11
-85.0504753495189
21
9.32162646198391
31
0.000000000000000
  0
LINE
  5
F109B2
330
F109B3
100
AcDbEntity
8
Geo
100
AcDbLine
10
-85.1504753495189
20
-0.953771288951842
30
0.000000000000000
11
-85.0504753495189
21
-1.33749863028077
31
0.000000000000000
  0
LINE
  5
F109B4
330
F109B5
100
AcDbEntity
8
Geo
100
AcDbLine
10
-85.0504753495189
20
9.32162646198391
30
0.000000000000000
11
-84.9504753495189
21
9.28729050744025
31
0.000000000000000
  0
LINE
  5
F109B6
330
F109B7
100
AcDbEntity
8
Geo
100
AcDbLine
10
-85.0504753495189
20
-1.33749863028077
30
0.000000000000000
11
-84.9504753495189
21
-1.72018814511750
31
0.000000000000000
  0
LINE
  5
F109B8
330
F109B9
100
AcDbEntity
8
Geo
100
AcDbLine
10
-84.9504753495189
20
9.28729050744025
30
0.000000000000000
11
-84.8504753495189
21
9.23825389420340
31
0.000000000000000
  0
LINE
  5
F109BA
330
F109BB
100
AcDbEntity
8
Geo
100
AcDbLine
10
-84.9504753495189
20
-1.72018814511750
30
0.000000000000000
11
-84.8504753495189
21
-2.10127295602271
31
0.000000000000000
  0
LINE
  5
F109BC
330
F109BD
100
AcDbEntity
8
Geo
100
AcDbLine
10
-84.8504753495189
20
9.23825389420340
30
0.000000000000000
11
-84.7504753495189
21
9.17458926013948
31
0.000000000000000
  0
LINE
  5
F109BE
330
F109BF
100
AcDbEntity
8
Geo
100
AcDbLine
10
-84.8504753495189
20
-2.10127295602271
30
0.000000000000000
11
-84.7504753495189
21
-2.48018856260273
31
0.000000000000000
  0
LINE
  5
F109C0
330
F109C1
100
AcDbEntity
8
Geo
100
AcDbLine
10
-84.7504753495189
20
9.17458926013948
30
0.000000000000000
11
-84.6504753495189
21
9.09639091158127
31
0.000000000000000
  0
LINE
  5
F109C2
330
F109C3
100
AcDbEntity
8
Geo
100
AcDbLine
10
-84.7504753495189
20
-2.48018856260273
30
0.000000000000000
11
-84.6504753495189
21
-2.85637367770322
31
0.000000000000000
  0
LINE
  5
F109C4
330
F109C5
100
AcDbEntity
8
Geo
100
AcDbLine
10
-84.6504753495189
20
9.09639091158127
30
0.000000000000000
11
-84.5504753495189
21
9.00377468363234
31
0.000000000000000
  0
LINE
  5
F109C6
330
F109C7
100
AcDbEntity
8
Geo
100
AcDbLine
10
-84.6504753495189
20
-2.85637367770322
30
0.000000000000000
11
-84.5504753495189
21
-3.22927105884300
31
0.000000000000000
  0
LINE
  5
F109C8
330
F109C9
100
AcDbEntity
8
Geo
100
AcDbLine
10
-84.5504753495189
20
9.00377468363234
30
0.000000000000000
11
-84.4504753495189
21
8.89687776858072
31
0.000000000000000
  0
LINE
  5
F109CA
330
F109CB
100
AcDbEntity
8
Geo
100
AcDbLine
10
-84.5504753495189
20
-3.22927105884300
30
0.000000000000000
11
-84.4504753495189
21
-3.59832833365661
31
0.000000000000000
  0
LINE
  5
F109CC
330
F109CD
100
AcDbEntity
8
Geo
100
AcDbLine
10
-84.4504753495189
20
8.89687776858072
30
0.000000000000000
11
-84.3504753495189
21
8.77585851267611
31
0.000000000000000
  0
LINE
  5
F109CE
330
F109CF
100
AcDbEntity
8
Geo
100
AcDbLine
10
-84.4504753495189
20
-3.59832833365661
30
0.000000000000000
11
-84.3504753495189
21
-3.96299881812264
31
0.000000000000000
  0
LINE
  5
F109D0
330
F109D1
100
AcDbEntity
8
Geo
100
AcDbLine
10
-84.3504753495189
20
8.77585851267611
30
0.000000000000000
11
-84.2504753495189
21
8.64089618157183
31
0.000000000000000
  0
LINE
  5
F109D2
330
F109D3
100
AcDbEntity
8
Geo
100
AcDbLine
10
-84.3504753495189
20
-3.96299881812264
30
0.000000000000000
11
-84.2504753495189
21
-4.32274232636609
31
0.000000000000000
  0
LINE
  5
F109D4
330
F109D5
100
AcDbEntity
8
Geo
100
AcDbLine
10
-84.2504753495189
20
8.64089618157183
30
0.000000000000000
11
-84.1504753495189
21
8.49219069477887
31
0.000000000000000
  0
LINE
  5
F109D6
330
F109D7
100
AcDbEntity
8
Geo
100
AcDbLine
10
-84.2504753495189
20
-4.32274232636609
30
0.000000000000000
11
-84.1504753495189
21
-4.67702597083486
31
0.000000000000000
  0
LINE
  5
F109D8
330
F109D9
100
AcDbEntity
8
Geo
100
AcDbLine
10
-84.1504753495189
20
8.49219069477887
30
0.000000000000000
11
-84.0504753495189
21
8.32996232952537
31
0.000000000000000
  0
LINE
  5
F109DA
330
F109DB
100
AcDbEntity
8
Geo
100
AcDbLine
10
-84.1504753495189
20
-4.67702597083486
30
0.000000000000000
11
-84.0504753495189
21
-5.02532495166538
31
0.000000000000000
  0
LINE
  5
F109DC
330
F109DD
100
AcDbEntity
8
Geo
100
AcDbLine
10
-84.0504753495189
20
8.32996232952537
30
0.000000000000000
11
-83.9504753495189
21
8.15445139446028
31
0.000000000000000
  0
LINE
  5
F109DE
330
F109DF
100
AcDbEntity
8
Geo
100
AcDbLine
10
-84.0504753495189
20
-5.02532495166538
30
0.000000000000000
11
-83.9504753495189
21
-5.36712333406790
31
0.000000000000000
  0
LINE
  5
F109E0
330
F109E1
100
AcDbEntity
8
Geo
100
AcDbLine
10
-83.9504753495189
20
8.15445139446028
30
0.000000000000000
11
-83.8504753495189
21
7.96591787368454
31
0.000000000000000
  0
LINE
  5
F109E2
330
F109E3
100
AcDbEntity
8
Geo
100
AcDbLine
10
-83.9504753495189
20
-5.36712333406790
30
0.000000000000000
11
-83.8504753495189
21
-5.70191481257997
31
0.000000000000000
  0
LINE
  5
F109E4
330
F109E5
100
AcDbEntity
8
Geo
100
AcDbLine
10
-83.8504753495189
20
7.96591787368454
30
0.000000000000000
11
-83.7504753495189
21
7.76464104163692
31
0.000000000000000
  0
LINE
  5
F109E6
330
F109E7
100
AcDbEntity
8
Geo
100
AcDbLine
10
-83.8504753495189
20
-5.70191481257997
30
0.000000000000000
11
-83.7504753495189
21
-6.02920346105601
31
0.000000000000000
  0
LINE
  5
F109E8
330
F109E9
100
AcDbEntity
8
Geo
100
AcDbLine
10
-83.7504753495189
20
7.76464104163692
30
0.000000000000000
11
-83.6504753495189
21
7.55091904940525
31
0.000000000000000
  0
LINE
  5
F109EA
330
F109EB
100
AcDbEntity
8
Geo
100
AcDbLine
10
-83.7504753495189
20
-6.02920346105601
30
0.000000000000000
11
-83.6504753495189
21
-6.34850446728200
31
0.000000000000000
  0
LINE
  5
F109EC
330
F109ED
100
AcDbEntity
8
Geo
100
AcDbLine
10
-83.6504753495189
20
7.55091904940525
30
0.000000000000000
11
-83.5504753495189
21
7.32506848307562
31
0.000000000000000
  0
LINE
  5
F109EE
330
F109EF
100
AcDbEntity
8
Geo
100
AcDbLine
10
-83.6504753495189
20
-6.34850446728200
30
0.000000000000000
11
-83.5504753495189
21
-6.65934485112712
31
0.000000000000000
  0
LINE
  5
F109F0
330
F109F1
100
AcDbEntity
8
Geo
100
AcDbLine
10
-83.5504753495189
20
7.32506848307562
30
0.000000000000000
11
-83.4504753495189
21
7.08742389477382
31
0.000000000000000
  0
LINE
  5
F109F2
330
F109F3
100
AcDbEntity
8
Geo
100
AcDbLine
10
-83.5504753495189
20
-6.65934485112712
30
0.000000000000000
11
-83.4504753495189
21
-6.96126416516858
31
0.000000000000000
  0
LINE
  5
F109F4
330
F109F5
100
AcDbEntity
8
Geo
100
AcDbLine
10
-83.4504753495189
20
7.08742389477382
30
0.000000000000000
11
-83.3504753495189
21
6.83833730709381
31
0.000000000000000
  0
LINE
  5
F109F6
330
F109F7
100
AcDbEntity
8
Geo
100
AcDbLine
10
-83.4504753495189
20
-6.96126416516858
30
0.000000000000000
11
-83.3504753495189
21
-7.25381517675174
31
0.000000000000000
  0
LINE
  5
F109F8
330
F109F9
100
AcDbEntity
8
Geo
100
AcDbLine
10
-83.3504753495189
20
6.83833730709381
30
0.000000000000000
11
-83.2504753495189
21
6.57817769164708
31
0.000000000000000
  0
LINE
  5
F109FA
330
F109FB
100
AcDbEntity
8
Geo
100
AcDbLine
10
-83.3504753495189
20
-7.25381517675174
30
0.000000000000000
11
-83.2504753495189
21
-7.53656453047515
31
0.000000000000000
  0
LINE
  5
F109FC
330
F109FD
100
AcDbEntity
8
Geo
100
AcDbLine
10
-83.2504753495189
20
6.57817769164708
30
0.000000000000000
11
-83.1504753495189
21
6.30733042250559
31
0.000000000000000
  0
LINE
  5
F109FE
330
F109FF
100
AcDbEntity
8
Geo
100
AcDbLine
10
-83.2504753495189
20
-7.53656453047515
30
0.000000000000000
11
-83.1504753495189
21
-7.80909339011941
31
0.000000000000000
  0
LINE
  5
F10A00
330
F10A01
100
AcDbEntity
8
Geo
100
AcDbLine
10
-83.1504753495189
20
6.30733042250559
30
0.000000000000000
11
-83.0504753495189
21
6.02619670534765
31
0.000000000000000
  0
LINE
  5
F10A02
330
F10A03
100
AcDbEntity
8
Geo
100
AcDbLine
10
-83.1504753495189
20
-7.80909339011941
30
0.000000000000000
11
-83.0504753495189
21
-8.07099805906855
31
0.000000000000000
  0
LINE
  5
F10A04
330
F10A05
100
AcDbEntity
8
Geo
100
AcDbLine
10
-83.0504753495189
20
6.02619670534765
30
0.000000000000000
11
-82.9504753495189
21
5.73519298315252
31
0.000000000000000
  0
LINE
  5
F10A06
330
F10A07
100
AcDbEntity
8
Geo
100
AcDbLine
10
-83.0504753495189
20
-8.07099805906855
30
0.000000000000000
11
-82.9504753495189
21
-8.32189057830533
31
0.000000000000000
  0
LINE
  5
F10A08
330
F10A09
100
AcDbEntity
8
Geo
100
AcDbLine
10
-82.9504753495189
20
5.73519298315252
30
0.000000000000000
11
-82.8504753495189
21
5.43475031932402
31
0.000000000000000
  0
LINE
  5
F10A0A
330
F10A0B
100
AcDbEntity
8
Geo
100
AcDbLine
10
-82.9504753495189
20
-8.32189057830533
30
0.000000000000000
11
-82.8504753495189
21
-8.56139930109437
31
0.000000000000000
  0
LINE
  5
F10A0C
330
F10A0D
100
AcDbEntity
8
Geo
100
AcDbLine
10
-82.8504753495189
20
5.43475031932402
30
0.000000000000000
11
-82.7504753495189
21
5.12531375915694
31
0.000000000000000
  0
LINE
  5
F10A0E
330
F10A0F
100
AcDbEntity
8
Geo
100
AcDbLine
10
-82.8504753495189
20
-8.56139930109437
30
0.000000000000000
11
-82.7504753495189
21
-8.78916944350194
31
0.000000000000000
  0
LINE
  5
F10A10
330
F10A11
100
AcDbEntity
8
Geo
100
AcDbLine
10
-82.7504753495189
20
5.12531375915694
30
0.000000000000000
11
-82.6504753495189
21
4.80734167059203
31
0.000000000000000
  0
LINE
  5
F10A12
330
F10A13
100
AcDbEntity
8
Geo
100
AcDbLine
10
-82.7504753495189
20
-8.78916944350194
30
0.000000000000000
11
-82.6504753495189
21
-9.00486360993689
31
0.000000000000000
  0
LINE
  5
F10A14
330
F10A15
100
AcDbEntity
8
Geo
100
AcDbLine
10
-82.6504753495189
20
4.80734167059203
30
0.000000000000000
11
-82.5504753495189
21
4.48130506523623
31
0.000000000000000
  0
LINE
  5
F10A16
330
F10A17
100
AcDbEntity
8
Geo
100
AcDbLine
10
-82.6504753495189
20
-9.00486360993689
30
0.000000000000000
11
-82.5504753495189
21
-9.20816229293426
31
0.000000000000000
  0
LINE
  5
F10A18
330
F10A19
100
AcDbEntity
8
Geo
100
AcDbLine
10
-82.5504753495189
20
4.48130506523623
30
0.000000000000000
11
-82.4504753495189
21
4.14768690065387
31
0.000000000000000
  0
LINE
  5
F10A1A
330
F10A1B
100
AcDbEntity
8
Geo
100
AcDbLine
10
-82.5504753495189
20
-9.20816229293426
30
0.000000000000000
11
-82.4504753495189
21
-9.39876434644128
31
0.000000000000000
  0
LINE
  5
F10A1C
330
F10A1D
100
AcDbEntity
8
Geo
100
AcDbLine
10
-82.4504753495189
20
4.14768690065387
30
0.000000000000000
11
-82.3504753495189
21
3.80698136496225
31
0.000000000000000
  0
LINE
  5
F10A1E
330
F10A1F
100
AcDbEntity
8
Geo
100
AcDbLine
10
-82.4504753495189
20
-9.39876434644128
30
0.000000000000000
11
-82.3504753495189
21
-9.57638743190453
31
0.000000000000000
  0
LINE
  5
F10A20
330
F10A21
100
AcDbEntity
8
Geo
100
AcDbLine
10
-82.3504753495189
20
3.80698136496225
30
0.000000000000000
11
-82.2504753495189
21
3.45969314479153
31
0.000000000000000
  0
LINE
  5
F10A22
330
F10A23
100
AcDbEntity
8
Geo
100
AcDbLine
10
-82.3504753495189
20
-9.57638743190453
30
0.000000000000000
11
-82.2504753495189
21
-9.74076843649769
31
0.000000000000000
  0
LINE
  5
F10A24
330
F10A25
100
AcDbEntity
8
Geo
100
AcDbLine
10
-82.2504753495189
20
3.45969314479153
30
0.000000000000000
11
-82.1504753495189
21
3.10633667769311
31
0.000000000000000
  0
LINE
  5
F10A26
330
F10A27
100
AcDbEntity
8
Geo
100
AcDbLine
10
-82.2504753495189
20
-9.74076843649769
30
0.000000000000000
11
-82.1504753495189
21
-9.89166386287016
31
0.000000000000000
  0
LINE
  5
F10A28
330
F10A29
100
AcDbEntity
8
Geo
100
AcDbLine
10
-82.1504753495189
20
3.10633667769311
30
0.000000000000000
11
-82.0504753495189
21
2.74743539010405
31
0.000000000000000
  0
LINE
  5
F10A2A
330
F10A2B
100
AcDbEntity
8
Geo
100
AcDbLine
10
-82.1504753495189
20
-9.89166386287016
30
0.000000000000000
11
-82.0504753495189
21
-10.0288501898394
31
0.000000000000000
  0
LINE
  5
F10A2C
330
F10A2D
100
AcDbEntity
8
Geo
100
AcDbLine
10
-82.0504753495189
20
2.74743539010405
30
0.000000000000000
11
-81.9504753495189
21
2.38352092199614
31
0.000000000000000
  0
LINE
  5
F10A2E
330
F10A2F
100
AcDbEntity
8
Geo
100
AcDbLine
10
-82.0504753495189
20
-10.0288501898394
30
0.000000000000000
11
-81.9504753495189
21
-10.1521242034925
31
0.000000000000000
  0
LINE
  5
F10A30
330
F10A31
100
AcDbEntity
8
Geo
100
AcDbLine
10
-81.9504753495189
20
2.38352092199614
30
0.000000000000000
11
-81.8504753495189
21
2.01513233935845
31
0.000000000000000
  0
LINE
  5
F10A32
330
F10A33
100
AcDbEntity
8
Geo
100
AcDbLine
10
-81.9504753495189
20
-10.1521242034925
30
0.000000000000000
11
-81.8504753495189
21
-10.2613032982066
31
0.000000000000000
  0
LINE
  5
F10A34
330
F10A35
100
AcDbEntity
8
Geo
100
AcDbLine
10
-81.8504753495189
20
2.01513233935845
30
0.000000000000000
11
-81.7504753495189
21
1.64281533567959
31
0.000000000000000
  0
LINE
  5
F10A36
330
F10A37
100
AcDbEntity
8
Geo
100
AcDbLine
10
-81.8504753495189
20
-10.2613032982066
30
0.000000000000000
11
-81.7504753495189
21
-10.3562257471425
31
0.000000000000000
  0
LINE
  5
F10A38
330
F10A39
100
AcDbEntity
8
Geo
100
AcDbLine
10
-81.7504753495189
20
1.64281533567959
30
0.000000000000000
11
-81.6504753495189
21
1.26712142361271
31
0.000000000000000
  0
LINE
  5
F10A3A
330
F10A3B
100
AcDbEntity
8
Geo
100
AcDbLine
10
-81.7504753495189
20
-10.3562257471425
30
0.000000000000000
11
-81.6504753495189
21
-10.4367509418103
31
0.000000000000000
  0
LINE
  5
F10A3C
330
F10A3D
100
AcDbEntity
8
Geo
100
AcDbLine
10
-81.6504753495189
20
1.26712142361271
30
0.000000000000000
11
-81.5504753495189
21
0.888607118020641
31
0.000000000000000
  0
LINE
  5
F10A3E
330
F10A3F
100
AcDbEntity
8
Geo
100
AcDbLine
10
-81.6504753495189
20
-10.4367509418103
30
0.000000000000000
11
-81.5504753495189
21
-10.5027596003526
31
0.000000000000000
  0
LINE
  5
F10A40
330
F10A41
100
AcDbEntity
8
Geo
100
AcDbLine
10
-81.5504753495189
20
0.888607118020641
30
0.000000000000000
11
-81.4504753495189
21
0.507833111611124
31
0.000000000000000
  0
LINE
  5
F10A42
330
F10A43
100
AcDbEntity
8
Geo
100
AcDbLine
10
-81.5504753495189
20
-10.5027596003526
30
0.000000000000000
11
-81.4504753495189
21
-10.5541539442363
31
0.000000000000000
  0
LINE
  5
F10A44
330
F10A45
100
AcDbEntity
8
Geo
100
AcDbLine
10
-81.4504753495189
20
0.507833111611124
30
0.000000000000000
11
-81.3504753495189
21
0.125363444383564
31
0.000000000000000
  0
LINE
  5
F10A46
330
F10A47
100
AcDbEntity
8
Geo
100
AcDbLine
10
-81.4504753495189
20
-10.5541539442363
30
0.000000000000000
11
-81.3504753495189
21
-10.5908578430924
31
0.000000000000000
  0
LINE
  5
F10A48
330
F10A49
100
AcDbEntity
8
Geo
100
AcDbLine
10
-81.3504753495189
20
0.125363444383564
30
0.000000000000000
11
-81.2504753495189
21
-0.258235331882669
31
0.000000000000000
  0
LINE
  5
F10A4A
330
F10A4B
100
AcDbEntity
8
Geo
100
AcDbLine
10
-81.3504753495189
20
-10.5908578430924
30
0.000000000000000
11
-81.2504753495189
21
-10.6128169274871
31
0.000000000000000
  0
LINE
  5
F10A4C
330
F10A4D
100
AcDbEntity
8
Geo
100
AcDbLine
10
-81.2504753495189
20
-0.258235331882669
30
0.000000000000000
11
-81.1504753495189
21
-0.642394992860555
31
0.000000000000000
  0
LINE
  5
F10A4E
330
F10A4F
100
AcDbEntity
8
Geo
100
AcDbLine
10
-81.1504753495189
20
9.34624015725118
30
0.000000000000000
11
-81.0504753495189
21
9.33863391849731
31
0.000000000000000
  0
LINE
  5
F10A50
330
F10A51
100
AcDbEntity
8
Geo
100
AcDbLine
10
-81.1504753495189
20
-0.642394992860555
30
0.000000000000000
11
-81.0504753495189
21
-1.02654648338535
31
0.000000000000000
  0
LINE
  5
F10A52
330
F10A53
100
AcDbEntity
8
Geo
100
AcDbLine
10
-81.0504753495189
20
9.33863391849731
30
0.000000000000000
11
-80.9504753495189
21
9.31625096612775
31
0.000000000000000
  0
LINE
  5
F10A54
330
F10A55
100
AcDbEntity
8
Geo
100
AcDbLine
10
-81.0504753495189
20
-1.02654648338535
30
0.000000000000000
11
-80.9504753495189
21
-1.41012076039520
31
0.000000000000000
  0
LINE
  5
F10A56
330
F10A57
100
AcDbEntity
8
Geo
100
AcDbLine
10
-80.9504753495189
20
9.31625096612775
30
0.000000000000000
11
-80.8504753495189
21
9.27912445597834
31
0.000000000000000
  0
LINE
  5
F10A58
330
F10A59
100
AcDbEntity
8
Geo
100
AcDbLine
10
-80.9504753495189
20
-1.41012076039520
30
0.000000000000000
11
-80.8504753495189
21
-1.79254963585380
31
0.000000000000000
  0
LINE
  5
F10A5A
330
F10A5B
100
AcDbEntity
8
Geo
100
AcDbLine
10
-80.8504753495189
20
9.27912445597834
30
0.000000000000000
11
-80.7504753495189
21
9.22730938349627
31
0.000000000000000
  0
LINE
  5
F10A5C
330
F10A5D
100
AcDbEntity
8
Geo
100
AcDbLine
10
-80.8504753495189
20
-1.79254963585380
30
0.000000000000000
11
-80.7504753495189
21
-2.17326661840657
31
0.000000000000000
  0
LINE
  5
F10A5E
330
F10A5F
100
AcDbEntity
8
Geo
100
AcDbLine
10
-80.7504753495189
20
9.22730938349627
30
0.000000000000000
11
-80.6504753495189
21
9.16088250227543
31
0.000000000000000
  0
LINE
  5
F10A60
330
F10A61
100
AcDbEntity
8
Geo
100
AcDbLine
10
-80.7504753495189
20
-2.17326661840657
30
0.000000000000000
11
-80.6504753495189
21
-2.55170775252346
31
0.000000000000000
  0
LINE
  5
F10A62
330
F10A63
100
AcDbEntity
8
Geo
100
AcDbLine
10
-80.6504753495189
20
9.16088250227543
30
0.000000000000000
11
-80.5504753495189
21
9.07994221036141
31
0.000000000000000
  0
LINE
  5
F10A64
330
F10A65
100
AcDbEntity
8
Geo
100
AcDbLine
10
-80.6504753495189
20
-2.55170775252346
30
0.000000000000000
11
-80.5504753495189
21
-2.92731245388550
31
0.000000000000000
  0
LINE
  5
F10A66
330
F10A67
100
AcDbEntity
8
Geo
100
AcDbLine
10
-80.5504753495189
20
9.07994221036141
30
0.000000000000000
11
-80.4504753495189
21
8.98460840449462
31
0.000000000000000
  0
LINE
  5
F10A68
330
F10A69
100
AcDbEntity
8
Geo
100
AcDbLine
10
-80.5504753495189
20
-2.92731245388550
30
0.000000000000000
11
-80.4504753495189
21
-3.29952433977760
31
0.000000000000000
  0
LINE
  5
F10A6A
330
F10A6B
100
AcDbEntity
8
Geo
100
AcDbLine
10
-80.4504753495189
20
8.98460840449462
30
0.000000000000000
11
-80.3504753495189
21
8.87502230250743
31
0.000000000000000
  0
LINE
  5
F10A6C
330
F10A6D
100
AcDbEntity
8
Geo
100
AcDbLine
10
-80.4504753495189
20
-3.29952433977760
30
0.000000000000000
11
-80.3504753495189
21
-3.66779205325743
31
0.000000000000000
  0
LINE
  5
F10A6E
330
F10A6F
100
AcDbEntity
8
Geo
100
AcDbLine
10
-80.3504753495189
20
8.87502230250743
30
0.000000000000000
11
-80.2504753495189
21
8.75134623413837
31
0.000000000000000
  0
LINE
  5
F10A70
330
F10A71
100
AcDbEntity
8
Geo
100
AcDbLine
10
-80.3504753495189
20
-3.66779205325743
30
0.000000000000000
11
-80.2504753495189
21
-4.03157007987969
31
0.000000000000000
  0
LINE
  5
F10A72
330
F10A73
100
AcDbEntity
8
Geo
100
AcDbLine
10
-80.2504753495189
20
8.75134623413837
30
0.000000000000000
11
-80.1504753495189
21
8.61376340057331
31
0.000000000000000
  0
LINE
  5
F10A74
330
F10A75
100
AcDbEntity
8
Geo
100
AcDbLine
10
-80.2504753495189
20
-4.03157007987969
30
0.000000000000000
11
-80.1504753495189
21
-4.39031955576587
31
0.000000000000000
  0
LINE
  5
F10A76
330
F10A77
100
AcDbEntity
8
Geo
100
AcDbLine
10
-80.1504753495189
20
8.61376340057331
30
0.000000000000000
11
-80.0504753495189
21
8.46247760306985
31
0.000000000000000
  0
LINE
  5
F10A78
330
F10A79
100
AcDbEntity
8
Geo
100
AcDbLine
10
-80.1504753495189
20
-4.39031955576587
30
0.000000000000000
11
-80.0504753495189
21
-4.74350906582263
31
0.000000000000000
  0
LINE
  5
F10A7A
330
F10A7B
100
AcDbEntity
8
Geo
100
AcDbLine
10
-80.0504753495189
20
8.46247760306985
30
0.000000000000000
11
-79.9504753495189
21
8.29771294106674
31
0.000000000000000
  0
LINE
  5
F10A7C
330
F10A7D
100
AcDbEntity
8
Geo
100
AcDbLine
10
-80.0504753495189
20
-4.74350906582263
30
0.000000000000000
11
-79.9504753495189
21
-5.09061543092621
31
0.000000000000000
  0
LINE
  5
F10A7E
330
F10A7F
100
AcDbEntity
8
Geo
100
AcDbLine
10
-79.9504753495189
20
8.29771294106674
30
0.000000000000000
11
-79.8504753495189
21
8.11971348022576
31
0.000000000000000
  0
LINE
  5
F10A80
330
F10A81
100
AcDbEntity
8
Geo
100
AcDbLine
10
-79.9504753495189
20
-5.09061543092621
30
0.000000000000000
11
-79.8504753495189
21
-5.43112448290679
31
0.000000000000000
  0
LINE
  5
F10A82
330
F10A83
100
AcDbEntity
8
Geo
100
AcDbLine
10
-79.8504753495189
20
8.11971348022576
30
0.000000000000000
11
-79.7504753495189
21
7.92874289089754
31
0.000000000000000
  0
LINE
  5
F10A84
330
F10A85
100
AcDbEntity
8
Geo
100
AcDbLine
10
-79.8504753495189
20
-5.43112448290679
30
0.000000000000000
11
-79.7504753495189
21
-5.76453182618532
31
0.000000000000000
  0
LINE
  5
F10A86
330
F10A87
100
AcDbEntity
8
Geo
100
AcDbLine
10
-79.7504753495189
20
7.92874289089754
30
0.000000000000000
11
-79.6504753495189
21
7.72508405754709
31
0.000000000000000
  0
LINE
  5
F10A88
330
F10A89
100
AcDbEntity
8
Geo
100
AcDbLine
10
-79.7504753495189
20
-5.76453182618532
30
0.000000000000000
11
-79.6504753495189
21
-6.09034358493373
31
0.000000000000000
  0
LINE
  5
F10A8A
330
F10A8B
100
AcDbEntity
8
Geo
100
AcDbLine
10
-79.6504753495189
20
7.72508405754709
30
0.000000000000000
11
-79.5504753495189
21
7.50903865971742
31
0.000000000000000
  0
LINE
  5
F10A8C
330
F10A8D
100
AcDbEntity
8
Geo
100
AcDbLine
10
-79.6504753495189
20
-6.09034358493373
30
0.000000000000000
11
-79.5504753495189
21
-6.40807713465269
31
0.000000000000000
  0
LINE
  5
F10A8E
330
F10A8F
100
AcDbEntity
8
Geo
100
AcDbLine
10
-79.5504753495189
20
7.50903865971742
30
0.000000000000000
11
-79.4504753495189
21
7.28092672515202
31
0.000000000000000
  0
LINE
  5
F10A90
330
F10A91
100
AcDbEntity
8
Geo
100
AcDbLine
10
-79.5504753495189
20
-6.40807713465269
30
0.000000000000000
11
-79.4504753495189
21
-6.71726181708254
31
0.000000000000000
  0
LINE
  5
F10A92
330
F10A93
100
AcDbEntity
8
Geo
100
AcDbLine
10
-97.4504753495189
20
-0.636879256104251
30
0.000000000000000
11
-97.4504753495189
21
-0.636879256104251
31
0.000000000000000
  0
LINE
  5
F10A94
330
F10A95
100
AcDbEntity
8
Geo
100
AcDbLine
10
-97.4504753495189
20
-0.636879256104251
30
0.000000000000000
11
-97.4504753495189
21
-0.636879256104251
31
0.000000000000000
  0
LINE
  5
F10A96
330
F10A97
100
AcDbEntity
8
Geo
100
AcDbLine
10
-98.4504753495189
20
-0.636879256104251
30
0.000000000000000
11
-98.1504753495189
21
-0.636879256104251
31
0.000000000000000
  0
LINE
  5
F10A98
330
F10A99
100
AcDbEntity
8
Geo
100
AcDbLine
10
-98.0229753495189
20
-0.636879256104251
30
0.000000000000000
11
-97.9379753495189
21
-0.636879256104251
31
0.000000000000000
  0
LINE
  5
F10A9A
330
F10A9B
100
AcDbEntity
8
Geo
100
AcDbLine
10
-97.7254753495189
20
-0.636879256104251
30
0.000000000000000
11
-97.3004753495188
21
-0.636879256104251
31
0.000000000000000
  0
LINE
  5
F10A9C
330
F10A9D
100
AcDbEntity
8
Geo
100
AcDbLine
10
-97.1729753495189
20
-0.636879256104251
30
0.000000000000000
11
-97.0879753495189
21
-0.636879256104251
31
0.000000000000000
  0
LINE
  5
F10A9E
330
F10A9F
100
AcDbEntity
8
Geo
100
AcDbLine
10
-96.8754753495189
20
-0.636879256104251
30
0.000000000000000
11
-96.4504753495189
21
-0.636879256104251
31
0.000000000000000
  0
LINE
  5
F10AA0
330
F10AA1
100
AcDbEntity
8
Geo
100
AcDbLine
10
4.54952465048115
20
8.36312074389575
30
0.000000000000000
11
4.54952465048115
21
-0.636879256104251
31
0.000000000000000
  0
LINE
  5
F10AA2
330
F10AA3
100
AcDbEntity
8
Geo
100
AcDbLine
10
-97.1367979683919
20
-0.636879256104251
30
0.000000000000000
11
-97.4498661765380
21
-9.60197975940175
31
0.000000000000000
  0
ARC
  5
F10AA4
330
F10AA5
100
AcDbEntity
8
Geo
100
AcDbCircle
10
-96.4504753495189
20
-9.63687925610425
30
0.000000000000000
 40
1.00000000000000
100
AcDbArc
 50
178.000000000000
 51
270.000000000000
  0
LINE
  5
F10AA6
330
F10AA7
100
AcDbEntity
8
Geo
100
AcDbLine
10
-96.4504753495189
20
-10.6368792561043
30
0.000000000000000
11
-74.4504753495189
21
-10.6368792561043
31
0.000000000000000
  0
LINE
  5
F10AA8
330
F10AA9
100
AcDbEntity
8
Geo
100
AcDbLine
10
-74.4504753495189
20
-10.6368792561043
30
0.000000000000000
11
-74.4504753495189
21
-10.2368792561043
31
0.000000000000000
  0
LINE
  5
F10AAA
330
F10AAB
100
AcDbEntity
8
Geo
100
AcDbLine
10
-74.4504753495189
20
-10.2368792561043
30
0.000000000000000
11
-55.4504753495189
21
-10.2368792561043
31
0.000000000000000
  0
LINE
  5
F10AAC
330
F10AAD
100
AcDbEntity
8
Geo
100
AcDbLine
10
-55.4504753495189
20
-10.2368792561043
30
0.000000000000000
11
-55.4504753495189
21
-10.6368792561043
31
0.000000000000000
  0
LINE
  5
F10AAE
330
F10AAF
100
AcDbEntity
8
Geo
100
AcDbLine
10
-55.4504753495189
20
-10.6368792561043
30
0.000000000000000
11
3.54952465048115
21
-10.6368792561043
31
0.000000000000000
  0
LINE
  5
F10AB0
330
F10AB1
100
AcDbEntity
8
Geo
100
AcDbLine
10
3.54952465048115
20
-10.6368792561043
30
0.000000000000000
11
4.54952465048115
21
-9.63687925610425
31
0.000000000000000
  0
LINE
  5
F10AB2
330
F10AB3
100
AcDbEntity
8
Geo
100
AcDbLine
10
-96.4504753495189
20
9.36312074389575
30
0.000000000000000
11
-96.4504753495189
21
-10.6368792561043
31
0.000000000000000
  0
LINE
  5
F10AB4
330
F10AB5
100
AcDbEntity
8
Geo
100
AcDbLine
10
-96.4504753495189
20
9.36312074389575
30
0.000000000000000
11
-96.4504753495189
21
-10.6368792561043
31
0.000000000000000
  0
LINE
  5
F10AB6
330
F10AB7
100
AcDbEntity
8
Geo
100
AcDbLine
10
-74.4504753495189
20
9.36312074389575
30
0.000000000000000
11
-74.4504753495189
21
-10.6368792561043
31
0.000000000000000
  0
LINE
  5
F10AB8
330
F10AB9
100
AcDbEntity
8
Geo
100
AcDbLine
10
-74.4504753495189
20
8.96312074389575
30
0.000000000000000
11
-74.4504753495189
21
-10.2368792561043
31
0.000000000000000
  0
LINE
  5
F10ABA
330
F10ABB
100
AcDbEntity
8
Geo
100
AcDbLine
10
-55.4504753495189
20
8.96312074389575
30
0.000000000000000
11
-55.4504753495189
21
-10.2368792561043
31
0.000000000000000
  0
LINE
  5
F10ABC
330
F10ABD
100
AcDbEntity
8
Geo
100
AcDbLine
10
-55.4504753495189
20
8.96312074389575
30
0.000000000000000
11
-55.4504753495189
21
-10.2368792561043
31
0.000000000000000
  0
LINE
  5
F10ABE
330
F10ABF
100
AcDbEntity
8
Geo
100
AcDbLine
10
3.54952465048115
20
9.36312074389575
30
0.000000000000000
11
3.54952465048115
21
-10.6368792561043
31
0.000000000000000
  0
LINE
  5
F10AC0
330
F10AC1
100
AcDbEntity
8
Geo
100
AcDbLine
10
4.54952465048115
20
8.36312074389575
30
0.000000000000000
11
4.54952465048115
21
-9.63687925610425
31
0.000000000000000
  0
LWPOLYLINE
  5
F10AC2
330
F10AC3
100
AcDbEntity
8
Rahmen
100
AcDbPolyline
90
   4
70
   1
43
   0.0
 10
-134.548212262102
 20
92.9925381223957
 10
134.384606442304
 20
92.9925381223957
 10
134.384606442304
 20
-102.946742477152
 10
-134.548212262102
 20
-102.946742477152
  0
TEXT
  5
F10AC4
330
F10AC5
 100
AcDbEntity
8
Text
100
AcDbText
10
-133.668772043971
20
-102.446742477152
30
0.000000000000000
40
1.00000000000000
1
ISBESketcher
100
AcDbText
  0
LWPOLYLINE
  5
F10AC6
330
F10AC7
100
AcDbEntity
8
Rahmen
100
AcDbPolyline
90
   4
70
   1
43
   0.0
 10
94.4580205391644
 20
-99.9566457355070
 10
134.384606442304
 20
-99.9566457355070
 10
134.384606442304
 20
-102.946742477152
 10
94.4580205391644
 20
-102.946742477152
  0
TEXT
  5
F10AC8
330
F10AC9
 100
AcDbEntity
8
Text
100
AcDbText
10
95.5000000000000
20
-102.041496196318
30
0.000000000000000
40
0.750000000000000
1
Created by:
100
AcDbText
  0
TEXT
  5
F10ACA
330
F10ACB
 100
AcDbEntity
8
Text
100
AcDbText
10
120.389343476486
20
-102.041496196318
30
0.000000000000000
40
0.750000000000000
1
nsarkol
100
AcDbText
  0
LWPOLYLINE
  5
F10ACC
330
F10ACD
100
AcDbEntity
8
Rahmen
100
AcDbPolyline
90
   4
70
   1
43
   0.0
 10
54.3555465923988
 20
-99.9566457355070
 10
94.4580205391644
 20
-99.9566457355070
 10
94.4580205391644
 20
-102.946742477152
 10
54.3555465923988
 20
-102.946742477152
  0
TEXT
  5
F10ACE
330
F10ACF
 100
AcDbEntity
8
Text
100
AcDbText
10
55.5000000000000
20
-102.041496196318
30
0.000000000000000
40
0.750000000000000
1
Created for:
100
AcDbText
  0
TEXT
  5
F10AD0
330
F10AD1
 100
AcDbEntity
8
Text
100
AcDbText
10
0.000000000000000
20
0.250000000000000
30
0.000000000000000
40
0.750000000000000
1

100
AcDbText
  0
LWPOLYLINE
  5
F10AD2
330
F10AD3
100
AcDbEntity
8
Rahmen
100
AcDbPolyline
90
   4
70
   1
43
   0.0
 10
121.017115126715
 20
-96.9665489938622
 10
134.384606442304
 20
-96.9665489938622
 10
134.384606442304
 20
-99.9566457355070
 10
121.017115126715
 20
-99.9566457355070
  0
TEXT
  5
F10AD4
330
F10AD5
 100
AcDbEntity
8
Text
100
AcDbText
10
122.166666666667
20
-99.0414961963177
30
0.000000000000000
40
0.750000000000000
1
Pages
100
AcDbText
  0
TEXT
  5
F10AD6
330
F10AD7
 100
AcDbEntity
8
Text
100
AcDbText
10
0.000000000000000
20
0.250000000000000
30
0.000000000000000
40
0.750000000000000
1

100
AcDbText
  0
LWPOLYLINE
  5
F10AD8
330
F10AD9
100
AcDbEntity
8
Rahmen
100
AcDbPolyline
90
   4
70
   1
43
   0.0
 10
121.017115126715
 20
-94.1523402958436
 10
134.384606442304
 20
-94.1523402958436
 10
134.384606442304
 20
-96.9665489938622
 10
121.017115126715
 20
-96.9665489938622
  0
TEXT
  5
F10ADA
330
F10ADB
 100
AcDbEntity
8
Text
100
AcDbText
10
122.166666666667
20
-96.0414961963177
30
0.000000000000000
40
0.750000000000000
1
Page
100
AcDbText
  0
TEXT
  5
F10ADC
330
F10ADD
 100
AcDbEntity
8
Text
100
AcDbText
10
0.000000000000000
20
0.250000000000000
30
0.000000000000000
40
0.750000000000000
1

100
AcDbText
  0
LWPOLYLINE
  5
F10ADE
330
F10ADF
100
AcDbEntity
8
Rahmen
100
AcDbPolyline
90
   4
70
   1
43
   0.0
 10
54.3555465923988
 20
-94.1523402958436
 10
121.017115126715
 20
-94.1523402958436
 10
121.017115126715
 20
-99.9566457355070
 10
54.3555465923988
 20
-99.9566457355070
  0
TEXT
  5
F10AE0
330
F10AE1
 100
AcDbEntity
8
Text
100
AcDbText
10
55.5000000000000
20
-96.0414961963177
30
0.000000000000000
40
0.750000000000000
1
Date:
100
AcDbText
  0
TEXT
  5
F10AE2
330
F10AE3
 100
AcDbEntity
8
Text
100
AcDbText
10
84.5794045262493
20
-99.0414961963177
30
0.000000000000000
40
0.750000000000000
1
05.07.2016
100
AcDbText
  0
LWPOLYLINE
  5
F10AE4
330
F10AE5
100
AcDbEntity
8
Rahmen
100
AcDbPolyline
90
   4
70
   1
43
   0.0
 10
54.3555465923988
 20
-88.1721468125540
 10
134.384606442304
 20
-88.1721468125540
 10
134.384606442304
 20
-94.1523402958436
 10
54.3555465923988
 20
-94.1523402958436
  0
TEXT
  5
F10AE6
330
F10AE7
 100
AcDbEntity
8
Text
100
AcDbText
10
0.000000000000000
20
0.500000000000000
30
0.000000000000000
40
1.50000000000000
1

100
AcDbText
  0
TEXT
  5
F10AE8
330
F10AE9
 100
AcDbEntity
8
Text
100
AcDbText
10
63.9834244308604
20
-92.6290992774330
30
0.000000000000000
40
2.50000000000000
1
VHVTR 5 200 102 20 03 100 S
100
AcDbText
  0
LWPOLYLINE
  5
F10AEA
330
F10AEB
100
AcDbEntity
8
Rahmen
100
AcDbPolyline
90
   4
70
   1
43
   0.0
 10
94.4580205391644
 20
-82.0160652856382
 10
134.384606442304
 20
-82.0160652856382
 10
134.384606442304
 20
-88.1721468125540
 10
94.4580205391644
 20
-88.1721468125540
  0
TEXT
  5
F10AEC
330
F10AED
 100
AcDbEntity
8
Text
100
AcDbText
10
95.5000000000000
20
-84.0414961963177
30
0.000000000000000
40
0.750000000000000
1
Work piece material:
100
AcDbText
  0
TEXT
  5
F10AEE
330
F10AEF
 100
AcDbEntity
8
Text
100
AcDbText
10
0.000000000000000
20
0.250000000000000
30
0.000000000000000
40
0.750000000000000
1

100
AcDbText
  0
LWPOLYLINE
  5
F10AF0
330
F10AF1
100
AcDbEntity
8
Rahmen
100
AcDbPolyline
90
   4
70
   1
43
   0.0
 10
54.3555465923988
 20
-82.0160652856382
 10
94.4580205391644
 20
-82.0160652856382
 10
94.4580205391644
 20
-88.1721468125540
 10
54.3555465923988
 20
-88.1721468125540
  0
TEXT
  5
F10AF2
330
F10AF3
 100
AcDbEntity
8
Text
100
AcDbText
10
55.5000000000000
20
-84.0414961963177
30
0.000000000000000
40
0.750000000000000
1
Tool material:
100
AcDbText
  0
TEXT
  5
F10AF4
330
F10AF5
 100
AcDbEntity
8
Text
100
AcDbText
10
0.000000000000000
20
0.250000000000000
30
0.000000000000000
40
0.750000000000000
1

100
AcDbText
  0
LWPOLYLINE
  5
F10AF6
330
F10AF7
100
AcDbEntity
8
Rahmen
100
AcDbPolyline
90
   4
70
   1
43
   0.0
 10
94.4580205391644
 20
-79.0259685439934
 10
134.384606442304
 20
-79.0259685439934
 10
134.384606442304
 20
-82.0160652856382
 10
94.4580205391644
 20
-82.0160652856382
  0
TEXT
  5
F10AF8
330
F10AF9
 100
AcDbEntity
8
Text
100
AcDbText
10
0.000000000000000
20
0.500000000000000
30
0.000000000000000
40
1.50000000000000
1

100
AcDbText
  0
TEXT
  5
F10AFA
330
F10AFB
 100
AcDbEntity
8
Text
100
AcDbText
10
0.000000000000000
20
0.250000000000000
30
0.000000000000000
40
0.750000000000000
1

100
AcDbText
  0
LWPOLYLINE
  5
F10AFC
330
F10AFD
100
AcDbEntity
8
Rahmen
100
AcDbPolyline
90
   4
70
   1
43
   0.0
 10
54.3555465923988
 20
-79.0259685439934
 10
94.4580205391644
 20
-79.0259685439934
 10
94.4580205391644
 20
-82.0160652856382
 10
54.3555465923988
 20
-82.0160652856382
  0
TEXT
  5
F10AFE
330
F10AFF
 100
AcDbEntity
8
Text
100
AcDbText
10
55.5000000000000
20
-81.0414961963177
30
0.000000000000000
40
0.750000000000000
1
Scale:
100
AcDbText
  0
TEXT
  5
F10B00
330
F10B01
 100
AcDbEntity
8
Text
100
AcDbText
10
81.1808396728038
20
-81.0414961963177
30
0.000000000000000
40
0.750000000000000
1
2 : 1
100
AcDbText
0
VIEWPORT
5
294
102
{ACAD_XDICTIONARY
360
58A
102
}
330
25D
100
AcDbEntity
67
1
8
0
60
1
100
AcDbViewport
10
0.0
20
0.0
30
0.0
40
10.0
41
10.0
68
-1
69
1
12
0.0
22
0.0
13
0.0
23
0.0
14
1.0
24
1.0
15
0.0
25
0.0
16
0.0
26
0.0
36
1.0
17
0.0
27
0.0
37
0.0
42
0.0
43
0.0
44
0.0
45
10.0
50
0.0
51
0.0000000000007958
72
100
90
32800
1

281
0
71
0
74
0
110
0.0
120
0.0
130
0.0
111
1.0
121
0.0
131
0.0
112
0.0
122
1.0
132
0.0
79
0
146
0.0
1001
VD_INVISIBLE_NOT_FOR_READ
1000
VD_INVISIBLE_NOT_FOR_READ
0
VIEWPORT
5
295
102
{ACAD_XDICTIONARY
360
58C
102
}
330
25D
100
AcDbEntity
67
1
8
0
60
1
100
AcDbViewport
10
0.0
20
0.0
30
0.0
40
10.0
41
10.0
68
0
69
2
12
0.0
22
0.0
13
0.0
23
0.0
14
1.0
24
1.0
15
0.0
25
0.0
16
0.0
26
0.0
36
1.0
17
0.0
27
0.0
37
0.0
42
0.0
43
0.0
44
0.0
45
10.0
50
0.0
51
0.0000000000007958
72
100
90
163872
1

281
0
71
0
74
0
110
0.0
120
0.0
130
0.0
111
1.0
121
0.0
131
0.0
112
0.0
122
1.0
132
0.0
79
0
146
0.0
1001
VD_INVISIBLE_NOT_FOR_READ
1000
VD_INVISIBLE_NOT_FOR_READ
0
ENDSEC
0
SECTION
2
OBJECTS
0
DICTIONARY
5
13
330
0
100
AcDbDictionary
281
1
3
ACAD_COLOR
350
FA7
3
ACAD_GROUP
350
14
3
ACAD_LAYOUT
350
FCF
3
ACAD_MATERIAL
350
F7A
3
ACAD_MLEADERSTYLE
350
FCD
3
ACAD_MLINESTYLE
350
16
3
ACAD_PLOTSETTINGS
350
17
3
ACAD_PLOTSTYLENAME
350
18
3
ACAD_SCALELIST
350
FAB
3
ACAD_TABLESTYLE
350
FA8
3
ACAD_VISUALSTYLE
350
F93
3
ACDB_RECOMPOSE_DATA
350
107E
3
AcDbVariableDictionary
350
FF0
3
DWGPROPS
350
107F
0
DICTIONARY
5
F10019
330
F10018
100
AcDbDictionary
280
1
281
1
3
ACAD_MTEXT_2008_RT
360
F1001A
0
DICTIONARY
5
F1001E
330
F1001D
100
AcDbDictionary
280
1
281
1
3
ACAD_MTEXT_2008_RT
360
F1001F
0
DICTIONARY
5
F10028
330
F10027
100
AcDbDictionary
280
1
281
1
3
ACAD_MTEXT_2008_RT
360
F10029
0
DICTIONARY
5
F1002D
330
F1002C
100
AcDbDictionary
280
1
281
1
3
ACAD_MTEXT_2008_RT
360
F1002E
0
DICTIONARY
5
F10005
330
F10004
100
AcDbDictionary
280
1
281
1
3
ACAD_MTEXT_2008_RT
360
F10006
0
DICTIONARY
5
F1000F
330
F1000E
100
AcDbDictionary
280
1
281
1
3
ACAD_MTEXT_2008_RT
360
F10010
0
DICTIONARY
5
F1000A
330
F10009
100
AcDbDictionary
280
1
281
1
3
ACAD_MTEXT_2008_RT
360
F1000B
0
DICTIONARY
5
F10014
330
F10013
100
AcDbDictionary
280
1
281
1
3
ACAD_MTEXT_2008_RT
360
F10015
0
DICTIONARY
5
F10023
330
F10022
100
AcDbDictionary
280
1
281
1
3
ACAD_MTEXT_2008_RT
360
F10024
0
DICTIONARY
5
FA7
102
{ACAD_REACTORS
330
13
102
}
330
13
100
AcDbDictionary
281
1
0
DICTIONARY
5
14
330
13
100
AcDbDictionary
281
1
0
DICTIONARY
5
FCF
102
{ACAD_REACTORS
330
13
102
}
330
13
100
AcDbDictionary
281
1
3
Layout1
350
FD1
3
Model
350
FD0
0
DICTIONARY
5
F7A
102
{ACAD_REACTORS
330
13
102
}
330
13
100
AcDbDictionary
281
1
3
ByBlock
350
F83
3
ByLayer
350
F7B
3
Global
350
F8B
0
DICTIONARY
5
FCD
102
{ACAD_REACTORS
330
13
102
}
330
13
100
AcDbDictionary
281
1
3
Standard
350
FCE
0
DICTIONARY
5
16
330
13
100
AcDbDictionary
281
1
3
Standard
350
FAA
0
DICTIONARY
5
17
102
{ACAD_REACTORS
330
13
102
}
330
13
100
AcDbDictionary
281
1
0
ACDBDICTIONARYWDFLT
5
18
102
{ACAD_REACTORS
330
13
102
}
330
13
100
AcDbDictionary
281
1
3
Normal
350
19
100
AcDbDictionaryWithDefault
340
19
0
DICTIONARY
5
FAB
102
{ACAD_REACTORS
330
13
102
}
330
13
100
AcDbDictionary
281
1
3
A0
350
FAC
3
A1
350
FAD
3
A2
350
FAE
3
A3
350
FAF
3
A4
350
FB0
3
A5
350
FB1
3
A6
350
FB2
3
A7
350
FB3
3
A8
350
FB4
3
A9
350
FB5
3
B0
350
FB6
3
B1
350
FB7
3
B2
350
FB8
3
B3
350
FB9
3
B4
350
FBA
3
B5
350
FBB
3
B6
350
FBC
3
B7
350
FBD
3
B8
350
FBE
3
B9
350
FBF
3
C0
350
FC0
3
C1
350
FC1
3
C2
350
FC2
3
C3
350
FC3
3
C4
350
FC4
3
C5
350
FC5
3
C6
350
FC6
3
C7
350
FC7
3
C8
350
FC8
3
C9
350
FC9
3
D0
350
FCA
3
D1
350
FCB
3
D2
350
FCC
0
DICTIONARY
5
FA8
102
{ACAD_REACTORS
330
13
102
}
330
13
100
AcDbDictionary
281
1
3
Standard
350
FA9
0
DICTIONARY
5
F93
102
{ACAD_REACTORS
330
13
102
}
330
13
100
AcDbDictionary
281
1
3
2dWireframe
350
F99
3
3D Hidden
350
F9B
3
3dWireframe
350
F9A
3
Basic
350
F98
3
Brighten
350
F9F
3
ColorChange
350
FA3
3
Conceptual
350
F9C
3
Dim
350
F9E
3
EdgeColorOff
350
FA6
3
Facepattern
350
FA2
3
Flat
350
F94
3
FlatWithEdges
350
F95
3
Gouraud
350
F96
3
GouraudWithEdges
350
F97
3
JitterOff
350
FA4
3
Linepattern
350
FA1
3
OverhangOff
350
FA5
3
Realistic
350
F9D
3
Thicken
350
FA0
0
XRECORD
5
107E
102
{ACAD_REACTORS
330
13
102
}
330
13
100
AcDbXrecord
280
1
90
1
330
FA9
330
F10018
330
F1001D
330
F10027
330
F1002C
330
F10004
330
F1000E
330
F10009
330
F10013
330
F10022
0
XRECORD
5
F1001A
102
{ACAD_REACTORS
330
F10019
102
}
330
F10019
100
AcDbXrecord
280
1
40
48458.0
1
42
0
XRECORD
5
F1001F
102
{ACAD_REACTORS
330
F1001E
102
}
330
F1001E
100
AcDbXrecord
280
1
40
48458.0
1
60
0
XRECORD
5
F10029
102
{ACAD_REACTORS
330
F10028
102
}
330
F10028
100
AcDbXrecord
280
1
40
48458.0
1
23
0
XRECORD
5
F1002E
102
{ACAD_REACTORS
330
F1002D
102
}
330
F1002D
100
AcDbXrecord
280
1
40
48458.0
1
102
0
XRECORD
5
F10006
102
{ACAD_REACTORS
330
F10005
102
}
330
F10005
100
AcDbXrecord
280
1
40
48458.0
1
2°
0
XRECORD
5
F10010
102
{ACAD_REACTORS
330
F1000F
102
}
330
F1000F
100
AcDbXrecord
280
1
40
48458.0
1
R1
0
XRECORD
5
F1000B
102
{ACAD_REACTORS
330
F1000A
102
}
330
F1000A
100
AcDbXrecord
280
1
40
48458.0
1
20
0
XRECORD
5
F10015
102
{ACAD_REACTORS
330
F10014
102
}
330
F10014
100
AcDbXrecord
280
1
40
48458.0
1
19.2
0
LAYOUT
5
FD1
102
{ACAD_XDICTIONARY
360
10A9
102
}
102
{ACAD_REACTORS
330
FCF
102
}
330
FCF
100
AcDbPlotSettings
1

2
Microsoft XPS Document Writer
4

6

40
0.0
41
0.0
42
0.0
43
0.0
44
0.0
45
0.0
46
0.0
47
0.0
48
0.0
49
0.0
140
0.0
141
0.0
142
1.0
143
1.0
70
688
72
0
73
0
74
5
7

75
16
147
1.0
148
0.0
149
0.0
100
AcDbLayout
1
Layout1
70
1
71
1
10
0.0
20
0.0
11
12.0
21
9.0
12
0.0
22
0.0
32
0.0
14
1.000000000000000E+20
24
1.000000000000000E+20
34
1.000000000000000E+20
15
-1.000000000000000E+20
25
-1.000000000000000E+20
35
-1.000000000000000E+20
146
0.0
13
0.0
23
0.0
33
0.0
16
1.0
26
0.0
36
0.0
17
0.0
27
1.0
37
0.0
76
0
330
25D
0
LAYOUT
5
FD0
102
{ACAD_XDICTIONARY
360
10A7
102
}
102
{ACAD_REACTORS
330
FCF
102
}
330
FCF
100
AcDbPlotSettings
1

2
Microsoft XPS Document Writer
4

6

40
0.0
41
0.0
42
0.0
43
0.0
44
0.0
45
0.0
46
0.0
47
0.0
48
0.0
49
0.0
140
0.0
141
0.0
142
1.0
143
1.0
70
1712
72
0
73
0
74
0
7

75
0
147
1.0
148
0.0
149
0.0
100
AcDbLayout
1
Model
70
1
71
0
10
0.0
20
0.0
11
12.0
21
9.0
12
0.0
22
0.0
32
0.0
14
0.0
24
0.0
34
0.0
15
0.0
25
0.0
35
0.0
146
0.0
13
0.0
23
0.0
33
0.0
16
1.0
26
0.0
36
0.0
17
0.0
27
1.0
37
0.0
76
0
330
261
331
26B
0
MATERIAL
5
F83
102
{ACAD_XDICTIONARY
360
F84
102
}
102
{ACAD_REACTORS
330
F7A
102
}
330
F7A
100
AcDbMaterial
1
ByBlock
72
0
43
0.0208333333333333
43
0.0
43
0.0
43
0.0
43
0.0
43
0.0208333333333333
43
0.0
43
0.0
43
0.0
43
0.0
43
1.0
43
0.0
43
0.0
43
0.0
43
0.0
43
1.0
77
0
47
0.0208333333333333
47
0.0
47
0.0
47
0.0
47
0.0
47
0.0208333333333333
47
0.0
47
0.0
47
0.0
47
0.0
47
1.0
47
0.0
47
0.0
47
0.0
47
0.0
47
1.0
171
0
49
0.0208333333333333
49
0.0
49
0.0
49
0.0
49
0.0
49
0.0208333333333333
49
0.0
49
0.0
49
0.0
49
0.0
49
1.0
49
0.0
49
0.0
49
0.0
49
0.0
49
1.0
175
0
142
0.0208333333333333
142
0.0
142
0.0
142
0.0
142
0.0
142
0.0208333333333333
142
0.0
142
0.0
142
0.0
142
0.0
142
1.0
142
0.0
142
0.0
142
0.0
142
0.0
142
1.0
179
0
144
0.0208333333333333
144
0.0
144
0.0
144
0.0
144
0.0
144
0.0208333333333333
144
0.0
144
0.0
144
0.0
144
0.0
144
1.0
144
0.0
144
0.0
144
0.0
144
0.0
144
1.0
147
0.0208333333333333
147
0.0
147
0.0
147
0.0
147
0.0
147
0.0208333333333333
147
0.0
147
0.0
147
0.0
147
0.0
147
1.0
147
0.0
147
0.0
147
0.0
147
0.0
147
1.0
0
MATERIAL
5
F7B
102
{ACAD_XDICTIONARY
360
F7C
102
}
102
{ACAD_REACTORS
330
F7A
102
}
330
F7A
100
AcDbMaterial
1
ByLayer
72
0
43
0.0208333333333333
43
0.0
43
0.0
43
0.0
43
0.0
43
0.0208333333333333
43
0.0
43
0.0
43
0.0
43
0.0
43
1.0
43
0.0
43
0.0
43
0.0
43
0.0
43
1.0
77
0
47
0.0208333333333333
47
0.0
47
0.0
47
0.0
47
0.0
47
0.0208333333333333
47
0.0
47
0.0
47
0.0
47
0.0
47
1.0
47
0.0
47
0.0
47
0.0
47
0.0
47
1.0
171
0
49
0.0208333333333333
49
0.0
49
0.0
49
0.0
49
0.0
49
0.0208333333333333
49
0.0
49
0.0
49
0.0
49
0.0
49
1.0
49
0.0
49
0.0
49
0.0
49
0.0
49
1.0
175
0
142
0.0208333333333333
142
0.0
142
0.0
142
0.0
142
0.0
142
0.0208333333333333
142
0.0
142
0.0
142
0.0
142
0.0
142
1.0
142
0.0
142
0.0
142
0.0
142
0.0
142
1.0
179
0
144
0.0208333333333333
144
0.0
144
0.0
144
0.0
144
0.0
144
0.0208333333333333
144
0.0
144
0.0
144
0.0
144
0.0
144
1.0
144
0.0
144
0.0
144
0.0
144
0.0
144
1.0
147
0.0208333333333333
147
0.0
147
0.0
147
0.0
147
0.0
147
0.0208333333333333
147
0.0
147
0.0
147
0.0
147
0.0
147
1.0
147
0.0
147
0.0
147
0.0
147
0.0
147
1.0
0
MATERIAL
5
F8B
102
{ACAD_XDICTIONARY
360
F8C
102
}
102
{ACAD_REACTORS
330
F7A
102
}
330
F7A
100
AcDbMaterial
1
Global
72
0
43
0.0208333333333333
43
0.0
43
0.0
43
0.0
43
0.0
43
0.0208333333333333
43
0.0
43
0.0
43
0.0
43
0.0
43
1.0
43
0.0
43
0.0
43
0.0
43
0.0
43
1.0
77
0
47
0.0208333333333333
47
0.0
47
0.0
47
0.0
47
0.0
47
0.0208333333333333
47
0.0
47
0.0
47
0.0
47
0.0
47
1.0
47
0.0
47
0.0
47
0.0
47
0.0
47
1.0
171
0
49
0.0208333333333333
49
0.0
49
0.0
49
0.0
49
0.0
49
0.0208333333333333
49
0.0
49
0.0
49
0.0
49
0.0
49
1.0
49
0.0
49
0.0
49
0.0
49
0.0
49
1.0
175
0
142
0.0208333333333333
142
0.0
142
0.0
142
0.0
142
0.0
142
0.0208333333333333
142
0.0
142
0.0
142
0.0
142
0.0
142
1.0
142
0.0
142
0.0
142
0.0
142
0.0
142
1.0
179
0
144
0.0208333333333333
144
0.0
144
0.0
144
0.0
144
0.0
144
0.0208333333333333
144
0.0
144
0.0
144
0.0
144
0.0
144
1.0
144
0.0
144
0.0
144
0.0
144
0.0
144
1.0
147
0.0208333333333333
147
0.0
147
0.0
147
0.0
147
0.0
147
0.0208333333333333
147
0.0
147
0.0
147
0.0
147
0.0
147
1.0
147
0.0
147
0.0
147
0.0
147
0.0
147
1.0
0
MLEADERSTYLE
5
FCE
102
{ACAD_REACTORS
330
FCD
102
}
330
FCD
100
AcDbMLeaderStyle
170
2
171
1
172
0
90
2
40
0.0
41
0.0
173
1
91
-1056964608
340
256
92
-2
290
1
42
0.09
291
1
43
0.36
3
Standard
44
0.18
300

342
253
174
1
178
6
175
1
176
0
93
-1056964608
45
0.18
292
0
297
0
46
0.18
94
-1056964608
47
1.0
49
1.0
140
1.0
293
1
141
0.0
294
1
177
0
142
1.0
295
0
296
0
143
0.125
1001
ACAD_MLEADERVER
1070
2
0
MLINESTYLE
5
FAA
102
{ACAD_REACTORS
330
16
102
}
330
16
100
AcDbMlineStyle
2
STANDARD
70
0
3

62
256
51
90.0
52
90.0
71
2
49
0.5
62
256
6
BYLAYER
49
-0.5
62
256
6
BYLAYER
0
ACDBPLACEHOLDER
5
19
102
{ACAD_REACTORS
330
18
102
}
330
18
0
SCALE
5
FAC
102
{ACAD_REACTORS
330
FAB
102
}
330
FAB
100
AcDbScale
70
0
300
1:1
140
1.0
141
1.0
290
1
0
SCALE
5
FAD
102
{ACAD_REACTORS
330
FAB
102
}
330
FAB
100
AcDbScale
70
0
300
1:2
140
1.0
141
2.0
290
0
0
SCALE
5
FAE
102
{ACAD_REACTORS
330
FAB
102
}
330
FAB
100
AcDbScale
70
0
300
1:4
140
1.0
141
4.0
290
0
0
SCALE
5
FAF
102
{ACAD_REACTORS
330
FAB
102
}
330
FAB
100
AcDbScale
70
0
300
1:5
140
1.0
141
5.0
290
0
0
SCALE
5
FB0
102
{ACAD_REACTORS
330
FAB
102
}
330
FAB
100
AcDbScale
70
0
300
1:8
140
1.0
141
8.0
290
0
0
SCALE
5
FB1
102
{ACAD_REACTORS
330
FAB
102
}
330
FAB
100
AcDbScale
70
0
300
1:10
140
1.0
141
10.0
290
0
0
SCALE
5
FB2
102
{ACAD_REACTORS
330
FAB
102
}
330
FAB
100
AcDbScale
70
0
300
1:16
140
1.0
141
16.0
290
0
0
SCALE
5
FB3
102
{ACAD_REACTORS
330
FAB
102
}
330
FAB
100
AcDbScale
70
0
300
1:20
140
1.0
141
20.0
290
0
0
SCALE
5
FB4
102
{ACAD_REACTORS
330
FAB
102
}
330
FAB
100
AcDbScale
70
0
300
1:30
140
1.0
141
30.0
290
0
0
SCALE
5
FB5
102
{ACAD_REACTORS
330
FAB
102
}
330
FAB
100
AcDbScale
70
0
300
1:40
140
1.0
141
40.0
290
0
0
SCALE
5
FB6
102
{ACAD_REACTORS
330
FAB
102
}
330
FAB
100
AcDbScale
70
0
300
1:50
140
1.0
141
50.0
290
0
0
SCALE
5
FB7
102
{ACAD_REACTORS
330
FAB
102
}
330
FAB
100
AcDbScale
70
0
300
1:100
140
1.0
141
100.0
290
0
0
SCALE
5
FB8
102
{ACAD_REACTORS
330
FAB
102
}
330
FAB
100
AcDbScale
70
0
300
2:1
140
2.0
141
1.0
290
0
0
SCALE
5
FB9
102
{ACAD_REACTORS
330
FAB
102
}
330
FAB
100
AcDbScale
70
0
300
4:1
140
4.0
141
1.0
290
0
0
SCALE
5
FBA
102
{ACAD_REACTORS
330
FAB
102
}
330
FAB
100
AcDbScale
70
0
300
8:1
140
8.0
141
1.0
290
0
0
SCALE
5
FBB
102
{ACAD_REACTORS
330
FAB
102
}
330
FAB
100
AcDbScale
70
0
300
10:1
140
10.0
141
1.0
290
0
0
SCALE
5
FBC
102
{ACAD_REACTORS
330
FAB
102
}
330
FAB
100
AcDbScale
70
0
300
100:1
140
100.0
141
1.0
290
0
0
SCALE
5
FBD
102
{ACAD_REACTORS
330
FAB
102
}
330
FAB
100
AcDbScale
70
0
300
1/128" = 1'-0"
140
0.0078125
141
12.0
290
0
0
SCALE
5
FBE
102
{ACAD_REACTORS
330
FAB
102
}
330
FAB
100
AcDbScale
70
0
300
1/64" = 1'-0"
140
0.015625
141
12.0
290
0
0
SCALE
5
FBF
102
{ACAD_REACTORS
330
FAB
102
}
330
FAB
100
AcDbScale
70
0
300
1/32" = 1'-0"
140
0.03125
141
12.0
290
0
0
SCALE
5
FC0
102
{ACAD_REACTORS
330
FAB
102
}
330
FAB
100
AcDbScale
70
0
300
1/16" = 1'-0"
140
0.0625
141
12.0
290
0
0
SCALE
5
FC1
102
{ACAD_REACTORS
330
FAB
102
}
330
FAB
100
AcDbScale
70
0
300
3/32" = 1'-0"
140
0.09375
141
12.0
290
0
0
SCALE
5
FC2
102
{ACAD_REACTORS
330
FAB
102
}
330
FAB
100
AcDbScale
70
0
300
1/8" = 1'-0"
140
0.125
141
12.0
290
0
0
SCALE
5
FC3
102
{ACAD_REACTORS
330
FAB
102
}
330
FAB
100
AcDbScale
70
0
300
3/16" = 1'-0"
140
0.1875
141
12.0
290
0
0
SCALE
5
FC4
102
{ACAD_REACTORS
330
FAB
102
}
330
FAB
100
AcDbScale
70
0
300
1/4" = 1'-0"
140
0.25
141
12.0
290
0
0
SCALE
5
FC5
102
{ACAD_REACTORS
330
FAB
102
}
330
FAB
100
AcDbScale
70
0
300
3/8" = 1'-0"
140
0.375
141
12.0
290
0
0
SCALE
5
FC6
102
{ACAD_REACTORS
330
FAB
102
}
330
FAB
100
AcDbScale
70
0
300
1/2" = 1'-0"
140
0.5
141
12.0
290
0
0
SCALE
5
FC7
102
{ACAD_REACTORS
330
FAB
102
}
330
FAB
100
AcDbScale
70
0
300
3/4" = 1'-0"
140
0.75
141
12.0
290
0
0
SCALE
5
FC8
102
{ACAD_REACTORS
330
FAB
102
}
330
FAB
100
AcDbScale
70
0
300
1" = 1'-0"
140
1.0
141
12.0
290
0
0
SCALE
5
FC9
102
{ACAD_REACTORS
330
FAB
102
}
330
FAB
100
AcDbScale
70
0
300
1-1/2" = 1'-0"
140
1.5
141
12.0
290
0
0
SCALE
5
FCA
102
{ACAD_REACTORS
330
FAB
102
}
330
FAB
100
AcDbScale
70
0
300
3" = 1'-0"
140
3.0
141
12.0
290
0
0
SCALE
5
FCB
102
{ACAD_REACTORS
330
FAB
102
}
330
FAB
100
AcDbScale
70
0
300
6" = 1'-0"
140
6.0
141
12.0
290
0
0
SCALE
5
FCC
102
{ACAD_REACTORS
330
FAB
102
}
330
FAB
100
AcDbScale
70
0
300
1'-0" = 1'-0"
140
12.0
141
12.0
290
0
0
TABLESTYLE
5
FA9
102
{ACAD_XDICTIONARY
360
FF8
102
}
102
{ACAD_REACTORS
330
FA8
102
}
330
FA8
100
AcDbTableStyle
3
Standard
70
0
71
0
40
0.06
41
0.06
280
0
281
0
7
Standard
140
0.18
170
2
62
0
63
7
283
0
274
-2
284
1
64
0
275
-2
285
1
65
0
276
-2
286
1
66
0
277
-2
287
1
67
0
278
-2
288
1
68
0
279
-2
289
1
69
0
7
Standard
140
0.25
170
5
62
0
63
7
283
0
274
-2
284
1
64
0
275
-2
285
1
65
0
276
-2
286
1
66
0
277
-2
287
1
67
0
278
-2
288
1
68
0
279
-2
289
1
69
0
7
Standard
140
0.18
170
5
62
0
63
7
283
0
274
-2
284
1
64
0
275
-2
285
1
65
0
276
-2
286
1
66
0
277
-2
287
1
67
0
278
-2
288
1
68
0
279
-2
289
1
69
0
0
VISUALSTYLE
5
F99
102
{ACAD_XDICTIONARY
360
108A
102
}
102
{ACAD_REACTORS
330
F93
102
}
330
F93
100
AcDbVisualStyle
2

70
4
71
0
72
2
73
0
90
0
40
-0.6
41
-30.0
62
5
63
7
74
1
91
4
64
7
65
257
75
1
175
1
42
1.0
92
0
66
257
43
1.0
76
1
77
6
78
2
67
7
79
5
170
0
171
0
290
0
174
0
93
1
44
0.0
173
0
291
0
45
0.0
1001
ACAD
1000
AcDbSavedByObjectVersion
1070
0
0
VISUALSTYLE
5
F9B
102
{ACAD_XDICTIONARY
360
108E
102
}
102
{ACAD_REACTORS
330
F93
102
}
330
F93
100
AcDbVisualStyle
2

70
6
71
1
72
2
73
2
90
0
40
-0.6
41
-30.0
62
5
63
7
74
2
91
2
64
7
65
257
75
2
175
1
42
179.0
92
0
66
257
43
1.0
76
1
77
6
78
2
67
7
79
3
170
0
171
0
290
0
174
0
93
1
44
0.0
173
0
291
0
45
0.0
1001
ACAD
1000
AcDbSavedByObjectVersion
1070
0
0
VISUALSTYLE
5
F9A
102
{ACAD_XDICTIONARY
360
108C
102
}
102
{ACAD_REACTORS
330
F93
102
}
330
F93
100
AcDbVisualStyle
2

70
5
71
0
72
2
73
0
90
0
40
-0.6
41
-30.0
62
5
63
7
74
1
91
4
64
7
65
257
75
1
175
1
42
1.0
92
0
66
257
43
1.0
76
1
77
6
78
2
67
7
79
5
170
0
171
0
290
0
174
0
93
1
44
0.0
173
0
291
0
45
0.0
1001
ACAD
1000
AcDbSavedByObjectVersion
1070
0
0
VISUALSTYLE
5
F98
102
{ACAD_XDICTIONARY
360
1088
102
}
102
{ACAD_REACTORS
330
F93
102
}
330
F93
100
AcDbVisualStyle
2

70
7
71
1
72
0
73
1
90
0
40
-0.6
41
-30.0
62
5
63
7
74
0
91
4
64
7
65
257
75
1
175
1
42
1.0
92
8
66
7
43
1.0
76
1
77
6
78
2
67
7
79
5
170
0
171
0
290
0
174
0
93
1
44
0.0
173
0
291
1
45
0.0
1001
ACAD
1000
AcDbSavedByObjectVersion
1070
0
0
VISUALSTYLE
5
F9F
102
{ACAD_XDICTIONARY
360
1096
102
}
102
{ACAD_REACTORS
330
F93
102
}
330
F93
100
AcDbVisualStyle
2

70
12
71
2
72
2
73
0
90
0
40
-0.6
41
-30.0
62
5
63
7
74
1
91
4
64
7
65
257
75
1
175
1
42
1.0
92
8
66
7
43
1.0
76
1
77
6
78
2
67
7
79
5
170
0
171
0
290
0
174
0
93
1
44
50.0
173
0
291
1
45
0.0
1001
ACAD
1000
AcDbSavedByObjectVersion
1070
0
0
VISUALSTYLE
5
FA3
102
{ACAD_XDICTIONARY
360
109E
102
}
102
{ACAD_REACTORS
330
F93
102
}
330
F93
100
AcDbVisualStyle
2

70
16
71
2
72
2
73
3
90
0
40
-0.6
41
-30.0
62
5
63
8
74
1
91
4
64
7
65
257
75
1
175
1
42
1.0
92
8
66
8
43
1.0
76
1
77
6
78
2
67
7
79
5
170
0
171
0
290
0
174
0
93
1
44
0.0
173
0
291
1
45
0.0
1001
ACAD
1000
AcDbSavedByObjectVersion
1070
0
0
VISUALSTYLE
5
F9C
102
{ACAD_XDICTIONARY
360
1090
102
}
102
{ACAD_REACTORS
330
F93
102
}
330
F93
100
AcDbVisualStyle
2

70
9
71
3
72
2
73
0
90
0
40
-0.6
41
-30.0
62
5
63
7
74
2
91
2
64
7
65
257
75
1
175
1
42
179.0
92
8
66
7
43
1.0
76
1
77
6
78
2
67
7
79
3
170
0
171
0
290
0
174
0
93
1
44
0.0
173
0
291
0
45
0.0
1001
ACAD
1000
AcDbSavedByObjectVersion
1070
0
0
VISUALSTYLE
5
F9E
102
{ACAD_XDICTIONARY
360
1094
102
}
102
{ACAD_REACTORS
330
F93
102
}
330
F93
100
AcDbVisualStyle
2

70
11
71
2
72
2
73
0
90
0
40
-0.6
41
-30.0
62
5
63
7
74
1
91
4
64
7
65
257
75
1
175
1
42
1.0
92
8
66
7
43
1.0
76
1
77
6
78
2
67
7
79
5
170
0
171
0
290
0
174
0
93
1
44
-50.0
173
0
291
1
45
0.0
1001
ACAD
1000
AcDbSavedByObjectVersion
1070
0
0
VISUALSTYLE
5
FA6
102
{ACAD_XDICTIONARY
360
10A4
102
}
102
{ACAD_REACTORS
330
F93
102
}
330
F93
100
AcDbVisualStyle
2

70
22
71
2
72
2
73
0
90
0
40
-0.6
41
-30.0
62
5
63
7
74
1
91
4
64
7
65
257
75
1
175
1
42
1.0
92
8
66
7
43
1.0
76
1
77
6
78
2
67
7
79
5
170
0
171
0
290
0
174
0
93
1
44
0.0
173
0
291
1
45
0.0
1001
ACAD
1000
AcDbSavedByObjectVersion
1070
0
0
VISUALSTYLE
5
FA2
102
{ACAD_XDICTIONARY
360
109C
102
}
102
{ACAD_REACTORS
330
F93
102
}
330
F93
100
AcDbVisualStyle
2

70
15
71
2
72
2
73
0
90
0
40
-0.6
41
-30.0
62
5
63
7
74
1
91
4
64
7
65
257
75
1
175
1
42
1.0
92
8
66
7
43
1.0
76
1
77
6
78
2
67
7
79
5
170
0
171
0
290
0
174
0
93
1
44
0.0
173
0
291
1
45
0.0
1001
ACAD
1000
AcDbSavedByObjectVersion
1070
0
0
VISUALSTYLE
5
F94
102
{ACAD_XDICTIONARY
360
1080
102
}
102
{ACAD_REACTORS
330
F93
102
}
330
F93
100
AcDbVisualStyle
2

70
0
71
2
72
1
73
1
90
2
40
-0.6
41
30.0
62
5
63
7
74
0
91
4
64
7
65
257
75
1
175
1
42
1.0
92
8
66
7
43
1.0
76
1
77
6
78
2
67
7
79
5
170
0
171
0
290
0
174
0
93
13
44
0.0
173
0
291
1
45
0.0
1001
ACAD
1000
AcDbSavedByObjectVersion
1070
0
0
VISUALSTYLE
5
F95
102
{ACAD_XDICTIONARY
360
1082
102
}
102
{ACAD_REACTORS
330
F93
102
}
330
F93
100
AcDbVisualStyle
2

70
1
71
2
72
1
73
1
90
2
40
-0.6
41
30.0
62
5
63
7
74
1
91
4
64
7
65
257
75
1
175
1
42
1.0
92
0
66
257
43
1.0
76
1
77
6
78
2
67
7
79
5
170
0
171
0
290
0
174
0
93
13
44
0.0
173
0
291
1
45
0.0
1001
ACAD
1000
AcDbSavedByObjectVersion
1070
0
0
VISUALSTYLE
5
F96
102
{ACAD_XDICTIONARY
360
1084
102
}
102
{ACAD_REACTORS
330
F93
102
}
330
F93
100
AcDbVisualStyle
2

70
2
71
2
72
2
73
1
90
2
40
-0.6
41
30.0
62
5
63
7
74
0
91
4
64
7
65
257
75
1
175
1
42
1.0
92
0
66
7
43
1.0
76
1
77
6
78
2
67
7
79
5
170
0
171
0
290
0
174
0
93
13
44
0.0
173
0
291
1
45
0.0
1001
ACAD
1000
AcDbSavedByObjectVersion
1070
0
0
VISUALSTYLE
5
F97
102
{ACAD_XDICTIONARY
360
1086
102
}
102
{ACAD_REACTORS
330
F93
102
}
330
F93
100
AcDbVisualStyle
2

70
3
71
2
72
2
73
1
90
2
40
-0.6
41
30.0
62
5
63
7
74
1
91
4
64
7
65
257
75
1
175
1
42
1.0
92
0
66
257
43
1.0
76
1
77
6
78
2
67
7
79
5
170
0
171
0
290
0
174
0
93
13
44
0.0
173
0
291
1
45
0.0
1001
ACAD
1000
AcDbSavedByObjectVersion
1070
0
0
VISUALSTYLE
5
FA4
102
{ACAD_XDICTIONARY
360
10A0
102
}
102
{ACAD_REACTORS
330
F93
102
}
330
F93
100
AcDbVisualStyle
2

70
20
71
2
72
2
73
0
90
0
40
-0.6
41
-30.0
62
5
63
7
74
1
91
4
64
7
65
257
75
1
175
1
42
1.0
92
10
66
7
43
1.0
76
1
77
6
78
2
67
7
79
5
170
0
171
0
290
0
174
0
93
1
44
0.0
173
0
291
1
45
0.0
1001
ACAD
1000
AcDbSavedByObjectVersion
1070
0
0
VISUALSTYLE
5
FA1
102
{ACAD_XDICTIONARY
360
109A
102
}
102
{ACAD_REACTORS
330
F93
102
}
330
F93
100
AcDbVisualStyle
2

70
14
71
2
72
2
73
0
90
0
40
-0.6
41
-30.0
62
5
63
7
74
1
91
4
64
7
65
257
75
7
175
7
42
1.0
92
8
66
7
43
1.0
76
1
77
6
78
2
67
7
79
5
170
0
171
0
290
0
174
0
93
1
44
0.0
173
0
291
1
45
0.0
1001
ACAD
1000
AcDbSavedByObjectVersion
1070
0
0
VISUALSTYLE
5
FA5
102
{ACAD_XDICTIONARY
360
10A2
102
}
102
{ACAD_REACTORS
330
F93
102
}
330
F93
100
AcDbVisualStyle
2

70
21
71
2
72
2
73
0
90
0
40
-0.6
41
-30.0
62
5
63
7
74
1
91
4
64
7
65
257
75
1
175
1
42
1.0
92
9
66
7
43
1.0
76
1
77
6
78
2
67
7
79
5
170
0
171
0
290
0
174
0
93
1
44
0.0
173
0
291
1
45
0.0
1001
ACAD
1000
AcDbSavedByObjectVersion
1070
0
0
VISUALSTYLE
5
F9D
102
{ACAD_XDICTIONARY
360
1092
102
}
102
{ACAD_REACTORS
330
F93
102
}
330
F93
100
AcDbVisualStyle
2

70
8
71
2
72
2
73
0
90
0
40
-0.6
41
-30.0
62
5
63
7
74
1
91
0
64
7
65
257
75
1
175
1
42
1.0
92
8
66
8
43
1.0
76
1
77
6
78
2
67
7
79
5
170
0
171
0
290
0
174
0
93
13
44
0.0
173
0
291
0
45
0.0
1001
ACAD
1000
AcDbSavedByObjectVersion
1070
0
0
VISUALSTYLE
5
FA0
102
{ACAD_XDICTIONARY
360
1098
102
}
102
{ACAD_REACTORS
330
F93
102
}
330
F93
100
AcDbVisualStyle
2

70
13
71
2
72
2
73
0
90
0
40
-0.6
41
-30.0
62
5
63
7
74
1
91
4
64
7
65
257
75
1
175
1
42
1.0
92
12
66
7
43
1.0
76
1
77
6
78
2
67
7
79
5
170
0
171
0
290
0
174
0
93
1
44
0.0
173
0
291
1
45
0.0
1001
ACAD
1000
AcDbSavedByObjectVersion
1070
0
0
DICTIONARYVAR
5
FF3
102
{ACAD_REACTORS
330
FF0
102
}
330
FF0
100
DictionaryVariables
280
0
1
1:1
0
DICTIONARYVAR
5
FF2
102
{ACAD_REACTORS
330
FF0
102
}
330
FF0
100
DictionaryVariables
280
0
1
STANDARD
0
DICTIONARYVAR
5
FF1
102
{ACAD_REACTORS
330
FF0
102
}
330
FF0
100
DictionaryVariables
280
0
1
STANDARD
0
DICTIONARYVAR
5
FF6
102
{ACAD_REACTORS
330
FF0
102
}
330
FF0
100
DictionaryVariables
280
0
1
1
0
DICTIONARYVAR
5
FF5
102
{ACAD_REACTORS
330
FF0
102
}
330
FF0
100
DictionaryVariables
280
0
1
0
0
DICTIONARYVAR
5
FF4
102
{ACAD_REACTORS
330
FF0
102
}
330
FF0
100
DictionaryVariables
280
0
1
127
0
DICTIONARYVAR
5
1078
102
{ACAD_REACTORS
330
FF0
102
}
330
FF0
100
DictionaryVariables
280
0
1
2
0
DICTIONARY
5
10A9
330
FD1
100
AcDbDictionary
280
1
281
1
3
ACAD_XREC_ROUNDTRIP
360
10AA
0
DICTIONARY
5
10A7
330
FD0
100
AcDbDictionary
280
1
281
1
3
ACAD_XREC_ROUNDTRIP
360
10A8
0
DICTIONARY
5
F84
330
F83
100
AcDbDictionary
280
1
281
1
3
ACAD_XREC_ROUNDTRIP
360
FFF
3
BUMPTILE
360
F86
3
DIFFUSETILE
360
F85
3
OPACITYTILE
360
F89
3
REFLECTIONTILE
360
F88
3
REFRACTIONTILE
360
F8A
3
SPECULARTILE
360
F87
0
DICTIONARY
5
F7C
330
F7B
100
AcDbDictionary
280
1
281
1
3
ACAD_XREC_ROUNDTRIP
360
FFE
3
BUMPTILE
360
F7E
3
DIFFUSETILE
360
F7D
3
OPACITYTILE
360
F81
3
REFLECTIONTILE
360
F80
3
REFRACTIONTILE
360
F82
3
SPECULARTILE
360
F7F
0
DICTIONARY
5
F8C
330
F8B
100
AcDbDictionary
280
1
281
1
3
ACAD_XREC_ROUNDTRIP
360
1000
3
BUMPTILE
360
F8E
3
DIFFUSETILE
360
F8D
3
OPACITYTILE
360
F91
3
REFLECTIONTILE
360
F90
3
REFRACTIONTILE
360
F92
3
SPECULARTILE
360
F8F
0
DICTIONARY
5
FF8
330
FA9
100
AcDbDictionary
280
1
281
1
3
ACAD_ROUNDTRIP_2008_TABLESTYLE_CELLSTYLEMAP
360
1079
3
ACAD_XREC_ROUNDTRIP
360
10A6
0
DICTIONARY
5
108A
330
F99
100
AcDbDictionary
280
1
281
1
3
ACAD_XREC_ROUNDTRIP
360
108B
0
DICTIONARY
5
108E
330
F9B
100
AcDbDictionary
280
1
281
1
3
ACAD_XREC_ROUNDTRIP
360
108F
0
DICTIONARY
5
108C
330
F9A
100
AcDbDictionary
280
1
281
1
3
ACAD_XREC_ROUNDTRIP
360
108D
0
DICTIONARY
5
1088
330
F98
100
AcDbDictionary
280
1
281
1
3
ACAD_XREC_ROUNDTRIP
360
1089
0
DICTIONARY
5
1096
330
F9F
100
AcDbDictionary
280
1
281
1
3
ACAD_XREC_ROUNDTRIP
360
1097
0
DICTIONARY
5
109E
330
FA3
100
AcDbDictionary
280
1
281
1
3
ACAD_XREC_ROUNDTRIP
360
109F
0
DICTIONARY
5
1090
330
F9C
100
AcDbDictionary
280
1
281
1
3
ACAD_XREC_ROUNDTRIP
360
1091
0
DICTIONARY
5
1094
330
F9E
100
AcDbDictionary
280
1
281
1
3
ACAD_XREC_ROUNDTRIP
360
1095
0
DICTIONARY
5
10A4
330
FA6
100
AcDbDictionary
280
1
281
1
3
ACAD_XREC_ROUNDTRIP
360
10A5
0
DICTIONARY
5
109C
330
FA2
100
AcDbDictionary
280
1
281
1
3
ACAD_XREC_ROUNDTRIP
360
109D
0
DICTIONARY
5
1080
330
F94
100
AcDbDictionary
280
1
281
1
3
ACAD_XREC_ROUNDTRIP
360
1081
0
DICTIONARY
5
1082
330
F95
100
AcDbDictionary
280
1
281
1
3
ACAD_XREC_ROUNDTRIP
360
1083
0
DICTIONARY
5
1084
330
F96
100
AcDbDictionary
280
1
281
1
3
ACAD_XREC_ROUNDTRIP
360
1085
0
DICTIONARY
5
1086
330
F97
100
AcDbDictionary
280
1
281
1
3
ACAD_XREC_ROUNDTRIP
360
1087
0
DICTIONARY
5
10A0
330
FA4
100
AcDbDictionary
280
1
281
1
3
ACAD_XREC_ROUNDTRIP
360
10A1
0
DICTIONARY
5
109A
330
FA1
100
AcDbDictionary
280
1
281
1
3
ACAD_XREC_ROUNDTRIP
360
109B
0
DICTIONARY
5
10A2
330
FA5
100
AcDbDictionary
280
1
281
1
3
ACAD_XREC_ROUNDTRIP
360
10A3
0
DICTIONARY
5
1092
330
F9D
100
AcDbDictionary
280
1
281
1
3
ACAD_XREC_ROUNDTRIP
360
1093
0
DICTIONARY
5
1098
330
FA0
100
AcDbDictionary
280
1
281
1
3
ACAD_XREC_ROUNDTRIP
360
1099
0
XRECORD
5
10AA
102
{ACAD_REACTORS
330
10A9
102
}
330
10A9
100
AcDbXrecord
280
1
102
SHADEPLOT
70
0
102
SHADEPLOTRESLEVEL
70
2
102
SHADEPLOTCUSTOMDPI
70
300
0
XRECORD
5
10A8
102
{ACAD_REACTORS
330
10A7
102
}
330
10A7
100
AcDbXrecord
280
1
102
SHADEPLOT
70
0
102
SHADEPLOTRESLEVEL
70
2
102
SHADEPLOTCUSTOMDPI
70
300
0
XRECORD
5
FFF
102
{ACAD_REACTORS
330
F84
102
}
330
F84
100
AcDbXrecord
280
1
102
MATERIAL
148
0.0
149
0.0
149
0.0
93
0
94
127
282
0
72
0
77
0
171
0
175
0
179
0
273
0
0
XRECORD
5
F86
102
{ACAD_REACTORS
330
F84
102
}
330
F84
100
AcDbXrecord
280
1
270
1
271
1
0
XRECORD
5
F85
102
{ACAD_REACTORS
330
F84
102
}
330
F84
100
AcDbXrecord
280
1
270
1
271
1
0
XRECORD
5
F89
102
{ACAD_REACTORS
330
F84
102
}
330
F84
100
AcDbXrecord
280
1
270
1
271
1
0
XRECORD
5
F88
102
{ACAD_REACTORS
330
F84
102
}
330
F84
100
AcDbXrecord
280
1
270
1
271
1
0
XRECORD
5
F8A
102
{ACAD_REACTORS
330
F84
102
}
330
F84
100
AcDbXrecord
280
1
270
1
271
1
0
XRECORD
5
F87
102
{ACAD_REACTORS
330
F84
102
}
330
F84
100
AcDbXrecord
280
1
270
1
271
1
0
XRECORD
5
FFE
102
{ACAD_REACTORS
330
F7C
102
}
330
F7C
100
AcDbXrecord
280
1
102
MATERIAL
148
0.0
149
0.0
149
0.0
93
0
94
127
282
0
72
0
77
0
171
0
175
0
179
0
273
0
0
XRECORD
5
F7E
102
{ACAD_REACTORS
330
F7C
102
}
330
F7C
100
AcDbXrecord
280
1
270
1
271
1
0
XRECORD
5
F7D
102
{ACAD_REACTORS
330
F7C
102
}
330
F7C
100
AcDbXrecord
280
1
270
1
271
1
0
XRECORD
5
F81
102
{ACAD_REACTORS
330
F7C
102
}
330
F7C
100
AcDbXrecord
280
1
270
1
271
1
0
XRECORD
5
F80
102
{ACAD_REACTORS
330
F7C
102
}
330
F7C
100
AcDbXrecord
280
1
270
1
271
1
0
XRECORD
5
F82
102
{ACAD_REACTORS
330
F7C
102
}
330
F7C
100
AcDbXrecord
280
1
270
1
271
1
0
XRECORD
5
F7F
102
{ACAD_REACTORS
330
F7C
102
}
330
F7C
100
AcDbXrecord
280
1
270
1
271
1
0
XRECORD
5
1000
102
{ACAD_REACTORS
330
F8C
102
}
330
F8C
100
AcDbXrecord
280
1
102
MATERIAL
148
0.0
149
0.0
149
0.0
93
0
94
127
282
0
72
0
77
0
171
0
175
0
179
0
273
0
0
XRECORD
5
F8E
102
{ACAD_REACTORS
330
F8C
102
}
330
F8C
100
AcDbXrecord
280
1
270
1
271
1
0
XRECORD
5
F8D
102
{ACAD_REACTORS
330
F8C
102
}
330
F8C
100
AcDbXrecord
280
1
270
1
271
1
0
XRECORD
5
F91
102
{ACAD_REACTORS
330
F8C
102
}
330
F8C
100
AcDbXrecord
280
1
270
1
271
1
0
XRECORD
5
F90
102
{ACAD_REACTORS
330
F8C
102
}
330
F8C
100
AcDbXrecord
280
1
270
1
271
1
0
XRECORD
5
F92
102
{ACAD_REACTORS
330
F8C
102
}
330
F8C
100
AcDbXrecord
280
1
270
1
271
1
0
XRECORD
5
F8F
102
{ACAD_REACTORS
330
F8C
102
}
330
F8C
100
AcDbXrecord
280
1
270
1
271
1
0
CELLSTYLEMAP
5
1079
102
{ACAD_REACTORS
330
FF8
102
}
330
FF8
100
AcDbCellStyleMap
90
3
300
CELLSTYLE
1
TABLEFORMAT_BEGIN
90
5
170
1
91
0
92
32768
62
257
93
1
300
CONTENTFORMAT
1
CONTENTFORMAT_BEGIN
90
0
91
0
92
512
93
0
300

40
0.0
140
1.0
94
5
62
0
340
253
144
0.25
309
CONTENTFORMAT_END
171
1
301
MARGIN
1
CELLMARGIN_BEGIN
40
0.06
40
0.06
40
0.06
40
0.06
40
0.18
40
0.18
309
CELLMARGIN_END
94
6
95
1
302
GRIDFORMAT
1
GRIDFORMAT_BEGIN
90
0
91
1
62
0
92
-2
340
0
93
0
40
0.045
309
GRIDFORMAT_END
95
2
302
GRIDFORMAT
1
GRIDFORMAT_BEGIN
90
0
91
1
62
0
92
-2
340
0
93
0
40
0.045
309
GRIDFORMAT_END
95
4
302
GRIDFORMAT
1
GRIDFORMAT_BEGIN
90
0
91
1
62
0
92
-2
340
0
93
0
40
0.045
309
GRIDFORMAT_END
95
8
302
GRIDFORMAT
1
GRIDFORMAT_BEGIN
90
0
91
1
62
0
92
-2
340
0
93
0
40
0.045
309
GRIDFORMAT_END
95
16
302
GRIDFORMAT
1
GRIDFORMAT_BEGIN
90
0
91
1
62
0
92
-2
340
0
93
0
40
0.045
309
GRIDFORMAT_END
95
32
302
GRIDFORMAT
1
GRIDFORMAT_BEGIN
90
0
91
1
62
0
92
-2
340
0
93
0
40
0.045
309
GRIDFORMAT_END
309
TABLEFORMAT_END
1
CELLSTYLE_BEGIN
90
1
91
1
300
_TITLE
309
CELLSTYLE_END
300
CELLSTYLE
1
TABLEFORMAT_BEGIN
90
5
170
1
91
0
92
0
62
257
93
1
300
CONTENTFORMAT
1
CONTENTFORMAT_BEGIN
90
0
91
0
92
512
93
0
300

40
0.0
140
1.0
94
5
62
0
340
253
144
0.18
309
CONTENTFORMAT_END
171
1
301
MARGIN
1
CELLMARGIN_BEGIN
40
0.06
40
0.06
40
0.06
40
0.06
40
0.18
40
0.18
309
CELLMARGIN_END
94
6
95
1
302
GRIDFORMAT
1
GRIDFORMAT_BEGIN
90
0
91
1
62
0
92
-2
340
0
93
0
40
0.045
309
GRIDFORMAT_END
95
2
302
GRIDFORMAT
1
GRIDFORMAT_BEGIN
90
0
91
1
62
0
92
-2
340
0
93
0
40
0.045
309
GRIDFORMAT_END
95
4
302
GRIDFORMAT
1
GRIDFORMAT_BEGIN
90
0
91
1
62
0
92
-2
340
0
93
0
40
0.045
309
GRIDFORMAT_END
95
8
302
GRIDFORMAT
1
GRIDFORMAT_BEGIN
90
0
91
1
62
0
92
-2
340
0
93
0
40
0.045
309
GRIDFORMAT_END
95
16
302
GRIDFORMAT
1
GRIDFORMAT_BEGIN
90
0
91
1
62
0
92
-2
340
0
93
0
40
0.045
309
GRIDFORMAT_END
95
32
302
GRIDFORMAT
1
GRIDFORMAT_BEGIN
90
0
91
1
62
0
92
-2
340
0
93
0
40
0.045
309
GRIDFORMAT_END
309
TABLEFORMAT_END
1
CELLSTYLE_BEGIN
90
2
91
1
300
_HEADER
309
CELLSTYLE_END
300
CELLSTYLE
1
TABLEFORMAT_BEGIN
90
5
170
1
91
0
92
0
62
257
93
1
300
CONTENTFORMAT
1
CONTENTFORMAT_BEGIN
90
0
91
0
92
512
93
0
300

40
0.0
140
1.0
94
2
62
0
340
253
144
0.18
309
CONTENTFORMAT_END
171
1
301
MARGIN
1
CELLMARGIN_BEGIN
40
0.06
40
0.06
40
0.06
40
0.06
40
0.18
40
0.18
309
CELLMARGIN_END
94
6
95
1
302
GRIDFORMAT
1
GRIDFORMAT_BEGIN
90
0
91
1
62
0
92
-2
340
0
93
0
40
0.045
309
GRIDFORMAT_END
95
2
302
GRIDFORMAT
1
GRIDFORMAT_BEGIN
90
0
91
1
62
0
92
-2
340
0
93
0
40
0.045
309
GRIDFORMAT_END
95
4
302
GRIDFORMAT
1
GRIDFORMAT_BEGIN
90
0
91
1
62
0
92
-2
340
0
93
0
40
0.045
309
GRIDFORMAT_END
95
8
302
GRIDFORMAT
1
GRIDFORMAT_BEGIN
90
0
91
1
62
0
92
-2
340
0
93
0
40
0.045
309
GRIDFORMAT_END
95
16
302
GRIDFORMAT
1
GRIDFORMAT_BEGIN
90
0
91
1
62
0
92
-2
340
0
93
0
40
0.045
309
GRIDFORMAT_END
95
32
302
GRIDFORMAT
1
GRIDFORMAT_BEGIN
90
0
91
1
62
0
92
-2
340
0
93
0
40
0.045
309
GRIDFORMAT_END
309
TABLEFORMAT_END
1
CELLSTYLE_BEGIN
90
3
91
2
300
_DATA
309
CELLSTYLE_END
0
XRECORD
5
10A6
102
{ACAD_REACTORS
330
FF8
102
}
330
FF8
100
AcDbXrecord
280
1
102
ACAD_ROUNDTRIP_PRE2007_TABLESTYLE
90
512
91
0
1

92
512
93
0
2

94
512
95
0
3

0
XRECORD
5
108B
102
{ACAD_REACTORS
330
108A
102
}
330
108A
100
AcDbXrecord
280
1
102
RTVSPropertyOp0
70
1
102
RTVSPropertyOp1
70
1
102
RTVSPropertyOp2
70
1
102
RTVSPropertyOp3
70
1
102
RTVSPropertyOp4
70
1
102
RTVSPropertyOp5
70
1
102
RTVSPropertyOp6
70
1
102
RTVSPropertyOp7
70
1
102
RTVSPropertyOp8
70
1
102
RTVSPropertyOp9
70
1
102
RTVSPropertyOp10
70
1
102
RTVSPropertyOp11
70
1
102
RTVSPropertyOp12
70
1
102
RTVSPropertyOp13
70
1
102
RTVSPropertyOp14
70
1
102
RTVSPropertyOp15
70
1
102
RTVSPropertyOp16
70
1
102
RTVSPropertyOp17
70
1
102
RTVSPropertyOp18
70
1
102
RTVSPropertyOp19
70
1
102
RTVSPropertyOp20
70
1
102
RTVSPropertyOp21
70
1
102
RTVSPropertyOp22
70
1
102
RTVSPropertyOp23
70
1
102
RTVSPropertyOp24
70
1
102
RTVSPropertyOp25
70
1
102
RTVSPropertyOp26
70
1
102
RTVSPropertyOp27
70
1
0
XRECORD
5
108F
102
{ACAD_REACTORS
330
108E
102
}
330
108E
100
AcDbXrecord
280
1
102
RTVSPropertyOp0
70
1
102
RTVSPropertyOp1
70
1
102
RTVSPropertyOp2
70
1
102
RTVSPropertyOp3
70
1
102
RTVSPropertyOp4
70
1
102
RTVSPropertyOp5
70
1
102
RTVSPropertyOp6
70
1
102
RTVSPropertyOp7
70
1
102
RTVSPropertyOp8
70
1
102
RTVSPropertyOp9
70
1
102
RTVSPropertyOp10
70
1
102
RTVSPropertyOp11
70
1
102
RTVSPropertyOp12
70
1
102
RTVSPropertyOp13
70
1
102
RTVSPropertyOp14
70
1
102
RTVSPropertyOp15
70
1
102
RTVSPropertyOp16
70
1
102
RTVSPropertyOp17
70
1
102
RTVSPropertyOp18
70
1
102
RTVSPropertyOp19
70
1
102
RTVSPropertyOp20
70
1
102
RTVSPropertyOp21
70
1
102
RTVSPropertyOp22
70
1
102
RTVSPropertyOp23
70
1
102
RTVSPropertyOp24
70
1
102
RTVSPropertyOp25
70
1
102
RTVSPropertyOp26
70
1
102
RTVSPropertyOp27
70
1
0
XRECORD
5
108D
102
{ACAD_REACTORS
330
108C
102
}
330
108C
100
AcDbXrecord
280
1
102
RTVSPropertyOp0
70
1
102
RTVSPropertyOp1
70
1
102
RTVSPropertyOp2
70
1
102
RTVSPropertyOp3
70
1
102
RTVSPropertyOp4
70
1
102
RTVSPropertyOp5
70
1
102
RTVSPropertyOp6
70
1
102
RTVSPropertyOp7
70
1
102
RTVSPropertyOp8
70
1
102
RTVSPropertyOp9
70
1
102
RTVSPropertyOp10
70
1
102
RTVSPropertyOp11
70
1
102
RTVSPropertyOp12
70
1
102
RTVSPropertyOp13
70
1
102
RTVSPropertyOp14
70
1
102
RTVSPropertyOp15
70
1
102
RTVSPropertyOp16
70
1
102
RTVSPropertyOp17
70
1
102
RTVSPropertyOp18
70
1
102
RTVSPropertyOp19
70
1
102
RTVSPropertyOp20
70
1
102
RTVSPropertyOp21
70
1
102
RTVSPropertyOp22
70
1
102
RTVSPropertyOp23
70
1
102
RTVSPropertyOp24
70
1
102
RTVSPropertyOp25
70
1
102
RTVSPropertyOp26
70
1
102
RTVSPropertyOp27
70
1
0
XRECORD
5
1089
102
{ACAD_REACTORS
330
1088
102
}
330
1088
100
AcDbXrecord
280
1
102
RTVSPropertyOp0
70
1
102
RTVSPropertyOp1
70
1
102
RTVSPropertyOp2
70
1
102
RTVSPropertyOp3
70
1
102
RTVSPropertyOp4
70
1
102
RTVSPropertyOp5
70
1
102
RTVSPropertyOp6
70
1
102
RTVSPropertyOp7
70
1
102
RTVSPropertyOp8
70
1
102
RTVSPropertyOp9
70
1
102
RTVSPropertyOp10
70
1
102
RTVSPropertyOp11
70
1
102
RTVSPropertyOp12
70
1
102
RTVSPropertyOp13
70
1
102
RTVSPropertyOp14
70
1
102
RTVSPropertyOp15
70
1
102
RTVSPropertyOp16
70
1
102
RTVSPropertyOp17
70
1
102
RTVSPropertyOp18
70
1
102
RTVSPropertyOp19
70
1
102
RTVSPropertyOp20
70
1
102
RTVSPropertyOp21
70
1
102
RTVSPropertyOp22
70
1
102
RTVSPropertyOp23
70
1
102
RTVSPropertyOp24
70
1
102
RTVSPropertyOp25
70
1
102
RTVSPropertyOp26
70
1
102
RTVSPropertyOp27
70
1
0
XRECORD
5
1097
102
{ACAD_REACTORS
330
1096
102
}
330
1096
100
AcDbXrecord
280
1
102
RTVSPropertyOp0
70
1
102
RTVSPropertyOp1
70
1
102
RTVSPropertyOp2
70
1
102
RTVSPropertyOp3
70
1
102
RTVSPropertyOp4
70
1
102
RTVSPropertyOp5
70
1
102
RTVSPropertyOp6
70
1
102
RTVSPropertyOp7
70
1
102
RTVSPropertyOp8
70
1
102
RTVSPropertyOp9
70
1
102
RTVSPropertyOp10
70
1
102
RTVSPropertyOp11
70
1
102
RTVSPropertyOp12
70
1
102
RTVSPropertyOp13
70
1
102
RTVSPropertyOp14
70
1
102
RTVSPropertyOp15
70
1
102
RTVSPropertyOp16
70
1
102
RTVSPropertyOp17
70
1
102
RTVSPropertyOp18
70
1
102
RTVSPropertyOp19
70
1
102
RTVSPropertyOp20
70
1
102
RTVSPropertyOp21
70
1
102
RTVSPropertyOp22
70
1
102
RTVSPropertyOp23
70
1
102
RTVSPropertyOp24
70
1
102
RTVSPropertyOp25
70
1
102
RTVSPropertyOp26
70
1
102
RTVSPropertyOp27
70
1
0
XRECORD
5
109F
102
{ACAD_REACTORS
330
109E
102
}
330
109E
100
AcDbXrecord
280
1
102
RTVSPropertyOp0
70
1
102
RTVSPropertyOp1
70
1
102
RTVSPropertyOp2
70
1
102
RTVSPropertyOp3
70
1
102
RTVSPropertyOp4
70
1
102
RTVSPropertyOp5
70
1
102
RTVSPropertyOp6
70
1
102
RTVSPropertyOp7
70
1
102
RTVSPropertyOp8
70
1
102
RTVSPropertyOp9
70
1
102
RTVSPropertyOp10
70
1
102
RTVSPropertyOp11
70
1
102
RTVSPropertyOp12
70
1
102
RTVSPropertyOp13
70
1
102
RTVSPropertyOp14
70
1
102
RTVSPropertyOp15
70
1
102
RTVSPropertyOp16
70
1
102
RTVSPropertyOp17
70
1
102
RTVSPropertyOp18
70
1
102
RTVSPropertyOp19
70
1
102
RTVSPropertyOp20
70
1
102
RTVSPropertyOp21
70
1
102
RTVSPropertyOp22
70
1
102
RTVSPropertyOp23
70
1
102
RTVSPropertyOp24
70
1
102
RTVSPropertyOp25
70
1
102
RTVSPropertyOp26
70
1
102
RTVSPropertyOp27
70
1
0
XRECORD
5
1091
102
{ACAD_REACTORS
330
1090
102
}
330
1090
100
AcDbXrecord
280
1
102
RTVSPropertyOp0
70
1
102
RTVSPropertyOp1
70
1
102
RTVSPropertyOp2
70
1
102
RTVSPropertyOp3
70
1
102
RTVSPropertyOp4
70
1
102
RTVSPropertyOp5
70
1
102
RTVSPropertyOp6
70
1
102
RTVSPropertyOp7
70
1
102
RTVSPropertyOp8
70
1
102
RTVSPropertyOp9
70
1
102
RTVSPropertyOp10
70
1
102
RTVSPropertyOp11
70
1
102
RTVSPropertyOp12
70
1
102
RTVSPropertyOp13
70
1
102
RTVSPropertyOp14
70
1
102
RTVSPropertyOp15
70
1
102
RTVSPropertyOp16
70
1
102
RTVSPropertyOp17
70
1
102
RTVSPropertyOp18
70
1
102
RTVSPropertyOp19
70
1
102
RTVSPropertyOp20
70
1
102
RTVSPropertyOp21
70
1
102
RTVSPropertyOp22
70
1
102
RTVSPropertyOp23
70
1
102
RTVSPropertyOp24
70
1
102
RTVSPropertyOp25
70
1
102
RTVSPropertyOp26
70
1
102
RTVSPropertyOp27
70
1
0
XRECORD
5
1095
102
{ACAD_REACTORS
330
1094
102
}
330
1094
100
AcDbXrecord
280
1
102
RTVSPropertyOp0
70
1
102
RTVSPropertyOp1
70
1
102
RTVSPropertyOp2
70
1
102
RTVSPropertyOp3
70
1
102
RTVSPropertyOp4
70
1
102
RTVSPropertyOp5
70
1
102
RTVSPropertyOp6
70
1
102
RTVSPropertyOp7
70
1
102
RTVSPropertyOp8
70
1
102
RTVSPropertyOp9
70
1
102
RTVSPropertyOp10
70
1
102
RTVSPropertyOp11
70
1
102
RTVSPropertyOp12
70
1
102
RTVSPropertyOp13
70
1
102
RTVSPropertyOp14
70
1
102
RTVSPropertyOp15
70
1
102
RTVSPropertyOp16
70
1
102
RTVSPropertyOp17
70
1
102
RTVSPropertyOp18
70
1
102
RTVSPropertyOp19
70
1
102
RTVSPropertyOp20
70
1
102
RTVSPropertyOp21
70
1
102
RTVSPropertyOp22
70
1
102
RTVSPropertyOp23
70
1
102
RTVSPropertyOp24
70
1
102
RTVSPropertyOp25
70
1
102
RTVSPropertyOp26
70
1
102
RTVSPropertyOp27
70
1
0
XRECORD
5
10A5
102
{ACAD_REACTORS
330
10A4
102
}
330
10A4
100
AcDbXrecord
280
1
102
RTVSPropertyOp0
70
0
102
RTVSPropertyOp1
70
0
102
RTVSPropertyOp2
70
0
102
RTVSPropertyOp3
70
0
102
RTVSPropertyOp4
70
0
102
RTVSPropertyOp5
70
0
102
RTVSPropertyOp6
70
0
102
RTVSPropertyOp7
70
0
102
RTVSPropertyOp8
70
0
102
RTVSPropertyOp9
70
0
102
RTVSPropertyOp10
70
0
102
RTVSPropertyOp11
70
0
102
RTVSPropertyOp12
70
0
102
RTVSPropertyOp13
70
0
102
RTVSPropertyOp14
70
2
102
RTVSPropertyOp15
70
0
102
RTVSPropertyOp16
70
0
102
RTVSPropertyOp17
70
0
102
RTVSPropertyOp18
70
0
102
RTVSPropertyOp19
70
0
102
RTVSPropertyOp20
70
0
102
RTVSPropertyOp21
70
0
102
RTVSPropertyOp22
70
0
102
RTVSPropertyOp23
70
0
102
RTVSPropertyOp24
70
0
102
RTVSPropertyOp25
70
0
102
RTVSPropertyOp26
70
0
102
RTVSPropertyOp27
70
0
0
XRECORD
5
109D
102
{ACAD_REACTORS
330
109C
102
}
330
109C
100
AcDbXrecord
280
1
102
RTVSPropertyOp0
70
1
102
RTVSPropertyOp1
70
1
102
RTVSPropertyOp2
70
1
102
RTVSPropertyOp3
70
1
102
RTVSPropertyOp4
70
1
102
RTVSPropertyOp5
70
1
102
RTVSPropertyOp6
70
1
102
RTVSPropertyOp7
70
1
102
RTVSPropertyOp8
70
1
102
RTVSPropertyOp9
70
1
102
RTVSPropertyOp10
70
1
102
RTVSPropertyOp11
70
1
102
RTVSPropertyOp12
70
1
102
RTVSPropertyOp13
70
1
102
RTVSPropertyOp14
70
1
102
RTVSPropertyOp15
70
1
102
RTVSPropertyOp16
70
1
102
RTVSPropertyOp17
70
1
102
RTVSPropertyOp18
70
1
102
RTVSPropertyOp19
70
1
102
RTVSPropertyOp20
70
1
102
RTVSPropertyOp21
70
1
102
RTVSPropertyOp22
70
1
102
RTVSPropertyOp23
70
1
102
RTVSPropertyOp24
70
1
102
RTVSPropertyOp25
70
1
102
RTVSPropertyOp26
70
1
102
RTVSPropertyOp27
70
1
0
XRECORD
5
1081
102
{ACAD_REACTORS
330
1080
102
}
330
1080
100
AcDbXrecord
280
1
102
RTVSPropertyOp0
70
1
102
RTVSPropertyOp1
70
1
102
RTVSPropertyOp2
70
1
102
RTVSPropertyOp3
70
1
102
RTVSPropertyOp4
70
1
102
RTVSPropertyOp5
70
1
102
RTVSPropertyOp6
70
1
102
RTVSPropertyOp7
70
1
102
RTVSPropertyOp8
70
1
102
RTVSPropertyOp9
70
1
102
RTVSPropertyOp10
70
1
102
RTVSPropertyOp11
70
1
102
RTVSPropertyOp12
70
1
102
RTVSPropertyOp13
70
1
102
RTVSPropertyOp14
70
1
102
RTVSPropertyOp15
70
1
102
RTVSPropertyOp16
70
1
102
RTVSPropertyOp17
70
1
102
RTVSPropertyOp18
70
1
102
RTVSPropertyOp19
70
1
102
RTVSPropertyOp20
70
1
102
RTVSPropertyOp21
70
1
102
RTVSPropertyOp22
70
1
102
RTVSPropertyOp23
70
1
102
RTVSPropertyOp24
70
1
102
RTVSPropertyOp25
70
1
102
RTVSPropertyOp26
70
1
102
RTVSPropertyOp27
70
1
0
XRECORD
5
1083
102
{ACAD_REACTORS
330
1082
102
}
330
1082
100
AcDbXrecord
280
1
102
RTVSPropertyOp0
70
1
102
RTVSPropertyOp1
70
1
102
RTVSPropertyOp2
70
1
102
RTVSPropertyOp3
70
1
102
RTVSPropertyOp4
70
1
102
RTVSPropertyOp5
70
1
102
RTVSPropertyOp6
70
1
102
RTVSPropertyOp7
70
1
102
RTVSPropertyOp8
70
1
102
RTVSPropertyOp9
70
1
102
RTVSPropertyOp10
70
1
102
RTVSPropertyOp11
70
1
102
RTVSPropertyOp12
70
1
102
RTVSPropertyOp13
70
1
102
RTVSPropertyOp14
70
1
102
RTVSPropertyOp15
70
1
102
RTVSPropertyOp16
70
1
102
RTVSPropertyOp17
70
1
102
RTVSPropertyOp18
70
1
102
RTVSPropertyOp19
70
1
102
RTVSPropertyOp20
70
1
102
RTVSPropertyOp21
70
1
102
RTVSPropertyOp22
70
1
102
RTVSPropertyOp23
70
1
102
RTVSPropertyOp24
70
1
102
RTVSPropertyOp25
70
1
102
RTVSPropertyOp26
70
1
102
RTVSPropertyOp27
70
1
0
XRECORD
5
1085
102
{ACAD_REACTORS
330
1084
102
}
330
1084
100
AcDbXrecord
280
1
102
RTVSPropertyOp0
70
1
102
RTVSPropertyOp1
70
1
102
RTVSPropertyOp2
70
1
102
RTVSPropertyOp3
70
1
102
RTVSPropertyOp4
70
1
102
RTVSPropertyOp5
70
1
102
RTVSPropertyOp6
70
1
102
RTVSPropertyOp7
70
1
102
RTVSPropertyOp8
70
1
102
RTVSPropertyOp9
70
1
102
RTVSPropertyOp10
70
1
102
RTVSPropertyOp11
70
1
102
RTVSPropertyOp12
70
1
102
RTVSPropertyOp13
70
1
102
RTVSPropertyOp14
70
1
102
RTVSPropertyOp15
70
1
102
RTVSPropertyOp16
70
1
102
RTVSPropertyOp17
70
1
102
RTVSPropertyOp18
70
1
102
RTVSPropertyOp19
70
1
102
RTVSPropertyOp20
70
1
102
RTVSPropertyOp21
70
1
102
RTVSPropertyOp22
70
1
102
RTVSPropertyOp23
70
1
102
RTVSPropertyOp24
70
1
102
RTVSPropertyOp25
70
1
102
RTVSPropertyOp26
70
1
102
RTVSPropertyOp27
70
1
0
XRECORD
5
1087
102
{ACAD_REACTORS
330
1086
102
}
330
1086
100
AcDbXrecord
280
1
102
RTVSPropertyOp0
70
1
102
RTVSPropertyOp1
70
1
102
RTVSPropertyOp2
70
1
102
RTVSPropertyOp3
70
1
102
RTVSPropertyOp4
70
1
102
RTVSPropertyOp5
70
1
102
RTVSPropertyOp6
70
1
102
RTVSPropertyOp7
70
1
102
RTVSPropertyOp8
70
1
102
RTVSPropertyOp9
70
1
102
RTVSPropertyOp10
70
1
102
RTVSPropertyOp11
70
1
102
RTVSPropertyOp12
70
1
102
RTVSPropertyOp13
70
1
102
RTVSPropertyOp14
70
1
102
RTVSPropertyOp15
70
1
102
RTVSPropertyOp16
70
1
102
RTVSPropertyOp17
70
1
102
RTVSPropertyOp18
70
1
102
RTVSPropertyOp19
70
1
102
RTVSPropertyOp20
70
1
102
RTVSPropertyOp21
70
1
102
RTVSPropertyOp22
70
1
102
RTVSPropertyOp23
70
1
102
RTVSPropertyOp24
70
1
102
RTVSPropertyOp25
70
1
102
RTVSPropertyOp26
70
1
102
RTVSPropertyOp27
70
1
0
XRECORD
5
10A1
102
{ACAD_REACTORS
330
10A0
102
}
330
10A0
100
AcDbXrecord
280
1
102
RTVSPropertyOp0
70
0
102
RTVSPropertyOp1
70
0
102
RTVSPropertyOp2
70
0
102
RTVSPropertyOp3
70
0
102
RTVSPropertyOp4
70
0
102
RTVSPropertyOp5
70
0
102
RTVSPropertyOp6
70
0
102
RTVSPropertyOp7
70
0
102
RTVSPropertyOp8
70
0
102
RTVSPropertyOp9
70
0
102
RTVSPropertyOp10
70
0
102
RTVSPropertyOp11
70
0
102
RTVSPropertyOp12
70
0
102
RTVSPropertyOp13
70
0
102
RTVSPropertyOp14
70
2
102
RTVSPropertyOp15
70
0
102
RTVSPropertyOp16
70
0
102
RTVSPropertyOp17
70
0
102
RTVSPropertyOp18
70
0
102
RTVSPropertyOp19
70
0
102
RTVSPropertyOp20
70
0
102
RTVSPropertyOp21
70
0
102
RTVSPropertyOp22
70
0
102
RTVSPropertyOp23
70
0
102
RTVSPropertyOp24
70
0
102
RTVSPropertyOp25
70
0
102
RTVSPropertyOp26
70
0
102
RTVSPropertyOp27
70
0
0
XRECORD
5
109B
102
{ACAD_REACTORS
330
109A
102
}
330
109A
100
AcDbXrecord
280
1
102
RTVSPropertyOp0
70
1
102
RTVSPropertyOp1
70
1
102
RTVSPropertyOp2
70
1
102
RTVSPropertyOp3
70
1
102
RTVSPropertyOp4
70
1
102
RTVSPropertyOp5
70
1
102
RTVSPropertyOp6
70
1
102
RTVSPropertyOp7
70
1
102
RTVSPropertyOp8
70
1
102
RTVSPropertyOp9
70
1
102
RTVSPropertyOp10
70
1
102
RTVSPropertyOp11
70
1
102
RTVSPropertyOp12
70
1
102
RTVSPropertyOp13
70
1
102
RTVSPropertyOp14
70
1
102
RTVSPropertyOp15
70
1
102
RTVSPropertyOp16
70
1
102
RTVSPropertyOp17
70
1
102
RTVSPropertyOp18
70
1
102
RTVSPropertyOp19
70
1
102
RTVSPropertyOp20
70
1
102
RTVSPropertyOp21
70
1
102
RTVSPropertyOp22
70
1
102
RTVSPropertyOp23
70
1
102
RTVSPropertyOp24
70
1
102
RTVSPropertyOp25
70
1
102
RTVSPropertyOp26
70
1
102
RTVSPropertyOp27
70
1
0
XRECORD
5
10A3
102
{ACAD_REACTORS
330
10A2
102
}
330
10A2
100
AcDbXrecord
280
1
102
RTVSPropertyOp0
70
0
102
RTVSPropertyOp1
70
0
102
RTVSPropertyOp2
70
0
102
RTVSPropertyOp3
70
0
102
RTVSPropertyOp4
70
0
102
RTVSPropertyOp5
70
0
102
RTVSPropertyOp6
70
0
102
RTVSPropertyOp7
70
0
102
RTVSPropertyOp8
70
0
102
RTVSPropertyOp9
70
0
102
RTVSPropertyOp10
70
0
102
RTVSPropertyOp11
70
0
102
RTVSPropertyOp12
70
0
102
RTVSPropertyOp13
70
0
102
RTVSPropertyOp14
70
2
102
RTVSPropertyOp15
70
0
102
RTVSPropertyOp16
70
0
102
RTVSPropertyOp17
70
0
102
RTVSPropertyOp18
70
0
102
RTVSPropertyOp19
70
0
102
RTVSPropertyOp20
70
0
102
RTVSPropertyOp21
70
0
102
RTVSPropertyOp22
70
0
102
RTVSPropertyOp23
70
0
102
RTVSPropertyOp24
70
0
102
RTVSPropertyOp25
70
0
102
RTVSPropertyOp26
70
0
102
RTVSPropertyOp27
70
0
0
XRECORD
5
1093
102
{ACAD_REACTORS
330
1092
102
}
330
1092
100
AcDbXrecord
280
1
102
RTVSPropertyOp0
70
1
102
RTVSPropertyOp1
70
1
102
RTVSPropertyOp2
70
1
102
RTVSPropertyOp3
70
1
102
RTVSPropertyOp4
70
1
102
RTVSPropertyOp5
70
1
102
RTVSPropertyOp6
70
1
102
RTVSPropertyOp7
70
1
102
RTVSPropertyOp8
70
1
102
RTVSPropertyOp9
70
1
102
RTVSPropertyOp10
70
1
102
RTVSPropertyOp11
70
1
102
RTVSPropertyOp12
70
1
102
RTVSPropertyOp13
70
1
102
RTVSPropertyOp14
70
1
102
RTVSPropertyOp15
70
1
102
RTVSPropertyOp16
70
1
102
RTVSPropertyOp17
70
1
102
RTVSPropertyOp18
70
1
102
RTVSPropertyOp19
70
1
102
RTVSPropertyOp20
70
1
102
RTVSPropertyOp21
70
1
102
RTVSPropertyOp22
70
1
102
RTVSPropertyOp23
70
1
102
RTVSPropertyOp24
70
1
102
RTVSPropertyOp25
70
1
102
RTVSPropertyOp26
70
1
102
RTVSPropertyOp27
70
1
0
XRECORD
5
1099
102
{ACAD_REACTORS
330
1098
102
}
330
1098
100
AcDbXrecord
280
1
102
RTVSPropertyOp0
70
1
102
RTVSPropertyOp1
70
1
102
RTVSPropertyOp2
70
1
102
RTVSPropertyOp3
70
1
102
RTVSPropertyOp4
70
1
102
RTVSPropertyOp5
70
1
102
RTVSPropertyOp6
70
1
102
RTVSPropertyOp7
70
1
102
RTVSPropertyOp8
70
1
102
RTVSPropertyOp9
70
1
102
RTVSPropertyOp10
70
1
102
RTVSPropertyOp11
70
1
102
RTVSPropertyOp12
70
1
102
RTVSPropertyOp13
70
1
102
RTVSPropertyOp14
70
1
102
RTVSPropertyOp15
70
1
102
RTVSPropertyOp16
70
1
102
RTVSPropertyOp17
70
1
102
RTVSPropertyOp18
70
1
102
RTVSPropertyOp19
70
1
102
RTVSPropertyOp20
70
1
102
RTVSPropertyOp21
70
1
102
RTVSPropertyOp22
70
1
102
RTVSPropertyOp23
70
1
102
RTVSPropertyOp24
70
1
102
RTVSPropertyOp25
70
1
102
RTVSPropertyOp26
70
1
102
RTVSPropertyOp27
70
1
0
ENDSEC
0
EOF
