0
SECTION
2
HEADER
9
$ACADVER
1
AC1015
9
$ACADMAINTVER
70
20
9
$DWGCODEPAGE
3
ANSI_1252
9
$INSBASE
10
0.0
20
0.0
30
0.0
9
$EXTMIN
10
-150.000000000000
20
-105.000000000000
30
0.0
9
$EXTMAX
10
150.000000000000
20
105.000000000000
30
0.0
9
$LIMMIN
10
0.0
20
0.0
9
$LIMMAX
10
12.0
20
9.0
9
$ORTHOMODE
70
0
9
$REGENMODE
70
1
9
$FILLMODE
70
1
9
$QTEXTMODE
70
0
9
$MIRRTEXT
70
1
9
$LTSCALE
40
1.0
9
$ATTMODE
70
1
9
$TEXTSIZE
40
0.2
9
$TRACEWID
40
0.05
9
$TEXTSTYLE
7
Standard
9
$CLAYER
8
0
9
$CELTYPE
6
ByLayer
9
$CECOLOR
62
256
9
$CELTSCALE
40
1.0
9
$DISPSILH
70
0
9
$DIMSCALE
40
1.0
9
$DIMASZ
40
2.5
9
$DIMEXO
40
0.625
9
$DIMDLI
40
0.38
9
$DIMRND
40
0.0
9
$DIMDLE
40
0.0
9
$DIMEXE
40
1.25
9
$DIMTP
40
0.0
9
$DIMTM
40
0.000000001
9
$DIMTXT
40
2.5
9
$DIMCEN
40
0.09
9
$DIMTSZ
40
0.0
9
$DIMTOL
70
1
9
$DIMLIM
70
0
9
$DIMTIH
70
0
9
$DIMTOH
70
0
9
$DIMSE1
70
0
9
$DIMSE2
70
0
9
$DIMTAD
70
1
9
$DIMZIN
70
0
9
$DIMBLK
1
VDDIM_DEFAULT
9
$DIMASO
70
1
9
$DIMSHO
70
1
9
$DIMPOST
1

9
$DIMAPOST
1

9
$DIMALT
70
0
9
$DIMALTD
70
2
9
$DIMALTF
40
25.4
9
$DIMLFAC
40
1.00000000000000
9
$DIMTOFL
70
0
9
$DIMTVP
40
0.0
9
$DIMTIX
70
0
9
$DIMSOXD
70
0
9
$DIMSAH
70
0
9
$DIMBLK1
1

9
$DIMBLK2
1

9
$DIMSTYLE
2
BEM-ISBE
9
$DIMCLRD
70
0
9
$DIMCLRE
70
0
9
$DIMCLRT
70
0
9
$DIMTFAC
40
0.5
9
$DIMGAP
40
0.625
9
$DIMJUST
70
0
9
$DIMSD1
70
0
9
$DIMSD2
70
0
9
$DIMTOLJ
70
1
9
$DIMTZIN
70
0
9
$DIMALTZ
70
0
9
$DIMALTTZ
70
0
9
$DIMUPT
70
0
9
$DIMDEC
70
3
9
$DIMTDEC
70
3
9
$DIMALTU
70
2
9
$DIMALTTD
70
2
9
$DIMTXSTY
7
Standard
9
$DIMAUNIT
70
0
9
$DIMADEC
70
3
9
$DIMALTRND
40
0.0
9
$DIMAZIN
70
0
9
$DIMDSEP
70
46
9
$DIMATFIT
70
3
9
$DIMFRAC
70
0
9
$DIMLDRBLK
1

9
$DIMLUNIT
70
2
9
$DIMLWD
70
-2
9
$DIMLWE
70
-2
9
$DIMTMOVE
70
0
9
$LUNITS
70
2
9
$LUPREC
70
4
9
$SKETCHINC
40
0.1
9
$FILLETRAD
40
0.5
9
$AUNITS
70
0
9
$AUPREC
70
0
9
$MENU
1
.
9
$ELEVATION
40
0.0
9
$PELEVATION
40
0.0
9
$THICKNESS
40
0.0
9
$LIMCHECK
70
0
9
$CHAMFERA
40
0.5
9
$CHAMFERB
40
0.5
9
$CHAMFERC
40
1.0
9
$CHAMFERD
40
0.0
9
$SKPOLY
70
0
9
$TDCREATE
40
0.0
9
$TDUCREATE
40
0.0
9
$TDUPDATE
40
0.0
9
$TDUUPDATE
40
0.0
9
$TDINDWG
40
0.0
9
$TDUSRTIMER
40
0.0
9
$USRTIMER
70
1
9
$ANGBASE
50
0.0
9
$ANGDIR
70
0
9
$PDMODE
70
0
9
$PDSIZE
40
0.0
9
$PLINEWID
40
0.0
9
$SPLFRAME
70
0
9
$SPLINETYPE
70
6
9
$SPLINESEGS
70
8
9
$HANDSEED
5
10AB
9
$SURFTAB1
70
6
9
$SURFTAB2
70
6
9
$SURFTYPE
70
6
9
$SURFU
70
6
9
$SURFV
70
6
9
$UCSBASE
2

9
$UCSNAME
2

9
$UCSORG
10
0.0
20
0.0
30
0.0
9
$UCSXDIR
10
1.0
20
0.0
30
0.0
9
$UCSYDIR
10
0.0
20
1.0
30
0.0
9
$UCSORTHOREF
2

9
$UCSORTHOVIEW
70
0
9
$UCSORGTOP
10
0.0
20
0.0
30
0.0
9
$UCSORGBOTTOM
10
0.0
20
0.0
30
0.0
9
$UCSORGLEFT
10
0.0
20
0.0
30
0.0
9
$UCSORGRIGHT
10
0.0
20
0.0
30
0.0
9
$UCSORGFRONT
10
0.0
20
0.0
30
0.0
9
$UCSORGBACK
10
0.0
20
0.0
30
0.0
9
$PUCSBASE
2

9
$PUCSNAME
2

9
$PUCSORG
10
0.0
20
0.0
30
0.0
9
$PUCSXDIR
10
1.0
20
0.0
30
0.0
9
$PUCSYDIR
10
0.0
20
1.0
30
0.0
9
$PUCSORTHOREF
2

9
$PUCSORTHOVIEW
70
0
9
$PUCSORGTOP
10
0.0
20
0.0
30
0.0
9
$PUCSORGBOTTOM
10
0.0
20
0.0
30
0.0
9
$PUCSORGLEFT
10
0.0
20
0.0
30
0.0
9
$PUCSORGRIGHT
10
0.0
20
0.0
30
0.0
9
$PUCSORGFRONT
10
0.0
20
0.0
30
0.0
9
$PUCSORGBACK
10
0.0
20
0.0
30
0.0
9
$USERI1
70
0
9
$USERI2
70
0
9
$USERI3
70
0
9
$USERI4
70
0
9
$USERI5
70
0
9
$USERR1
40
0.0
9
$USERR2
40
0.0
9
$USERR3
40
0.0
9
$USERR4
40
0.0
9
$USERR5
40
0.0
9
$WORLDVIEW
70
1
9
$SHADEDGE
70
3
9
$SHADEDIF
70
70
9
$TILEMODE
70
1
9
$MAXACTVP
70
64
9
$PINSBASE
10
0.0
20
0.0
30
0.0
9
$PLIMCHECK
70
0
9
$PEXTMIN
10
1.000000000000000E+20
20
1.000000000000000E+20
30
1.000000000000000E+20
9
$PEXTMAX
10
-1.000000000000000E+20
20
-1.000000000000000E+20
30
-1.000000000000000E+20
9
$PLIMMIN
10
0.0
20
0.0
9
$PLIMMAX
10
12.0
20
9.0
9
$UNITMODE
70
0
9
$VISRETAIN
70
1
9
$PLINEGEN
70
0
9
$PSLTSCALE
70
1
9
$TREEDEPTH
70
3020
9
$CMLSTYLE
2
Standard
9
$CMLJUST
70
0
9
$CMLSCALE
40
1.0
9
$PROXYGRAPHICS
70
1
9
$MEASUREMENT
70
0
9
$CELWEIGHT
370
-1
9
$ENDCAPS
280
0
9
$JOINSTYLE
280
0
9
$LWDISPLAY
290
0
9
$INSUNITS
70
4
9
$HYPERLINKBASE
1

9
$STYLESHEET
1

9
$XEDIT
290
1
9
$CEPSNTYPE
380
0
9
$PSTYLEMODE
290
0
9
$FINGERPRINTGUID
2
{FAEB1C30-E019-11D5-929B-00C0DF256EC4}
9
$VERSIONGUID
2
{04C5C4E4-4947-4D90-8812-D401569E61F7}
9
$EXTNAMES
290
1
9
$PSVPSCALE
40
0.0
9
$OLESTARTUP
290
0
0
ENDSEC
0
SECTION
2
TABLES
0
TABLE
2
VPORT
5
24A
330
0
100
AcDbSymbolTable
70
1
0
VPORT
5
26B
330
24A
100
AcDbSymbolTableRecord
100
AcDbViewportTableRecord
2
*Active
70
0
10
0.0
20
0.0
11
1.0
21
1.0
12
0.000000000000000
22
0.000000000000000
13
0.0
23
0.0
14
10.0
24
10.0
15
10.0
25
10.0
16
0.0
26
0.0
36
1.0
17
0.0
27
0.0
37
0.0
40
210.000000000000
41
1.42857142857143
42
1.0
43
0.0
44
0.0
50
0.0
51
0.0000000000007958
71
0
72
100
73
1
74
3
75
0
76
0
77
0
78
1
281
0
65
1
110
0.0
120
0.0
130
0.0
111
1.0
121
0.0
131
0.0
112
0.0
122
1.0
132
0.0
79
0
146
0.0
0
ENDTAB
0
TABLE
2
LTYPE
5
247
330
0
100
AcDbSymbolTable
70
25
0
LTYPE
5
256
330
247
100
AcDbSymbolTableRecord
100
AcDbLinetypeTableRecord
2
ByBlock
70
0
3

72
65
73
0
40
0.0
0
LTYPE
5
257
330
247
100
AcDbSymbolTableRecord
100
AcDbLinetypeTableRecord
2
ByLayer
70
0
3

72
65
73
0
40
0.0
0
LTYPE
5
258
330
247
100
AcDbSymbolTableRecord
100
AcDbLinetypeTableRecord
2
Continuous
70
0
3
Solid line
72
65
73
0
40
0.0
0
LTYPE
5
273
330
247
100
AcDbSymbolTableRecord
100
AcDbLinetypeTableRecord
2
CENTER
70
0
3
Center ____ _ ____ _ ____ _ ____ _ ____ _ ____
72
65
73
4
40
2.0
49
1.25
74
0
49
-0.25
74
0
49
0.25
74
0
49
-0.25
74
0
0
LTYPE
5
274
330
247
100
AcDbSymbolTableRecord
100
AcDbLinetypeTableRecord
2
DASHDOT
70
0
3
Dashdot __ . __ . __ . __ . __ . __ . __ . __
72
65
73
4
40
1.0
49
0.5
74
0
49
-0.25
74
0
49
0.0
74
0
49
-0.25
74
0
0
LTYPE
5
275
330
247
100
AcDbSymbolTableRecord
100
AcDbLinetypeTableRecord
2
DASHED
70
0
3
Dashed __ __ __ __ __ __ __ __ __ __ __ __ __ _
72
65
73
2
40
0.75
49
0.5
74
0
49
-0.25
74
0
0
LTYPE
5
276
330
247
100
AcDbSymbolTableRecord
100
AcDbLinetypeTableRecord
2
HIDDEN
70
0
3
Hidden __ __ __ __ __ __ __ __ __ __ __ __ __ __
72
65
73
2
40
0.375
49
0.25
74
0
49
-0.125
74
0
0
LTYPE
5
277
330
247
100
AcDbSymbolTableRecord
100
AcDbLinetypeTableRecord
2
HIDDEN2
70
0
3
Hidden2 _ _ _ _ _ _ _ _ _ _ _ _ _ _ _ _ _
72
65
73
2
40
0.1875
49
0.125
74
0
49
-0.0625
74
0
0
LTYPE
5
278
330
247
100
AcDbSymbolTableRecord
100
AcDbLinetypeTableRecord
2
BORDER
70
0
3
Border __ __ . __ __ . __ __ . __ __ . __ __ .
72
65
73
6
40
1.75
49
0.5
74
0
49
-0.25
74
0
49
0.5
74
0
49
-0.25
74
0
49
0.0
74
0
49
-0.25
74
0
0
LTYPE
5
279
330
247
100
AcDbSymbolTableRecord
100
AcDbLinetypeTableRecord
2
BORDER2
70
0
3
Border2 __.__.__.__.__.__.__.__.__.__.__.
72
65
73
6
40
0.875
49
0.25
74
0
49
-0.125
74
0
49
0.25
74
0
49
-0.125
74
0
49
0.0
74
0
49
-0.125
74
0
0
LTYPE
5
27A
330
247
100
AcDbSymbolTableRecord
100
AcDbLinetypeTableRecord
2
BORDERX2
70
0
3
Borderx2  ____  ____  .  ____  ____  .  ___
72
65
73
6
40
3.5
49
1.0
74
0
49
-0.5
74
0
49
1.0
74
0
49
-0.5
74
0
49
0.0
74
0
49
-0.5
74
0
0
LTYPE
5
27B
330
247
100
AcDbSymbolTableRecord
100
AcDbLinetypeTableRecord
2
CENTER2
70
0
3
Center2  ___ _ ___ _ ___ _ ___ _ ___ _ ___
72
65
73
4
40
1.125
49
0.75
74
0
49
-0.125
74
0
49
0.125
74
0
49
-0.125
74
0
0
LTYPE
5
27C
330
247
100
AcDbSymbolTableRecord
100
AcDbLinetypeTableRecord
2
CENTERX2
70
0
3
Centerx2  ________  __  ________  __  _____
72
65
73
4
40
4.0
49
2.5
74
0
49
-0.5
74
0
49
0.5
74
0
49
-0.5
74
0
0
LTYPE
5
27D
330
247
100
AcDbSymbolTableRecord
100
AcDbLinetypeTableRecord
2
DASHDOT2
70
0
3
Dashdot2  _._._._._._._._._._._._._._._.
72
65
73
4
40
0.5
49
0.25
74
0
49
-0.125
74
0
49
0.0
74
0
49
-0.125
74
0
0
LTYPE
5
27E
330
247
100
AcDbSymbolTableRecord
100
AcDbLinetypeTableRecord
2
DASHDOTX2
70
0
3
Dashdotx2 ____  .  ____  .  ____  .  ___
72
65
73
4
40
2.0
49
1.0
74
0
49
-0.5
74
0
49
0.0
74
0
49
-0.5
74
0
0
LTYPE
5
27F
330
247
100
AcDbSymbolTableRecord
100
AcDbLinetypeTableRecord
2
DASHED2
70
0
3
Dashed2 _ _ _ _ _ _ _ _ _ _ _ _ _ _ _ _ _
72
65
73
2
40
0.375
49
0.25
74
0
49
-0.125
74
0
0
LTYPE
5
280
330
247
100
AcDbSymbolTableRecord
100
AcDbLinetypeTableRecord
2
DASHEDX2
70
0
3
Dashedx2 ____  ____  ____  ____  ____  ___
72
65
73
2
40
1.5
49
1.0
74
0
49
-0.5
74
0
0
LTYPE
5
281
330
247
100
AcDbSymbolTableRecord
100
AcDbLinetypeTableRecord
2
DIVIDE
70
0
3
Divide ____ . . ____ . . ____ . . ____ . . ____
72
65
73
6
40
1.25
49
0.5
74
0
49
-0.25
74
0
49
0.0
74
0
49
-0.25
74
0
49
0.0
74
0
49
-0.25
74
0
0
LTYPE
5
282
330
247
100
AcDbSymbolTableRecord
100
AcDbLinetypeTableRecord
2
DIVIDE2
70
0
3
Divide2 __..__..__..__..__..__..__..__.._
72
65
73
6
40
0.625
49
0.25
74
0
49
-0.125
74
0
49
0.0
74
0
49
-0.125
74
0
49
0.0
74
0
49
-0.125
74
0
0
LTYPE
5
283
330
247
100
AcDbSymbolTableRecord
100
AcDbLinetypeTableRecord
2
DIVIDEX2
70
0
3
Dividex2 ________  .  .  ________  .  .  _
72
65
73
6
40
2.5
49
1.0
74
0
49
-0.5
74
0
49
0.0
74
0
49
-0.5
74
0
49
0.0
74
0
49
-0.5
74
0
0
LTYPE
5
284
330
247
100
AcDbSymbolTableRecord
100
AcDbLinetypeTableRecord
2
DOT
70
0
3
Dot . . . . . . . . . . . . . . . . . . . . . . . .
72
65
73
2
40
0.25
49
0.0
74
0
49
-0.25
74
0
0
LTYPE
5
285
330
247
100
AcDbSymbolTableRecord
100
AcDbLinetypeTableRecord
2
DOT2
70
0
3
Dot2 ........................................
72
65
73
2
40
0.125
49
0.0
74
0
49
-0.125
74
0
0
LTYPE
5
286
330
247
100
AcDbSymbolTableRecord
100
AcDbLinetypeTableRecord
2
DOTX2
70
0
3
Dotx2 .  .  .  .  .  .  .  .  .  .  .  .  .  .
72
65
73
2
40
0.5
49
0.0
74
0
49
-0.5
74
0
0
LTYPE
5
287
330
247
100
AcDbSymbolTableRecord
100
AcDbLinetypeTableRecord
2
HIDDENX2
70
0
3
Hiddenx2 ____ ____ ____ ____ ____ ____ ____
72
65
73
2
40
0.75
49
0.5
74
0
49
-0.25
74
0
0
LTYPE
5
288
330
247
100
AcDbSymbolTableRecord
100
AcDbLinetypeTableRecord
2
PHANTOM
70
0
3
Phantom ______  __  __  ______  __  __  ______
72
65
73
6
40
2.5
49
1.25
74
0
49
-0.25
74
0
49
0.25
74
0
49
-0.25
74
0
49
0.25
74
0
49
-0.25
74
0
0
LTYPE
5
289
330
247
100
AcDbSymbolTableRecord
100
AcDbLinetypeTableRecord
2
PHANTOM2
70
0
3
Phantom2 ___ _ _ ___ _ _ ___ _ _ ___ _ _
72
65
73
6
40
1.25
49
0.625
74
0
49
-0.125
74
0
49
0.125
74
0
49
-0.125
74
0
49
0.125
74
0
49
-0.125
74
0
0
LTYPE
5
28A
330
247
100
AcDbSymbolTableRecord
100
AcDbLinetypeTableRecord
2
PHANTOMX2
70
0
3
Phantomx2 ____________    ____    ____   _
72
65
73
6
40
5.0
49
2.5
74
0
49
-0.5
74
0
49
0.5
74
0
49
-0.5
74
0
49
0.5
74
0
49
-0.5
74
0
0
ENDTAB
0
TABLE
2
LAYER
5
244
330
0
100
AcDbSymbolTable
70
6
0
LAYER
5
252
330
244
100
AcDbSymbolTableRecord
100
AcDbLayerTableRecord
2
0
70
0
62
7
6
Continuous
370
0
390
251
0
LAYER
5
23F
330
244
100
AcDbSymbolTableRecord
100
AcDbLayerTableRecord
2
Bemassung
70
0
 62
   7
6
Continuous
370
0
390
251
0
LAYER
5
240
330
244
100
AcDbSymbolTableRecord
100
AcDbLayerTableRecord
2
Rahmen
70
0
 62
   7
6
Continuous
370
0
390
251
0
LAYER
5
241
330
244
100
AcDbSymbolTableRecord
100
AcDbLayerTableRecord
2
Geo
70
0
 62
   7
6
Continuous
370
0
390
251
0
LAYER
5
33A
330
244
100
AcDbSymbolTableRecord
100
AcDbLayerTableRecord
2
Defpoints
70
0
62
7
6
Continuous
290
0
370
-3
390
251
0
LAYER
5
57E
330
244
100
AcDbSymbolTableRecord
100
AcDbLayerTableRecord
2
Text
70
0
 62
   7
6
Continuous
370
0
390
251
1001
AcAecLayerStandard
1000

1000

0
ENDTAB
0
TABLE
2
STYLE
5
245
330
0
100
AcDbSymbolTable
70
2
0
STYLE
5
253
330
245
100
AcDbSymbolTableRecord
100
AcDbTextStyleTableRecord
2
Standard
70
0
40
0.0
41
1.0
50
0.0
71
0
42
0.2
3
Arial
4

1001
ACAD
1000
Arial
1071
0
0
STYLE
5
132
330
245
100
AcDbSymbolTableRecord
100
AcDbTextStyleTableRecord
2
Beschriftung
70
0
40
0.0
41
1.0
50
0.0
71
0
42
0.2
3
Arial
4

1001
ACAD
1000
Arial
1071
0
1001
AcadAnnotative
1000
AnnotativeData
1070
1
1070
1
0
ENDTAB
0
TABLE
2
VIEW
5
248
330
0
100
AcDbSymbolTable
70
0
0
ENDTAB
0
TABLE
2
UCS
5
249
330
0
100
AcDbSymbolTable
70
0
0
ENDTAB
0
TABLE
2
APPID
5
24B
330
0
100
AcDbSymbolTable
70
13
0
APPID
5
254
330
24B
100
AcDbSymbolTableRecord
100
AcDbRegAppTableRecord
2
ACAD
70
0
0
APPID
5
26C
330
24B
100
AcDbSymbolTableRecord
100
AcDbRegAppTableRecord
2
VD_INVISIBLE_NOT_FOR_READ
70
0
0
APPID
5
26D
330
24B
100
AcDbSymbolTableRecord
100
AcDbRegAppTableRecord
2
VD_TEMPHATCH
70
0
0
APPID
5
26E
330
24B
100
AcDbSymbolTableRecord
100
AcDbRegAppTableRecord
2
VDEXTRAPARAM
70
0
0
APPID
5
26F
330
24B
100
AcDbSymbolTableRecord
100
AcDbRegAppTableRecord
2
PE_URL
70
0
0
APPID
5
270
330
24B
100
AcDbSymbolTableRecord
100
AcDbRegAppTableRecord
2
VD_UNKNOWN
70
0
0
APPID
5
28F
330
24B
100
AcDbSymbolTableRecord
100
AcDbRegAppTableRecord
2
AcadAnnotative
70
0
0
APPID
5
290
330
24B
100
AcDbSymbolTableRecord
100
AcDbRegAppTableRecord
2
ACAD_DSTYLE_DIMJAG
70
0
0
APPID
5
291
330
24B
100
AcDbSymbolTableRecord
100
AcDbRegAppTableRecord
2
ACAD_DSTYLE_DIMTALN
70
0
0
APPID
5
293
330
24B
100
AcDbSymbolTableRecord
100
AcDbRegAppTableRecord
2
ACAD_PSEXT
70
0
0
APPID
5
42A
330
24B
100
AcDbSymbolTableRecord
100
AcDbRegAppTableRecord
2
ACAD_MLEADERVER
70
0
0
APPID
5
532
330
24B
100
AcDbSymbolTableRecord
100
AcDbRegAppTableRecord
2
ACAD_EXEMPT_FROM_CAD_STANDARDS
70
0
0
APPID
5
57F
330
24B
100
AcDbSymbolTableRecord
100
AcDbRegAppTableRecord
2
AcAecLayerStandard
70
0
0
ENDTAB
0
TABLE
2
DIMSTYLE
5
24C
330
0
100
AcDbSymbolTable
70
3
100
AcDbDimStyleTable
71
2
340
27
340
269
0
DIMSTYLE
105
269
330
24C
100
AcDbSymbolTableRecord
100
AcDbDimStyleTableRecord
2
Standard
70
0
172
1
174
1
288
1
340
253
342
23C
0
DIMSTYLE
105
137
330
24C
100
AcDbSymbolTableRecord
100
AcDbDimStyleTableRecord
2
Beschriftung
70
0
41
2.5
42
0.625
44
1.25
73
0
74
0
77
1
140
2.5
147
0.625
172
1
174
1
271
2
288
1
340
253
342
23C
1001
AcadAnnotative
1000
AnnotativeData
1070
1
1070
1
1001
ACAD_DSTYLE_DIMJAG
1070
388
1040
1.5
1001
ACAD_DSTYLE_DIMTALN
1070
392
1070
0
0
DIMSTYLE
105
27
102
{ACAD_REACTORS
330
F10008
330
F10012
330
F10017
330
F10021
330
F10026
330
F10003
330
F1000D
330
F1001C
102
}
330
24C
100
AcDbSymbolTableRecord
100
AcDbDimStyleTableRecord
2
BEM-ISBE
70
0
41
2.5
42
0.625
44
1.25
48
0.000000001
71
1
73
0
74
0
77
1
140
2.5
144
1.00000000000000
146
0.5
147
0.625
171
 3
172
 1
179
 3
271
 3
272
 3
274
 3
340
253
342
23C
1001
ACAD_DSTYLE_DIMJAG
1070
388
1040
1.5
1001
ACAD_DSTYLE_DIMTALN
1070
392
1070
1
0
ENDTAB
0
TABLE
2
BLOCK_RECORD
5
243
330
0
100
AcDbSymbolTable
70
5
0
BLOCK_RECORD
5
261
330
243
100
AcDbSymbolTableRecord
100
AcDbBlockTableRecord
2
*Model_Space
340
FD0
0
BLOCK_RECORD
5
25D
330
243
100
AcDbSymbolTableRecord
100
AcDbBlockTableRecord
2
*Paper_Space
340
FD1
0
BLOCK_RECORD
5
265
330
243
100
AcDbSymbolTableRecord
100
AcDbBlockTableRecord
2
*Paper_Space0
340
0
0
BLOCK_RECORD
5
23C
330
243
100
AcDbSymbolTableRecord
100
AcDbBlockTableRecord
2
VDDIM_DEFAULT
340
0
102
{BLKREFS
102
}
0
BLOCK_RECORD
5
23E
330
243
100
AcDbSymbolTableRecord
100
AcDbBlockTableRecord
2
VDDIM_NONE
340
0
0
BLOCK_RECORD
5
F10007
330
243
100
AcDbSymbolTableRecord
100
AcDbBlockTableRecord
2
*D4
340
0
0
BLOCK_RECORD
5
F10011
330
243
100
AcDbSymbolTableRecord
100
AcDbBlockTableRecord
2
*D6
340
0
0
BLOCK_RECORD
5
F10016
330
243
100
AcDbSymbolTableRecord
100
AcDbBlockTableRecord
2
*D7
340
0
0
BLOCK_RECORD
5
F10020
330
243
100
AcDbSymbolTableRecord
100
AcDbBlockTableRecord
2
*D9
340
0
0
BLOCK_RECORD
5
F10025
330
243
100
AcDbSymbolTableRecord
100
AcDbBlockTableRecord
2
*D10
340
0
0
BLOCK_RECORD
5
F10002
330
243
100
AcDbSymbolTableRecord
100
AcDbBlockTableRecord
2
*D3
340
0
0
BLOCK_RECORD
5
F1000C
330
243
100
AcDbSymbolTableRecord
100
AcDbBlockTableRecord
2
*D5
340
0
0
BLOCK_RECORD
5
F1001B
330
243
100
AcDbSymbolTableRecord
100
AcDbBlockTableRecord
2
*D8
340
0
0
ENDTAB
0
ENDSEC
0
SECTION
2
BLOCKS
0
BLOCK
5
262
330
261
100
AcDbEntity
8
0
100
AcDbBlockBegin
2
*Model_Space
70
0
10
0.0
20
0.0
30
0.0
3
*Model_Space
1

0
ENDBLK
5
263
330
261
100
AcDbEntity
8
0
100
AcDbBlockEnd
0
BLOCK
5
25E
330
25D
100
AcDbEntity
67
1
8
0
100
AcDbBlockBegin
2
*Paper_Space
70
0
10
0.0
20
0.0
30
0.0
3
*Paper_Space
1

0
ENDBLK
5
25F
330
25D
100
AcDbEntity
67
1
8
0
100
AcDbBlockEnd
0
BLOCK
5
266
330
265
100
AcDbEntity
8
0
100
AcDbBlockBegin
2
*Paper_Space0
70
0
10
0.0
20
0.0
30
0.0
3
*Paper_Space0
1

0
VIEWPORT
5
296
102
{ACAD_XDICTIONARY
360
58E
102
}
330
265
100
AcDbEntity
8
0
60
1
100
AcDbViewport
10
0.0
20
0.0
30
0.0
40
10.0
41
10.0
69
0
12
0.0
22
0.0
13
0.0
23
0.0
14
1.0
24
1.0
15
0.0
25
0.0
16
0.0
26
0.0
36
1.0
17
0.0
27
0.0
37
0.0
42
0.0
43
0.0
44
0.0
45
10.0
50
0.0
51
0.0000000000007958
72
100
90
163872
1

281
0
71
0
74
0
110
0.0
120
0.0
130
0.0
111
1.0
121
0.0
131
0.0
112
0.0
122
1.0
132
0.0
79
0
146
0.0
1001
VD_INVISIBLE_NOT_FOR_READ
1000
VD_INVISIBLE_NOT_FOR_READ
0
VIEWPORT
5
297
102
{ACAD_XDICTIONARY
360
590
102
}
330
265
100
AcDbEntity
8
0
60
1
100
AcDbViewport
10
0.0
20
0.0
30
0.0
40
10.0
41
10.0
69
0
12
0.0
22
0.0
13
0.0
23
0.0
14
1.0
24
1.0
15
0.0
25
0.0
16
0.0
26
0.0
36
1.0
17
0.0
27
0.0
37
0.0
42
0.0
43
0.0
44
0.0
45
10.0
50
0.0
51
0.0000000000007958
72
100
90
163872
1

281
0
71
0
74
0
110
0.0
120
0.0
130
0.0
111
1.0
121
0.0
131
0.0
112
0.0
122
1.0
132
0.0
79
0
146
0.0
1001
VD_INVISIBLE_NOT_FOR_READ
1000
VD_INVISIBLE_NOT_FOR_READ
0
ENDBLK
5
267
330
265
100
AcDbEntity
8
0
100
AcDbBlockEnd
0
BLOCK
5
28B
330
23C
100
AcDbEntity
8
0
100
AcDbBlockBegin
2
VDDIM_DEFAULT
70
0
10
0.0
20
0.0
30
0.0
3
VDDIM_DEFAULT
1

0
LWPOLYLINE
5
23D
330
23C
100
AcDbEntity
8
0
6
Continuous
62
0
100
AcDbPolyline
90
4
70
0
43
0.0
10
0.0
20
0.0
10
-1.0
20
-0.1665
10
-1.0
20
0.1665
10
0.0
20
0.0
1001
VDEXTRAPARAM
1071
1
1071
0
1071
0
1040
1.0
1000

1000

1040
0.0
1040
0.0
0
HATCH
5
292
330
23C
100
AcDbEntity
8
0
6
Continuous
62
0
100
AcDbHatch
10
0.0
20
0.0
30
0.0
210
0.0
220
0.0
230
1.0
2
SOLID
70
1
71
0
91
1
92
2
72
0
73
1
93
3
10
0.0
20
0.0
10
-1.0
20
-0.1665
10
-1.0
20
0.1665
97
0
75
0
76
1
98
1
10
0.0
20
0.0
1001
VDEXTRAPARAM
1071
1
1071
0
1071
0
1040
1.0
1000

1000

1040
0.0
1040
0.0
1001
VD_TEMPHATCH
1000
VD_TEMPHATCH
0
ENDBLK
5
28C
330
23C
100
AcDbEntity
8
0
100
AcDbBlockEnd
0
BLOCK
5
28D
330
23E
100
AcDbEntity
8
0
100
AcDbBlockBegin
2
VDDIM_NONE
70
0
10
0.0
20
0.0
30
0.0
3
VDDIM_NONE
1

0
ENDBLK
5
28E
330
23E
100
AcDbEntity
8
0
100
AcDbBlockEnd
  0
BLOCK
  5
F1002A
330
F10007
100
AcDbEntity
  8
0
100
AcDbBlockBegin
  2
*D4
 70
     1
 10
0.0
 20
0.0
 30
0.0
  3
*D4
  1

  0
LINE
  5
F1002B
330
F10007
100
AcDbEntity
  8
Bemassung
 62
     0
370
    -2
100
AcDbLine
10
-93.0638297872341
20
-13.1914893617021
30
0.000000000000000
11
-93.0638297872341
21
26.8085106382979
31
0.000000000000000
  0
LINE
  5
F1002C
330
F10007
100
AcDbEntity
  8
Bemassung
 62
     0
370
    -2
100
AcDbLine
10
-92.9638297872341
20
-0.191489361702125
30
0.000000000000000
11
-92.9638297872341
21
11.8085106382979
31
0.000000000000000
  0
LINE
  5
F1002D
330
F10007
100
AcDbEntity
  8
Bemassung
 62
     0
370
    -2
100
AcDbLine
10
-98.0152701151666
20
9.80851063829788
30
0.000000000000000
11
-92.8289477068737
21
9.80851063829788
31
0.000000000000000
  0
INSERT
  5
F1002E
330
F10007
100
AcDbEntity
  8
Bemassung
 62
     0
370
    -2
100
AcDbBlockReference
  2
VDDIM_DEFAULT
10
-93.0638297872341
20
9.80851063829788
30
0.000000000000000
 41
2.50000000000000
 42
2.50000000000000
 43
2.50000000000000
  0
INSERT
  5
F1002F
330
F10007
100
AcDbEntity
  8
Bemassung
 62
     0
370
    -2
100
AcDbBlockReference
  2
VDDIM_DEFAULT
10
-92.9638297872341
20
9.80851063829788
30
0.000000000000000
 41
2.50000000000000
 42
2.50000000000000
 43
2.50000000000000
 50
180.000000000000
  0
MTEXT
  5
F10030
330
F10007
100
AcDbEntity
  8
Bemassung
 62
     0
100
AcDbMText
10
-92.9638297872341
20
10.4751773049645
30
0.000000000000000
 40
2.50000000000000
 41
0.0
 71
     8
 72
     1
  1
0.1 x 45°
 11
1.00000000000000
 21
0.000000000000000
 31
0.0
 73
     1
 44
1.0
1001
ACAD
1000
MTEXTBEGIN
1070
73
1070
1
1070
44
1040
1.0
1070
74
1070
0
1000
MTEXTEND
  0
POINT
  5
F10031
330
F10007
100
AcDbEntity
  8
Bemassung
 62
     0
100
AcDbPoint
10
-93.0638297872341
20
-13.1914893617021
30
0.000000000000000
  0
POINT
  5
F10032
330
F10007
100
AcDbEntity
  8
Bemassung
 62
     0
100
AcDbPoint
10
-92.9638297872341
20
-0.191489361702125
30
0.000000000000000
  0
ENDBLK
  5
F10033
330
F10007
100
AcDbEntity
  8
0
100
AcDbBlockEnd
  0
BLOCK
  5
F10034
330
F10011
100
AcDbEntity
  8
0
100
AcDbBlockBegin
  2
*D6
 70
     1
 10
0.0
 20
0.0
 30
0.0
  3
*D6
  1

  0
LINE
  5
F10035
330
F10011
100
AcDbEntity
  8
Bemassung
 62
     0
370
    -2
100
AcDbLine
10
-93.0638297872341
20
-13.1914893617021
30
0.000000000000000
11
-93.0638297872341
21
26.8085106382979
31
0.000000000000000
  0
LINE
  5
F10036
330
F10011
100
AcDbEntity
  8
Bemassung
 62
     0
370
    -2
100
AcDbLine
10
-68.0638297872341
20
-0.191489361702125
30
0.000000000000000
11
-68.0638297872341
21
16.8085106382979
31
0.000000000000000
  0
LINE
  5
F10037
330
F10011
100
AcDbEntity
  8
Bemassung
 62
     0
370
    -2
100
AcDbLine
10
-93.0638297872341
20
14.8085106382979
30
0.000000000000000
11
-54.8576586461578
21
14.8085106382979
31
0.000000000000000
  0
INSERT
  5
F10038
330
F10011
100
AcDbEntity
  8
Bemassung
 62
     0
370
    -2
100
AcDbBlockReference
  2
VDDIM_DEFAULT
10
-93.0638297872341
20
14.8085106382979
30
0.000000000000000
 41
2.50000000000000
 42
2.50000000000000
 43
2.50000000000000
 50
180.000000000000
  0
INSERT
  5
F10039
330
F10011
100
AcDbEntity
  8
Bemassung
 62
     0
370
    -2
100
AcDbBlockReference
  2
VDDIM_DEFAULT
10
-68.0638297872341
20
14.8085106382979
30
0.000000000000000
 41
2.50000000000000
 42
2.50000000000000
 43
2.50000000000000
  0
MTEXT
  5
F1003A
330
F10011
100
AcDbEntity
  8
Bemassung
 62
     0
100
AcDbMText
10
-80.5638297872341
20
15.4751773049645
30
0.000000000000000
 40
2.50000000000000
 41
0.0
 71
     8
 72
     1
  1
25
 11
1.00000000000000
 21
0.000000000000000
 31
0.0
 73
     1
 44
1.0
1001
ACAD
1000
MTEXTBEGIN
1070
73
1070
1
1070
44
1040
1.0
1070
74
1070
0
1000
MTEXTEND
  0
POINT
  5
F1003B
330
F10011
100
AcDbEntity
  8
Bemassung
 62
     0
100
AcDbPoint
10
-93.0638297872341
20
-13.1914893617021
30
0.000000000000000
  0
POINT
  5
F1003C
330
F10011
100
AcDbEntity
  8
Bemassung
 62
     0
100
AcDbPoint
10
-68.0638297872341
20
-0.191489361702125
30
0.000000000000000
  0
ENDBLK
  5
F1003D
330
F10011
100
AcDbEntity
  8
0
100
AcDbBlockEnd
  0
BLOCK
  5
F1003E
330
F10016
100
AcDbEntity
  8
0
100
AcDbBlockBegin
  2
*D7
 70
     1
 10
0.0
 20
0.0
 30
0.0
  3
*D7
  1

  0
LINE
  5
F1003F
330
F10016
100
AcDbEntity
  8
Bemassung
 62
     0
370
    -2
100
AcDbLine
10
-68.0638297872341
20
-0.191489361702125
30
0.000000000000000
11
-68.0638297872341
21
21.8085106382979
31
0.000000000000000
  0
LINE
  5
F10040
330
F10016
100
AcDbEntity
  8
Bemassung
 62
     0
370
    -2
100
AcDbLine
10
-29.0638297872341
20
-0.691489361702124
30
0.000000000000000
11
-29.0638297872341
21
26.8085106382979
31
0.000000000000000
  0
LINE
  5
F10041
330
F10016
100
AcDbEntity
  8
Bemassung
 62
     0
370
    -2
100
AcDbLine
10
-68.0638297872341
20
19.8085106382979
30
0.000000000000000
11
41.0893059072608
21
19.8085106382979
31
0.000000000000000
  0
INSERT
  5
F10042
330
F10016
100
AcDbEntity
  8
Bemassung
 62
     0
370
    -2
100
AcDbBlockReference
  2
VDDIM_DEFAULT
10
-68.0638297872341
20
19.8085106382979
30
0.000000000000000
 41
2.50000000000000
 42
2.50000000000000
 43
2.50000000000000
 50
180.000000000000
  0
INSERT
  5
F10043
330
F10016
100
AcDbEntity
  8
Bemassung
 62
     0
370
    -2
100
AcDbBlockReference
  2
VDDIM_DEFAULT
10
-29.0638297872341
20
19.8085106382979
30
0.000000000000000
 41
2.50000000000000
 42
2.50000000000000
 43
2.50000000000000
  0
MTEXT
  5
F10044
330
F10016
100
AcDbEntity
  8
Bemassung
 62
     0
100
AcDbMText
10
-48.5638297872341
20
20.4751773049645
30
0.000000000000000
 40
2.50000000000000
 41
0.0
 71
     8
 72
     1
  1
39
 11
1.00000000000000
 21
0.000000000000000
 31
0.0
 73
     1
 44
1.0
1001
ACAD
1000
MTEXTBEGIN
1070
73
1070
1
1070
44
1040
1.0
1070
74
1070
0
1000
MTEXTEND
  0
POINT
  5
F10045
330
F10016
100
AcDbEntity
  8
Bemassung
 62
     0
100
AcDbPoint
10
-68.0638297872341
20
-0.191489361702125
30
0.000000000000000
  0
POINT
  5
F10046
330
F10016
100
AcDbEntity
  8
Bemassung
 62
     0
100
AcDbPoint
10
-29.0638297872341
20
-0.691489361702124
30
0.000000000000000
  0
ENDBLK
  5
F10047
330
F10016
100
AcDbEntity
  8
0
100
AcDbBlockEnd
  0
BLOCK
  5
F10048
330
F10020
100
AcDbEntity
  8
0
100
AcDbBlockBegin
  2
*D9
 70
     1
 10
0.0
 20
0.0
 30
0.0
  3
*D9
  1

  0
LINE
  5
F10049
330
F10020
100
AcDbEntity
  8
Bemassung
 62
     0
370
    -2
100
AcDbLine
10
-74.0638297872341
20
-6.19148936170212
30
0.000000000000000
11
-74.0638297872341
21
-13.1914893617021
31
0.000000000000000
  0
LINE
  5
F1004A
330
F10020
100
AcDbEntity
  8
Bemassung
 62
     0
370
    -2
100
AcDbLine
10
-93.0638297872341
20
-13.1914893617021
30
0.000000000000000
11
-93.0638297872341
21
26.8085106382979
31
0.000000000000000
  0
LINE
  5
F1004B
330
F10020
100
AcDbEntity
  8
Bemassung
 62
     0
370
    -2
100
AcDbLine
10
-63.9337228606704
20
-11.1914893617021
30
0.000000000000000
11
-93.0638297872341
21
-11.1914893617021
31
0.000000000000000
  0
INSERT
  5
F1004C
330
F10020
100
AcDbEntity
  8
Bemassung
 62
     0
370
    -2
100
AcDbBlockReference
  2
VDDIM_DEFAULT
10
-74.0638297872341
20
-11.1914893617021
30
0.000000000000000
 41
2.50000000000000
 42
2.50000000000000
 43
2.50000000000000
  0
INSERT
  5
F1004D
330
F10020
100
AcDbEntity
  8
Bemassung
 62
     0
370
    -2
100
AcDbBlockReference
  2
VDDIM_DEFAULT
10
-93.0638297872341
20
-11.1914893617021
30
0.000000000000000
 41
2.50000000000000
 42
2.50000000000000
 43
2.50000000000000
 50
180.000000000000
  0
MTEXT
  5
F1004E
330
F10020
100
AcDbEntity
  8
Bemassung
 62
     0
100
AcDbMText
10
-83.5638297872341
20
-10.5248226950355
30
0.000000000000000
 40
2.50000000000000
 41
0.0
 71
     8
 72
     1
  1
19
 11
1.00000000000000
 21
0.000000000000000
 31
0.0
 73
     1
 44
1.0
1001
ACAD
1000
MTEXTBEGIN
1070
73
1070
1
1070
44
1040
1.0
1070
74
1070
0
1000
MTEXTEND
  0
POINT
  5
F1004F
330
F10020
100
AcDbEntity
  8
Bemassung
 62
     0
100
AcDbPoint
10
-74.0638297872341
20
-6.19148936170212
30
0.000000000000000
  0
POINT
  5
F10050
330
F10020
100
AcDbEntity
  8
Bemassung
 62
     0
100
AcDbPoint
10
-93.0638297872341
20
-13.1914893617021
30
0.000000000000000
  0
ENDBLK
  5
F10051
330
F10020
100
AcDbEntity
  8
0
100
AcDbBlockEnd
  0
BLOCK
  5
F10052
330
F10025
100
AcDbEntity
  8
0
100
AcDbBlockBegin
  2
*D10
 70
     1
 10
0.0
 20
0.0
 30
0.0
  3
*D10
  1

  0
LINE
  5
F10053
330
F10025
100
AcDbEntity
  8
Bemassung
 62
     0
370
    -2
100
AcDbLine
10
-29.0638297872341
20
-0.691489361702124
30
0.000000000000000
11
-29.0638297872341
21
26.8085106382979
31
0.000000000000000
  0
LINE
  5
F10054
330
F10025
100
AcDbEntity
  8
Bemassung
 62
     0
370
    -2
100
AcDbLine
10
-93.0638297872341
20
-13.1914893617021
30
0.000000000000000
11
-93.0638297872341
21
26.8085106382979
31
0.000000000000000
  0
LINE
  5
F10055
330
F10025
100
AcDbEntity
  8
Bemassung
 62
     0
370
    -2
100
AcDbLine
10
3.67369424743347
20
24.8085106382979
30
0.000000000000000
11
-93.0638297872341
21
24.8085106382979
31
0.000000000000000
  0
INSERT
  5
F10056
330
F10025
100
AcDbEntity
  8
Bemassung
 62
     0
370
    -2
100
AcDbBlockReference
  2
VDDIM_DEFAULT
10
-29.0638297872341
20
24.8085106382979
30
0.000000000000000
 41
2.50000000000000
 42
2.50000000000000
 43
2.50000000000000
  0
INSERT
  5
F10057
330
F10025
100
AcDbEntity
  8
Bemassung
 62
     0
370
    -2
100
AcDbBlockReference
  2
VDDIM_DEFAULT
10
-93.0638297872341
20
24.8085106382979
30
0.000000000000000
 41
2.50000000000000
 42
2.50000000000000
 43
2.50000000000000
 50
180.000000000000
  0
MTEXT
  5
F10058
330
F10025
100
AcDbEntity
  8
Bemassung
 62
     0
100
AcDbMText
10
-61.0638297872341
20
25.4751773049645
30
0.000000000000000
 40
2.50000000000000
 41
0.0
 71
     8
 72
     1
  1
64
 11
1.00000000000000
 21
0.000000000000000
 31
0.0
 73
     1
 44
1.0
1001
ACAD
1000
MTEXTBEGIN
1070
73
1070
1
1070
44
1040
1.0
1070
74
1070
0
1000
MTEXTEND
  0
POINT
  5
F10059
330
F10025
100
AcDbEntity
  8
Bemassung
 62
     0
100
AcDbPoint
10
-29.0638297872341
20
-0.691489361702124
30
0.000000000000000
  0
POINT
  5
F1005A
330
F10025
100
AcDbEntity
  8
Bemassung
 62
     0
100
AcDbPoint
10
-93.0638297872341
20
-13.1914893617021
30
0.000000000000000
  0
ENDBLK
  5
F1005B
330
F10025
100
AcDbEntity
  8
0
100
AcDbBlockEnd
  0
BLOCK
  5
F1005C
330
F10002
100
AcDbEntity
  8
0
100
AcDbBlockBegin
  2
*D3
 70
     1
 10
0.0
 20
0.0
 30
0.0
  3
*D3
  1

 0
ARC
  5
F1005D
330
F10002
100
AcDbEntity
  8
Bemassung
 62
     0
370
   -2
100
AcDbCircle
10
-93.0638297872341
20
-0.291489361702125
30
0.000000000000000
 40
6.37082819346612
100
AcDbArc
 50
90.0000000000000
 51
94.0424835908245
  0
LINE
  5
F1005E
330
F10002
100
AcDbEntity
  8
Bemassung
 62
     0
370
    -2
100
AcDbLine
10
-93.0638297872341
20
-0.291489361702125
30
0.000000000000000
11
-93.0638297872341
21
8.07933883176399
31
0.000000000000000
  0
LINE
  5
F1005F
330
F10002
100
AcDbEntity
  8
Bemassung
 62
     0
370
    -2
100
AcDbLine
10
-93.0638297872341
20
-0.291489361702125
30
0.000000000000000
11
-93.3559674781691
21
8.07423954940074
31
0.000000000000000
  0
INSERT
  5
F10060
330
F10002
100
AcDbEntity
  8
Bemassung
 62
     0
370
    -2
100
AcDbBlockReference
  2
VDDIM_DEFAULT
10
-93.0638297872341
20
6.07933883176399
30
0.000000000000000
 41
2.50000000000000
 42
2.50000000000000
 43
2.50000000000000
 50
179.550322454302
  0
INSERT
  5
F10061
330
F10002
100
AcDbEntity
  8
Bemassung
 62
     0
370
    -2
100
AcDbBlockReference
  2
VDDIM_DEFAULT
10
-93.2861684847641
20
6.07545789536255
30
0.000000000000000
 41
2.50000000000000
 42
2.50000000000000
 43
2.50000000000000
 50
2.44967754569689
  0
MTEXT
  5
F10062
330
F10002
100
AcDbEntity
  8
Bemassung
 62
     0
100
AcDbMText
10
-93.1750160702085
20
6.07836852377233
30
0.000000000000000
 40
2.50000000000000
 41
0.0
 71
     8
 72
     1
  1
2°
 11
1.00000000000000
 21
0.000000000000000
 31
0.0
 73
     1
 44
1.0
1001
ACAD
1000
MTEXTBEGIN
1070
73
1070
1
1070
44
1040
1.0
1070
74
1070
0
1000
MTEXTEND
  0
POINT
  5
F10063
330
F10002
100
AcDbEntity
  8
Bemassung
 62
     0
100
AcDbPoint
10
-93.0638297872341
20
-0.291489361702125
30
0.000000000000000
  0
POINT
  5
F10064
330
F10002
100
AcDbEntity
  8
Bemassung
 62
     0
100
AcDbPoint
10
-93.0638297872341
20
6.07933883176399
30
0.000000000000000
  0
POINT
  5
F10065
330
F10002
100
AcDbEntity
  8
Bemassung
 62
     0
100
AcDbPoint
10
-93.2861684847641
20
6.07545789536255
30
0.000000000000000
  0
POINT
  5
F10066
330
F10002
100
AcDbEntity
  8
Bemassung
 62
     0
100
AcDbPoint
10
-93.1750160702086
20
6.07836852377233
30
0.000000000000000
  0
ENDBLK
  5
F10067
330
F10002
100
AcDbEntity
  8
0
100
AcDbBlockEnd
  0
BLOCK
  5
F10068
330
F1000C
100
AcDbEntity
  8
0
100
AcDbBlockBegin
  2
*D5
 70
     1
 10
0.0
 20
0.0
 30
0.0
  3
*D5
  1

  0
LINE
  5
F10069
330
F1000C
100
AcDbEntity
  8
Bemassung
 62
     0
370
    -2
100
AcDbLine
10
-92.9638297872341
20
-6.19148936170212
30
0.000000000000000
11
-105.063829787234
21
-6.19148936170212
31
0.000000000000000
  0
LINE
  5
F1006A
330
F1000C
100
AcDbEntity
  8
Bemassung
 62
     0
370
    -2
100
AcDbLine
10
-92.9638297872341
20
-0.191489361702125
30
0.000000000000000
11
-105.063829787234
21
-0.191489361702125
31
0.000000000000000
  0
LINE
  5
F1006B
330
F1000C
100
AcDbEntity
  8
Bemassung
 62
     0
370
    -2
100
AcDbLine
10
-103.063829787234
20
-6.19148936170212
30
0.000000000000000
11
-103.063829787234
21
-0.191489361702125
31
0.000000000000000
  0
INSERT
  5
F1006C
330
F1000C
100
AcDbEntity
  8
Bemassung
 62
     0
370
    -2
100
AcDbBlockReference
  2
VDDIM_DEFAULT
10
-103.063829787234
20
-6.19148936170212
30
0.000000000000000
 41
2.50000000000000
 42
2.50000000000000
 43
2.50000000000000
 50
270.000000000000
  0
INSERT
  5
F1006D
330
F1000C
100
AcDbEntity
  8
Bemassung
 62
     0
370
    -2
100
AcDbBlockReference
  2
VDDIM_DEFAULT
10
-103.063829787234
20
-0.191489361702125
30
0.000000000000000
 41
2.50000000000000
 42
2.50000000000000
 43
2.50000000000000
 50
90.0000000000000
  0
MTEXT
  5
F1006E
330
F1000C
100
AcDbEntity
  8
Bemassung
 62
     0
100
AcDbMText
10
-102.397163120567
20
-3.19148936170212
30
0.000000000000000
 40
2.50000000000000
 41
0.0
 71
     8
 72
     1
  1
6
 11
6.12323399573677e-017
 21
1.00000000000000
 31
0.0
 73
     1
 44
1.0
1001
ACAD
1000
MTEXTBEGIN
1070
73
1070
1
1070
44
1040
1.0
1070
74
1070
0
1000
MTEXTEND
  0
POINT
  5
F1006F
330
F1000C
100
AcDbEntity
  8
Bemassung
 62
     0
100
AcDbPoint
10
-92.9638297872341
20
-6.19148936170212
30
0.000000000000000
  0
POINT
  5
F10070
330
F1000C
100
AcDbEntity
  8
Bemassung
 62
     0
100
AcDbPoint
10
-92.9638297872341
20
-0.191489361702125
30
0.000000000000000
  0
ENDBLK
  5
F10071
330
F1000C
100
AcDbEntity
  8
0
100
AcDbBlockEnd
  0
BLOCK
  5
F10072
330
F1001B
100
AcDbEntity
  8
0
100
AcDbBlockBegin
  2
*D8
 70
     1
 10
0.0
 20
0.0
 30
0.0
  3
*D8
  1

  0
LINE
  5
F10073
330
F1001B
100
AcDbEntity
  8
Bemassung
 62
     0
370
    -2
100
AcDbLine
10
-29.5638297872341
20
-6.19148936170212
30
0.000000000000000
11
-17.0638297872341
21
-6.19148936170212
31
0.000000000000000
  0
LINE
  5
F10074
330
F1001B
100
AcDbEntity
  8
Bemassung
 62
     0
370
    -2
100
AcDbLine
10
-29.5638297872341
20
-0.191489361702125
30
0.000000000000000
11
-17.0638297872341
21
-0.191489361702125
31
0.000000000000000
  0
LINE
  5
F10075
330
F1001B
100
AcDbEntity
  8
Bemassung
 62
     0
370
    -2
100
AcDbLine
10
-19.0638297872341
20
-6.19148936170212
30
0.000000000000000
11
-19.0638297872341
21
-0.191489361702125
31
0.000000000000000
  0
INSERT
  5
F10076
330
F1001B
100
AcDbEntity
  8
Bemassung
 62
     0
370
    -2
100
AcDbBlockReference
  2
VDDIM_DEFAULT
10
-19.0638297872341
20
-6.19148936170212
30
0.000000000000000
 41
2.50000000000000
 42
2.50000000000000
 43
2.50000000000000
 50
270.000000000000
  0
INSERT
  5
F10077
330
F1001B
100
AcDbEntity
  8
Bemassung
 62
     0
370
    -2
100
AcDbBlockReference
  2
VDDIM_DEFAULT
10
-19.0638297872341
20
-0.191489361702125
30
0.000000000000000
 41
2.50000000000000
 42
2.50000000000000
 43
2.50000000000000
 50
90.0000000000000
  0
MTEXT
  5
F10078
330
F1001B
100
AcDbEntity
  8
Bemassung
 62
     0
100
AcDbMText
10
-18.3971631205674
20
-3.19148936170212
30
0.000000000000000
 40
2.50000000000000
 41
0.0
 71
     8
 72
     1
  1
6h6
 11
6.12323399573677e-017
 21
1.00000000000000
 31
0.0
 73
     1
 44
1.0
  0
POINT
  5
F10079
330
F1001B
100
AcDbEntity
  8
Bemassung
 62
     0
100
AcDbPoint
10
-29.5638297872341
20
-6.19148936170212
30
0.000000000000000
  0
POINT
  5
F1007A
330
F1001B
100
AcDbEntity
  8
Bemassung
 62
     0
100
AcDbPoint
10
-29.5638297872341
20
-0.191489361702125
30
0.000000000000000
  0
ENDBLK
  5
F1007B
330
F1001B
100
AcDbEntity
  8
0
100
AcDbBlockEnd
0
ENDSEC
0
SECTION
2
ENTITIES
  0
DIMENSION
  5
F10008
330
261
100
AcDbEntity
  8
Bemassung
100
AcDbDimension
  2
*D4
10
-92.9638297872341
20
9.80851063829788
30
0.000000000000000
11
-92.9638297872341
21
10.4751773049645
31
0.000000000000000
 70
32
 1
0.1 x 45°
 71
     8
  3
BEM-ISBE
100
AcDbAlignedDimension
13
-93.0638297872341
23
-13.1914893617021
33
0.000000000000000
14
-92.9638297872341
24
-0.191489361702125
34
0.000000000000000
100
AcDbRotatedDimension
1001
ACAD
1000
DSTYLE
1002
{
1070
284
1070
8
1070
78
1070
8
1070
144
1040
1.00000000000000
1070
147
1040
0.625
1070
 72
1070
 0
1070
 71
1070
 0
1002
}
  0
DIMENSION
  5
F10012
330
261
100
AcDbEntity
  8
Bemassung
100
AcDbDimension
  2
*D6
10
-68.0638297872341
20
14.8085106382979
30
0.000000000000000
11
-80.5638297872341
21
15.4751773049645
31
0.000000000000000
 70
32
 1
25
 71
     8
  3
BEM-ISBE
100
AcDbAlignedDimension
13
-93.0638297872341
23
-13.1914893617021
33
0.000000000000000
14
-68.0638297872341
24
-0.191489361702125
34
0.000000000000000
100
AcDbRotatedDimension
1001
ACAD
1000
DSTYLE
1002
{
1070
284
1070
8
1070
78
1070
8
1070
144
1040
1.00000000000000
1070
147
1040
0.625
1070
 72
1070
 0
1070
 71
1070
 0
1002
}
  0
DIMENSION
  5
F10017
330
261
100
AcDbEntity
  8
Bemassung
100
AcDbDimension
  2
*D7
10
-29.0638297872341
20
19.8085106382979
30
0.000000000000000
11
-48.5638297872341
21
20.4751773049645
31
0.000000000000000
 70
32
 1
39
 71
     8
  3
BEM-ISBE
100
AcDbAlignedDimension
13
-68.0638297872341
23
-0.191489361702125
33
0.000000000000000
14
-29.0638297872341
24
-0.691489361702124
34
0.000000000000000
100
AcDbRotatedDimension
1001
ACAD
1000
DSTYLE
1002
{
1070
284
1070
8
1070
78
1070
8
1070
144
1040
1.00000000000000
1070
147
1040
0.625
1070
 72
1070
 0
1070
 71
1070
 0
1002
}
  0
DIMENSION
  5
F10021
330
261
100
AcDbEntity
  8
Bemassung
100
AcDbDimension
  2
*D9
10
-93.0638297872341
20
-11.1914893617021
30
0.000000000000000
11
-83.5638297872341
21
-10.5248226950355
31
0.000000000000000
 70
32
 1
19
 71
     8
  3
BEM-ISBE
100
AcDbAlignedDimension
13
-74.0638297872341
23
-6.19148936170212
33
0.000000000000000
14
-93.0638297872341
24
-13.1914893617021
34
0.000000000000000
100
AcDbRotatedDimension
1001
ACAD
1000
DSTYLE
1002
{
1070
284
1070
8
1070
78
1070
8
1070
144
1040
1.00000000000000
1070
147
1040
0.625
1070
 72
1070
 0
1070
 71
1070
 0
1002
}
  0
DIMENSION
  5
F10026
330
261
100
AcDbEntity
  8
Bemassung
100
AcDbDimension
  2
*D10
10
-93.0638297872341
20
24.8085106382979
30
0.000000000000000
11
-61.0638297872341
21
25.4751773049645
31
0.000000000000000
 70
32
 1
64
 71
     8
  3
BEM-ISBE
100
AcDbAlignedDimension
13
-29.0638297872341
23
-0.691489361702124
33
0.000000000000000
14
-93.0638297872341
24
-13.1914893617021
34
0.000000000000000
100
AcDbRotatedDimension
1001
ACAD
1000
DSTYLE
1002
{
1070
284
1070
8
1070
78
1070
8
1070
144
1040
1.00000000000000
1070
147
1040
0.625
1070
 72
1070
 0
1070
 71
1070
 0
1002
}
  0
DIMENSION
  5
F10003
330
261
100
AcDbEntity
  8
Bemassung
100
AcDbDimension
  2
*D3
10
-93.0638297872341
20
-0.291489361702125
30
0.000000000000000
11
-93.1750160702085
21
6.07836852377233
31
0.000000000000000
 70
34
 1
2°
 71
     8
  3
BEM-ISBE
100
AcDb2LineAngularDimension
13
-93.0638297872341
23
-0.291489361702125
33
0.000000000000000
14
-93.5129484995991
24
6.06348854957863
34
0.000000000000000
15
-93.0638297872341
25
6.07933883176399
35
0.000000000000000
16
-93.1750160702086
26
6.07836852377233
36
0.000000000000000
1001
ACAD
1000
DSTYLE
1002
{
1070
284
1070
8
1070
79
1070
2
1070
147
1040
0.625
1070
 72
1070
 0
1070
 71
1070
 0
1002
}
  0
DIMENSION
  5
F1000D
330
261
100
AcDbEntity
  8
Bemassung
100
AcDbDimension
  2
*D5
10
-103.063829787234
20
-0.191489361702125
30
0.000000000000000
11
-102.397163120567
21
-3.19148936170212
31
0.000000000000000
 70
32
 1
6
 71
     8
  3
BEM-ISBE
100
AcDbAlignedDimension
13
-92.9638297872341
23
-6.19148936170212
33
0.000000000000000
14
-92.9638297872341
24
-0.191489361702125
34
0.000000000000000
50
90.0000000000000
100
AcDbRotatedDimension
1001
ACAD
1000
DSTYLE
1002
{
1070
284
1070
8
1070
78
1070
8
1070
144
1040
1.00000000000000
1070
147
1040
0.625
1070
 72
1070
 0
1070
 71
1070
 0
1002
}
  0
DIMENSION
  5
F1001C
330
261
100
AcDbEntity
  8
Bemassung
100
AcDbDimension
  2
*D8
10
-19.0638297872341
20
-0.191489361702125
30
0.000000000000000
11
-18.3971631205674
21
-3.19148936170212
31
0.000000000000000
 70
32
 1
6h6
 71
     8
  3
BEM-ISBE
100
AcDbAlignedDimension
13
-29.5638297872341
23
-6.19148936170212
33
0.000000000000000
14
-29.5638297872341
24
-0.191489361702125
34
0.000000000000000
50
90.0000000000000
100
AcDbRotatedDimension
1001
ACAD
1000
DSTYLE
1002
{
1070
284
1070
8
1070
78
1070
8
1070
144
1040
1.00000000000000
1070
147
1040
0.625
1070
 72
1070
 0
1070
 71
1070
 0
1002
}
  0
LINE
  5
F1007C
330
F1007D
100
AcDbEntity
8
Geo
100
AcDbLine
10
-92.9625595557080
20
-3.19148936170212
30
0.000000000000000
11
-93.0638297872341
21
-0.291489361702125
31
0.000000000000000
  0
LINE
  5
F1007E
330
F1007F
100
AcDbEntity
8
Geo
100
AcDbLine
10
-93.0638297872341
20
-0.291489361702125
30
0.000000000000000
11
-92.9638297872341
21
-0.191489361702125
31
0.000000000000000
  0
LINE
  5
F10080
330
F10081
100
AcDbEntity
8
Geo
100
AcDbLine
10
-92.9638297872341
20
-0.191489361702125
30
0.000000000000000
11
-74.0638297872341
21
-0.191489361702125
31
0.000000000000000
  0
LINE
  5
F10082
330
F10083
100
AcDbEntity
8
Geo
100
AcDbLine
10
-74.0638297872341
20
-0.191489361702125
30
0.000000000000000
11
-68.0638297872341
21
-0.191489361702125
31
0.000000000000000
  0
LINE
  5
F10084
330
F10085
100
AcDbEntity
8
Geo
100
AcDbLine
10
-68.0638297872341
20
-0.191489361702125
30
0.000000000000000
11
-29.5638297872341
21
-0.191489361702125
31
0.000000000000000
  0
LINE
  5
F10086
330
F10087
100
AcDbEntity
8
Geo
100
AcDbLine
10
-29.5638297872341
20
-0.191489361702125
30
0.000000000000000
11
-29.0638297872341
21
-0.691489361702124
31
0.000000000000000
  0
LINE
  5
F10088
330
F10089
100
AcDbEntity
8
Geo
100
AcDbLine
10
-89.8638297872341
20
-0.192423552591468
30
0.000000000000000
11
-89.7638297872341
21
-0.191764092191975
31
0.000000000000000
  0
LINE
  5
F1008A
330
F1008B
100
AcDbEntity
8
Geo
100
AcDbLine
10
-89.7638297872341
20
-0.191764092191975
30
0.000000000000000
11
-89.6638297872341
21
-0.195548120609290
31
0.000000000000000
  0
LINE
  5
F1008C
330
F1008D
100
AcDbEntity
8
Geo
100
AcDbLine
10
-89.6638297872341
20
-0.195548120609290
30
0.000000000000000
11
-89.5638297872341
21
-0.203770032567448
31
0.000000000000000
  0
LINE
  5
F1008E
330
F1008F
100
AcDbEntity
8
Geo
100
AcDbLine
10
-89.5638297872341
20
-0.203770032567448
30
0.000000000000000
11
-89.4638297872341
21
-0.216417648959844
31
0.000000000000000
  0
LINE
  5
F10090
330
F10091
100
AcDbEntity
8
Geo
100
AcDbLine
10
-89.4638297872341
20
-0.216417648959844
30
0.000000000000000
11
-89.3638297872341
21
-0.233472234890129
31
0.000000000000000
  0
LINE
  5
F10092
330
F10093
100
AcDbEntity
8
Geo
100
AcDbLine
10
-89.3638297872341
20
-0.233472234890129
30
0.000000000000000
11
-89.2638297872341
21
-0.254908527424186
31
0.000000000000000
  0
LINE
  5
F10094
330
F10095
100
AcDbEntity
8
Geo
100
AcDbLine
10
-89.2638297872341
20
-0.254908527424186
30
0.000000000000000
11
-89.1638297872341
21
-0.280694773012076
31
0.000000000000000
  0
LINE
  5
F10096
330
F10097
100
AcDbEntity
8
Geo
100
AcDbLine
10
-89.1638297872341
20
-0.280694773012076
30
0.000000000000000
11
-89.0638297872341
21
-0.310792774524527
31
0.000000000000000
  0
LINE
  5
F10098
330
F10099
100
AcDbEntity
8
Geo
100
AcDbLine
10
-89.0638297872341
20
-0.310792774524527
30
0.000000000000000
11
-88.9638297872341
21
-0.345157947834291
31
0.000000000000000
  0
LINE
  5
F1009A
330
F1009B
100
AcDbEntity
8
Geo
100
AcDbLine
10
-88.9638297872341
20
-0.345157947834291
30
0.000000000000000
11
-88.8638297872341
21
-0.383739387858543
31
0.000000000000000
  0
LINE
  5
F1009C
330
F1009D
100
AcDbEntity
8
Geo
100
AcDbLine
10
-88.8638297872341
20
-0.383739387858543
30
0.000000000000000
11
-88.7638297872341
21
-0.426479943964517
31
0.000000000000000
  0
LINE
  5
F1009E
330
F1009F
100
AcDbEntity
8
Geo
100
AcDbLine
10
-88.7638297872341
20
-0.426479943964517
30
0.000000000000000
11
-88.6638297872341
21
-0.473316304626649
31
0.000000000000000
  0
LINE
  5
F100A0
330
F100A1
100
AcDbEntity
8
Geo
100
AcDbLine
10
-88.6638297872341
20
-0.473316304626649
30
0.000000000000000
11
-88.5638297872341
21
-0.524179091209857
31
0.000000000000000
  0
LINE
  5
F100A2
330
F100A3
100
AcDbEntity
8
Geo
100
AcDbLine
10
-88.5638297872341
20
-0.524179091209857
30
0.000000000000000
11
-88.4638297872341
21
-0.578992960740012
31
0.000000000000000
  0
LINE
  5
F100A4
330
F100A5
100
AcDbEntity
8
Geo
100
AcDbLine
10
-88.4638297872341
20
-0.578992960740012
30
0.000000000000000
11
-88.3638297872341
21
-0.637676717509381
31
0.000000000000000
  0
LINE
  5
F100A6
330
F100A7
100
AcDbEntity
8
Geo
100
AcDbLine
10
-88.3638297872341
20
-0.637676717509381
30
0.000000000000000
11
-88.2638297872341
21
-0.700143433351712
31
0.000000000000000
  0
LINE
  5
F100A8
330
F100A9
100
AcDbEntity
8
Geo
100
AcDbLine
10
-88.2638297872341
20
-0.700143433351712
30
0.000000000000000
11
-88.1638297872341
21
-0.766300576408812
31
0.000000000000000
  0
LINE
  5
F100AA
330
F100AB
100
AcDbEntity
8
Geo
100
AcDbLine
10
-88.1638297872341
20
-0.766300576408812
30
0.000000000000000
11
-88.0638297872341
21
-0.836050148197844
31
0.000000000000000
  0
LINE
  5
F100AC
330
F100AD
100
AcDbEntity
8
Geo
100
AcDbLine
10
-88.0638297872341
20
-0.836050148197844
30
0.000000000000000
11
-87.9638297872341
21
-0.909288828776358
31
0.000000000000000
  0
LINE
  5
F100AE
330
F100AF
100
AcDbEntity
8
Geo
100
AcDbLine
10
-87.9638297872341
20
-0.909288828776358
30
0.000000000000000
11
-87.8638297872341
21
-0.985908129789963
31
0.000000000000000
  0
LINE
  5
F100B0
330
F100B1
100
AcDbEntity
8
Geo
100
AcDbLine
10
-87.8638297872341
20
-0.985908129789963
30
0.000000000000000
11
-87.7638297872341
21
-1.06579455517598
31
0.000000000000000
  0
LINE
  5
F100B2
330
F100B3
100
AcDbEntity
8
Geo
100
AcDbLine
10
-87.7638297872341
20
-1.06579455517598
30
0.000000000000000
11
-87.6638297872341
21
-1.14882976928500
31
0.000000000000000
  0
LINE
  5
F100B4
330
F100B5
100
AcDbEntity
8
Geo
100
AcDbLine
10
-87.6638297872341
20
-1.14882976928500
30
0.000000000000000
11
-87.5638297872341
21
-1.23489077217132
31
0.000000000000000
  0
LINE
  5
F100B6
330
F100B7
100
AcDbEntity
8
Geo
100
AcDbLine
10
-87.5638297872341
20
-1.23489077217132
30
0.000000000000000
11
-87.4638297872341
21
-1.32385008179257
31
0.000000000000000
  0
LINE
  5
F100B8
330
F100B9
100
AcDbEntity
8
Geo
100
AcDbLine
10
-87.4638297872341
20
-1.32385008179257
30
0.000000000000000
11
-87.3638297872341
21
-1.41557592284870
31
0.000000000000000
  0
LINE
  5
F100BA
330
F100BB
100
AcDbEntity
8
Geo
100
AcDbLine
10
-87.3638297872341
20
-1.41557592284870
30
0.000000000000000
11
-87.2638297872341
21
-1.50993242198054
31
0.000000000000000
  0
LINE
  5
F100BC
330
F100BD
100
AcDbEntity
8
Geo
100
AcDbLine
10
-87.2638297872341
20
-1.50993242198054
30
0.000000000000000
11
-87.1638297872341
21
-1.60677980903883
31
0.000000000000000
  0
LINE
  5
F100BE
330
F100BF
100
AcDbEntity
8
Geo
100
AcDbLine
10
-87.1638297872341
20
-1.60677980903883
30
0.000000000000000
11
-87.0638297872341
21
-1.70597462412552
31
0.000000000000000
  0
LINE
  5
F100C0
330
F100C1
100
AcDbEntity
8
Geo
100
AcDbLine
10
-87.0638297872341
20
-1.70597462412552
30
0.000000000000000
11
-86.9638297872341
21
-1.80736993010073
31
0.000000000000000
  0
LINE
  5
F100C2
330
F100C3
100
AcDbEntity
8
Geo
100
AcDbLine
10
-86.9638297872341
20
-1.80736993010073
30
0.000000000000000
11
-86.8638297872341
21
-1.91081553024053
31
0.000000000000000
  0
LINE
  5
F100C4
330
F100C5
100
AcDbEntity
8
Geo
100
AcDbLine
10
-86.8638297872341
20
-1.91081553024053
30
0.000000000000000
11
-86.7638297872341
21
-2.01615819072312
31
0.000000000000000
  0
LINE
  5
F100C6
330
F100C7
100
AcDbEntity
8
Geo
100
AcDbLine
10
-86.7638297872341
20
-2.01615819072312
30
0.000000000000000
11
-86.6638297872341
21
-2.12324186761391
31
0.000000000000000
  0
LINE
  5
F100C8
330
F100C9
100
AcDbEntity
8
Geo
100
AcDbLine
10
-86.6638297872341
20
-2.12324186761391
30
0.000000000000000
11
-86.5638297872341
21
-2.23190793801314
31
0.000000000000000
  0
LINE
  5
F100CA
330
F100CB
100
AcDbEntity
8
Geo
100
AcDbLine
10
-86.5638297872341
20
-2.23190793801314
30
0.000000000000000
11
-86.4638297872341
21
-2.34199543502377
31
0.000000000000000
  0
LINE
  5
F100CC
330
F100CD
100
AcDbEntity
8
Geo
100
AcDbLine
10
-86.4638297872341
20
-2.34199543502377
30
0.000000000000000
11
-86.3638297872341
21
-2.45334128619153
31
0.000000000000000
  0
LINE
  5
F100CE
330
F100CF
100
AcDbEntity
8
Geo
100
AcDbLine
10
-86.3638297872341
20
-2.45334128619153
30
0.000000000000000
11
-86.2638297872341
21
-2.56578055506391
31
0.000000000000000
  0
LINE
  5
F100D0
330
F100D1
100
AcDbEntity
8
Geo
100
AcDbLine
10
-86.2638297872341
20
-2.56578055506391
30
0.000000000000000
11
-86.1638297872341
21
-2.67914668551029
31
0.000000000000000
  0
LINE
  5
F100D2
330
F100D3
100
AcDbEntity
8
Geo
100
AcDbLine
10
-86.1638297872341
20
-2.67914668551029
30
0.000000000000000
11
-86.0638297872341
21
-2.79327174844132
31
0.000000000000000
  0
LINE
  5
F100D4
330
F100D5
100
AcDbEntity
8
Geo
100
AcDbLine
10
-86.0638297872341
20
-2.79327174844132
30
0.000000000000000
11
-85.9638297872341
21
-2.90798669056200
31
0.000000000000000
  0
LINE
  5
F100D6
330
F100D7
100
AcDbEntity
8
Geo
100
AcDbLine
10
-85.9638297872341
20
-2.90798669056200
30
0.000000000000000
11
-85.8638297872341
21
-3.02312158479015
31
0.000000000000000
  0
LINE
  5
F100D8
330
F100D9
100
AcDbEntity
8
Geo
100
AcDbLine
10
-85.8638297872341
20
-3.02312158479015
30
0.000000000000000
11
-85.7638297872341
21
-3.13850588196910
31
0.000000000000000
  0
LINE
  5
F100DA
330
F100DB
100
AcDbEntity
8
Geo
100
AcDbLine
10
-85.7638297872341
20
-3.13850588196910
30
0.000000000000000
11
-85.6638297872341
21
-3.25396866350196
31
0.000000000000000
  0
LINE
  5
F100DC
330
F100DD
100
AcDbEntity
8
Geo
100
AcDbLine
10
-85.6638297872341
20
-3.25396866350196
30
0.000000000000000
11
-85.5638297872341
21
-3.36933889453306
31
0.000000000000000
  0
LINE
  5
F100DE
330
F100DF
100
AcDbEntity
8
Geo
100
AcDbLine
10
-85.5638297872341
20
-3.36933889453306
30
0.000000000000000
11
-85.4638297872341
21
-3.48444567730167
31
0.000000000000000
  0
LINE
  5
F100E0
330
F100E1
100
AcDbEntity
8
Geo
100
AcDbLine
10
-85.4638297872341
20
-3.48444567730167
30
0.000000000000000
11
-85.3638297872341
21
-3.59911850429259
31
0.000000000000000
  0
LINE
  5
F100E2
330
F100E3
100
AcDbEntity
8
Geo
100
AcDbLine
10
-85.3638297872341
20
-3.59911850429259
30
0.000000000000000
11
-85.2638297872341
21
-3.71318751080871
31
0.000000000000000
  0
LINE
  5
F100E4
330
F100E5
100
AcDbEntity
8
Geo
100
AcDbLine
10
-85.2638297872341
20
-3.71318751080871
30
0.000000000000000
11
-85.1638297872341
21
-3.82648372659134
31
0.000000000000000
  0
LINE
  5
F100E6
330
F100E7
100
AcDbEntity
8
Geo
100
AcDbLine
10
-85.1638297872341
20
-3.82648372659134
30
0.000000000000000
11
-85.0638297872341
21
-3.93883932611560
31
0.000000000000000
  0
LINE
  5
F100E8
330
F100E9
100
AcDbEntity
8
Geo
100
AcDbLine
10
-85.0638297872341
20
-3.93883932611560
30
0.000000000000000
11
-84.9638297872341
21
-4.05008787719017
31
0.000000000000000
  0
LINE
  5
F100EA
330
F100EB
100
AcDbEntity
8
Geo
100
AcDbLine
10
-84.9638297872341
20
-4.05008787719017
30
0.000000000000000
11
-84.8638297872341
21
-4.16006458749303
31
0.000000000000000
  0
LINE
  5
F100EC
330
F100ED
100
AcDbEntity
8
Geo
100
AcDbLine
10
-84.8638297872341
20
-4.16006458749303
30
0.000000000000000
11
-84.7638297872341
21
-4.26860654867811
31
0.000000000000000
  0
LINE
  5
F100EE
330
F100EF
100
AcDbEntity
8
Geo
100
AcDbLine
10
-84.7638297872341
20
-4.26860654867811
30
0.000000000000000
11
-84.6638297872341
21
-4.37555297769116
31
0.000000000000000
  0
LINE
  5
F100F0
330
F100F1
100
AcDbEntity
8
Geo
100
AcDbLine
10
-84.6638297872341
20
-4.37555297769116
30
0.000000000000000
11
-84.5638297872341
21
-4.48074545493752
31
0.000000000000000
  0
LINE
  5
F100F2
330
F100F3
100
AcDbEntity
8
Geo
100
AcDbLine
10
-84.5638297872341
20
-4.48074545493752
30
0.000000000000000
11
-84.4638297872341
21
-4.58402815894881
31
0.000000000000000
  0
LINE
  5
F100F4
330
F100F5
100
AcDbEntity
8
Geo
100
AcDbLine
10
-84.4638297872341
20
-4.58402815894881
30
0.000000000000000
11
-84.3638297872341
21
-4.68524809720104
31
0.000000000000000
  0
LINE
  5
F100F6
330
F100F7
100
AcDbEntity
8
Geo
100
AcDbLine
10
-84.3638297872341
20
-4.68524809720104
30
0.000000000000000
11
-84.2638297872341
21
-4.78425533274224
31
0.000000000000000
  0
LINE
  5
F100F8
330
F100F9
100
AcDbEntity
8
Geo
100
AcDbLine
10
-84.2638297872341
20
-4.78425533274224
30
0.000000000000000
11
-84.1638297872341
21
-4.88090320629384
31
0.000000000000000
  0
LINE
  5
F100FA
330
F100FB
100
AcDbEntity
8
Geo
100
AcDbLine
10
-84.1638297872341
20
-4.88090320629384
30
0.000000000000000
11
-84.0638297872341
21
-4.97504855349688
31
0.000000000000000
  0
LINE
  5
F100FC
330
F100FD
100
AcDbEntity
8
Geo
100
AcDbLine
10
-84.0638297872341
20
-4.97504855349688
30
0.000000000000000
11
-83.9638297872341
21
-5.06655191698114
31
0.000000000000000
  0
LINE
  5
F100FE
330
F100FF
100
AcDbEntity
8
Geo
100
AcDbLine
10
-83.9638297872341
20
-5.06655191698114
30
0.000000000000000
11
-83.8638297872341
21
-5.15527775294317
31
0.000000000000000
  0
LINE
  5
F10100
330
F10101
100
AcDbEntity
8
Geo
100
AcDbLine
10
-83.8638297872341
20
-5.15527775294317
30
0.000000000000000
11
-83.7638297872341
21
-5.24109463192712
31
0.000000000000000
  0
LINE
  5
F10102
330
F10103
100
AcDbEntity
8
Geo
100
AcDbLine
10
-83.7638297872341
20
-5.24109463192712
30
0.000000000000000
11
-83.6638297872341
21
-5.32387543351102
31
0.000000000000000
  0
LINE
  5
F10104
330
F10105
100
AcDbEntity
8
Geo
100
AcDbLine
10
-83.6638297872341
20
-5.32387543351102
30
0.000000000000000
11
-83.5638297872341
21
-5.40349753461008
31
0.000000000000000
  0
LINE
  5
F10106
330
F10107
100
AcDbEntity
8
Geo
100
AcDbLine
10
-83.5638297872341
20
-5.40349753461008
30
0.000000000000000
11
-83.4638297872341
21
-5.47984299111808
31
0.000000000000000
  0
LINE
  5
F10108
330
F10109
100
AcDbEntity
8
Geo
100
AcDbLine
10
-83.4638297872341
20
-5.47984299111808
30
0.000000000000000
11
-83.3638297872341
21
-5.55279871261783
31
0.000000000000000
  0
LINE
  5
F1010A
330
F1010B
100
AcDbEntity
8
Geo
100
AcDbLine
10
-83.3638297872341
20
-5.55279871261783
30
0.000000000000000
11
-83.2638297872341
21
-5.62225662990181
31
0.000000000000000
  0
LINE
  5
F1010C
330
F1010D
100
AcDbEntity
8
Geo
100
AcDbLine
10
-83.2638297872341
20
-5.62225662990181
30
0.000000000000000
11
-83.1638297872341
21
-5.68811385505499
31
0.000000000000000
  0
LINE
  5
F1010E
330
F1010F
100
AcDbEntity
8
Geo
100
AcDbLine
10
-83.1638297872341
20
-5.68811385505499
30
0.000000000000000
11
-83.0638297872341
21
-5.75027283386249
31
0.000000000000000
  0
LINE
  5
F10110
330
F10111
100
AcDbEntity
8
Geo
100
AcDbLine
10
-83.0638297872341
20
-5.75027283386249
30
0.000000000000000
11
-82.9638297872341
21
-5.80864149031657
31
0.000000000000000
  0
LINE
  5
F10112
330
F10113
100
AcDbEntity
8
Geo
100
AcDbLine
10
-82.9638297872341
20
-5.80864149031657
30
0.000000000000000
11
-82.8638297872341
21
-5.86313336300862
31
0.000000000000000
  0
LINE
  5
F10114
330
F10115
100
AcDbEntity
8
Geo
100
AcDbLine
10
-82.8638297872341
20
-5.86313336300862
30
0.000000000000000
11
-82.7638297872341
21
-5.91366773320437
31
0.000000000000000
  0
LINE
  5
F10116
330
F10117
100
AcDbEntity
8
Geo
100
AcDbLine
10
-82.7638297872341
20
-5.91366773320437
30
0.000000000000000
11
-82.6638297872341
21
-5.96016974441243
31
0.000000000000000
  0
LINE
  5
F10118
330
F10119
100
AcDbEntity
8
Geo
100
AcDbLine
10
-82.6638297872341
20
-5.96016974441243
30
0.000000000000000
11
-82.5638297872341
21
-6.00257051326908
31
0.000000000000000
  0
LINE
  5
F1011A
330
F1011B
100
AcDbEntity
8
Geo
100
AcDbLine
10
-82.5638297872341
20
-6.00257051326908
30
0.000000000000000
11
-82.4638297872341
21
-6.04080723157514
31
0.000000000000000
  0
LINE
  5
F1011C
330
F1011D
100
AcDbEntity
8
Geo
100
AcDbLine
10
-82.4638297872341
20
-6.04080723157514
30
0.000000000000000
11
-82.3638297872341
21
-6.07482325933364
31
0.000000000000000
  0
LINE
  5
F1011E
330
F1011F
100
AcDbEntity
8
Geo
100
AcDbLine
10
-82.3638297872341
20
-6.07482325933364
30
0.000000000000000
11
-82.2638297872341
21
-6.10456820865057
31
0.000000000000000
  0
LINE
  5
F10120
330
F10121
100
AcDbEntity
8
Geo
100
AcDbLine
10
-82.2638297872341
20
-6.10456820865057
30
0.000000000000000
11
-82.1638297872341
21
-6.12999801837439
31
0.000000000000000
  0
LINE
  5
F10122
330
F10123
100
AcDbEntity
8
Geo
100
AcDbLine
10
-82.1638297872341
20
-6.12999801837439
30
0.000000000000000
11
-82.0638297872341
21
-6.15107501936379
31
0.000000000000000
  0
LINE
  5
F10124
330
F10125
100
AcDbEntity
8
Geo
100
AcDbLine
10
-82.0638297872341
20
-6.15107501936379
30
0.000000000000000
11
-81.9638297872341
21
-6.16776799028687
31
0.000000000000000
  0
LINE
  5
F10126
330
F10127
100
AcDbEntity
8
Geo
100
AcDbLine
10
-81.9638297872341
20
-6.16776799028687
30
0.000000000000000
11
-81.8638297872341
21
-6.18005220386933
31
0.000000000000000
  0
LINE
  5
F10128
330
F10129
100
AcDbEntity
8
Geo
100
AcDbLine
10
-81.8638297872341
20
-6.18005220386933
30
0.000000000000000
11
-81.7638297872341
21
-6.18790946352288
31
0.000000000000000
  0
LINE
  5
F1012A
330
F1012B
100
AcDbEntity
8
Geo
100
AcDbLine
10
-81.7638297872341
20
-6.18790946352288
30
0.000000000000000
11
-81.6638297872341
21
-6.19132813029986
31
0.000000000000000
  0
LINE
  5
F1012C
330
F1012D
100
AcDbEntity
8
Geo
100
AcDbLine
10
-93.0638297872341
20
-0.291489361702125
30
0.000000000000000
11
-92.9638297872341
21
-0.193711309589472
31
0.000000000000000
  0
LINE
  5
F1012E
330
F1012F
100
AcDbEntity
8
Geo
100
AcDbLine
10
-92.9638297872341
20
-0.193711309589472
30
0.000000000000000
11
-92.8638297872341
21
-0.200373861883238
31
0.000000000000000
  0
LINE
  5
F10130
330
F10131
100
AcDbEntity
8
Geo
100
AcDbLine
10
-92.8638297872341
20
-0.200373861883238
30
0.000000000000000
11
-92.7638297872341
21
-0.211467149354095
31
0.000000000000000
  0
LINE
  5
F10132
330
F10133
100
AcDbEntity
8
Geo
100
AcDbLine
10
-92.7638297872341
20
-0.211467149354095
30
0.000000000000000
11
-92.6638297872341
21
-0.226974739530934
31
0.000000000000000
  0
LINE
  5
F10134
330
F10135
100
AcDbEntity
8
Geo
100
AcDbLine
10
-92.6638297872341
20
-0.226974739530934
30
0.000000000000000
11
-92.5638297872341
21
-0.246873661042270
31
0.000000000000000
  0
LINE
  5
F10136
330
F10137
100
AcDbEntity
8
Geo
100
AcDbLine
10
-92.5638297872341
20
-0.246873661042270
30
0.000000000000000
11
-92.4638297872341
21
-0.271134437643692
31
0.000000000000000
  0
LINE
  5
F10138
330
F10139
100
AcDbEntity
8
Geo
100
AcDbLine
10
-92.4638297872341
20
-0.271134437643692
30
0.000000000000000
11
-92.3638297872341
21
-0.299721131880993
31
0.000000000000000
  0
LINE
  5
F1013A
330
F1013B
100
AcDbEntity
8
Geo
100
AcDbLine
10
-92.3638297872341
20
-0.299721131880993
30
0.000000000000000
11
-92.2638297872341
21
-0.332591398324260
31
0.000000000000000
  0
LINE
  5
F1013C
330
F1013D
100
AcDbEntity
8
Geo
100
AcDbLine
10
-92.2638297872341
20
-0.332591398324260
30
0.000000000000000
11
-92.1638297872341
21
-0.369696546294106
31
0.000000000000000
  0
LINE
  5
F1013E
330
F1013F
100
AcDbEntity
8
Geo
100
AcDbLine
10
-92.1638297872341
20
-0.369696546294106
30
0.000000000000000
11
-92.0638297872341
21
-0.410981611987105
31
0.000000000000000
  0
LINE
  5
F10140
330
F10141
100
AcDbEntity
8
Geo
100
AcDbLine
10
-92.0638297872341
20
-0.410981611987105
30
0.000000000000000
11
-91.9638297872341
21
-0.456385439893591
31
0.000000000000000
  0
LINE
  5
F10142
330
F10143
100
AcDbEntity
8
Geo
100
AcDbLine
10
-91.9638297872341
20
-0.456385439893591
30
0.000000000000000
11
-91.8638297872341
21
-0.505840773387237
31
0.000000000000000
  0
LINE
  5
F10144
330
F10145
100
AcDbEntity
8
Geo
100
AcDbLine
10
-91.8638297872341
20
-0.505840773387237
30
0.000000000000000
11
-91.7638297872341
21
-0.559274354352192
31
0.000000000000000
  0
LINE
  5
F10146
330
F10147
100
AcDbEntity
8
Geo
100
AcDbLine
10
-91.7638297872341
20
-0.559274354352192
30
0.000000000000000
11
-91.6638297872341
21
-0.616607031700231
31
0.000000000000000
  0
LINE
  5
F10148
330
F10149
100
AcDbEntity
8
Geo
100
AcDbLine
10
-91.6638297872341
20
-0.616607031700231
30
0.000000000000000
11
-91.5638297872341
21
-0.677753878617146
31
0.000000000000000
  0
LINE
  5
F1014A
330
F1014B
100
AcDbEntity
8
Geo
100
AcDbLine
10
-91.5638297872341
20
-0.677753878617146
30
0.000000000000000
11
-91.4638297872341
21
-0.742624318364722
31
0.000000000000000
  0
LINE
  5
F1014C
330
F1014D
100
AcDbEntity
8
Geo
100
AcDbLine
10
-91.4638297872341
20
-0.742624318364722
30
0.000000000000000
11
-91.3638297872341
21
-0.811122258451927
31
0.000000000000000
  0
LINE
  5
F1014E
330
F1014F
100
AcDbEntity
8
Geo
100
AcDbLine
10
-91.3638297872341
20
-0.811122258451927
30
0.000000000000000
11
-91.2638297872341
21
-0.883146232976584
31
0.000000000000000
  0
LINE
  5
F10150
330
F10151
100
AcDbEntity
8
Geo
100
AcDbLine
10
-91.2638297872341
20
-0.883146232976584
30
0.000000000000000
11
-91.1638297872341
21
-0.958589552926671
31
0.000000000000000
  0
LINE
  5
F10152
330
F10153
100
AcDbEntity
8
Geo
100
AcDbLine
10
-91.1638297872341
20
-0.958589552926671
30
0.000000000000000
11
-91.0638297872341
21
-1.03734046421860
31
0.000000000000000
  0
LINE
  5
F10154
330
F10155
100
AcDbEntity
8
Geo
100
AcDbLine
10
-91.0638297872341
20
-1.03734046421860
30
0.000000000000000
11
-90.9638297872341
21
-1.11928231323840
31
0.000000000000000
  0
LINE
  5
F10156
330
F10157
100
AcDbEntity
8
Geo
100
AcDbLine
10
-90.9638297872341
20
-1.11928231323840
30
0.000000000000000
11
-90.8638297872341
21
-1.20429371964051
31
0.000000000000000
  0
LINE
  5
F10158
330
F10159
100
AcDbEntity
8
Geo
100
AcDbLine
10
-90.8638297872341
20
-1.20429371964051
30
0.000000000000000
11
-90.7638297872341
21
-1.29224875614838
31
0.000000000000000
  0
LINE
  5
F1015A
330
F1015B
100
AcDbEntity
8
Geo
100
AcDbLine
10
-90.7638297872341
20
-1.29224875614838
30
0.000000000000000
11
-90.6638297872341
21
-1.38301713509029
31
0.000000000000000
  0
LINE
  5
F1015C
330
F1015D
100
AcDbEntity
8
Geo
100
AcDbLine
10
-90.6638297872341
20
-1.38301713509029
30
0.000000000000000
11
-90.5638297872341
21
-1.47646440139437
31
0.000000000000000
  0
LINE
  5
F1015E
330
F1015F
100
AcDbEntity
8
Geo
100
AcDbLine
10
-90.5638297872341
20
-1.47646440139437
30
0.000000000000000
11
-90.4638297872341
21
-1.57245213175665
31
0.000000000000000
  0
LINE
  5
F10160
330
F10161
100
AcDbEntity
8
Geo
100
AcDbLine
10
-90.4638297872341
20
-1.57245213175665
30
0.000000000000000
11
-90.3638297872341
21
-1.67083813968735
31
0.000000000000000
  0
LINE
  5
F10162
330
F10163
100
AcDbEntity
8
Geo
100
AcDbLine
10
-90.3638297872341
20
-1.67083813968735
30
0.000000000000000
11
-90.2638297872341
21
-1.77147668613147
31
0.000000000000000
  0
LINE
  5
F10164
330
F10165
100
AcDbEntity
8
Geo
100
AcDbLine
10
-90.2638297872341
20
-1.77147668613147
30
0.000000000000000
11
-90.1638297872341
21
-1.87421869535192
31
0.000000000000000
  0
LINE
  5
F10166
330
F10167
100
AcDbEntity
8
Geo
100
AcDbLine
10
-90.1638297872341
20
-1.87421869535192
30
0.000000000000000
11
-90.0638297872341
21
-1.97891197575514
31
0.000000000000000
  0
LINE
  5
F10168
330
F10169
100
AcDbEntity
8
Geo
100
AcDbLine
10
-90.0638297872341
20
-1.97891197575514
30
0.000000000000000
11
-89.9638297872341
21
-2.08540144533234
31
0.000000000000000
  0
LINE
  5
F1016A
330
F1016B
100
AcDbEntity
8
Geo
100
AcDbLine
10
-89.9638297872341
20
-2.08540144533234
30
0.000000000000000
11
-89.8638297872341
21
-2.19352936138219
31
0.000000000000000
  0
LINE
  5
F1016C
330
F1016D
100
AcDbEntity
8
Geo
100
AcDbLine
10
-89.8638297872341
20
-2.19352936138219
30
0.000000000000000
11
-89.7638297872341
21
-2.30313555417496
31
0.000000000000000
  0
LINE
  5
F1016E
330
F1016F
100
AcDbEntity
8
Geo
100
AcDbLine
10
-89.7638297872341
20
-2.30313555417496
30
0.000000000000000
11
-89.6638297872341
21
-2.41405766421163
31
0.000000000000000
  0
LINE
  5
F10170
330
F10171
100
AcDbEntity
8
Geo
100
AcDbLine
10
-89.6638297872341
20
-2.41405766421163
30
0.000000000000000
11
-89.5638297872341
21
-2.52613138272684
31
0.000000000000000
  0
LINE
  5
F10172
330
F10173
100
AcDbEntity
8
Geo
100
AcDbLine
10
-89.5638297872341
20
-2.52613138272684
30
0.000000000000000
11
-89.4638297872341
21
-2.63919069507918
31
0.000000000000000
  0
LINE
  5
F10174
330
F10175
100
AcDbEntity
8
Geo
100
AcDbLine
10
-89.4638297872341
20
-2.63919069507918
30
0.000000000000000
11
-89.3638297872341
21
-2.75306812666852
31
0.000000000000000
  0
LINE
  5
F10176
330
F10177
100
AcDbEntity
8
Geo
100
AcDbLine
10
-89.3638297872341
20
-2.75306812666852
30
0.000000000000000
11
-89.2638297872341
21
-2.86759499101582
31
0.000000000000000
  0
LINE
  5
F10178
330
F10179
100
AcDbEntity
8
Geo
100
AcDbLine
10
-89.2638297872341
20
-2.86759499101582
30
0.000000000000000
11
-89.1638297872341
21
-2.98260163963824
31
0.000000000000000
  0
LINE
  5
F1017A
330
F1017B
100
AcDbEntity
8
Geo
100
AcDbLine
10
-89.1638297872341
20
-2.98260163963824
30
0.000000000000000
11
-89.0638297872341
21
-3.09791771334914
31
0.000000000000000
  0
LINE
  5
F1017C
330
F1017D
100
AcDbEntity
8
Geo
100
AcDbLine
10
-89.0638297872341
20
-3.09791771334914
30
0.000000000000000
11
-88.9638297872341
21
-3.21337239461096
31
0.000000000000000
  0
LINE
  5
F1017E
330
F1017F
100
AcDbEntity
8
Geo
100
AcDbLine
10
-88.9638297872341
20
-3.21337239461096
30
0.000000000000000
11
-88.8638297872341
21
-3.32879466056696
31
0.000000000000000
  0
LINE
  5
F10180
330
F10181
100
AcDbEntity
8
Geo
100
AcDbLine
10
-88.8638297872341
20
-3.32879466056696
30
0.000000000000000
11
-88.7638297872341
21
-3.44401353637713
31
0.000000000000000
  0
LINE
  5
F10182
330
F10183
100
AcDbEntity
8
Geo
100
AcDbLine
10
-88.7638297872341
20
-3.44401353637713
30
0.000000000000000
11
-88.6638297872341
21
-3.55885834848301
31
0.000000000000000
  0
LINE
  5
F10184
330
F10185
100
AcDbEntity
8
Geo
100
AcDbLine
10
-88.6638297872341
20
-3.55885834848301
30
0.000000000000000
11
-88.5638297872341
21
-3.67315897742620
31
0.000000000000000
  0
LINE
  5
F10186
330
F10187
100
AcDbEntity
8
Geo
100
AcDbLine
10
-88.5638297872341
20
-3.67315897742620
30
0.000000000000000
11
-88.4638297872341
21
-3.78674610984601
31
0.000000000000000
  0
LINE
  5
F10188
330
F10189
100
AcDbEntity
8
Geo
100
AcDbLine
10
-88.4638297872341
20
-3.78674610984601
30
0.000000000000000
11
-88.3638297872341
21
-3.89945148928318
31
0.000000000000000
  0
LINE
  5
F1018A
330
F1018B
100
AcDbEntity
8
Geo
100
AcDbLine
10
-88.3638297872341
20
-3.89945148928318
30
0.000000000000000
11
-88.2638297872341
21
-4.01110816541788
31
0.000000000000000
  0
LINE
  5
F1018C
330
F1018D
100
AcDbEntity
8
Geo
100
AcDbLine
10
-88.2638297872341
20
-4.01110816541788
30
0.000000000000000
11
-88.1638297872341
21
-4.12155074137302
31
0.000000000000000
  0
LINE
  5
F1018E
330
F1018F
100
AcDbEntity
8
Geo
100
AcDbLine
10
-88.1638297872341
20
-4.12155074137302
30
0.000000000000000
11
-88.0638297872341
21
-4.23061561871638
31
0.000000000000000
  0
LINE
  5
F10190
330
F10191
100
AcDbEntity
8
Geo
100
AcDbLine
10
-88.0638297872341
20
-4.23061561871638
30
0.000000000000000
11
-87.9638297872341
21
-4.33814123979877
31
0.000000000000000
  0
LINE
  5
F10192
330
F10193
100
AcDbEntity
8
Geo
100
AcDbLine
10
-87.9638297872341
20
-4.33814123979877
30
0.000000000000000
11
-87.8638297872341
21
-4.44396832706912
31
0.000000000000000
  0
LINE
  5
F10194
330
F10195
100
AcDbEntity
8
Geo
100
AcDbLine
10
-87.8638297872341
20
-4.44396832706912
30
0.000000000000000
11
-87.7638297872341
21
-4.54794011901210
31
0.000000000000000
  0
LINE
  5
F10196
330
F10197
100
AcDbEntity
8
Geo
100
AcDbLine
10
-87.7638297872341
20
-4.54794011901210
30
0.000000000000000
11
-87.6638297872341
21
-4.64990260235876
31
0.000000000000000
  0
LINE
  5
F10198
330
F10199
100
AcDbEntity
8
Geo
100
AcDbLine
10
-87.6638297872341
20
-4.64990260235876
30
0.000000000000000
11
-87.5638297872341
21
-4.74970474022611
31
0.000000000000000
  0
LINE
  5
F1019A
330
F1019B
100
AcDbEntity
8
Geo
100
AcDbLine
10
-87.5638297872341
20
-4.74970474022611
30
0.000000000000000
11
-87.4638297872341
21
-4.84719869584790
31
0.000000000000000
  0
LINE
  5
F1019C
330
F1019D
100
AcDbEntity
8
Geo
100
AcDbLine
10
-87.4638297872341
20
-4.84719869584790
30
0.000000000000000
11
-87.3638297872341
21
-4.94224005156497
31
0.000000000000000
  0
LINE
  5
F1019E
330
F1019F
100
AcDbEntity
8
Geo
100
AcDbLine
10
-87.3638297872341
20
-4.94224005156497
30
0.000000000000000
11
-87.2638297872341
21
-5.03468802275098
31
0.000000000000000
  0
LINE
  5
F101A0
330
F101A1
100
AcDbEntity
8
Geo
100
AcDbLine
10
-87.2638297872341
20
-5.03468802275098
30
0.000000000000000
11
-87.1638297872341
21
-5.12440566635639
31
0.000000000000000
  0
LINE
  5
F101A2
330
F101A3
100
AcDbEntity
8
Geo
100
AcDbLine
10
-87.1638297872341
20
-5.12440566635639
30
0.000000000000000
11
-87.0638297872341
21
-5.21126008376211
31
0.000000000000000
  0
LINE
  5
F101A4
330
F101A5
100
AcDbEntity
8
Geo
100
AcDbLine
10
-87.0638297872341
20
-5.21126008376211
30
0.000000000000000
11
-86.9638297872341
21
-5.29512261764196
31
0.000000000000000
  0
LINE
  5
F101A6
330
F101A7
100
AcDbEntity
8
Geo
100
AcDbLine
10
-86.9638297872341
20
-5.29512261764196
30
0.000000000000000
11
-86.8638297872341
21
-5.37586904254261
31
0.000000000000000
  0
LINE
  5
F101A8
330
F101A9
100
AcDbEntity
8
Geo
100
AcDbLine
10
-86.8638297872341
20
-5.37586904254261
30
0.000000000000000
11
-86.7638297872341
21
-5.45337974889859
31
0.000000000000000
  0
LINE
  5
F101AA
330
F101AB
100
AcDbEntity
8
Geo
100
AcDbLine
10
-86.7638297872341
20
-5.45337974889859
30
0.000000000000000
11
-86.6638297872341
21
-5.52753992020975
31
0.000000000000000
  0
LINE
  5
F101AC
330
F101AD
100
AcDbEntity
8
Geo
100
AcDbLine
10
-86.6638297872341
20
-5.52753992020975
30
0.000000000000000
11
-86.5638297872341
21
-5.59823970311876
31
0.000000000000000
  0
LINE
  5
F101AE
330
F101AF
100
AcDbEntity
8
Geo
100
AcDbLine
10
-86.5638297872341
20
-5.59823970311876
30
0.000000000000000
11
-86.4638297872341
21
-5.66537437013678
31
0.000000000000000
  0
LINE
  5
F101B0
330
F101B1
100
AcDbEntity
8
Geo
100
AcDbLine
10
-86.4638297872341
20
-5.66537437013678
30
0.000000000000000
11
-86.3638297872341
21
-5.72884447477612
31
0.000000000000000
  0
LINE
  5
F101B2
330
F101B3
100
AcDbEntity
8
Geo
100
AcDbLine
10
-86.3638297872341
20
-5.72884447477612
30
0.000000000000000
11
-86.2638297872341
21
-5.78855599886016
31
0.000000000000000
  0
LINE
  5
F101B4
330
F101B5
100
AcDbEntity
8
Geo
100
AcDbLine
10
-86.2638297872341
20
-5.78855599886016
30
0.000000000000000
11
-86.1638297872341
21
-5.84442049179237
31
0.000000000000000
  0
LINE
  5
F101B6
330
F101B7
100
AcDbEntity
8
Geo
100
AcDbLine
10
-86.1638297872341
20
-5.84442049179237
30
0.000000000000000
11
-86.0638297872341
21
-5.89635520157806
31
0.000000000000000
  0
LINE
  5
F101B8
330
F101B9
100
AcDbEntity
8
Geo
100
AcDbLine
10
-86.0638297872341
20
-5.89635520157806
30
0.000000000000000
11
-85.9638297872341
21
-5.94428319740478
31
0.000000000000000
  0
LINE
  5
F101BA
330
F101BB
100
AcDbEntity
8
Geo
100
AcDbLine
10
-85.9638297872341
20
-5.94428319740478
30
0.000000000000000
11
-85.8638297872341
21
-5.98813348359980
31
0.000000000000000
  0
LINE
  5
F101BC
330
F101BD
100
AcDbEntity
8
Geo
100
AcDbLine
10
-85.8638297872341
20
-5.98813348359980
30
0.000000000000000
11
-85.7638297872341
21
-6.02784110479594
31
0.000000000000000
  0
LINE
  5
F101BE
330
F101BF
100
AcDbEntity
8
Geo
100
AcDbLine
10
-85.7638297872341
20
-6.02784110479594
30
0.000000000000000
11
-85.6638297872341
21
-6.06334724214986
31
0.000000000000000
  0
LINE
  5
F101C0
330
F101C1
100
AcDbEntity
8
Geo
100
AcDbLine
10
-85.6638297872341
20
-6.06334724214986
30
0.000000000000000
11
-85.5638297872341
21
-6.09459930047029
31
0.000000000000000
  0
LINE
  5
F101C2
330
F101C3
100
AcDbEntity
8
Geo
100
AcDbLine
10
-85.5638297872341
20
-6.09459930047029
30
0.000000000000000
11
-85.4638297872341
21
-6.12155098612727
31
0.000000000000000
  0
LINE
  5
F101C4
330
F101C5
100
AcDbEntity
8
Geo
100
AcDbLine
10
-85.4638297872341
20
-6.12155098612727
30
0.000000000000000
11
-85.3638297872341
21
-6.14416237562679
31
0.000000000000000
  0
LINE
  5
F101C6
330
F101C7
100
AcDbEntity
8
Geo
100
AcDbLine
10
-85.3638297872341
20
-6.14416237562679
30
0.000000000000000
11
-85.2638297872341
21
-6.16239997474943
31
0.000000000000000
  0
LINE
  5
F101C8
330
F101C9
100
AcDbEntity
8
Geo
100
AcDbLine
10
-85.2638297872341
20
-6.16239997474943
30
0.000000000000000
11
-85.1638297872341
21
-6.17623676816530
31
0.000000000000000
  0
LINE
  5
F101CA
330
F101CB
100
AcDbEntity
8
Geo
100
AcDbLine
10
-85.1638297872341
20
-6.17623676816530
30
0.000000000000000
11
-85.0638297872341
21
-6.18565225945179
31
0.000000000000000
  0
LINE
  5
F101CC
330
F101CD
100
AcDbEntity
8
Geo
100
AcDbLine
10
-85.0638297872341
20
-6.18565225945179
30
0.000000000000000
11
-84.9638297872341
21
-6.19063250145494
31
0.000000000000000
  0
LINE
  5
F101CE
330
F101CF
100
AcDbEntity
8
Geo
100
AcDbLine
10
-93.0638297872341
20
-0.433425464446183
30
0.000000000000000
11
-92.9638297872341
21
-0.376106410041738
31
0.000000000000000
  0
LINE
  5
F101D0
330
F101D1
100
AcDbEntity
8
Geo
100
AcDbLine
10
-92.9638297872341
20
-0.376106410041738
30
0.000000000000000
11
-92.8638297872341
21
-0.418063430067819
31
0.000000000000000
  0
LINE
  5
F101D2
330
F101D3
100
AcDbEntity
8
Geo
100
AcDbLine
10
-92.8638297872341
20
-0.418063430067819
30
0.000000000000000
11
-92.7638297872341
21
-0.464128722020240
31
0.000000000000000
  0
LINE
  5
F101D4
330
F101D5
100
AcDbEntity
8
Geo
100
AcDbLine
10
-92.7638297872341
20
-0.464128722020240
30
0.000000000000000
11
-92.6638297872341
21
-0.514234049446911
31
0.000000000000000
  0
LINE
  5
F101D6
330
F101D7
100
AcDbEntity
8
Geo
100
AcDbLine
10
-92.6638297872341
20
-0.514234049446911
30
0.000000000000000
11
-92.5638297872341
21
-0.568305191396886
31
0.000000000000000
  0
LINE
  5
F101D8
330
F101D9
100
AcDbEntity
8
Geo
100
AcDbLine
10
-92.5638297872341
20
-0.568305191396886
30
0.000000000000000
11
-92.4638297872341
21
-0.626262052363749
31
0.000000000000000
  0
LINE
  5
F101DA
330
F101DB
100
AcDbEntity
8
Geo
100
AcDbLine
10
-92.4638297872341
20
-0.626262052363749
30
0.000000000000000
11
-92.3638297872341
21
-0.688018780930979
31
0.000000000000000
  0
LINE
  5
F101DC
330
F101DD
100
AcDbEntity
8
Geo
100
AcDbLine
10
-92.3638297872341
20
-0.688018780930979
30
0.000000000000000
11
-92.2638297872341
21
-0.753483896943530
31
0.000000000000000
  0
LINE
  5
F101DE
330
F101DF
100
AcDbEntity
8
Geo
100
AcDbLine
10
-92.2638297872341
20
-0.753483896943530
30
0.000000000000000
11
-92.1638297872341
21
-0.822560427017256
31
0.000000000000000
  0
LINE
  5
F101E0
330
F101E1
100
AcDbEntity
8
Geo
100
AcDbLine
10
-92.1638297872341
20
-0.822560427017256
30
0.000000000000000
11
-92.0638297872341
21
-0.895146048185447
31
0.000000000000000
  0
LINE
  5
F101E2
330
F101E3
100
AcDbEntity
8
Geo
100
AcDbLine
10
-92.0638297872341
20
-0.895146048185447
30
0.000000000000000
11
-91.9638297872341
21
-0.971133239469700
31
0.000000000000000
  0
LINE
  5
F101E4
330
F101E5
100
AcDbEntity
8
Geo
100
AcDbLine
10
-91.9638297872341
20
-0.971133239469700
30
0.000000000000000
11
-91.8638297872341
21
-1.05040944115059
31
0.000000000000000
  0
LINE
  5
F101E6
330
F101E7
100
AcDbEntity
8
Geo
100
AcDbLine
10
-91.8638297872341
20
-1.05040944115059
30
0.000000000000000
11
-91.7638297872341
21
-1.13285722150222
31
0.000000000000000
  0
LINE
  5
F101E8
330
F101E9
100
AcDbEntity
8
Geo
100
AcDbLine
10
-91.7638297872341
20
-1.13285722150222
30
0.000000000000000
11
-91.6638297872341
21
-1.21835445074368
31
0.000000000000000
  0
LINE
  5
F101EA
330
F101EB
100
AcDbEntity
8
Geo
100
AcDbLine
10
-91.6638297872341
20
-1.21835445074368
30
0.000000000000000
11
-91.5638297872341
21
-1.30677448194971
31
0.000000000000000
  0
LINE
  5
F101EC
330
F101ED
100
AcDbEntity
8
Geo
100
AcDbLine
10
-91.5638297872341
20
-1.30677448194971
30
0.000000000000000
11
-91.4638297872341
21
-1.39798633865261
31
0.000000000000000
  0
LINE
  5
F101EE
330
F101EF
100
AcDbEntity
8
Geo
100
AcDbLine
10
-91.4638297872341
20
-1.39798633865261
30
0.000000000000000
11
-91.3638297872341
21
-1.49185490885753
31
0.000000000000000
  0
LINE
  5
F101F0
330
F101F1
100
AcDbEntity
8
Geo
100
AcDbLine
10
-91.3638297872341
20
-1.49185490885753
30
0.000000000000000
11
-91.2638297872341
21
-1.58824114518363
31
0.000000000000000
  0
LINE
  5
F101F2
330
F101F3
100
AcDbEntity
8
Geo
100
AcDbLine
10
-91.2638297872341
20
-1.58824114518363
30
0.000000000000000
11
-91.1638297872341
21
-1.68700227083478
31
0.000000000000000
  0
LINE
  5
F101F4
330
F101F5
100
AcDbEntity
8
Geo
100
AcDbLine
10
-91.1638297872341
20
-1.68700227083478
30
0.000000000000000
11
-91.0638297872341
21
-1.78799199109466
31
0.000000000000000
  0
LINE
  5
F101F6
330
F101F7
100
AcDbEntity
8
Geo
100
AcDbLine
10
-91.0638297872341
20
-1.78799199109466
30
0.000000000000000
11
-90.9638297872341
21
-1.89106071003288
31
0.000000000000000
  0
LINE
  5
F101F8
330
F101F9
100
AcDbEntity
8
Geo
100
AcDbLine
10
-90.9638297872341
20
-1.89106071003288
30
0.000000000000000
11
-90.8638297872341
21
-1.99605575210126
31
0.000000000000000
  0
LINE
  5
F101FA
330
F101FB
100
AcDbEntity
8
Geo
100
AcDbLine
10
-90.8638297872341
20
-1.99605575210126
30
0.000000000000000
11
-90.7638297872341
21
-2.10282158829184
31
0.000000000000000
  0
LINE
  5
F101FC
330
F101FD
100
AcDbEntity
8
Geo
100
AcDbLine
10
-90.7638297872341
20
-2.10282158829184
30
0.000000000000000
11
-90.6638297872341
21
-2.21120006652186
31
0.000000000000000
  0
LINE
  5
F101FE
330
F101FF
100
AcDbEntity
8
Geo
100
AcDbLine
10
-90.6638297872341
20
-2.21120006652186
30
0.000000000000000
11
-90.5638297872341
21
-2.32103064590416
31
0.000000000000000
  0
LINE
  5
F10200
330
F10201
100
AcDbEntity
8
Geo
100
AcDbLine
10
-90.5638297872341
20
-2.32103064590416
30
0.000000000000000
11
-90.4638297872341
21
-2.43215063455618
31
0.000000000000000
  0
LINE
  5
F10202
330
F10203
100
AcDbEntity
8
Geo
100
AcDbLine
10
-90.4638297872341
20
-2.43215063455618
30
0.000000000000000
11
-90.3638297872341
21
-2.54439543059525
31
0.000000000000000
  0
LINE
  5
F10204
330
F10205
100
AcDbEntity
8
Geo
100
AcDbLine
10
-90.3638297872341
20
-2.54439543059525
30
0.000000000000000
11
-90.2638297872341
21
-2.65759876596307
31
0.000000000000000
  0
LINE
  5
F10206
330
F10207
100
AcDbEntity
8
Geo
100
AcDbLine
10
-90.2638297872341
20
-2.65759876596307
30
0.000000000000000
11
-90.1638297872341
21
-2.77159295271842
31
0.000000000000000
  0
LINE
  5
F10208
330
F10209
100
AcDbEntity
8
Geo
100
AcDbLine
10
-90.1638297872341
20
-2.77159295271842
30
0.000000000000000
11
-90.0638297872341
21
-2.88620913143299
31
0.000000000000000
  0
LINE
  5
F1020A
330
F1020B
100
AcDbEntity
8
Geo
100
AcDbLine
10
-90.0638297872341
20
-2.88620913143299
30
0.000000000000000
11
-89.9638297872341
21
-3.00127752132269
31
0.000000000000000
  0
LINE
  5
F1020C
330
F1020D
100
AcDbEntity
8
Geo
100
AcDbLine
10
-89.9638297872341
20
-3.00127752132269
30
0.000000000000000
11
-89.8638297872341
21
-3.11662767174365
31
0.000000000000000
  0
LINE
  5
F1020E
330
F1020F
100
AcDbEntity
8
Geo
100
AcDbLine
10
-89.8638297872341
20
-3.11662767174365
30
0.000000000000000
11
-89.7638297872341
21
-3.23208871468050
31
0.000000000000000
  0
LINE
  5
F10210
330
F10211
100
AcDbEntity
8
Geo
100
AcDbLine
10
-89.7638297872341
20
-3.23208871468050
30
0.000000000000000
11
-89.6638297872341
21
-3.34748961785297
31
0.000000000000000
  0
LINE
  5
F10212
330
F10213
100
AcDbEntity
8
Geo
100
AcDbLine
10
-89.6638297872341
20
-3.34748961785297
30
0.000000000000000
11
-89.5638297872341
21
-3.46265943806572
31
0.000000000000000
  0
LINE
  5
F10214
330
F10215
100
AcDbEntity
8
Geo
100
AcDbLine
10
-89.5638297872341
20
-3.46265943806572
30
0.000000000000000
11
-89.4638297872341
21
-3.57742757442628
31
0.000000000000000
  0
LINE
  5
F10216
330
F10217
100
AcDbEntity
8
Geo
100
AcDbLine
10
-89.4638297872341
20
-3.57742757442628
30
0.000000000000000
11
-89.3638297872341
21
-3.69162402105590
31
0.000000000000000
  0
LINE
  5
F10218
330
F10219
100
AcDbEntity
8
Geo
100
AcDbLine
10
-89.3638297872341
20
-3.69162402105590
30
0.000000000000000
11
-89.2638297872341
21
-3.80507961891902
31
0.000000000000000
  0
LINE
  5
F1021A
330
F1021B
100
AcDbEntity
8
Geo
100
AcDbLine
10
-89.2638297872341
20
-3.80507961891902
30
0.000000000000000
11
-89.1638297872341
21
-3.91762630639833
31
0.000000000000000
  0
LINE
  5
F1021C
330
F1021D
100
AcDbEntity
8
Geo
100
AcDbLine
10
-89.1638297872341
20
-3.91762630639833
30
0.000000000000000
11
-89.0638297872341
21
-4.02909736824418
31
0.000000000000000
  0
LINE
  5
F1021E
330
F1021F
100
AcDbEntity
8
Geo
100
AcDbLine
10
-89.0638297872341
20
-4.02909736824418
30
0.000000000000000
11
-88.9638297872341
21
-4.13932768252965
31
0.000000000000000
  0
LINE
  5
F10220
330
F10221
100
AcDbEntity
8
Geo
100
AcDbLine
10
-88.9638297872341
20
-4.13932768252965
30
0.000000000000000
11
-88.8638297872341
21
-4.24815396524546
31
0.000000000000000
  0
LINE
  5
F10222
330
F10223
100
AcDbEntity
8
Geo
100
AcDbLine
10
-88.8638297872341
20
-4.24815396524546
30
0.000000000000000
11
-88.7638297872341
21
-4.35541501217227
31
0.000000000000000
  0
LINE
  5
F10224
330
F10225
100
AcDbEntity
8
Geo
100
AcDbLine
10
-88.7638297872341
20
-4.35541501217227
30
0.000000000000000
11
-88.6638297872341
21
-4.46095193767236
31
0.000000000000000
  0
LINE
  5
F10226
330
F10227
100
AcDbEntity
8
Geo
100
AcDbLine
10
-88.6638297872341
20
-4.46095193767236
30
0.000000000000000
11
-88.5638297872341
21
-4.56460841004662
31
0.000000000000000
  0
LINE
  5
F10228
330
F10229
100
AcDbEntity
8
Geo
100
AcDbLine
10
-88.5638297872341
20
-4.56460841004662
30
0.000000000000000
11
-88.4638297872341
21
-4.66623088310852
31
0.000000000000000
  0
LINE
  5
F1022A
330
F1022B
100
AcDbEntity
8
Geo
100
AcDbLine
10
-88.4638297872341
20
-4.66623088310852
30
0.000000000000000
11
-88.3638297872341
21
-4.76566882363183
31
0.000000000000000
  0
LINE
  5
F1022C
330
F1022D
100
AcDbEntity
8
Geo
100
AcDbLine
10
-88.3638297872341
20
-4.76566882363183
30
0.000000000000000
11
-88.2638297872341
21
-4.86277493433532
31
0.000000000000000
  0
LINE
  5
F1022E
330
F1022F
100
AcDbEntity
8
Geo
100
AcDbLine
10
-88.2638297872341
20
-4.86277493433532
30
0.000000000000000
11
-88.1638297872341
21
-4.95740537207396
31
0.000000000000000
  0
LINE
  5
F10230
330
F10231
100
AcDbEntity
8
Geo
100
AcDbLine
10
-88.1638297872341
20
-4.95740537207396
30
0.000000000000000
11
-88.0638297872341
21
-5.04941996091361
31
0.000000000000000
  0
LINE
  5
F10232
330
F10233
100
AcDbEntity
8
Geo
100
AcDbLine
10
-88.0638297872341
20
-5.04941996091361
30
0.000000000000000
11
-87.9638297872341
21
-5.13868239977343
31
0.000000000000000
  0
LINE
  5
F10234
330
F10235
100
AcDbEntity
8
Geo
100
AcDbLine
10
-87.9638297872341
20
-5.13868239977343
30
0.000000000000000
11
-87.8638297872341
21
-5.22506046432845
31
0.000000000000000
  0
LINE
  5
F10236
330
F10237
100
AcDbEntity
8
Geo
100
AcDbLine
10
-87.8638297872341
20
-5.22506046432845
30
0.000000000000000
11
-87.7638297872341
21
-5.30842620287331
31
0.000000000000000
  0
LINE
  5
F10238
330
F10239
100
AcDbEntity
8
Geo
100
AcDbLine
10
-87.7638297872341
20
-5.30842620287331
30
0.000000000000000
11
-87.6638297872341
21
-5.38865612585690
31
0.000000000000000
  0
LINE
  5
F1023A
330
F1023B
100
AcDbEntity
8
Geo
100
AcDbLine
10
-87.6638297872341
20
-5.38865612585690
30
0.000000000000000
11
-87.5638297872341
21
-5.46563138880731
31
0.000000000000000
  0
LINE
  5
F1023C
330
F1023D
100
AcDbEntity
8
Geo
100
AcDbLine
10
-87.5638297872341
20
-5.46563138880731
30
0.000000000000000
11
-87.4638297872341
21
-5.53923796837596
31
0.000000000000000
  0
LINE
  5
F1023E
330
F1023F
100
AcDbEntity
8
Geo
100
AcDbLine
10
-87.4638297872341
20
-5.53923796837596
30
0.000000000000000
11
-87.3638297872341
21
-5.60936683124020
31
0.000000000000000
  0
LINE
  5
F10240
330
F10241
100
AcDbEntity
8
Geo
100
AcDbLine
10
-87.3638297872341
20
-5.60936683124020
30
0.000000000000000
11
-87.2638297872341
21
-5.67591409561422
31
0.000000000000000
  0
LINE
  5
F10242
330
F10243
100
AcDbEntity
8
Geo
100
AcDbLine
10
-87.2638297872341
20
-5.67591409561422
30
0.000000000000000
11
-87.1638297872341
21
-5.73878118512906
31
0.000000000000000
  0
LINE
  5
F10244
330
F10245
100
AcDbEntity
8
Geo
100
AcDbLine
10
-87.1638297872341
20
-5.73878118512906
30
0.000000000000000
11
-87.0638297872341
21
-5.79787497485355
31
0.000000000000000
  0
LINE
  5
F10246
330
F10247
100
AcDbEntity
8
Geo
100
AcDbLine
10
-87.0638297872341
20
-5.79787497485355
30
0.000000000000000
11
-86.9638297872341
21
-5.85310792924020
31
0.000000000000000
  0
LINE
  5
F10248
330
F10249
100
AcDbEntity
8
Geo
100
AcDbLine
10
-86.9638297872341
20
-5.85310792924020
30
0.000000000000000
11
-86.8638297872341
21
-5.90439823179148
31
0.000000000000000
  0
LINE
  5
F1024A
330
F1024B
100
AcDbEntity
8
Geo
100
AcDbLine
10
-86.8638297872341
20
-5.90439823179148
30
0.000000000000000
11
-86.7638297872341
21
-5.95166990625445
31
0.000000000000000
  0
LINE
  5
F1024C
330
F1024D
100
AcDbEntity
8
Geo
100
AcDbLine
10
-86.7638297872341
20
-5.95166990625445
30
0.000000000000000
11
-86.6638297872341
21
-5.99485292916430
31
0.000000000000000
  0
LINE
  5
F1024E
330
F1024F
100
AcDbEntity
8
Geo
100
AcDbLine
10
-86.6638297872341
20
-5.99485292916430
30
0.000000000000000
11
-86.5638297872341
21
-6.03388333357004
31
0.000000000000000
  0
LINE
  5
F10250
330
F10251
100
AcDbEntity
8
Geo
100
AcDbLine
10
-86.5638297872341
20
-6.03388333357004
30
0.000000000000000
11
-86.4638297872341
21
-6.06870330378857
31
0.000000000000000
  0
LINE
  5
F10252
330
F10253
100
AcDbEntity
8
Geo
100
AcDbLine
10
-86.4638297872341
20
-6.06870330378857
30
0.000000000000000
11
-86.3638297872341
21
-6.09926126104705
31
0.000000000000000
  0
LINE
  5
F10254
330
F10255
100
AcDbEntity
8
Geo
100
AcDbLine
10
-86.3638297872341
20
-6.09926126104705
30
0.000000000000000
11
-86.2638297872341
21
-6.12551193988645
31
0.000000000000000
  0
LINE
  5
F10256
330
F10257
100
AcDbEntity
8
Geo
100
AcDbLine
10
-86.2638297872341
20
-6.12551193988645
30
0.000000000000000
11
-86.1638297872341
21
-6.14741645521316
31
0.000000000000000
  0
LINE
  5
F10258
330
F10259
100
AcDbEntity
8
Geo
100
AcDbLine
10
-86.1638297872341
20
-6.14741645521316
30
0.000000000000000
11
-86.0638297872341
21
-6.16494235989949
31
0.000000000000000
  0
LINE
  5
F1025A
330
F1025B
100
AcDbEntity
8
Geo
100
AcDbLine
10
-86.0638297872341
20
-6.16494235989949
30
0.000000000000000
11
-85.9638297872341
21
-6.17806369284750
31
0.000000000000000
  0
LINE
  5
F1025C
330
F1025D
100
AcDbEntity
8
Geo
100
AcDbLine
10
-85.9638297872341
20
-6.17806369284750
30
0.000000000000000
11
-85.8638297872341
21
-6.18676101744518
31
0.000000000000000
  0
LINE
  5
F1025E
330
F1025F
100
AcDbEntity
8
Geo
100
AcDbLine
10
-85.8638297872341
20
-6.18676101744518
30
0.000000000000000
11
-85.7638297872341
21
-6.19102145035785
31
0.000000000000000
  0
LINE
  5
F10260
330
F10261
100
AcDbEntity
8
Geo
100
AcDbLine
10
-77.5638297872341
20
-0.191489361702125
30
0.000000000000000
11
-77.4638297872341
21
-0.191611061631187
31
0.000000000000000
  0
LINE
  5
F10262
330
F10263
100
AcDbEntity
8
Geo
100
AcDbLine
10
-77.4638297872341
20
-0.191611061631187
30
0.000000000000000
11
-77.3638297872341
21
-0.193739899451750
31
0.000000000000000
  0
LINE
  5
F10264
330
F10265
100
AcDbEntity
8
Geo
100
AcDbLine
10
-77.3638297872341
20
-0.193739899451750
30
0.000000000000000
11
-77.2638297872341
21
-0.198347445245323
31
0.000000000000000
  0
LINE
  5
F10266
330
F10267
100
AcDbEntity
8
Geo
100
AcDbLine
10
-77.2638297872341
20
-0.198347445245323
30
0.000000000000000
11
-77.1638297872341
21
-0.205212710922292
31
0.000000000000000
  0
LINE
  5
F10268
330
F10269
100
AcDbEntity
8
Geo
100
AcDbLine
10
-77.1638297872341
20
-0.205212710922292
30
0.000000000000000
11
-77.0638297872341
21
-0.214119835921661
31
0.000000000000000
  0
LINE
  5
F1026A
330
F1026B
100
AcDbEntity
8
Geo
100
AcDbLine
10
-77.0638297872341
20
-0.214119835921661
30
0.000000000000000
11
-76.9638297872341
21
-0.224858572644444
31
0.000000000000000
  0
LINE
  5
F1026C
330
F1026D
100
AcDbEntity
8
Geo
100
AcDbLine
10
-76.9638297872341
20
-0.224858572644444
30
0.000000000000000
11
-76.8638297872341
21
-0.237224701825648
31
0.000000000000000
  0
LINE
  5
F1026E
330
F1026F
100
AcDbEntity
8
Geo
100
AcDbLine
10
-76.8638297872341
20
-0.237224701825648
30
0.000000000000000
11
-76.7638297872341
21
-0.251020382520168
31
0.000000000000000
  0
LINE
  5
F10270
330
F10271
100
AcDbEntity
8
Geo
100
AcDbLine
10
-76.7638297872341
20
-0.251020382520168
30
0.000000000000000
11
-76.6638297872341
21
-0.266054441389602
31
0.000000000000000
  0
LINE
  5
F10272
330
F10273
100
AcDbEntity
8
Geo
100
AcDbLine
10
-76.6638297872341
20
-0.266054441389602
30
0.000000000000000
11
-76.5638297872341
21
-0.282142605952771
31
0.000000000000000
  0
LINE
  5
F10274
330
F10275
100
AcDbEntity
8
Geo
100
AcDbLine
10
-76.5638297872341
20
-0.282142605952771
30
0.000000000000000
11
-76.4638297872341
21
-0.299107686406923
31
0.000000000000000
  0
LINE
  5
F10276
330
F10277
100
AcDbEntity
8
Geo
100
AcDbLine
10
-76.4638297872341
20
-0.299107686406923
30
0.000000000000000
11
-76.3638297872341
21
-0.316779710543483
31
0.000000000000000
  0
LINE
  5
F10278
330
F10279
100
AcDbEntity
8
Geo
100
AcDbLine
10
-76.3638297872341
20
-0.316779710543483
30
0.000000000000000
11
-76.2638297872341
21
-0.334996016175568
31
0.000000000000000
  0
LINE
  5
F1027A
330
F1027B
100
AcDbEntity
8
Geo
100
AcDbLine
10
-76.2638297872341
20
-0.334996016175568
30
0.000000000000000
11
-76.1638297872341
21
-0.353601305367990
31
0.000000000000000
  0
LINE
  5
F1027C
330
F1027D
100
AcDbEntity
8
Geo
100
AcDbLine
10
-76.1638297872341
20
-0.353601305367990
30
0.000000000000000
11
-76.0638297872341
21
-0.372447664617493
31
0.000000000000000
  0
LINE
  5
F1027E
330
F1027F
100
AcDbEntity
8
Geo
100
AcDbLine
10
-76.0638297872341
20
-0.372447664617493
30
0.000000000000000
11
-75.9638297872341
21
-0.391394554974481
31
0.000000000000000
  0
LINE
  5
F10280
330
F10281
100
AcDbEntity
8
Geo
100
AcDbLine
10
-75.9638297872341
20
-0.391394554974481
30
0.000000000000000
11
-75.8638297872341
21
-0.410308775930353
31
0.000000000000000
  0
LINE
  5
F10282
330
F10283
100
AcDbEntity
8
Geo
100
AcDbLine
10
-75.8638297872341
20
-0.410308775930353
30
0.000000000000000
11
-75.7638297872341
21
-0.429064406719283
31
0.000000000000000
  0
LINE
  5
F10284
330
F10285
100
AcDbEntity
8
Geo
100
AcDbLine
10
-75.7638297872341
20
-0.429064406719283
30
0.000000000000000
11
-75.6638297872341
21
-0.447542728502017
31
0.000000000000000
  0
LINE
  5
F10286
330
F10287
100
AcDbEntity
8
Geo
100
AcDbLine
10
-75.6638297872341
20
-0.447542728502017
30
0.000000000000000
11
-75.5638297872341
21
-0.465632130714184
31
0.000000000000000
  0
LINE
  5
F10288
330
F10289
100
AcDbEntity
8
Geo
100
AcDbLine
10
-75.5638297872341
20
-0.465632130714184
30
0.000000000000000
11
-75.4638297872341
21
-0.483228004674238
31
0.000000000000000
  0
LINE
  5
F1028A
330
F1028B
100
AcDbEntity
8
Geo
100
AcDbLine
10
-75.4638297872341
20
-0.483228004674238
30
0.000000000000000
11
-75.3638297872341
21
-0.500232627358229
31
0.000000000000000
  0
LINE
  5
F1028C
330
F1028D
100
AcDbEntity
8
Geo
100
AcDbLine
10
-75.3638297872341
20
-0.500232627358229
30
0.000000000000000
11
-75.2638297872340
21
-0.516555038061226
31
0.000000000000000
  0
LINE
  5
F1028E
330
F1028F
100
AcDbEntity
8
Geo
100
AcDbLine
10
-75.2638297872340
20
-0.516555038061226
30
0.000000000000000
11
-75.1638297872341
21
-0.532110910479617
31
0.000000000000000
  0
LINE
  5
F10290
330
F10291
100
AcDbEntity
8
Geo
100
AcDbLine
10
-75.1638297872341
20
-0.532110910479617
30
0.000000000000000
11
-75.0638297872341
21
-0.546822422565482
31
0.000000000000000
  0
LINE
  5
F10292
330
F10293
100
AcDbEntity
8
Geo
100
AcDbLine
10
-75.0638297872341
20
-0.546822422565482
30
0.000000000000000
11
-74.9638297872340
21
-0.560618126324511
31
0.000000000000000
  0
LINE
  5
F10294
330
F10295
100
AcDbEntity
8
Geo
100
AcDbLine
10
-74.9638297872340
20
-0.560618126324511
30
0.000000000000000
11
-74.8638297872340
21
-0.573432819553100
31
0.000000000000000
  0
LINE
  5
F10296
330
F10297
100
AcDbEntity
8
Geo
100
AcDbLine
10
-74.8638297872340
20
-0.573432819553100
30
0.000000000000000
11
-74.7638297872340
21
-0.585207421338571
31
0.000000000000000
  0
LINE
  5
F10298
330
F10299
100
AcDbEntity
8
Geo
100
AcDbLine
10
-74.7638297872340
20
-0.585207421338571
30
0.000000000000000
11
-74.6638297872341
21
-0.595888852979304
31
0.000000000000000
  0
LINE
  5
F1029A
330
F1029B
100
AcDbEntity
8
Geo
100
AcDbLine
10
-74.6638297872341
20
-0.595888852979304
30
0.000000000000000
11
-74.5638297872340
21
-0.605429925818904
31
0.000000000000000
  0
LINE
  5
F1029C
330
F1029D
100
AcDbEntity
8
Geo
100
AcDbLine
10
-74.5638297872340
20
-0.605429925818904
30
0.000000000000000
11
-74.4638297872340
21
-0.613789237330444
31
0.000000000000000
  0
LINE
  5
F1029E
330
F1029F
100
AcDbEntity
8
Geo
100
AcDbLine
10
-74.4638297872340
20
-0.613789237330444
30
0.000000000000000
11
-74.3638297872340
21
-0.620931076633153
31
0.000000000000000
  0
LINE
  5
F102A0
330
F102A1
100
AcDbEntity
8
Geo
100
AcDbLine
10
-74.3638297872340
20
-0.620931076633153
30
0.000000000000000
11
-74.2638297872340
21
-0.626825340474440
31
0.000000000000000
  0
LINE
  5
F102A2
330
F102A3
100
AcDbEntity
8
Geo
100
AcDbLine
10
-74.2638297872340
20
-0.626825340474440
30
0.000000000000000
11
-74.1638297872340
21
-0.631447460564587
31
0.000000000000000
  0
LINE
  5
F102A4
330
F102A5
100
AcDbEntity
8
Geo
100
AcDbLine
10
-74.1638297872340
20
-0.631447460564587
30
0.000000000000000
11
-74.0638297872341
21
-0.634778343009414
31
0.000000000000000
  0
LINE
  5
F102A6
330
F102A7
100
AcDbEntity
8
Geo
100
AcDbLine
10
-93.0638297872341
20
-3.19148936170214
30
0.000000000000000
11
-92.9638297872341
21
-3.30693090652752
31
0.000000000000000
  0
LINE
  5
F102A8
330
F102A9
100
AcDbEntity
8
Geo
100
AcDbLine
10
-92.9638297872341
20
-3.30693090652752
30
0.000000000000000
11
-92.8638297872341
21
-3.42220144795514
31
0.000000000000000
  0
LINE
  5
F102AA
330
F102AB
100
AcDbEntity
8
Geo
100
AcDbLine
10
-92.8638297872341
20
-3.42220144795514
30
0.000000000000000
11
-92.7638297872341
21
-3.53713023589434
31
0.000000000000000
  0
LINE
  5
F102AC
330
F102AD
100
AcDbEntity
8
Geo
100
AcDbLine
10
-92.7638297872341
20
-3.53713023589434
30
0.000000000000000
11
-92.6638297872341
21
-3.65154702649341
31
0.000000000000000
  0
LINE
  5
F102AE
330
F102AF
100
AcDbEntity
8
Geo
100
AcDbLine
10
-92.6638297872341
20
-3.65154702649341
30
0.000000000000000
11
-92.5638297872341
21
-3.76528233432159
31
0.000000000000000
  0
LINE
  5
F102B0
330
F102B1
100
AcDbEntity
8
Geo
100
AcDbLine
10
-92.5638297872341
20
-3.76528233432159
30
0.000000000000000
11
-92.4638297872341
21
-3.87816768342758
31
0.000000000000000
  0
LINE
  5
F102B2
330
F102B3
100
AcDbEntity
8
Geo
100
AcDbLine
10
-92.4638297872341
20
-3.87816768342758
30
0.000000000000000
11
-92.3638297872341
21
-3.99003585690273
31
0.000000000000000
  0
LINE
  5
F102B4
330
F102B5
100
AcDbEntity
8
Geo
100
AcDbLine
10
-92.3638297872341
20
-3.99003585690273
30
0.000000000000000
11
-92.2638297872341
21
-4.10072114457925
31
0.000000000000000
  0
LINE
  5
F102B6
330
F102B7
100
AcDbEntity
8
Geo
100
AcDbLine
10
-92.2638297872341
20
-4.10072114457925
30
0.000000000000000
11
-92.1638297872341
21
-4.21005958849638
31
0.000000000000000
  0
LINE
  5
F102B8
330
F102B9
100
AcDbEntity
8
Geo
100
AcDbLine
10
-92.1638297872341
20
-4.21005958849638
30
0.000000000000000
11
-92.0638297872341
21
-4.31788922577116
31
0.000000000000000
  0
LINE
  5
F102BA
330
F102BB
100
AcDbEntity
8
Geo
100
AcDbLine
10
-92.0638297872341
20
-4.31788922577116
30
0.000000000000000
11
-91.9638297872341
21
-4.42405032851375
31
0.000000000000000
  0
LINE
  5
F102BC
330
F102BD
100
AcDbEntity
8
Geo
100
AcDbLine
10
-91.9638297872341
20
-4.42405032851375
30
0.000000000000000
11
-91.8638297872341
21
-4.52838564043218
31
0.000000000000000
  0
LINE
  5
F102BE
330
F102BF
100
AcDbEntity
8
Geo
100
AcDbLine
10
-91.8638297872341
20
-4.52838564043218
30
0.000000000000000
11
-91.7638297872341
21
-4.63074060977586
31
0.000000000000000
  0
LINE
  5
F102C0
330
F102C1
100
AcDbEntity
8
Geo
100
AcDbLine
10
-91.7638297872341
20
-4.63074060977586
30
0.000000000000000
11
-91.6638297872341
21
-4.73096361827287
31
0.000000000000000
  0
LINE
  5
F102C2
330
F102C3
100
AcDbEntity
8
Geo
100
AcDbLine
10
-91.6638297872341
20
-4.73096361827287
30
0.000000000000000
11
-91.5638297872341
21
-4.82890620572186
31
0.000000000000000
  0
LINE
  5
F102C4
330
F102C5
100
AcDbEntity
8
Geo
100
AcDbLine
10
-91.5638297872341
20
-4.82890620572186
30
0.000000000000000
11
-91.4638297872341
21
-4.92442328990601
31
0.000000000000000
  0
LINE
  5
F102C6
330
F102C7
100
AcDbEntity
8
Geo
100
AcDbLine
10
-91.4638297872341
20
-4.92442328990601
30
0.000000000000000
11
-91.3638297872341
21
-5.01737338150302
31
0.000000000000000
  0
LINE
  5
F102C8
330
F102C9
100
AcDbEntity
8
Geo
100
AcDbLine
10
-91.3638297872341
20
-5.01737338150302
30
0.000000000000000
11
-91.2638297872341
21
-5.10761879367315
31
0.000000000000000
  0
LINE
  5
F102CA
330
F102CB
100
AcDbEntity
8
Geo
100
AcDbLine
10
-91.2638297872341
20
-5.10761879367315
30
0.000000000000000
11
-91.1638297872341
21
-5.19502584601444
31
0.000000000000000
  0
LINE
  5
F102CC
330
F102CD
100
AcDbEntity
8
Geo
100
AcDbLine
10
-91.1638297872341
20
-5.19502584601444
30
0.000000000000000
11
-91.0638297872341
21
-5.27946506258338
31
0.000000000000000
  0
LINE
  5
F102CE
330
F102CF
100
AcDbEntity
8
Geo
100
AcDbLine
10
-91.0638297872341
20
-5.27946506258338
30
0.000000000000000
11
-90.9638297872341
21
-5.36081136368737
31
0.000000000000000
  0
LINE
  5
F102D0
330
F102D1
100
AcDbEntity
8
Geo
100
AcDbLine
10
-90.9638297872341
20
-5.36081136368737
30
0.000000000000000
11
-90.8638297872341
21
-5.43894425116517
31
0.000000000000000
  0
LINE
  5
F102D2
330
F102D3
100
AcDbEntity
8
Geo
100
AcDbLine
10
-90.8638297872341
20
-5.43894425116517
30
0.000000000000000
11
-90.7638297872341
21
-5.51374798688061
31
0.000000000000000
  0
LINE
  5
F102D4
330
F102D5
100
AcDbEntity
8
Geo
100
AcDbLine
10
-90.7638297872341
20
-5.51374798688061
30
0.000000000000000
11
-90.6638297872341
21
-5.58511176416532
31
0.000000000000000
  0
LINE
  5
F102D6
330
F102D7
100
AcDbEntity
8
Geo
100
AcDbLine
10
-90.6638297872341
20
-5.58511176416532
30
0.000000000000000
11
-90.5638297872341
21
-5.65292987195652
31
0.000000000000000
  0
LINE
  5
F102D8
330
F102D9
100
AcDbEntity
8
Geo
100
AcDbLine
10
-90.5638297872341
20
-5.65292987195652
30
0.000000000000000
11
-90.4638297872341
21
-5.71710185138666
31
0.000000000000000
  0
LINE
  5
F102DA
330
F102DB
100
AcDbEntity
8
Geo
100
AcDbLine
10
-90.4638297872341
20
-5.71710185138666
30
0.000000000000000
11
-90.3638297872341
21
-5.77753264459299
31
0.000000000000000
  0
LINE
  5
F102DC
330
F102DD
100
AcDbEntity
8
Geo
100
AcDbLine
10
-90.3638297872341
20
-5.77753264459299
30
0.000000000000000
11
-90.2638297872341
21
-5.83413273552666
31
0.000000000000000
  0
LINE
  5
F102DE
330
F102DF
100
AcDbEntity
8
Geo
100
AcDbLine
10
-90.2638297872341
20
-5.83413273552666
30
0.000000000000000
11
-90.1638297872341
21
-5.88681828255266
31
0.000000000000000
  0
LINE
  5
F102E0
330
F102E1
100
AcDbEntity
8
Geo
100
AcDbLine
10
-90.1638297872341
20
-5.88681828255266
30
0.000000000000000
11
-90.0638297872341
21
-5.93551124264441
31
0.000000000000000
  0
LINE
  5
F102E2
330
F102E3
100
AcDbEntity
8
Geo
100
AcDbLine
10
-90.0638297872341
20
-5.93551124264441
30
0.000000000000000
11
-89.9638297872341
21
-5.98013948698869
31
0.000000000000000
  0
LINE
  5
F102E4
330
F102E5
100
AcDbEntity
8
Geo
100
AcDbLine
10
-89.9638297872341
20
-5.98013948698869
30
0.000000000000000
11
-89.8638297872341
21
-6.02063690783002
31
0.000000000000000
  0
LINE
  5
F102E6
330
F102E7
100
AcDbEntity
8
Geo
100
AcDbLine
10
-89.8638297872341
20
-6.02063690783002
30
0.000000000000000
11
-89.7638297872341
21
-6.05694351639593
31
0.000000000000000
  0
LINE
  5
F102E8
330
F102E9
100
AcDbEntity
8
Geo
100
AcDbLine
10
-89.7638297872341
20
-6.05694351639593
30
0.000000000000000
11
-89.6638297872341
21
-6.08900553175831
31
0.000000000000000
  0
LINE
  5
F102EA
330
F102EB
100
AcDbEntity
8
Geo
100
AcDbLine
10
-89.6638297872341
20
-6.08900553175831
30
0.000000000000000
11
-89.5638297872341
21
-6.11677546049895
31
0.000000000000000
  0
LINE
  5
F102EC
330
F102ED
100
AcDbEntity
8
Geo
100
AcDbLine
10
-89.5638297872341
20
-6.11677546049895
30
0.000000000000000
11
-89.4638297872341
21
-6.14021216706151
31
0.000000000000000
  0
LINE
  5
F102EE
330
F102EF
100
AcDbEntity
8
Geo
100
AcDbLine
10
-89.4638297872341
20
-6.14021216706151
30
0.000000000000000
11
-89.3638297872341
21
-6.15928093468558
31
0.000000000000000
  0
LINE
  5
F102F0
330
F102F1
100
AcDbEntity
8
Geo
100
AcDbLine
10
-89.3638297872341
20
-6.15928093468558
30
0.000000000000000
11
-89.2638297872341
21
-6.17395351683253
31
0.000000000000000
  0
LINE
  5
F102F2
330
F102F3
100
AcDbEntity
8
Geo
100
AcDbLine
10
-89.2638297872341
20
-6.17395351683253
30
0.000000000000000
11
-89.1638297872341
21
-6.18420817902709
31
0.000000000000000
  0
LINE
  5
F102F4
330
F102F5
100
AcDbEntity
8
Geo
100
AcDbLine
10
-89.1638297872341
20
-6.18420817902709
30
0.000000000000000
11
-89.0638297872341
21
-6.19002973105260
31
0.000000000000000
  0
LINE
  5
F102F6
330
F102F7
100
AcDbEntity
8
Geo
100
AcDbLine
10
-80.8638297872341
20
-0.191903030454774
30
0.000000000000000
11
-80.7638297872341
21
-0.192207646471296
31
0.000000000000000
  0
LINE
  5
F102F8
330
F102F9
100
AcDbEntity
8
Geo
100
AcDbLine
10
-80.7638297872341
20
-0.192207646471296
30
0.000000000000000
11
-80.6638297872341
21
-0.196955094268296
31
0.000000000000000
  0
LINE
  5
F102FA
330
F102FB
100
AcDbEntity
8
Geo
100
AcDbLine
10
-80.6638297872341
20
-0.196955094268296
30
0.000000000000000
11
-80.5638297872341
21
-0.206138341458038
31
0.000000000000000
  0
LINE
  5
F102FC
330
F102FD
100
AcDbEntity
8
Geo
100
AcDbLine
10
-80.5638297872341
20
-0.206138341458038
30
0.000000000000000
11
-80.4638297872341
21
-0.219743784909395
31
0.000000000000000
  0
LINE
  5
F102FE
330
F102FF
100
AcDbEntity
8
Geo
100
AcDbLine
10
-80.4638297872341
20
-0.219743784909395
30
0.000000000000000
11
-80.3638297872341
21
-0.237751270898144
31
0.000000000000000
  0
LINE
  5
F10300
330
F10301
100
AcDbEntity
8
Geo
100
AcDbLine
10
-80.3638297872341
20
-0.237751270898144
30
0.000000000000000
11
-80.2638297872341
21
-0.260134124960653
31
0.000000000000000
  0
LINE
  5
F10302
330
F10303
100
AcDbEntity
8
Geo
100
AcDbLine
10
-80.2638297872341
20
-0.260134124960653
30
0.000000000000000
11
-80.1638297872341
21
-0.286859191406724
31
0.000000000000000
  0
LINE
  5
F10304
330
F10305
100
AcDbEntity
8
Geo
100
AcDbLine
10
-80.1638297872341
20
-0.286859191406724
30
0.000000000000000
11
-80.0638297872341
21
-0.317886882433069
31
0.000000000000000
  0
LINE
  5
F10306
330
F10307
100
AcDbEntity
8
Geo
100
AcDbLine
10
-80.0638297872341
20
-0.317886882433069
30
0.000000000000000
11
-79.9638297872341
21
-0.353171236764675
31
0.000000000000000
  0
LINE
  5
F10308
330
F10309
100
AcDbEntity
8
Geo
100
AcDbLine
10
-79.9638297872341
20
-0.353171236764675
30
0.000000000000000
11
-79.8638297872341
21
-0.392659987737163
31
0.000000000000000
  0
LINE
  5
F1030A
330
F1030B
100
AcDbEntity
8
Geo
100
AcDbLine
10
-79.8638297872341
20
-0.392659987737163
30
0.000000000000000
11
-79.7638297872341
21
-0.436294640719336
31
0.000000000000000
  0
LINE
  5
F1030C
330
F1030D
100
AcDbEntity
8
Geo
100
AcDbLine
10
-79.7638297872341
20
-0.436294640719336
30
0.000000000000000
11
-79.6638297872341
21
-0.484010559761189
31
0.000000000000000
  0
LINE
  5
F1030E
330
F1030F
100
AcDbEntity
8
Geo
100
AcDbLine
10
-79.6638297872341
20
-0.484010559761189
30
0.000000000000000
11
-79.5638297872341
21
-0.535737063339048
31
0.000000000000000
  0
LINE
  5
F10310
330
F10311
100
AcDbEntity
8
Geo
100
AcDbLine
10
-79.5638297872341
20
-0.535737063339048
30
0.000000000000000
11
-79.4638297872341
21
-0.591397529056017
31
0.000000000000000
  0
LINE
  5
F10312
330
F10313
100
AcDbEntity
8
Geo
100
AcDbLine
10
-79.4638297872341
20
-0.591397529056017
30
0.000000000000000
11
-79.3638297872341
21
-0.650909507142625
31
0.000000000000000
  0
LINE
  5
F10314
330
F10315
100
AcDbEntity
8
Geo
100
AcDbLine
10
-79.3638297872341
20
-0.650909507142625
30
0.000000000000000
11
-79.2638297872341
21
-0.714184842589551
31
0.000000000000000
  0
LINE
  5
F10316
330
F10317
100
AcDbEntity
8
Geo
100
AcDbLine
10
-79.2638297872341
20
-0.714184842589551
30
0.000000000000000
11
-79.1638297872341
21
-0.781129805731514
31
0.000000000000000
  0
LINE
  5
F10318
330
F10319
100
AcDbEntity
8
Geo
100
AcDbLine
10
-79.1638297872341
20
-0.781129805731514
30
0.000000000000000
11
-79.0638297872341
21
-0.851645231088928
31
0.000000000000000
  0
LINE
  5
F1031A
330
F1031B
100
AcDbEntity
8
Geo
100
AcDbLine
10
-79.0638297872341
20
-0.851645231088928
30
0.000000000000000
11
-78.9638297872341
21
-0.842678114274496
31
0.000000000000000
  0
LINE
  5
F1031C
330
F1031D
100
AcDbEntity
8
Geo
100
AcDbLine
10
-78.9638297872341
20
-0.842678114274496
30
0.000000000000000
11
-78.8638297872341
21
-0.833937314535232
31
0.000000000000000
  0
LINE
  5
F1031E
330
F1031F
100
AcDbEntity
8
Geo
100
AcDbLine
10
-78.8638297872341
20
-0.833937314535232
30
0.000000000000000
11
-78.7638297872341
21
-0.825419942816806
31
0.000000000000000
  0
LINE
  5
F10320
330
F10321
100
AcDbEntity
8
Geo
100
AcDbLine
10
-78.7638297872341
20
-0.825419942816806
30
0.000000000000000
11
-78.6638297872341
21
-0.817123147669888
31
0.000000000000000
  0
LINE
  5
F10322
330
F10323
100
AcDbEntity
8
Geo
100
AcDbLine
10
-78.6638297872341
20
-0.817123147669888
30
0.000000000000000
11
-78.5638297872341
21
-0.809044116564345
31
0.000000000000000
  0
LINE
  5
F10324
330
F10325
100
AcDbEntity
8
Geo
100
AcDbLine
10
-78.5638297872341
20
-0.809044116564345
30
0.000000000000000
11
-78.4638297872341
21
-0.801180077163241
31
0.000000000000000
  0
LINE
  5
F10326
330
F10327
100
AcDbEntity
8
Geo
100
AcDbLine
10
-78.4638297872341
20
-0.801180077163241
30
0.000000000000000
11
-78.3638297872341
21
-0.793528298557403
31
0.000000000000000
  0
LINE
  5
F10328
330
F10329
100
AcDbEntity
8
Geo
100
AcDbLine
10
-78.3638297872341
20
-0.793528298557403
30
0.000000000000000
11
-78.2638297872341
21
-0.786086092461256
31
0.000000000000000
  0
LINE
  5
F1032A
330
F1032B
100
AcDbEntity
8
Geo
100
AcDbLine
10
-78.2638297872341
20
-0.786086092461256
30
0.000000000000000
11
-78.1638297872341
21
-0.778850814370688
31
0.000000000000000
  0
LINE
  5
F1032C
330
F1032D
100
AcDbEntity
8
Geo
100
AcDbLine
10
-78.1638297872341
20
-0.778850814370688
30
0.000000000000000
11
-78.0638297872341
21
-0.771819864683651
31
0.000000000000000
  0
LINE
  5
F1032E
330
F1032F
100
AcDbEntity
8
Geo
100
AcDbLine
10
-78.0638297872341
20
-0.771819864683651
30
0.000000000000000
11
-77.9638297872341
21
-0.764990689784209
31
0.000000000000000
  0
LINE
  5
F10330
330
F10331
100
AcDbEntity
8
Geo
100
AcDbLine
10
-77.9638297872341
20
-0.764990689784209
30
0.000000000000000
11
-77.8638297872341
21
-0.758360783090766
31
0.000000000000000
  0
LINE
  5
F10332
330
F10333
100
AcDbEntity
8
Geo
100
AcDbLine
10
-77.8638297872341
20
-0.758360783090766
30
0.000000000000000
11
-77.7638297872341
21
-0.751927686069144
31
0.000000000000000
  0
LINE
  5
F10334
330
F10335
100
AcDbEntity
8
Geo
100
AcDbLine
10
-77.7638297872341
20
-0.751927686069144
30
0.000000000000000
11
-77.6638297872341
21
-0.745688989211236
31
0.000000000000000
  0
LINE
  5
F10336
330
F10337
100
AcDbEntity
8
Geo
100
AcDbLine
10
-77.6638297872341
20
-0.745688989211236
30
0.000000000000000
11
-77.5638297872341
21
-0.739642332979878
31
0.000000000000000
  0
LINE
  5
F10338
330
F10339
100
AcDbEntity
8
Geo
100
AcDbLine
10
-77.5638297872341
20
-0.739642332979878
30
0.000000000000000
11
-77.4638297872341
21
-0.733785408720660
31
0.000000000000000
  0
LINE
  5
F1033A
330
F1033B
100
AcDbEntity
8
Geo
100
AcDbLine
10
-77.4638297872341
20
-0.733785408720660
30
0.000000000000000
11
-77.3638297872341
21
-0.728115959541288
31
0.000000000000000
  0
LINE
  5
F1033C
330
F1033D
100
AcDbEntity
8
Geo
100
AcDbLine
10
-77.3638297872341
20
-0.728115959541288
30
0.000000000000000
11
-77.2638297872341
21
-0.722631781159190
31
0.000000000000000
  0
LINE
  5
F1033E
330
F1033F
100
AcDbEntity
8
Geo
100
AcDbLine
10
-77.2638297872341
20
-0.722631781159190
30
0.000000000000000
11
-77.1638297872341
21
-0.717330722717977
31
0.000000000000000
  0
LINE
  5
F10340
330
F10341
100
AcDbEntity
8
Geo
100
AcDbLine
10
-77.1638297872341
20
-0.717330722717977
30
0.000000000000000
11
-77.0638297872341
21
-0.712210687573395
31
0.000000000000000
  0
LINE
  5
F10342
330
F10343
100
AcDbEntity
8
Geo
100
AcDbLine
10
-77.0638297872341
20
-0.712210687573395
30
0.000000000000000
11
-76.9638297872341
21
-0.707269634049401
31
0.000000000000000
  0
LINE
  5
F10344
330
F10345
100
AcDbEntity
8
Geo
100
AcDbLine
10
-76.9638297872341
20
-0.707269634049401
30
0.000000000000000
11
-76.8638297872341
21
-0.702505576164922
31
0.000000000000000
  0
LINE
  5
F10346
330
F10347
100
AcDbEntity
8
Geo
100
AcDbLine
10
-76.8638297872341
20
-0.702505576164922
30
0.000000000000000
11
-76.7638297872341
21
-0.697916584331926
31
0.000000000000000
  0
LINE
  5
F10348
330
F10349
100
AcDbEntity
8
Geo
100
AcDbLine
10
-76.7638297872341
20
-0.697916584331926
30
0.000000000000000
11
-76.6638297872341
21
-0.693500786025361
31
0.000000000000000
  0
LINE
  5
F1034A
330
F1034B
100
AcDbEntity
8
Geo
100
AcDbLine
10
-76.6638297872341
20
-0.693500786025361
30
0.000000000000000
11
-76.5638297872341
21
-0.689256366425514
31
0.000000000000000
  0
LINE
  5
F1034C
330
F1034D
100
AcDbEntity
8
Geo
100
AcDbLine
10
-76.5638297872341
20
-0.689256366425514
30
0.000000000000000
11
-76.4638297872341
21
-0.685181569033352
31
0.000000000000000
  0
LINE
  5
F1034E
330
F1034F
100
AcDbEntity
8
Geo
100
AcDbLine
10
-76.4638297872341
20
-0.685181569033352
30
0.000000000000000
11
-76.3638297872341
21
-0.681274696259361
31
0.000000000000000
  0
LINE
  5
F10350
330
F10351
100
AcDbEntity
8
Geo
100
AcDbLine
10
-76.3638297872341
20
-0.681274696259361
30
0.000000000000000
11
-76.2638297872341
21
-0.677534109986394
31
0.000000000000000
  0
LINE
  5
F10352
330
F10353
100
AcDbEntity
8
Geo
100
AcDbLine
10
-76.2638297872341
20
-0.677534109986394
30
0.000000000000000
11
-76.1638297872341
21
-0.673958232107050
31
0.000000000000000
  0
LINE
  5
F10354
330
F10355
100
AcDbEntity
8
Geo
100
AcDbLine
10
-76.1638297872341
20
-0.673958232107050
30
0.000000000000000
11
-76.0638297872341
21
-0.670545545036025
31
0.000000000000000
  0
LINE
  5
F10356
330
F10357
100
AcDbEntity
8
Geo
100
AcDbLine
10
-76.0638297872341
20
-0.670545545036025
30
0.000000000000000
11
-75.9638297872341
21
-0.667294592197942
31
0.000000000000000
  0
LINE
  5
F10358
330
F10359
100
AcDbEntity
8
Geo
100
AcDbLine
10
-75.9638297872341
20
-0.667294592197942
30
0.000000000000000
11
-75.8638297872341
21
-0.664203978491076
31
0.000000000000000
  0
LINE
  5
F1035A
330
F1035B
100
AcDbEntity
8
Geo
100
AcDbLine
10
-75.8638297872341
20
-0.664203978491076
30
0.000000000000000
11
-75.7638297872341
21
-0.661272370727426
31
0.000000000000000
  0
LINE
  5
F1035C
330
F1035D
100
AcDbEntity
8
Geo
100
AcDbLine
10
-75.7638297872341
20
-0.661272370727426
30
0.000000000000000
11
-75.6638297872341
21
-0.658498498049535
31
0.000000000000000
  0
LINE
  5
F1035E
330
F1035F
100
AcDbEntity
8
Geo
100
AcDbLine
10
-75.6638297872341
20
-0.658498498049535
30
0.000000000000000
11
-75.5638297872341
21
-0.655881152324458
31
0.000000000000000
  0
LINE
  5
F10360
330
F10361
100
AcDbEntity
8
Geo
100
AcDbLine
10
-75.5638297872341
20
-0.655881152324458
30
0.000000000000000
11
-75.4638297872341
21
-0.653419188515263
31
0.000000000000000
  0
LINE
  5
F10362
330
F10363
100
AcDbEntity
8
Geo
100
AcDbLine
10
-75.4638297872341
20
-0.653419188515263
30
0.000000000000000
11
-75.3638297872341
21
-0.651111525030413
31
0.000000000000000
  0
LINE
  5
F10364
330
F10365
100
AcDbEntity
8
Geo
100
AcDbLine
10
-75.3638297872341
20
-0.651111525030413
30
0.000000000000000
11
-75.2638297872340
21
-0.648957144051379
31
0.000000000000000
  0
LINE
  5
F10366
330
F10367
100
AcDbEntity
8
Geo
100
AcDbLine
10
-75.2638297872340
20
-0.648957144051379
30
0.000000000000000
11
-75.1638297872341
21
-0.646955091838804
31
0.000000000000000
  0
LINE
  5
F10368
330
F10369
100
AcDbEntity
8
Geo
100
AcDbLine
10
-75.1638297872341
20
-0.646955091838804
30
0.000000000000000
11
-75.0638297872341
21
-0.645104479017528
31
0.000000000000000
  0
LINE
  5
F1036A
330
F1036B
100
AcDbEntity
8
Geo
100
AcDbLine
10
-75.0638297872341
20
-0.645104479017528
30
0.000000000000000
11
-74.9638297872340
21
-0.643404480840749
31
0.000000000000000
  0
LINE
  5
F1036C
330
F1036D
100
AcDbEntity
8
Geo
100
AcDbLine
10
-74.9638297872340
20
-0.643404480840749
30
0.000000000000000
11
-74.8638297872340
21
-0.641854337433605
31
0.000000000000000
  0
LINE
  5
F1036E
330
F1036F
100
AcDbEntity
8
Geo
100
AcDbLine
10
-74.8638297872340
20
-0.641854337433605
30
0.000000000000000
11
-74.7638297872340
21
-0.640453354016397
31
0.000000000000000
  0
LINE
  5
F10370
330
F10371
100
AcDbEntity
8
Geo
100
AcDbLine
10
-74.7638297872340
20
-0.640453354016397
30
0.000000000000000
11
-74.6638297872341
21
-0.639200901107718
31
0.000000000000000
  0
LINE
  5
F10372
330
F10373
100
AcDbEntity
8
Geo
100
AcDbLine
10
-74.6638297872341
20
-0.639200901107718
30
0.000000000000000
11
-74.5638297872340
21
-0.638096414707661
31
0.000000000000000
  0
LINE
  5
F10374
330
F10375
100
AcDbEntity
8
Geo
100
AcDbLine
10
-74.5638297872340
20
-0.638096414707661
30
0.000000000000000
11
-74.4638297872340
21
-0.637139396461319
31
0.000000000000000
  0
LINE
  5
F10376
330
F10377
100
AcDbEntity
8
Geo
100
AcDbLine
10
-74.4638297872340
20
-0.637139396461319
30
0.000000000000000
11
-74.3638297872340
21
-0.636329413802742
31
0.000000000000000
  0
LINE
  5
F10378
330
F10379
100
AcDbEntity
8
Geo
100
AcDbLine
10
-74.3638297872340
20
-0.636329413802742
30
0.000000000000000
11
-74.2638297872340
21
-0.635666100079491
31
0.000000000000000
  0
LINE
  5
F1037A
330
F1037B
100
AcDbEntity
8
Geo
100
AcDbLine
10
-74.2638297872340
20
-0.635666100079491
30
0.000000000000000
11
-74.1638297872340
21
-0.635149154657941
31
0.000000000000000
  0
LINE
  5
F1037C
330
F1037D
100
AcDbEntity
8
Geo
100
AcDbLine
10
-74.1638297872340
20
-0.635149154657941
30
0.000000000000000
11
-74.0638297872341
21
-0.634778343009414
31
0.000000000000000
  0
LINE
  5
F1037E
330
F1037F
100
AcDbEntity
8
Geo
100
AcDbLine
10
-93.0638297872341
20
-4.08763864538946
30
0.000000000000000
11
-92.9638297872341
21
-4.22764515862651
31
0.000000000000000
  0
LINE
  5
F10380
330
F10381
100
AcDbEntity
8
Geo
100
AcDbLine
10
-92.9638297872341
20
-4.22764515862651
30
0.000000000000000
11
-92.8638297872341
21
-4.33521511630344
31
0.000000000000000
  0
LINE
  5
F10382
330
F10383
100
AcDbEntity
8
Geo
100
AcDbLine
10
-92.8638297872341
20
-4.33521511630344
30
0.000000000000000
11
-92.7638297872341
21
-4.44109087463094
31
0.000000000000000
  0
LINE
  5
F10384
330
F10385
100
AcDbEntity
8
Geo
100
AcDbLine
10
-92.7638297872341
20
-4.44109087463094
30
0.000000000000000
11
-92.6638297872341
21
-4.54511559999732
31
0.000000000000000
  0
LINE
  5
F10386
330
F10387
100
AcDbEntity
8
Geo
100
AcDbLine
10
-92.6638297872341
20
-4.54511559999732
30
0.000000000000000
11
-92.5638297872341
21
-4.64713520072340
31
0.000000000000000
  0
LINE
  5
F10388
330
F10389
100
AcDbEntity
8
Geo
100
AcDbLine
10
-92.5638297872341
20
-4.64713520072340
30
0.000000000000000
11
-92.4638297872341
21
-4.74699855531833
31
0.000000000000000
  0
LINE
  5
F1038A
330
F1038B
100
AcDbEntity
8
Geo
100
AcDbLine
10
-92.4638297872341
20
-4.74699855531833
30
0.000000000000000
11
-92.3638297872341
21
-4.84455773633559
31
0.000000000000000
  0
LINE
  5
F1038C
330
F1038D
100
AcDbEntity
8
Geo
100
AcDbLine
10
-92.3638297872341
20
-4.84455773633559
30
0.000000000000000
11
-92.2638297872341
21
-4.93966822949774
31
0.000000000000000
  0
LINE
  5
F1038E
330
F1038F
100
AcDbEntity
8
Geo
100
AcDbLine
10
-92.2638297872341
20
-4.93966822949774
30
0.000000000000000
11
-92.1638297872341
21
-5.03218914776523
31
0.000000000000000
  0
LINE
  5
F10390
330
F10391
100
AcDbEntity
8
Geo
100
AcDbLine
10
-92.1638297872341
20
-5.03218914776523
30
0.000000000000000
11
-92.0638297872341
21
-5.12198344003212
31
0.000000000000000
  0
LINE
  5
F10392
330
F10393
100
AcDbEntity
8
Geo
100
AcDbLine
10
-92.0638297872341
20
-5.12198344003212
30
0.000000000000000
11
-91.9638297872341
21
-5.20891809413976
31
0.000000000000000
  0
LINE
  5
F10394
330
F10395
100
AcDbEntity
8
Geo
100
AcDbLine
10
-91.9638297872341
20
-5.20891809413976
30
0.000000000000000
11
-91.8638297872341
21
-5.29286433390746
31
0.000000000000000
  0
LINE
  5
F10396
330
F10397
100
AcDbEntity
8
Geo
100
AcDbLine
10
-91.8638297872341
20
-5.29286433390746
30
0.000000000000000
11
-91.7638297872341
21
-5.37369780988848
31
0.000000000000000
  0
LINE
  5
F10398
330
F10399
100
AcDbEntity
8
Geo
100
AcDbLine
10
-91.7638297872341
20
-5.37369780988848
30
0.000000000000000
11
-91.6638297872341
21
-5.45129878356870
31
0.000000000000000
  0
LINE
  5
F1039A
330
F1039B
100
AcDbEntity
8
Geo
100
AcDbLine
10
-91.6638297872341
20
-5.45129878356870
30
0.000000000000000
11
-91.5638297872341
21
-5.52555230473510
31
0.000000000000000
  0
LINE
  5
F1039C
330
F1039D
100
AcDbEntity
8
Geo
100
AcDbLine
10
-91.5638297872341
20
-5.52555230473510
30
0.000000000000000
11
-91.4638297872341
21
-5.59634838175137
31
0.000000000000000
  0
LINE
  5
F1039E
330
F1039F
100
AcDbEntity
8
Geo
100
AcDbLine
10
-91.4638297872341
20
-5.59634838175137
30
0.000000000000000
11
-91.3638297872341
21
-5.66358214448832
31
0.000000000000000
  0
LINE
  5
F103A0
330
F103A1
100
AcDbEntity
8
Geo
100
AcDbLine
10
-91.3638297872341
20
-5.66358214448832
30
0.000000000000000
11
-91.2638297872341
21
-5.72715399966792
31
0.000000000000000
  0
LINE
  5
F103A2
330
F103A3
100
AcDbEntity
8
Geo
100
AcDbLine
10
-91.2638297872341
20
-5.72715399966792
30
0.000000000000000
11
-91.1638297872341
21
-5.78696977839061
31
0.000000000000000
  0
LINE
  5
F103A4
330
F103A5
100
AcDbEntity
8
Geo
100
AcDbLine
10
-91.1638297872341
20
-5.78696977839061
30
0.000000000000000
11
-91.0638297872341
21
-5.84294087562763
31
0.000000000000000
  0
LINE
  5
F103A6
330
F103A7
100
AcDbEntity
8
Geo
100
AcDbLine
10
-91.0638297872341
20
-5.84294087562763
30
0.000000000000000
11
-90.9638297872341
21
-5.89498438147147
31
0.000000000000000
  0
LINE
  5
F103A8
330
F103A9
100
AcDbEntity
8
Geo
100
AcDbLine
10
-90.9638297872341
20
-5.89498438147147
30
0.000000000000000
11
-90.8638297872341
21
-5.94302320395022
31
0.000000000000000
  0
LINE
  5
F103AA
330
F103AB
100
AcDbEntity
8
Geo
100
AcDbLine
10
-90.8638297872341
20
-5.94302320395022
30
0.000000000000000
11
-90.7638297872341
21
-5.98698618322381
31
0.000000000000000
  0
LINE
  5
F103AC
330
F103AD
100
AcDbEntity
8
Geo
100
AcDbLine
10
-90.7638297872341
20
-5.98698618322381
30
0.000000000000000
11
-90.6638297872341
21
-6.02680819699295
31
0.000000000000000
  0
LINE
  5
F103AE
330
F103AF
100
AcDbEntity
8
Geo
100
AcDbLine
10
-90.6638297872341
20
-6.02680819699295
30
0.000000000000000
11
-90.5638297872341
21
-6.06243025696474
31
0.000000000000000
  0
LINE
  5
F103B0
330
F103B1
100
AcDbEntity
8
Geo
100
AcDbLine
10
-90.5638297872341
20
-6.06243025696474
30
0.000000000000000
11
-90.4638297872341
21
-6.09379959623191
31
0.000000000000000
  0
LINE
  5
F103B2
330
F103B3
100
AcDbEntity
8
Geo
100
AcDbLine
10
-90.4638297872341
20
-6.09379959623191
30
0.000000000000000
11
-90.3638297872341
21
-6.12086974743639
31
0.000000000000000
  0
LINE
  5
F103B4
330
F103B5
100
AcDbEntity
8
Geo
100
AcDbLine
10
-90.3638297872341
20
-6.12086974743639
30
0.000000000000000
11
-90.2638297872341
21
-6.14360061160132
31
0.000000000000000
  0
LINE
  5
F103B6
330
F103B7
100
AcDbEntity
8
Geo
100
AcDbLine
10
-90.2638297872341
20
-6.14360061160132
30
0.000000000000000
11
-90.1638297872341
21
-6.16195851752963
31
0.000000000000000
  0
LINE
  5
F103B8
330
F103B9
100
AcDbEntity
8
Geo
100
AcDbLine
10
-90.1638297872341
20
-6.16195851752963
30
0.000000000000000
11
-90.0638297872341
21
-6.17591627168113
31
0.000000000000000
  0
LINE
  5
F103BA
330
F103BB
100
AcDbEntity
8
Geo
100
AcDbLine
10
-90.0638297872341
20
-6.17591627168113
30
0.000000000000000
11
-89.9638297872341
21
-6.18545319845424
31
0.000000000000000
  0
LINE
  5
F103BC
330
F103BD
100
AcDbEntity
8
Geo
100
AcDbLine
10
-89.9638297872341
20
-6.18545319845424
30
0.000000000000000
11
-89.8638297872341
21
-6.19055517081278
31
0.000000000000000
  0
LINE
  5
F103BE
330
F103BF
100
AcDbEntity
8
Geo
100
AcDbLine
10
-81.6638297872341
20
-0.191650593104387
30
0.000000000000000
11
-81.5638297872341
21
-0.192675583270246
31
0.000000000000000
  0
LINE
  5
F103C0
330
F103C1
100
AcDbEntity
8
Geo
100
AcDbLine
10
-81.5638297872341
20
-0.192675583270246
30
0.000000000000000
11
-81.4638297872341
21
-0.198142712062462
31
0.000000000000000
  0
LINE
  5
F103C2
330
F103C3
100
AcDbEntity
8
Geo
100
AcDbLine
10
-81.4638297872341
20
-0.198142712062462
30
0.000000000000000
11
-81.3638297872341
21
-0.208043881030854
31
0.000000000000000
  0
LINE
  5
F103C4
330
F103C5
100
AcDbEntity
8
Geo
100
AcDbLine
10
-81.3638297872341
20
-0.208043881030854
30
0.000000000000000
11
-81.2638297872341
21
-0.222364423587776
31
0.000000000000000
  0
LINE
  5
F103C6
330
F103C7
100
AcDbEntity
8
Geo
100
AcDbLine
10
-81.2638297872341
20
-0.222364423587776
30
0.000000000000000
11
-81.1638297872341
21
-0.241083126733707
31
0.000000000000000
  0
LINE
  5
F103C8
330
F103C9
100
AcDbEntity
8
Geo
100
AcDbLine
10
-81.1638297872341
20
-0.241083126733707
30
0.000000000000000
11
-81.0638297872341
21
-0.264172262480041
31
0.000000000000000
  0
LINE
  5
F103CA
330
F103CB
100
AcDbEntity
8
Geo
100
AcDbLine
10
-81.0638297872341
20
-0.264172262480041
30
0.000000000000000
11
-80.9638297872341
21
-0.291597628922517
31
0.000000000000000
  0
LINE
  5
F103CC
330
F103CD
100
AcDbEntity
8
Geo
100
AcDbLine
10
-80.9638297872341
20
-0.291597628922517
30
0.000000000000000
11
-80.8638297872341
21
-0.323318600904449
31
0.000000000000000
  0
LINE
  5
F103CE
330
F103CF
100
AcDbEntity
8
Geo
100
AcDbLine
10
-80.8638297872341
20
-0.323318600904449
30
0.000000000000000
11
-80.7638297872341
21
-0.359288190194719
31
0.000000000000000
  0
LINE
  5
F103D0
330
F103D1
100
AcDbEntity
8
Geo
100
AcDbLine
10
-80.7638297872341
20
-0.359288190194719
30
0.000000000000000
11
-80.6638297872341
21
-0.399453115091372
31
0.000000000000000
  0
LINE
  5
F103D2
330
F103D3
100
AcDbEntity
8
Geo
100
AcDbLine
10
-80.6638297872341
20
-0.399453115091372
30
0.000000000000000
11
-80.5638297872341
21
-0.443753879347728
31
0.000000000000000
  0
LINE
  5
F103D4
330
F103D5
100
AcDbEntity
8
Geo
100
AcDbLine
10
-80.5638297872341
20
-0.443753879347728
30
0.000000000000000
11
-80.4638297872341
21
-0.492124860304088
31
0.000000000000000
  0
LINE
  5
F103D6
330
F103D7
100
AcDbEntity
8
Geo
100
AcDbLine
10
-80.4638297872341
20
-0.492124860304088
30
0.000000000000000
11
-80.3638297872341
21
-0.544494406094489
31
0.000000000000000
  0
LINE
  5
F103D8
330
F103D9
100
AcDbEntity
8
Geo
100
AcDbLine
10
-80.3638297872341
20
-0.544494406094489
30
0.000000000000000
11
-80.2638297872341
21
-0.600784941784512
31
0.000000000000000
  0
LINE
  5
F103DA
330
F103DB
100
AcDbEntity
8
Geo
100
AcDbLine
10
-80.2638297872341
20
-0.600784941784512
30
0.000000000000000
11
-80.1638297872341
21
-0.660913084282919
31
0.000000000000000
  0
LINE
  5
F103DC
330
F103DD
100
AcDbEntity
8
Geo
100
AcDbLine
10
-80.1638297872341
20
-0.660913084282919
30
0.000000000000000
11
-80.0638297872341
21
-0.724789765856916
31
0.000000000000000
  0
LINE
  5
F103DE
330
F103DF
100
AcDbEntity
8
Geo
100
AcDbLine
10
-80.0638297872341
20
-0.724789765856916
30
0.000000000000000
11
-79.9638297872341
21
-0.792320366068051
31
0.000000000000000
  0
LINE
  5
F103E0
330
F103E1
100
AcDbEntity
8
Geo
100
AcDbLine
10
-79.9638297872341
20
-0.792320366068051
30
0.000000000000000
11
-79.8638297872341
21
-0.863404851933346
31
0.000000000000000
  0
LINE
  5
F103E2
330
F103E3
100
AcDbEntity
8
Geo
100
AcDbLine
10
-79.8638297872341
20
-0.863404851933346
30
0.000000000000000
11
-79.7638297872341
21
-0.937937926104008
31
0.000000000000000
  0
LINE
  5
F103E4
330
F103E5
100
AcDbEntity
8
Geo
100
AcDbLine
10
-79.7638297872341
20
-0.937937926104008
30
0.000000000000000
11
-79.6638297872341
21
-1.01580918284224
31
0.000000000000000
  0
LINE
  5
F103E6
330
F103E7
100
AcDbEntity
8
Geo
100
AcDbLine
10
-79.6638297872341
20
-1.01580918284224
30
0.000000000000000
11
-79.5638297872341
21
-1.09690327156511
31
0.000000000000000
  0
LINE
  5
F103E8
330
F103E9
100
AcDbEntity
8
Geo
100
AcDbLine
10
-79.5638297872341
20
-1.09690327156511
30
0.000000000000000
11
-79.4638297872341
21
-1.18110006771321
31
0.000000000000000
  0
LINE
  5
F103EA
330
F103EB
100
AcDbEntity
8
Geo
100
AcDbLine
10
-79.4638297872341
20
-1.18110006771321
30
0.000000000000000
11
-79.3638297872341
21
-1.26827485069100
31
0.000000000000000
  0
LINE
  5
F103EC
330
F103ED
100
AcDbEntity
8
Geo
100
AcDbLine
10
-79.3638297872341
20
-1.26827485069100
30
0.000000000000000
11
-79.2638297872341
21
-1.35829848861522
31
0.000000000000000
  0
LINE
  5
F103EE
330
F103EF
100
AcDbEntity
8
Geo
100
AcDbLine
10
-79.2638297872341
20
-1.35829848861522
30
0.000000000000000
11
-79.1638297872341
21
-1.45103762959782
31
0.000000000000000
  0
LINE
  5
F103F0
330
F103F1
100
AcDbEntity
8
Geo
100
AcDbLine
10
-79.1638297872341
20
-1.45103762959782
30
0.000000000000000
11
-79.0638297872341
21
-1.54635489927990
31
0.000000000000000
  0
LINE
  5
F103F2
330
F103F3
100
AcDbEntity
8
Geo
100
AcDbLine
10
-79.0638297872341
20
-1.54635489927990
30
0.000000000000000
11
-78.9638297872341
21
-1.65600717573525
31
0.000000000000000
  0
LINE
  5
F103F4
330
F103F5
100
AcDbEntity
8
Geo
100
AcDbLine
10
-78.9638297872341
20
-1.65600717573525
30
0.000000000000000
11
-78.8638297872341
21
-1.76630439501551
31
0.000000000000000
  0
LINE
  5
F103F6
330
F103F7
100
AcDbEntity
8
Geo
100
AcDbLine
10
-78.8638297872341
20
-1.76630439501551
30
0.000000000000000
11
-78.7638297872341
21
-1.87689235975320
31
0.000000000000000
  0
LINE
  5
F103F8
330
F103F9
100
AcDbEntity
8
Geo
100
AcDbLine
10
-78.7638297872341
20
-1.87689235975320
30
0.000000000000000
11
-78.6638297872341
21
-1.98743867766689
31
0.000000000000000
  0
LINE
  5
F103FA
330
F103FB
100
AcDbEntity
8
Geo
100
AcDbLine
10
-78.6638297872341
20
-1.98743867766689
30
0.000000000000000
11
-78.5638297872341
21
-2.09763274529925
31
0.000000000000000
  0
LINE
  5
F103FC
330
F103FD
100
AcDbEntity
8
Geo
100
AcDbLine
10
-78.5638297872341
20
-2.09763274529925
30
0.000000000000000
11
-78.4638297872341
21
-2.20718559614290
31
0.000000000000000
  0
LINE
  5
F103FE
330
F103FF
100
AcDbEntity
8
Geo
100
AcDbLine
10
-78.4638297872341
20
-2.20718559614290
30
0.000000000000000
11
-78.3638297872341
21
-2.31582962672617
31
0.000000000000000
  0
LINE
  5
F10400
330
F10401
100
AcDbEntity
8
Geo
100
AcDbLine
10
-78.3638297872341
20
-2.31582962672617
30
0.000000000000000
11
-78.2638297872341
21
-2.42331821380719
31
0.000000000000000
  0
LINE
  5
F10402
330
F10403
100
AcDbEntity
8
Geo
100
AcDbLine
10
-78.2638297872341
20
-2.42331821380719
30
0.000000000000000
11
-78.1638297872341
21
-2.52942523533152
31
0.000000000000000
  0
LINE
  5
F10404
330
F10405
100
AcDbEntity
8
Geo
100
AcDbLine
10
-78.1638297872341
20
-2.52942523533152
30
0.000000000000000
11
-78.0638297872341
21
-2.63394450725846
31
0.000000000000000
  0
LINE
  5
F10406
330
F10407
100
AcDbEntity
8
Geo
100
AcDbLine
10
-78.0638297872341
20
-2.63394450725846
30
0.000000000000000
11
-77.9638297872341
21
-2.73668914776666
31
0.000000000000000
  0
LINE
  5
F10408
330
F10409
100
AcDbEntity
8
Geo
100
AcDbLine
10
-77.9638297872341
20
-2.73668914776666
30
0.000000000000000
11
-77.8638297872341
21
-2.83749087972104
31
0.000000000000000
  0
LINE
  5
F1040A
330
F1040B
100
AcDbEntity
8
Geo
100
AcDbLine
10
-77.8638297872341
20
-2.83749087972104
30
0.000000000000000
11
-77.7638297872341
21
-2.93619928163054
31
0.000000000000000
  0
LINE
  5
F1040C
330
F1040D
100
AcDbEntity
8
Geo
100
AcDbLine
10
-77.7638297872341
20
-2.93619928163054
30
0.000000000000000
11
-77.6638297872341
21
-3.03268099665879
31
0.000000000000000
  0
LINE
  5
F1040E
330
F1040F
100
AcDbEntity
8
Geo
100
AcDbLine
10
-77.6638297872341
20
-3.03268099665879
30
0.000000000000000
11
-77.5638297872341
21
-3.12681890857517
31
0.000000000000000
  0
LINE
  5
F10410
330
F10411
100
AcDbEntity
8
Geo
100
AcDbLine
10
-77.5638297872341
20
-3.12681890857517
30
0.000000000000000
11
-77.4638297872341
21
-3.21851129285986
31
0.000000000000000
  0
LINE
  5
F10412
330
F10413
100
AcDbEntity
8
Geo
100
AcDbLine
10
-77.4638297872341
20
-3.21851129285986
30
0.000000000000000
11
-77.3638297872341
21
-3.30767095050853
31
0.000000000000000
  0
LINE
  5
F10414
330
F10415
100
AcDbEntity
8
Geo
100
AcDbLine
10
-77.3638297872341
20
-3.30767095050853
30
0.000000000000000
11
-77.2638297872341
21
-3.39422433142687
31
0.000000000000000
  0
LINE
  5
F10416
330
F10417
100
AcDbEntity
8
Geo
100
AcDbLine
10
-77.2638297872341
20
-3.39422433142687
30
0.000000000000000
11
-77.1638297872341
21
-3.47811065366622
31
0.000000000000000
  0
LINE
  5
F10418
330
F10419
100
AcDbEntity
8
Geo
100
AcDbLine
10
-77.1638297872341
20
-3.47811065366622
30
0.000000000000000
11
-77.0638297872341
21
-3.55928102413318
31
0.000000000000000
  0
LINE
  5
F1041A
330
F1041B
100
AcDbEntity
8
Geo
100
AcDbLine
10
-77.0638297872341
20
-3.55928102413318
30
0.000000000000000
11
-76.9638297872341
21
-3.63769756581202
31
0.000000000000000
  0
LINE
  5
F1041C
330
F1041D
100
AcDbEntity
8
Geo
100
AcDbLine
10
-76.9638297872341
20
-3.63769756581202
30
0.000000000000000
11
-76.8638297872341
21
-3.71333255597115
31
0.000000000000000
  0
LINE
  5
F1041E
330
F1041F
100
AcDbEntity
8
Geo
100
AcDbLine
10
-76.8638297872341
20
-3.71333255597115
30
0.000000000000000
11
-76.7638297872341
21
-3.78616757928588
31
0.000000000000000
  0
LINE
  5
F10420
330
F10421
100
AcDbEntity
8
Geo
100
AcDbLine
10
-76.7638297872341
20
-3.78616757928588
30
0.000000000000000
11
-76.6638297872341
21
-3.85619269930171
31
0.000000000000000
  0
LINE
  5
F10422
330
F10423
100
AcDbEntity
8
Geo
100
AcDbLine
10
-76.6638297872341
20
-3.85619269930171
30
0.000000000000000
11
-76.5638297872341
21
-3.92340565118520
31
0.000000000000000
  0
LINE
  5
F10424
330
F10425
100
AcDbEntity
8
Geo
100
AcDbLine
10
-76.5638297872341
20
-3.92340565118520
30
0.000000000000000
11
-76.4638297872341
21
-3.98781105826482
31
0.000000000000000
  0
LINE
  5
F10426
330
F10427
100
AcDbEntity
8
Geo
100
AcDbLine
10
-76.4638297872341
20
-3.98781105826482
30
0.000000000000000
11
-76.3638297872341
21
-4.04941967445213
31
0.000000000000000
  0
LINE
  5
F10428
330
F10429
100
AcDbEntity
8
Geo
100
AcDbLine
10
-76.3638297872341
20
-4.04941967445213
30
0.000000000000000
11
-76.2638297872341
21
-4.10824765425391
31
0.000000000000000
  0
LINE
  5
F1042A
330
F1042B
100
AcDbEntity
8
Geo
100
AcDbLine
10
-76.2638297872341
20
-4.10824765425391
30
0.000000000000000
11
-76.1638297872341
21
-4.16431585173826
31
0.000000000000000
  0
LINE
  5
F1042C
330
F1042D
100
AcDbEntity
8
Geo
100
AcDbLine
10
-76.1638297872341
20
-4.16431585173826
30
0.000000000000000
11
-76.0638297872341
21
-4.21764914950233
31
0.000000000000000
  0
LINE
  5
F1042E
330
F1042F
100
AcDbEntity
8
Geo
100
AcDbLine
10
-76.0638297872341
20
-4.21764914950233
30
0.000000000000000
11
-75.9638297872341
21
-4.26827581840412
31
0.000000000000000
  0
LINE
  5
F10430
330
F10431
100
AcDbEntity
8
Geo
100
AcDbLine
10
-75.9638297872341
20
-4.26827581840412
30
0.000000000000000
11
-75.8638297872341
21
-4.31622690856634
31
0.000000000000000
  0
LINE
  5
F10432
330
F10433
100
AcDbEntity
8
Geo
100
AcDbLine
10
-75.8638297872341
20
-4.31622690856634
30
0.000000000000000
11
-75.7638297872341
21
-4.36153567193433
31
0.000000000000000
  0
LINE
  5
F10434
330
F10435
100
AcDbEntity
8
Geo
100
AcDbLine
10
-75.7638297872341
20
-4.36153567193433
30
0.000000000000000
11
-75.6638297872341
21
-4.40423701647196
31
0.000000000000000
  0
LINE
  5
F10436
330
F10437
100
AcDbEntity
8
Geo
100
AcDbLine
10
-75.6638297872341
20
-4.40423701647196
30
0.000000000000000
11
-75.5638297872341
21
-4.44436699190817
31
0.000000000000000
  0
LINE
  5
F10438
330
F10439
100
AcDbEntity
8
Geo
100
AcDbLine
10
-75.5638297872341
20
-4.44436699190817
30
0.000000000000000
11
-75.4638297872341
21
-4.48196230679994
31
0.000000000000000
  0
LINE
  5
F1043A
330
F1043B
100
AcDbEntity
8
Geo
100
AcDbLine
10
-75.4638297872341
20
-4.48196230679994
30
0.000000000000000
11
-75.3638297872341
21
-4.51705987655548
31
0.000000000000000
  0
LINE
  5
F1043C
330
F1043D
100
AcDbEntity
8
Geo
100
AcDbLine
10
-75.3638297872341
20
-4.51705987655548
30
0.000000000000000
11
-75.2638297872340
21
-4.54969640196062
31
0.000000000000000
  0
LINE
  5
F1043E
330
F1043F
100
AcDbEntity
8
Geo
100
AcDbLine
10
-75.2638297872340
20
-4.54969640196062
30
0.000000000000000
11
-75.1638297872341
21
-4.57990797767258
31
0.000000000000000
  0
LINE
  5
F10440
330
F10441
100
AcDbEntity
8
Geo
100
AcDbLine
10
-75.1638297872341
20
-4.57990797767258
30
0.000000000000000
11
-75.0638297872341
21
-4.60772973008511
31
0.000000000000000
  0
LINE
  5
F10442
330
F10443
100
AcDbEntity
8
Geo
100
AcDbLine
10
-75.0638297872341
20
-4.60772973008511
30
0.000000000000000
11
-74.9638297872340
21
-4.63319548392767
31
0.000000000000000
  0
LINE
  5
F10444
330
F10445
100
AcDbEntity
8
Geo
100
AcDbLine
10
-74.9638297872340
20
-4.63319548392767
30
0.000000000000000
11
-74.8638297872340
21
-4.65633745693611
31
0.000000000000000
  0
LINE
  5
F10446
330
F10447
100
AcDbEntity
8
Geo
100
AcDbLine
10
-74.8638297872340
20
-4.65633745693611
30
0.000000000000000
11
-74.7638297872340
21
-4.67718598192266
31
0.000000000000000
  0
LINE
  5
F10448
330
F10449
100
AcDbEntity
8
Geo
100
AcDbLine
10
-74.7638297872340
20
-4.67718598192266
30
0.000000000000000
11
-74.6638297872341
21
-4.69576925557752
31
0.000000000000000
  0
LINE
  5
F1044A
330
F1044B
100
AcDbEntity
8
Geo
100
AcDbLine
10
-74.6638297872341
20
-4.69576925557752
30
0.000000000000000
11
-74.5638297872340
21
-4.71211311335120
31
0.000000000000000
  0
LINE
  5
F1044C
330
F1044D
100
AcDbEntity
8
Geo
100
AcDbLine
10
-74.5638297872340
20
-4.71211311335120
30
0.000000000000000
11
-74.4638297872340
21
-4.72624082979530
31
0.000000000000000
  0
LINE
  5
F1044E
330
F1044F
100
AcDbEntity
8
Geo
100
AcDbLine
10
-74.4638297872340
20
-4.72624082979530
30
0.000000000000000
11
-74.3638297872340
21
-4.73817294377805
31
0.000000000000000
  0
LINE
  5
F10450
330
F10451
100
AcDbEntity
8
Geo
100
AcDbLine
10
-74.3638297872340
20
-4.73817294377805
30
0.000000000000000
11
-74.2638297872340
21
-4.74792710803835
31
0.000000000000000
  0
LINE
  5
F10452
330
F10453
100
AcDbEntity
8
Geo
100
AcDbLine
10
-74.2638297872340
20
-4.74792710803835
30
0.000000000000000
11
-74.1638297872340
21
-4.75551796259791
31
0.000000000000000
  0
LINE
  5
F10454
330
F10455
100
AcDbEntity
8
Geo
100
AcDbLine
10
-74.1638297872340
20
-4.75551796259791
30
0.000000000000000
11
-74.0638297872341
21
-4.76095703161292
31
0.000000000000000
  0
LINE
  5
F10456
330
F10457
100
AcDbEntity
8
Geo
100
AcDbLine
10
-84.9638297872341
20
-0.192346221949312
30
0.000000000000000
11
-84.8638297872341
21
-0.191808606454984
31
0.000000000000000
  0
LINE
  5
F10458
330
F10459
100
AcDbEntity
8
Geo
100
AcDbLine
10
-84.8638297872341
20
-0.191808606454984
30
0.000000000000000
11
-84.7638297872341
21
-0.195714413838549
31
0.000000000000000
  0
LINE
  5
F1045A
330
F1045B
100
AcDbEntity
8
Geo
100
AcDbLine
10
-84.7638297872341
20
-0.195714413838549
30
0.000000000000000
11
-84.6638297872341
21
-0.204057858433029
31
0.000000000000000
  0
LINE
  5
F1045C
330
F1045D
100
AcDbEntity
8
Geo
100
AcDbLine
10
-84.6638297872341
20
-0.204057858433029
30
0.000000000000000
11
-84.5638297872341
21
-0.216826581105699
31
0.000000000000000
  0
LINE
  5
F1045E
330
F1045F
100
AcDbEntity
8
Geo
100
AcDbLine
10
-84.5638297872341
20
-0.216826581105699
30
0.000000000000000
11
-84.4638297872341
21
-0.234001667565647
31
0.000000000000000
  0
LINE
  5
F10460
330
F10461
100
AcDbEntity
8
Geo
100
AcDbLine
10
-84.4638297872341
20
-0.234001667565647
30
0.000000000000000
11
-84.3638297872341
21
-0.255557676381490
31
0.000000000000000
  0
LINE
  5
F10462
330
F10463
100
AcDbEntity
8
Geo
100
AcDbLine
10
-84.3638297872341
20
-0.255557676381490
30
0.000000000000000
11
-84.2638297872341
21
-0.281462676667729
31
0.000000000000000
  0
LINE
  5
F10464
330
F10465
100
AcDbEntity
8
Geo
100
AcDbLine
10
-84.2638297872341
20
-0.281462676667729
30
0.000000000000000
11
-84.1638297872341
21
-0.311678295383926
31
0.000000000000000
  0
LINE
  5
F10466
330
F10467
100
AcDbEntity
8
Geo
100
AcDbLine
10
-84.1638297872341
20
-0.311678295383926
30
0.000000000000000
11
-84.0638297872341
21
-0.346159774176634
31
0.000000000000000
  0
LINE
  5
F10468
330
F10469
100
AcDbEntity
8
Geo
100
AcDbLine
10
-84.0638297872341
20
-0.346159774176634
30
0.000000000000000
11
-83.9638297872341
21
-0.384856035679881
31
0.000000000000000
  0
LINE
  5
F1046A
330
F1046B
100
AcDbEntity
8
Geo
100
AcDbLine
10
-83.9638297872341
20
-0.384856035679881
30
0.000000000000000
11
-83.8638297872341
21
-0.427709759176004
31
0.000000000000000
  0
LINE
  5
F1046C
330
F1046D
100
AcDbEntity
8
Geo
100
AcDbLine
10
-83.8638297872341
20
-0.427709759176004
30
0.000000000000000
11
-83.7638297872341
21
-0.474657465504745
31
0.000000000000000
  0
LINE
  5
F1046E
330
F1046F
100
AcDbEntity
8
Geo
100
AcDbLine
10
-83.7638297872341
20
-0.474657465504745
30
0.000000000000000
11
-83.6638297872341
21
-0.525629611094841
31
0.000000000000000
  0
LINE
  5
F10470
330
F10471
100
AcDbEntity
8
Geo
100
AcDbLine
10
-83.6638297872341
20
-0.525629611094841
30
0.000000000000000
11
-83.5638297872341
21
-0.580550690978822
31
0.000000000000000
  0
LINE
  5
F10472
330
F10473
100
AcDbEntity
8
Geo
100
AcDbLine
10
-83.5638297872341
20
-0.580550690978822
30
0.000000000000000
11
-83.4638297872341
21
-0.639339350638408
31
0.000000000000000
  0
LINE
  5
F10474
330
F10475
100
AcDbEntity
8
Geo
100
AcDbLine
10
-83.4638297872341
20
-0.639339350638408
30
0.000000000000000
11
-83.3638297872341
21
-0.701908506514846
31
0.000000000000000
  0
LINE
  5
F10476
330
F10477
100
AcDbEntity
8
Geo
100
AcDbLine
10
-83.3638297872341
20
-0.701908506514846
30
0.000000000000000
11
-83.2638297872341
21
-0.768165475005659
31
0.000000000000000
  0
LINE
  5
F10478
330
F10479
100
AcDbEntity
8
Geo
100
AcDbLine
10
-83.2638297872341
20
-0.768165475005659
30
0.000000000000000
11
-83.1638297872341
21
-0.838012109756741
31
0.000000000000000
  0
LINE
  5
F1047A
330
F1047B
100
AcDbEntity
8
Geo
100
AcDbLine
10
-83.1638297872341
20
-0.838012109756741
30
0.000000000000000
11
-83.0638297872341
21
-0.911344947046411
31
0.000000000000000
  0
LINE
  5
F1047C
330
F1047D
100
AcDbEntity
8
Geo
100
AcDbLine
10
-83.0638297872341
20
-0.911344947046411
30
0.000000000000000
11
-82.9638297872341
21
-0.988055359046076
31
0.000000000000000
  0
LINE
  5
F1047E
330
F1047F
100
AcDbEntity
8
Geo
100
AcDbLine
10
-82.9638297872341
20
-0.988055359046076
30
0.000000000000000
11
-82.8638297872341
21
-1.06802971473048
31
0.000000000000000
  0
LINE
  5
F10480
330
F10481
100
AcDbEntity
8
Geo
100
AcDbLine
10
-82.8638297872341
20
-1.06802971473048
30
0.000000000000000
11
-82.7638297872341
21
-1.15114954819919
31
0.000000000000000
  0
LINE
  5
F10482
330
F10483
100
AcDbEntity
8
Geo
100
AcDbLine
10
-82.7638297872341
20
-1.15114954819919
30
0.000000000000000
11
-82.6638297872341
21
-1.23729173415995
31
0.000000000000000
  0
LINE
  5
F10484
330
F10485
100
AcDbEntity
8
Geo
100
AcDbLine
10
-82.6638297872341
20
-1.23729173415995
30
0.000000000000000
11
-82.5638297872341
21
-1.32632867031403
31
0.000000000000000
  0
LINE
  5
F10486
330
F10487
100
AcDbEntity
8
Geo
100
AcDbLine
10
-82.5638297872341
20
-1.32632867031403
30
0.000000000000000
11
-82.4638297872341
21
-1.41812846637331
31
0.000000000000000
  0
LINE
  5
F10488
330
F10489
100
AcDbEntity
8
Geo
100
AcDbLine
10
-82.4638297872341
20
-1.41812846637331
30
0.000000000000000
11
-82.3638297872341
21
-1.51255513942917
31
0.000000000000000
  0
LINE
  5
F1048A
330
F1048B
100
AcDbEntity
8
Geo
100
AcDbLine
10
-82.3638297872341
20
-1.51255513942917
30
0.000000000000000
11
-82.2638297872341
21
-1.60946881538382
31
0.000000000000000
  0
LINE
  5
F1048C
330
F1048D
100
AcDbEntity
8
Geo
100
AcDbLine
10
-82.2638297872341
20
-1.60946881538382
30
0.000000000000000
11
-82.1638297872341
21
-1.70872593614556
31
0.000000000000000
  0
LINE
  5
F1048E
330
F1048F
100
AcDbEntity
8
Geo
100
AcDbLine
10
-82.1638297872341
20
-1.70872593614556
30
0.000000000000000
11
-82.0638297872341
21
-1.81017947228119
31
0.000000000000000
  0
LINE
  5
F10490
330
F10491
100
AcDbEntity
8
Geo
100
AcDbLine
10
-82.0638297872341
20
-1.81017947228119
30
0.000000000000000
11
-81.9638297872341
21
-1.91367914081054
31
0.000000000000000
  0
LINE
  5
F10492
330
F10493
100
AcDbEntity
8
Geo
100
AcDbLine
10
-81.9638297872341
20
-1.91367914081054
30
0.000000000000000
11
-81.8638297872341
21
-2.01907162782039
31
0.000000000000000
  0
LINE
  5
F10494
330
F10495
100
AcDbEntity
8
Geo
100
AcDbLine
10
-81.8638297872341
20
-2.01907162782039
30
0.000000000000000
11
-81.7638297872341
21
-2.12620081556816
31
0.000000000000000
  0
LINE
  5
F10496
330
F10497
100
AcDbEntity
8
Geo
100
AcDbLine
10
-81.7638297872341
20
-2.12620081556816
30
0.000000000000000
11
-81.6638297872341
21
-2.23490801373893
31
0.000000000000000
  0
LINE
  5
F10498
330
F10499
100
AcDbEntity
8
Geo
100
AcDbLine
10
-81.6638297872341
20
-2.23490801373893
30
0.000000000000000
11
-81.5638297872341
21
-2.34503219451315
31
0.000000000000000
  0
LINE
  5
F1049A
330
F1049B
100
AcDbEntity
8
Geo
100
AcDbLine
10
-81.5638297872341
20
-2.34503219451315
30
0.000000000000000
11
-81.4638297872341
21
-2.45641023109695
31
0.000000000000000
  0
LINE
  5
F1049C
330
F1049D
100
AcDbEntity
8
Geo
100
AcDbLine
10
-81.4638297872341
20
-2.45641023109695
30
0.000000000000000
11
-81.3638297872341
21
-2.56887713936160
31
0.000000000000000
  0
LINE
  5
F1049E
330
F1049F
100
AcDbEntity
8
Geo
100
AcDbLine
10
-81.3638297872341
20
-2.56887713936160
30
0.000000000000000
11
-81.2638297872341
21
-2.68226632223430
31
0.000000000000000
  0
LINE
  5
F104A0
330
F104A1
100
AcDbEntity
8
Geo
100
AcDbLine
10
-81.2638297872341
20
-2.68226632223430
30
0.000000000000000
11
-81.1638297872341
21
-2.79640981647815
31
0.000000000000000
  0
LINE
  5
F104A2
330
F104A3
100
AcDbEntity
8
Geo
100
AcDbLine
10
-81.1638297872341
20
-2.79640981647815
30
0.000000000000000
11
-81.0638297872341
21
-2.91113854149590
31
0.000000000000000
  0
LINE
  5
F104A4
330
F104A5
100
AcDbEntity
8
Geo
100
AcDbLine
10
-81.0638297872341
20
-2.91113854149590
30
0.000000000000000
11
-80.9638297872341
21
-3.02628254978877
31
0.000000000000000
  0
LINE
  5
F104A6
330
F104A7
100
AcDbEntity
8
Geo
100
AcDbLine
10
-80.9638297872341
20
-3.02628254978877
30
0.000000000000000
11
-80.8638297872341
21
-3.14167127869944
31
0.000000000000000
  0
LINE
  5
F104A8
330
F104A9
100
AcDbEntity
8
Geo
100
AcDbLine
10
-80.8638297872341
20
-3.14167127869944
30
0.000000000000000
11
-80.7638297872341
21
-3.25713380306630
31
0.000000000000000
  0
LINE
  5
F104AA
330
F104AB
100
AcDbEntity
8
Geo
100
AcDbLine
10
-80.7638297872341
20
-3.25713380306630
30
0.000000000000000
11
-80.6638297872341
21
-3.37249908841462
31
0.000000000000000
  0
LINE
  5
F104AC
330
F104AD
100
AcDbEntity
8
Geo
100
AcDbLine
10
-80.6638297872341
20
-3.37249908841462
30
0.000000000000000
11
-80.5638297872341
21
-3.48759624430970
31
0.000000000000000
  0
LINE
  5
F104AE
330
F104AF
100
AcDbEntity
8
Geo
100
AcDbLine
10
-80.5638297872341
20
-3.48759624430970
30
0.000000000000000
11
-80.4638297872341
21
-3.60225477749662
31
0.000000000000000
  0
LINE
  5
F104B0
330
F104B1
100
AcDbEntity
8
Geo
100
AcDbLine
10
-80.4638297872341
20
-3.60225477749662
30
0.000000000000000
11
-80.3638297872341
21
-3.71630484445166
31
0.000000000000000
  0
LINE
  5
F104B2
330
F104B3
100
AcDbEntity
8
Geo
100
AcDbLine
10
-80.3638297872341
20
-3.71630484445166
30
0.000000000000000
11
-80.2638297872341
21
-3.82957750297128
31
0.000000000000000
  0
LINE
  5
F104B4
330
F104B5
100
AcDbEntity
8
Geo
100
AcDbLine
10
-80.2638297872341
20
-3.82957750297128
30
0.000000000000000
11
-80.1638297872341
21
-3.94190496242593
31
0.000000000000000
  0
LINE
  5
F104B6
330
F104B7
100
AcDbEntity
8
Geo
100
AcDbLine
10
-80.1638297872341
20
-3.94190496242593
30
0.000000000000000
11
-80.0638297872341
21
-4.05312083230815
31
0.000000000000000
  0
LINE
  5
F104B8
330
F104B9
100
AcDbEntity
8
Geo
100
AcDbLine
10
-80.0638297872341
20
-4.05312083230815
30
0.000000000000000
11
-79.9638297872341
21
-4.16306036870651
31
0.000000000000000
  0
LINE
  5
F104BA
330
F104BB
100
AcDbEntity
8
Geo
100
AcDbLine
10
-79.9638297872341
20
-4.16306036870651
30
0.000000000000000
11
-79.8638297872341
21
-4.27156071834059
31
0.000000000000000
  0
LINE
  5
F104BC
330
F104BD
100
AcDbEntity
8
Geo
100
AcDbLine
10
-79.8638297872341
20
-4.27156071834059
30
0.000000000000000
11
-79.7638297872341
21
-4.37846115979529
31
0.000000000000000
  0
LINE
  5
F104BE
330
F104BF
100
AcDbEntity
8
Geo
100
AcDbLine
10
-79.7638297872341
20
-4.37846115979529
30
0.000000000000000
11
-79.6638297872341
21
-4.48360334159725
31
0.000000000000000
  0
LINE
  5
F104C0
330
F104C1
100
AcDbEntity
8
Geo
100
AcDbLine
10
-79.6638297872341
20
-4.48360334159725
30
0.000000000000000
11
-79.5638297872341
21
-4.58683151678065
31
0.000000000000000
  0
LINE
  5
F104C2
330
F104C3
100
AcDbEntity
8
Geo
100
AcDbLine
10
-79.5638297872341
20
-4.58683151678065
30
0.000000000000000
11
-79.4638297872341
21
-4.68799277359498
31
0.000000000000000
  0
LINE
  5
F104C4
330
F104C5
100
AcDbEntity
8
Geo
100
AcDbLine
10
-79.4638297872341
20
-4.68799277359498
30
0.000000000000000
11
-79.3638297872341
21
-4.78693726201300
31
0.000000000000000
  0
LINE
  5
F104C6
330
F104C7
100
AcDbEntity
8
Geo
100
AcDbLine
10
-79.3638297872341
20
-4.78693726201300
30
0.000000000000000
11
-79.2638297872341
21
-4.88351841570337
31
0.000000000000000
  0
LINE
  5
F104C8
330
F104C9
100
AcDbEntity
8
Geo
100
AcDbLine
10
-79.2638297872341
20
-4.88351841570337
30
0.000000000000000
11
-79.1638297872341
21
-4.97759316913917
31
0.000000000000000
  0
LINE
  5
F104CA
330
F104CB
100
AcDbEntity
8
Geo
100
AcDbLine
10
-79.1638297872341
20
-4.97759316913917
30
0.000000000000000
11
-79.0638297872341
21
-5.06902216952065
31
0.000000000000000
  0
LINE
  5
F104CC
330
F104CD
100
AcDbEntity
8
Geo
100
AcDbLine
10
-79.0638297872341
20
-5.06902216952065
30
0.000000000000000
11
-78.9638297872341
21
-5.05779204989539
31
0.000000000000000
  0
LINE
  5
F104CE
330
F104CF
100
AcDbEntity
8
Geo
100
AcDbLine
10
-78.9638297872341
20
-5.05779204989539
30
0.000000000000000
11
-78.8638297872341
21
-5.04673822503532
31
0.000000000000000
  0
LINE
  5
F104D0
330
F104D1
100
AcDbEntity
8
Geo
100
AcDbLine
10
-78.8638297872341
20
-5.04673822503532
30
0.000000000000000
11
-78.7638297872341
21
-5.03586337610799
31
0.000000000000000
  0
LINE
  5
F104D2
330
F104D3
100
AcDbEntity
8
Geo
100
AcDbLine
10
-78.7638297872341
20
-5.03586337610799
30
0.000000000000000
11
-78.6638297872341
21
-5.02517010863223
31
0.000000000000000
  0
LINE
  5
F104D4
330
F104D5
100
AcDbEntity
8
Geo
100
AcDbLine
10
-78.6638297872341
20
-5.02517010863223
30
0.000000000000000
11
-78.5638297872341
21
-5.01466095371433
31
0.000000000000000
  0
LINE
  5
F104D6
330
F104D7
100
AcDbEntity
8
Geo
100
AcDbLine
10
-78.5638297872341
20
-5.01466095371433
30
0.000000000000000
11
-78.4638297872341
21
-5.00433836927202
31
0.000000000000000
  0
LINE
  5
F104D8
330
F104D9
100
AcDbEntity
8
Geo
100
AcDbLine
10
-78.4638297872341
20
-5.00433836927202
30
0.000000000000000
11
-78.3638297872341
21
-4.99420474124538
31
0.000000000000000
  0
LINE
  5
F104DA
330
F104DB
100
AcDbEntity
8
Geo
100
AcDbLine
10
-78.3638297872341
20
-4.99420474124538
30
0.000000000000000
11
-78.2638297872341
21
-4.98426238479380
31
0.000000000000000
  0
LINE
  5
F104DC
330
F104DD
100
AcDbEntity
8
Geo
100
AcDbLine
10
-78.2638297872341
20
-4.98426238479380
30
0.000000000000000
11
-78.1638297872341
21
-4.97451354547821
31
0.000000000000000
  0
LINE
  5
F104DE
330
F104DF
100
AcDbEntity
8
Geo
100
AcDbLine
10
-78.1638297872341
20
-4.97451354547821
30
0.000000000000000
11
-78.0638297872341
21
-4.96496040042768
31
0.000000000000000
  0
LINE
  5
F104E0
330
F104E1
100
AcDbEntity
8
Geo
100
AcDbLine
10
-78.0638297872341
20
-4.96496040042768
30
0.000000000000000
11
-77.9638297872341
21
-4.95560505948970
31
0.000000000000000
  0
LINE
  5
F104E2
330
F104E3
100
AcDbEntity
8
Geo
100
AcDbLine
10
-77.9638297872341
20
-4.95560505948970
30
0.000000000000000
11
-77.8638297872341
21
-4.94644956636336
31
0.000000000000000
  0
LINE
  5
F104E4
330
F104E5
100
AcDbEntity
8
Geo
100
AcDbLine
10
-77.8638297872341
20
-4.94644956636336
30
0.000000000000000
11
-77.7638297872341
21
-4.93749589971472
31
0.000000000000000
  0
LINE
  5
F104E6
330
F104E7
100
AcDbEntity
8
Geo
100
AcDbLine
10
-77.7638297872341
20
-4.93749589971472
30
0.000000000000000
11
-77.6638297872341
21
-4.92874597427361
31
0.000000000000000
  0
LINE
  5
F104E8
330
F104E9
100
AcDbEntity
8
Geo
100
AcDbLine
10
-77.6638297872341
20
-4.92874597427361
30
0.000000000000000
11
-77.5638297872341
21
-4.92020164191125
31
0.000000000000000
  0
LINE
  5
F104EA
330
F104EB
100
AcDbEntity
8
Geo
100
AcDbLine
10
-77.5638297872341
20
-4.92020164191125
30
0.000000000000000
11
-77.4638297872341
21
-4.91186469269802
31
0.000000000000000
  0
LINE
  5
F104EC
330
F104ED
100
AcDbEntity
8
Geo
100
AcDbLine
10
-77.4638297872341
20
-4.91186469269802
30
0.000000000000000
11
-77.3638297872341
21
-4.90373685594076
31
0.000000000000000
  0
LINE
  5
F104EE
330
F104EF
100
AcDbEntity
8
Geo
100
AcDbLine
10
-77.3638297872341
20
-4.90373685594076
30
0.000000000000000
11
-77.2638297872341
21
-4.89581980119901
31
0.000000000000000
  0
LINE
  5
F104F0
330
F104F1
100
AcDbEntity
8
Geo
100
AcDbLine
10
-77.2638297872341
20
-4.89581980119901
30
0.000000000000000
11
-77.1638297872341
21
-4.88811513927950
31
0.000000000000000
  0
LINE
  5
F104F2
330
F104F3
100
AcDbEntity
8
Geo
100
AcDbLine
10
-77.1638297872341
20
-4.88811513927950
30
0.000000000000000
11
-77.0638297872341
21
-4.88062442320858
31
0.000000000000000
  0
LINE
  5
F104F4
330
F104F5
100
AcDbEntity
8
Geo
100
AcDbLine
10
-77.0638297872341
20
-4.88062442320858
30
0.000000000000000
11
-76.9638297872341
21
-4.87334914918174
31
0.000000000000000
  0
LINE
  5
F104F6
330
F104F7
100
AcDbEntity
8
Geo
100
AcDbLine
10
-76.9638297872341
20
-4.87334914918174
30
0.000000000000000
11
-76.8638297872341
21
-4.86629075748995
31
0.000000000000000
  0
LINE
  5
F104F8
330
F104F9
100
AcDbEntity
8
Geo
100
AcDbLine
10
-76.8638297872341
20
-4.86629075748995
30
0.000000000000000
11
-76.7638297872341
21
-4.85945063342225
31
0.000000000000000
  0
LINE
  5
F104FA
330
F104FB
100
AcDbEntity
8
Geo
100
AcDbLine
10
-76.7638297872341
20
-4.85945063342225
30
0.000000000000000
11
-76.6638297872341
21
-4.85283010814408
31
0.000000000000000
  0
LINE
  5
F104FC
330
F104FD
100
AcDbEntity
8
Geo
100
AcDbLine
10
-76.6638297872341
20
-4.85283010814408
30
0.000000000000000
11
-76.5638297872341
21
-4.84643045955092
31
0.000000000000000
  0
LINE
  5
F104FE
330
F104FF
100
AcDbEntity
8
Geo
100
AcDbLine
10
-76.5638297872341
20
-4.84643045955092
30
0.000000000000000
11
-76.4638297872341
21
-4.84025291309684
31
0.000000000000000
  0
LINE
  5
F10500
330
F10501
100
AcDbEntity
8
Geo
100
AcDbLine
10
-76.4638297872341
20
-4.84025291309684
30
0.000000000000000
11
-76.3638297872341
21
-4.83429864259751
31
0.000000000000000
  0
LINE
  5
F10502
330
F10503
100
AcDbEntity
8
Geo
100
AcDbLine
10
-76.3638297872341
20
-4.83429864259751
30
0.000000000000000
11
-76.2638297872341
21
-4.82856877100726
31
0.000000000000000
  0
LINE
  5
F10504
330
F10505
100
AcDbEntity
8
Geo
100
AcDbLine
10
-76.2638297872341
20
-4.82856877100726
30
0.000000000000000
11
-76.1638297872341
21
-4.82306437116987
31
0.000000000000000
  0
LINE
  5
F10506
330
F10507
100
AcDbEntity
8
Geo
100
AcDbLine
10
-76.1638297872341
20
-4.82306437116987
30
0.000000000000000
11
-76.0638297872341
21
-4.81778646654272
31
0.000000000000000
  0
LINE
  5
F10508
330
F10509
100
AcDbEntity
8
Geo
100
AcDbLine
10
-76.0638297872341
20
-4.81778646654272
30
0.000000000000000
11
-75.9638297872341
21
-4.81273603189382
31
0.000000000000000
  0
LINE
  5
F1050A
330
F1050B
100
AcDbEntity
8
Geo
100
AcDbLine
10
-75.9638297872341
20
-4.81273603189382
30
0.000000000000000
11
-75.8638297872341
21
-4.80791399397167
31
0.000000000000000
  0
LINE
  5
F1050C
330
F1050D
100
AcDbEntity
8
Geo
100
AcDbLine
10
-75.8638297872341
20
-4.80791399397167
30
0.000000000000000
11
-75.7638297872341
21
-4.80332123214733
31
0.000000000000000
  0
LINE
  5
F1050E
330
F1050F
100
AcDbEntity
8
Geo
100
AcDbLine
10
-75.7638297872341
20
-4.80332123214733
30
0.000000000000000
11
-75.6638297872341
21
-4.79895857902868
31
0.000000000000000
  0
LINE
  5
F10510
330
F10511
100
AcDbEntity
8
Geo
100
AcDbLine
10
-75.6638297872341
20
-4.79895857902868
30
0.000000000000000
11
-75.5638297872341
21
-4.79482682104639
31
0.000000000000000
  0
LINE
  5
F10512
330
F10513
100
AcDbEntity
8
Geo
100
AcDbLine
10
-75.5638297872341
20
-4.79482682104639
30
0.000000000000000
11
-75.4638297872341
21
-4.79092669901145
31
0.000000000000000
  0
LINE
  5
F10514
330
F10515
100
AcDbEntity
8
Geo
100
AcDbLine
10
-75.4638297872341
20
-4.79092669901145
30
0.000000000000000
11
-75.3638297872341
21
-4.78725890864400
31
0.000000000000000
  0
LINE
  5
F10516
330
F10517
100
AcDbEntity
8
Geo
100
AcDbLine
10
-75.3638297872341
20
-4.78725890864400
30
0.000000000000000
11
-75.2638297872340
21
-4.78382410107319
31
0.000000000000000
  0
LINE
  5
F10518
330
F10519
100
AcDbEntity
8
Geo
100
AcDbLine
10
-75.2638297872340
20
-4.78382410107319
30
0.000000000000000
11
-75.1638297872341
21
-4.78062288330787
31
0.000000000000000
  0
LINE
  5
F1051A
330
F1051B
100
AcDbEntity
8
Geo
100
AcDbLine
10
-75.1638297872341
20
-4.78062288330787
30
0.000000000000000
11
-75.0638297872341
21
-4.77765581867797
31
0.000000000000000
  0
LINE
  5
F1051C
330
F1051D
100
AcDbEntity
8
Geo
100
AcDbLine
10
-75.0638297872341
20
-4.77765581867797
30
0.000000000000000
11
-74.9638297872340
21
-4.77492342724625
31
0.000000000000000
  0
LINE
  5
F1051E
330
F1051F
100
AcDbEntity
8
Geo
100
AcDbLine
10
-74.9638297872340
20
-4.77492342724625
30
0.000000000000000
11
-74.8638297872340
21
-4.77242618619044
31
0.000000000000000
  0
LINE
  5
F10520
330
F10521
100
AcDbEntity
8
Geo
100
AcDbLine
10
-74.8638297872340
20
-4.77242618619044
30
0.000000000000000
11
-74.7638297872340
21
-4.77016453015534
31
0.000000000000000
  0
LINE
  5
F10522
330
F10523
100
AcDbEntity
8
Geo
100
AcDbLine
10
-74.7638297872340
20
-4.77016453015534
30
0.000000000000000
11
-74.6638297872341
21
-4.76813885157506
31
0.000000000000000
  0
LINE
  5
F10524
330
F10525
100
AcDbEntity
8
Geo
100
AcDbLine
10
-74.6638297872341
20
-4.76813885157506
30
0.000000000000000
11
-74.5638297872340
21
-4.76634950096493
31
0.000000000000000
  0
LINE
  5
F10526
330
F10527
100
AcDbEntity
8
Geo
100
AcDbLine
10
-74.5638297872340
20
-4.76634950096493
30
0.000000000000000
11
-74.4638297872340
21
-4.76479678718331
31
0.000000000000000
  0
LINE
  5
F10528
330
F10529
100
AcDbEntity
8
Geo
100
AcDbLine
10
-74.4638297872340
20
-4.76479678718331
30
0.000000000000000
11
-74.3638297872340
21
-4.76348097766283
31
0.000000000000000
  0
LINE
  5
F1052A
330
F1052B
100
AcDbEntity
8
Geo
100
AcDbLine
10
-74.3638297872340
20
-4.76348097766283
30
0.000000000000000
11
-74.2638297872340
21
-4.76240229861129
31
0.000000000000000
  0
LINE
  5
F1052C
330
F1052D
100
AcDbEntity
8
Geo
100
AcDbLine
10
-74.2638297872340
20
-4.76240229861129
30
0.000000000000000
11
-74.1638297872340
21
-4.76156093518189
31
0.000000000000000
  0
LINE
  5
F1052E
330
F1052F
100
AcDbEntity
8
Geo
100
AcDbLine
10
-74.1638297872340
20
-4.76156093518189
30
0.000000000000000
11
-74.0638297872341
21
-4.76095703161292
31
0.000000000000000
  0
LINE
  5
F10530
330
F10531
100
AcDbEntity
8
Geo
100
AcDbLine
10
-85.7638297872341
20
-0.191957273046399
30
0.000000000000000
11
-85.6638297872341
21
-0.192140042792004
31
0.000000000000000
  0
LINE
  5
F10532
330
F10533
100
AcDbEntity
8
Geo
100
AcDbLine
10
-85.6638297872341
20
-0.192140042792004
30
0.000000000000000
11
-85.5638297872341
21
-0.196765744459322
31
0.000000000000000
  0
LINE
  5
F10534
330
F10535
100
AcDbEntity
8
Geo
100
AcDbLine
10
-85.5638297872341
20
-0.196765744459322
30
0.000000000000000
11
-85.4638297872341
21
-0.205827526002988
31
0.000000000000000
  0
LINE
  5
F10536
330
F10537
100
AcDbEntity
8
Geo
100
AcDbLine
10
-85.4638297872341
20
-0.205827526002988
30
0.000000000000000
11
-85.3638297872341
21
-0.219311964218765
31
0.000000000000000
  0
LINE
  5
F10538
330
F10539
100
AcDbEntity
8
Geo
100
AcDbLine
10
-85.3638297872341
20
-0.219311964218765
30
0.000000000000000
11
-85.2638297872341
21
-0.237199084627314
31
0.000000000000000
  0
LINE
  5
F1053A
330
F1053B
100
AcDbEntity
8
Geo
100
AcDbLine
10
-85.2638297872341
20
-0.237199084627314
30
0.000000000000000
11
-85.1638297872341
21
-0.259462391062368
31
0.000000000000000
  0
LINE
  5
F1053C
330
F1053D
100
AcDbEntity
8
Geo
100
AcDbLine
10
-85.1638297872341
20
-0.259462391062368
30
0.000000000000000
11
-85.0638297872341
21
-0.286068904919462
31
0.000000000000000
  0
LINE
  5
F1053E
330
F1053F
100
AcDbEntity
8
Geo
100
AcDbLine
10
-85.0638297872341
20
-0.286068904919462
30
0.000000000000000
11
-84.9638297872341
21
-0.316979214007092
31
0.000000000000000
  0
LINE
  5
F10540
330
F10541
100
AcDbEntity
8
Geo
100
AcDbLine
10
-84.9638297872341
20
-0.316979214007092
30
0.000000000000000
11
-84.8638297872341
21
-0.352147530927942
31
0.000000000000000
  0
LINE
  5
F10542
330
F10543
100
AcDbEntity
8
Geo
100
AcDbLine
10
-84.8638297872341
20
-0.352147530927942
30
0.000000000000000
11
-84.7638297872341
21
-0.391521760903689
31
0.000000000000000
  0
LINE
  5
F10544
330
F10545
100
AcDbEntity
8
Geo
100
AcDbLine
10
-84.7638297872341
20
-0.391521760903689
30
0.000000000000000
11
-84.6638297872341
21
-0.435043578942926
31
0.000000000000000
  0
LINE
  5
F10546
330
F10547
100
AcDbEntity
8
Geo
100
AcDbLine
10
-84.6638297872341
20
-0.435043578942926
30
0.000000000000000
11
-84.5638297872341
21
-0.482648516237889
31
0.000000000000000
  0
LINE
  5
F10548
330
F10549
100
AcDbEntity
8
Geo
100
AcDbLine
10
-84.5638297872341
20
-0.482648516237889
30
0.000000000000000
11
-84.4638297872341
21
-0.534266055662012
31
0.000000000000000
  0
LINE
  5
F1054A
330
F1054B
100
AcDbEntity
8
Geo
100
AcDbLine
10
-84.4638297872341
20
-0.534266055662012
30
0.000000000000000
11
-84.3638297872341
21
-0.589819736226846
31
0.000000000000000
  0
LINE
  5
F1054C
330
F1054D
100
AcDbEntity
8
Geo
100
AcDbLine
10
-84.3638297872341
20
-0.589819736226846
30
0.000000000000000
11
-84.2638297872341
21
-0.649227266343614
31
0.000000000000000
  0
LINE
  5
F1054E
330
F1054F
100
AcDbEntity
8
Geo
100
AcDbLine
10
-84.2638297872341
20
-0.649227266343614
30
0.000000000000000
11
-84.1638297872341
21
-0.712400645721625
31
0.000000000000000
  0
LINE
  5
F10550
330
F10551
100
AcDbEntity
8
Geo
100
AcDbLine
10
-84.1638297872341
20
-0.712400645721625
30
0.000000000000000
11
-84.0638297872341
21
-0.779246295722983
31
0.000000000000000
  0
LINE
  5
F10552
330
F10553
100
AcDbEntity
8
Geo
100
AcDbLine
10
-84.0638297872341
20
-0.779246295722983
30
0.000000000000000
11
-83.9638297872341
21
-0.849665197980487
31
0.000000000000000
  0
LINE
  5
F10554
330
F10555
100
AcDbEntity
8
Geo
100
AcDbLine
10
-83.9638297872341
20
-0.849665197980487
30
0.000000000000000
11
-83.8638297872341
21
-0.923553041073406
31
0.000000000000000
  0
LINE
  5
F10556
330
F10557
100
AcDbEntity
8
Geo
100
AcDbLine
10
-83.8638297872341
20
-0.923553041073406
30
0.000000000000000
11
-83.7638297872341
21
-1.00080037504383
31
0.000000000000000
  0
LINE
  5
F10558
330
F10559
100
AcDbEntity
8
Geo
100
AcDbLine
10
-83.7638297872341
20
-1.00080037504383
30
0.000000000000000
11
-83.6638297872341
21
-1.08129277352475
31
0.000000000000000
  0
LINE
  5
F1055A
330
F1055B
100
AcDbEntity
8
Geo
100
AcDbLine
10
-83.6638297872341
20
-1.08129277352475
30
0.000000000000000
11
-83.5638297872341
21
-1.16491100323966
31
0.000000000000000
  0
LINE
  5
F1055C
330
F1055D
100
AcDbEntity
8
Geo
100
AcDbLine
10
-83.5638297872341
20
-1.16491100323966
30
0.000000000000000
11
-83.4638297872341
21
-1.25153120062266
31
0.000000000000000
  0
LINE
  5
F1055E
330
F1055F
100
AcDbEntity
8
Geo
100
AcDbLine
10
-83.4638297872341
20
-1.25153120062266
30
0.000000000000000
11
-83.3638297872341
21
-1.34102505529736
31
0.000000000000000
  0
LINE
  5
F10560
330
F10561
100
AcDbEntity
8
Geo
100
AcDbLine
10
-83.3638297872341
20
-1.34102505529736
30
0.000000000000000
11
-83.2638297872341
21
-1.43326000014288
31
0.000000000000000
  0
LINE
  5
F10562
330
F10563
100
AcDbEntity
8
Geo
100
AcDbLine
10
-83.2638297872341
20
-1.43326000014288
30
0.000000000000000
11
-83.1638297872341
21
-1.52809940766532
31
0.000000000000000
  0
LINE
  5
F10564
330
F10565
100
AcDbEntity
8
Geo
100
AcDbLine
10
-83.1638297872341
20
-1.52809940766532
30
0.000000000000000
11
-83.0638297872341
21
-1.62540279238390
31
0.000000000000000
  0
LINE
  5
F10566
330
F10567
100
AcDbEntity
8
Geo
100
AcDbLine
10
-83.0638297872341
20
-1.62540279238390
30
0.000000000000000
11
-82.9638297872341
21
-1.72502601893189
31
0.000000000000000
  0
LINE
  5
F10568
330
F10569
100
AcDbEntity
8
Geo
100
AcDbLine
10
-82.9638297872341
20
-1.72502601893189
30
0.000000000000000
11
-82.8638297872341
21
-1.82682151556409
31
0.000000000000000
  0
LINE
  5
F1056A
330
F1056B
100
AcDbEntity
8
Geo
100
AcDbLine
10
-82.8638297872341
20
-1.82682151556409
30
0.000000000000000
11
-82.7638297872341
21
-1.93063849275474
31
0.000000000000000
  0
LINE
  5
F1056C
330
F1056D
100
AcDbEntity
8
Geo
100
AcDbLine
10
-82.7638297872341
20
-1.93063849275474
30
0.000000000000000
11
-82.6638297872341
21
-2.03632316656173
31
0.000000000000000
  0
LINE
  5
F1056E
330
F1056F
100
AcDbEntity
8
Geo
100
AcDbLine
10
-82.6638297872341
20
-2.03632316656173
30
0.000000000000000
11
-82.5638297872341
21
-2.14371898642661
31
0.000000000000000
  0
LINE
  5
F10570
330
F10571
100
AcDbEntity
8
Geo
100
AcDbLine
10
-82.5638297872341
20
-2.14371898642661
30
0.000000000000000
11
-82.4638297872341
21
-2.25266686707267
31
0.000000000000000
  0
LINE
  5
F10572
330
F10573
100
AcDbEntity
8
Geo
100
AcDbLine
10
-82.4638297872341
20
-2.25266686707267
30
0.000000000000000
11
-82.3638297872341
21
-2.36300542415775
31
0.000000000000000
  0
LINE
  5
F10574
330
F10575
100
AcDbEntity
8
Geo
100
AcDbLine
10
-82.3638297872341
20
-2.36300542415775
30
0.000000000000000
11
-82.2638297872341
21
-2.47457121333265
31
0.000000000000000
  0
LINE
  5
F10576
330
F10577
100
AcDbEntity
8
Geo
100
AcDbLine
10
-82.2638297872341
20
-2.47457121333265
30
0.000000000000000
11
-82.1638297872341
21
-2.58719897235099
31
0.000000000000000
  0
LINE
  5
F10578
330
F10579
100
AcDbEntity
8
Geo
100
AcDbLine
10
-82.1638297872341
20
-2.58719897235099
30
0.000000000000000
11
-82.0638297872341
21
-2.70072186587198
31
0.000000000000000
  0
LINE
  5
F1057A
330
F1057B
100
AcDbEntity
8
Geo
100
AcDbLine
10
-82.0638297872341
20
-2.70072186587198
30
0.000000000000000
11
-81.9638297872341
21
-2.81497173259333
31
0.000000000000000
  0
LINE
  5
F1057C
330
F1057D
100
AcDbEntity
8
Geo
100
AcDbLine
10
-81.9638297872341
20
-2.81497173259333
30
0.000000000000000
11
-81.8638297872341
21
-2.92977933434837
31
0.000000000000000
  0
LINE
  5
F1057E
330
F1057F
100
AcDbEntity
8
Geo
100
AcDbLine
10
-81.8638297872341
20
-2.92977933434837
30
0.000000000000000
11
-81.7638297872341
21
-3.04497460679833
31
0.000000000000000
  0
LINE
  5
F10580
330
F10581
100
AcDbEntity
8
Geo
100
AcDbLine
10
-81.7638297872341
20
-3.04497460679833
30
0.000000000000000
11
-81.6638297872341
21
-3.16038691134838
31
0.000000000000000
  0
LINE
  5
F10582
330
F10583
100
AcDbEntity
8
Geo
100
AcDbLine
10
-81.6638297872341
20
-3.16038691134838
30
0.000000000000000
11
-81.5638297872341
21
-3.27584528791433
31
0.000000000000000
  0
LINE
  5
F10584
330
F10585
100
AcDbEntity
8
Geo
100
AcDbLine
10
-81.5638297872341
20
-3.27584528791433
30
0.000000000000000
11
-81.4638297872341
21
-3.39117870816559
31
0.000000000000000
  0
LINE
  5
F10586
330
F10587
100
AcDbEntity
8
Geo
100
AcDbLine
10
-81.4638297872341
20
-3.39117870816559
30
0.000000000000000
11
-81.3638297872341
21
-3.50621632886919
31
0.000000000000000
  0
LINE
  5
F10588
330
F10589
100
AcDbEntity
8
Geo
100
AcDbLine
10
-81.3638297872341
20
-3.50621632886919
30
0.000000000000000
11
-81.2638297872341
21
-3.62078774495959
31
0.000000000000000
  0
LINE
  5
F1058A
330
F1058B
100
AcDbEntity
8
Geo
100
AcDbLine
10
-81.2638297872341
20
-3.62078774495959
30
0.000000000000000
11
-81.1638297872341
21
-3.73472324195950
31
0.000000000000000
  0
LINE
  5
F1058C
330
F1058D
100
AcDbEntity
8
Geo
100
AcDbLine
10
-81.1638297872341
20
-3.73472324195950
30
0.000000000000000
11
-81.0638297872341
21
-3.84785404737771
31
0.000000000000000
  0
LINE
  5
F1058E
330
F1058F
100
AcDbEntity
8
Geo
100
AcDbLine
10
-81.0638297872341
20
-3.84785404737771
30
0.000000000000000
11
-80.9638297872341
21
-3.96001258071147
31
0.000000000000000
  0
LINE
  5
F10590
330
F10591
100
AcDbEntity
8
Geo
100
AcDbLine
10
-80.9638297872341
20
-3.96001258071147
30
0.000000000000000
11
-80.8638297872341
21
-4.07103270168333
31
0.000000000000000
  0
LINE
  5
F10592
330
F10593
100
AcDbEntity
8
Geo
100
AcDbLine
10
-80.8638297872341
20
-4.07103270168333
30
0.000000000000000
11
-80.7638297872341
21
-4.18074995634446
31
0.000000000000000
  0
LINE
  5
F10594
330
F10595
100
AcDbEntity
8
Geo
100
AcDbLine
10
-80.7638297872341
20
-4.18074995634446
30
0.000000000000000
11
-80.6638297872341
21
-4.28900182068005
31
0.000000000000000
  0
LINE
  5
F10596
330
F10597
100
AcDbEntity
8
Geo
100
AcDbLine
10
-80.6638297872341
20
-4.28900182068005
30
0.000000000000000
11
-80.5638297872341
21
-4.39562794135592
31
0.000000000000000
  0
LINE
  5
F10598
330
F10599
100
AcDbEntity
8
Geo
100
AcDbLine
10
-80.5638297872341
20
-4.39562794135592
30
0.000000000000000
11
-80.4638297872341
21
-4.50047037324971
31
0.000000000000000
  0
LINE
  5
F1059A
330
F1059B
100
AcDbEntity
8
Geo
100
AcDbLine
10
-80.4638297872341
20
-4.50047037324971
30
0.000000000000000
11
-80.3638297872341
21
-4.60337381341471
31
0.000000000000000
  0
LINE
  5
F1059C
330
F1059D
100
AcDbEntity
8
Geo
100
AcDbLine
10
-80.3638297872341
20
-4.60337381341471
30
0.000000000000000
11
-80.2638297872341
21
-4.70418583112994
31
0.000000000000000
  0
LINE
  5
F1059E
330
F1059F
100
AcDbEntity
8
Geo
100
AcDbLine
10
-80.2638297872341
20
-4.70418583112994
30
0.000000000000000
11
-80.1638297872341
21
-4.80275709369553
31
0.000000000000000
  0
LINE
  5
F105A0
330
F105A1
100
AcDbEntity
8
Geo
100
AcDbLine
10
-80.1638297872341
20
-4.80275709369553
30
0.000000000000000
11
-80.0638297872341
21
-4.89894158763909
31
0.000000000000000
  0
LINE
  5
F105A2
330
F105A3
100
AcDbEntity
8
Geo
100
AcDbLine
10
-80.0638297872341
20
-4.89894158763909
30
0.000000000000000
11
-79.9638297872341
21
-4.99259683500521
31
0.000000000000000
  0
LINE
  5
F105A4
330
F105A5
100
AcDbEntity
8
Geo
100
AcDbLine
10
-79.9638297872341
20
-4.99259683500521
30
0.000000000000000
11
-79.8638297872341
21
-5.08358410440786
31
0.000000000000000
  0
LINE
  5
F105A6
330
F105A7
100
AcDbEntity
8
Geo
100
AcDbLine
10
-79.8638297872341
20
-5.08358410440786
30
0.000000000000000
11
-79.7638297872341
21
-5.17176861653304
31
0.000000000000000
  0
LINE
  5
F105A8
330
F105A9
100
AcDbEntity
8
Geo
100
AcDbLine
10
-79.7638297872341
20
-5.17176861653304
30
0.000000000000000
11
-79.6638297872341
21
-5.25701974378713
31
0.000000000000000
  0
LINE
  5
F105AA
330
F105AB
100
AcDbEntity
8
Geo
100
AcDbLine
10
-79.6638297872341
20
-5.25701974378713
30
0.000000000000000
11
-79.5638297872341
21
-5.33921120379541
31
0.000000000000000
  0
LINE
  5
F105AC
330
F105AD
100
AcDbEntity
8
Geo
100
AcDbLine
10
-79.5638297872341
20
-5.33921120379541
30
0.000000000000000
11
-79.4638297872341
21
-5.41822124646391
31
0.000000000000000
  0
LINE
  5
F105AE
330
F105AF
100
AcDbEntity
8
Geo
100
AcDbLine
10
-79.4638297872341
20
-5.41822124646391
30
0.000000000000000
11
-79.3638297872341
21
-5.49393283432773
31
0.000000000000000
  0
LINE
  5
F105B0
330
F105B1
100
AcDbEntity
8
Geo
100
AcDbLine
10
-79.3638297872341
20
-5.49393283432773
30
0.000000000000000
11
-79.2638297872341
21
-5.56623381591839
31
0.000000000000000
  0
LINE
  5
F105B2
330
F105B3
100
AcDbEntity
8
Geo
100
AcDbLine
10
-79.2638297872341
20
-5.56623381591839
30
0.000000000000000
11
-79.1638297872341
21
-5.63501709189369
31
0.000000000000000
  0
LINE
  5
F105B4
330
F105B5
100
AcDbEntity
8
Geo
100
AcDbLine
10
-79.1638297872341
20
-5.63501709189369
30
0.000000000000000
11
-79.0638297872341
21
-5.70018077368383
31
0.000000000000000
  0
LINE
  5
F105B6
330
F105B7
100
AcDbEntity
8
Geo
100
AcDbLine
10
-79.0638297872341
20
-5.70018077368383
30
0.000000000000000
11
-78.9638297872341
21
-5.76875427951294
31
0.000000000000000
  0
LINE
  5
F105B8
330
F105B9
100
AcDbEntity
8
Geo
100
AcDbLine
10
-78.9638297872341
20
-5.76875427951294
30
0.000000000000000
11
-78.8638297872341
21
-5.83134689776927
31
0.000000000000000
  0
LINE
  5
F105BA
330
F105BB
100
AcDbEntity
8
Geo
100
AcDbLine
10
-78.8638297872341
20
-5.83134689776927
30
0.000000000000000
11
-78.7638297872341
21
-5.88812332323026
31
0.000000000000000
  0
LINE
  5
F105BC
330
F105BD
100
AcDbEntity
8
Geo
100
AcDbLine
10
-78.7638297872341
20
-5.88812332323026
30
0.000000000000000
11
-78.6638297872341
21
-5.93926336082838
31
0.000000000000000
  0
LINE
  5
F105BE
330
F105BF
100
AcDbEntity
8
Geo
100
AcDbLine
10
-78.6638297872341
20
-5.93926336082838
30
0.000000000000000
11
-78.5638297872341
21
-5.98495990973940
31
0.000000000000000
  0
LINE
  5
F105C0
330
F105C1
100
AcDbEntity
8
Geo
100
AcDbLine
10
-78.5638297872341
20
-5.98495990973940
30
0.000000000000000
11
-78.4638297872341
21
-6.02541704199073
31
0.000000000000000
  0
LINE
  5
F105C2
330
F105C3
100
AcDbEntity
8
Geo
100
AcDbLine
10
-78.4638297872341
20
-6.02541704199073
30
0.000000000000000
11
-78.3638297872341
21
-6.06084818006937
31
0.000000000000000
  0
LINE
  5
F105C4
330
F105C5
100
AcDbEntity
8
Geo
100
AcDbLine
10
-78.3638297872341
20
-6.06084818006937
30
0.000000000000000
11
-78.2638297872341
21
-6.09147437675682
31
0.000000000000000
  0
LINE
  5
F105C6
330
F105C7
100
AcDbEntity
8
Geo
100
AcDbLine
10
-78.2638297872341
20
-6.09147437675682
30
0.000000000000000
11
-78.1638297872341
21
-6.11752269927248
31
0.000000000000000
  0
LINE
  5
F105C8
330
F105C9
100
AcDbEntity
8
Geo
100
AcDbLine
10
-78.1638297872341
20
-6.11752269927248
30
0.000000000000000
11
-78.0638297872341
21
-6.13922471876582
31
0.000000000000000
  0
LINE
  5
F105CA
330
F105CB
100
AcDbEntity
8
Geo
100
AcDbLine
10
-78.0638297872341
20
-6.13922471876582
30
0.000000000000000
11
-77.9638297872341
21
-6.15681510525953
31
0.000000000000000
  0
LINE
  5
F105CC
330
F105CD
100
AcDbEntity
8
Geo
100
AcDbLine
10
-77.9638297872341
20
-6.15681510525953
30
0.000000000000000
11
-77.8638297872341
21
-6.17053032730751
31
0.000000000000000
  0
LINE
  5
F105CE
330
F105CF
100
AcDbEntity
8
Geo
100
AcDbLine
10
-77.8638297872341
20
-6.17053032730751
30
0.000000000000000
11
-77.7638297872341
21
-6.18060745488899
31
0.000000000000000
  0
LINE
  5
F105D0
330
F105D1
100
AcDbEntity
8
Geo
100
AcDbLine
10
-77.7638297872341
20
-6.18060745488899
30
0.000000000000000
11
-77.6638297872341
21
-6.18728306340995
31
0.000000000000000
  0
LINE
  5
F105D2
330
F105D3
100
AcDbEntity
8
Geo
100
AcDbLine
10
-77.6638297872341
20
-6.18728306340995
30
0.000000000000000
11
-77.5638297872341
21
-6.19079223612017
31
0.000000000000000
  0
LINE
  5
F105D4
330
F105D5
100
AcDbEntity
8
Geo
100
AcDbLine
10
-77.5638297872341
20
-6.19079223612017
30
0.000000000000000
11
-77.4638297872341
21
-6.19148936170212
31
0.000000000000000
  0
LINE
  5
F105D6
330
F105D7
100
AcDbEntity
8
Geo
100
AcDbLine
10
-89.0638297872341
20
-0.192948992351647
30
0.000000000000000
11
-88.9638297872341
21
-0.191569173952006
31
0.000000000000000
  0
LINE
  5
F105D8
330
F105D9
100
AcDbEntity
8
Geo
100
AcDbLine
10
-88.9638297872341
20
-0.191569173952006
30
0.000000000000000
11
-88.8638297872341
21
-0.194633133101286
31
0.000000000000000
  0
LINE
  5
F105DA
330
F105DB
100
AcDbEntity
8
Geo
100
AcDbLine
10
-88.8638297872341
20
-0.194633133101286
30
0.000000000000000
11
-88.7638297872341
21
-0.202136331161117
31
0.000000000000000
  0
LINE
  5
F105DC
330
F105DD
100
AcDbEntity
8
Geo
100
AcDbLine
10
-88.7638297872341
20
-0.202136331161117
30
0.000000000000000
11
-88.6638297872341
21
-0.214067653654778
31
0.000000000000000
  0
LINE
  5
F105DE
330
F105DF
100
AcDbEntity
8
Geo
100
AcDbLine
10
-88.6638297872341
20
-0.214067653654778
30
0.000000000000000
11
-88.5638297872341
21
-0.230409426731064
31
0.000000000000000
  0
LINE
  5
F105E0
330
F105E1
100
AcDbEntity
8
Geo
100
AcDbLine
10
-88.5638297872341
20
-0.230409426731064
30
0.000000000000000
11
-88.4638297872341
21
-0.251137443344534
31
0.000000000000000
  0
LINE
  5
F105E2
330
F105E3
100
AcDbEntity
8
Geo
100
AcDbLine
10
-88.4638297872341
20
-0.251137443344534
30
0.000000000000000
11
-88.3638297872341
21
-0.276220999113373
31
0.000000000000000
  0
LINE
  5
F105E4
330
F105E5
100
AcDbEntity
8
Geo
100
AcDbLine
10
-88.3638297872341
20
-0.276220999113373
30
0.000000000000000
11
-88.2638297872341
21
-0.305622937801748
31
0.000000000000000
  0
LINE
  5
F105E6
330
F105E7
100
AcDbEntity
8
Geo
100
AcDbLine
10
-88.2638297872341
20
-0.305622937801748
30
0.000000000000000
11
-88.1638297872341
21
-0.339299706359291
31
0.000000000000000
  0
LINE
  5
F105E8
330
F105E9
100
AcDbEntity
8
Geo
100
AcDbLine
10
-88.1638297872341
20
-0.339299706359291
30
0.000000000000000
11
-88.0638297872341
21
-0.377201419436170
31
0.000000000000000
  0
LINE
  5
F105EA
330
F105EB
100
AcDbEntity
8
Geo
100
AcDbLine
10
-88.0638297872341
20
-0.377201419436170
30
0.000000000000000
11
-87.9638297872341
21
-0.419271933278186
31
0.000000000000000
  0
LINE
  5
F105EC
330
F105ED
100
AcDbEntity
8
Geo
100
AcDbLine
10
-87.9638297872341
20
-0.419271933278186
30
0.000000000000000
11
-87.8638297872341
21
-0.465448928892437
31
0.000000000000000
  0
LINE
  5
F105EE
330
F105EF
100
AcDbEntity
8
Geo
100
AcDbLine
10
-87.8638297872341
20
-0.465448928892437
30
0.000000000000000
11
-87.7638297872341
21
-0.515664004360359
31
0.000000000000000
  0
LINE
  5
F105F0
330
F105F1
100
AcDbEntity
8
Geo
100
AcDbLine
10
-87.7638297872341
20
-0.515664004360359
30
0.000000000000000
11
-87.6638297872341
21
-0.569842776161384
31
0.000000000000000
  0
LINE
  5
F105F2
330
F105F3
100
AcDbEntity
8
Geo
100
AcDbLine
10
-87.6638297872341
20
-0.569842776161384
30
0.000000000000000
11
-87.5638297872341
21
-0.627904989357153
31
0.000000000000000
  0
LINE
  5
F105F4
330
F105F5
100
AcDbEntity
8
Geo
100
AcDbLine
10
-87.5638297872341
20
-0.627904989357153
30
0.000000000000000
11
-87.4638297872341
21
-0.689764636473034
31
0.000000000000000
  0
LINE
  5
F105F6
330
F105F7
100
AcDbEntity
8
Geo
100
AcDbLine
10
-87.4638297872341
20
-0.689764636473034
30
0.000000000000000
11
-87.3638297872341
21
-0.755330084900881
31
0.000000000000000
  0
LINE
  5
F105F8
330
F105F9
100
AcDbEntity
8
Geo
100
AcDbLine
10
-87.3638297872341
20
-0.755330084900881
30
0.000000000000000
11
-87.2638297872341
21
-0.824504212634281
31
0.000000000000000
  0
LINE
  5
F105FA
330
F105FB
100
AcDbEntity
8
Geo
100
AcDbLine
10
-87.2638297872341
20
-0.824504212634281
30
0.000000000000000
11
-87.1638297872341
21
-0.897184552135250
31
0.000000000000000
  0
LINE
  5
F105FC
330
F105FD
100
AcDbEntity
8
Geo
100
AcDbLine
10
-87.1638297872341
20
-0.897184552135250
30
0.000000000000000
11
-87.0638297872341
21
-0.973263442119251
31
0.000000000000000
  0
LINE
  5
F105FE
330
F105FF
100
AcDbEntity
8
Geo
100
AcDbLine
10
-87.0638297872341
20
-0.973263442119251
30
0.000000000000000
11
-86.9638297872341
21
-1.05262818703370
31
0.000000000000000
  0
LINE
  5
F10600
330
F10601
100
AcDbEntity
8
Geo
100
AcDbLine
10
-86.9638297872341
20
-1.05262818703370
30
0.000000000000000
11
-86.8638297872341
21
-1.13516122399375
31
0.000000000000000
  0
LINE
  5
F10602
330
F10603
100
AcDbEntity
8
Geo
100
AcDbLine
10
-86.8638297872341
20
-1.13516122399375
30
0.000000000000000
11
-86.7638297872341
21
-1.22074029692797
31
0.000000000000000
  0
LINE
  5
F10604
330
F10605
100
AcDbEntity
8
Geo
100
AcDbLine
10
-86.7638297872341
20
-1.22074029692797
30
0.000000000000000
11
-86.6638297872341
21
-1.30923863767617
31
0.000000000000000
  0
LINE
  5
F10606
330
F10607
100
AcDbEntity
8
Geo
100
AcDbLine
10
-86.6638297872341
20
-1.30923863767617
30
0.000000000000000
11
-86.5638297872341
21
-1.40052515377085
31
0.000000000000000
  0
LINE
  5
F10608
330
F10609
100
AcDbEntity
8
Geo
100
AcDbLine
10
-86.5638297872341
20
-1.40052515377085
30
0.000000000000000
11
-86.4638297872341
21
-1.49446462262427
31
0.000000000000000
  0
LINE
  5
F1060A
330
F1060B
100
AcDbEntity
8
Geo
100
AcDbLine
10
-86.4638297872341
20
-1.49446462262427
30
0.000000000000000
11
-86.3638297872341
21
-1.59091789183354
31
0.000000000000000
  0
LINE
  5
F1060C
330
F1060D
100
AcDbEntity
8
Geo
100
AcDbLine
10
-86.3638297872341
20
-1.59091789183354
30
0.000000000000000
11
-86.2638297872341
21
-1.68974208530683
31
0.000000000000000
  0
LINE
  5
F1060E
330
F1060F
100
AcDbEntity
8
Geo
100
AcDbLine
10
-86.2638297872341
20
-1.68974208530683
30
0.000000000000000
11
-86.1638297872341
21
-1.79079081490553
31
0.000000000000000
  0
LINE
  5
F10610
330
F10611
100
AcDbEntity
8
Geo
100
AcDbLine
10
-86.1638297872341
20
-1.79079081490553
30
0.000000000000000
11
-86.0638297872341
21
-1.89391439728881
31
0.000000000000000
  0
LINE
  5
F10612
330
F10613
100
AcDbEntity
8
Geo
100
AcDbLine
10
-86.0638297872341
20
-1.89391439728881
30
0.000000000000000
11
-85.9638297872341
21
-1.99896007563932
31
0.000000000000000
  0
LINE
  5
F10614
330
F10615
100
AcDbEntity
8
Geo
100
AcDbLine
10
-85.9638297872341
20
-1.99896007563932
30
0.000000000000000
11
-85.8638297872341
21
-2.10577224594167
31
0.000000000000000
  0
LINE
  5
F10616
330
F10617
100
AcDbEntity
8
Geo
100
AcDbLine
10
-85.8638297872341
20
-2.10577224594167
30
0.000000000000000
11
-85.7638297872341
21
-2.21419268747844
31
0.000000000000000
  0
LINE
  5
F10618
330
F10619
100
AcDbEntity
8
Geo
100
AcDbLine
10
-85.7638297872341
20
-2.21419268747844
30
0.000000000000000
11
-85.6638297872341
21
-2.32406079720228
31
0.000000000000000
  0
LINE
  5
F1061A
330
F1061B
100
AcDbEntity
8
Geo
100
AcDbLine
10
-85.6638297872341
20
-2.32406079720228
30
0.000000000000000
11
-85.5638297872341
21
-2.43521382763699
31
0.000000000000000
  0
LINE
  5
F1061C
330
F1061D
100
AcDbEntity
8
Geo
100
AcDbLine
10
-85.5638297872341
20
-2.43521382763699
30
0.000000000000000
11
-85.4638297872341
21
-2.54748712795516
31
0.000000000000000
  0
LINE
  5
F1061E
330
F1061F
100
AcDbEntity
8
Geo
100
AcDbLine
10
-85.4638297872341
20
-2.54748712795516
30
0.000000000000000
11
-85.3638297872341
21
-2.66071438787513
31
0.000000000000000
  0
LINE
  5
F10620
330
F10621
100
AcDbEntity
8
Geo
100
AcDbLine
10
-85.3638297872341
20
-2.66071438787513
30
0.000000000000000
11
-85.2638297872341
21
-2.77472788401627
31
0.000000000000000
  0
LINE
  5
F10622
330
F10623
100
AcDbEntity
8
Geo
100
AcDbLine
10
-85.2638297872341
20
-2.77472788401627
30
0.000000000000000
11
-85.1638297872341
21
-2.88935872834733
31
0.000000000000000
  0
LINE
  5
F10624
330
F10625
100
AcDbEntity
8
Geo
100
AcDbLine
10
-85.1638297872341
20
-2.88935872834733
30
0.000000000000000
11
-85.0638297872341
21
-3.00443711836005
31
0.000000000000000
  0
LINE
  5
F10626
330
F10627
100
AcDbEntity
8
Geo
100
AcDbLine
10
-85.0638297872341
20
-3.00443711836005
30
0.000000000000000
11
-84.9638297872341
21
-3.11979258859737
31
0.000000000000000
  0
LINE
  5
F10628
330
F10629
100
AcDbEntity
8
Geo
100
AcDbLine
10
-84.9638297872341
20
-3.11979258859737
30
0.000000000000000
11
-84.8638297872341
21
-3.23525426316372
31
0.000000000000000
  0
LINE
  5
F1062A
330
F1062B
100
AcDbEntity
8
Geo
100
AcDbLine
10
-84.8638297872341
20
-3.23525426316372
30
0.000000000000000
11
-84.7638297872341
21
-3.35065110884317
31
0.000000000000000
  0
LINE
  5
F1062C
330
F1062D
100
AcDbEntity
8
Geo
100
AcDbLine
10
-84.7638297872341
20
-3.35065110884317
30
0.000000000000000
11
-84.6638297872341
21
-3.46581218845075
31
0.000000000000000
  0
LINE
  5
F1062E
330
F1062F
100
AcDbEntity
8
Geo
100
AcDbLine
10
-84.6638297872341
20
-3.46581218845075
30
0.000000000000000
11
-84.5638297872341
21
-3.58056691404143
31
0.000000000000000
  0
LINE
  5
F10630
330
F10631
100
AcDbEntity
8
Geo
100
AcDbLine
10
-84.5638297872341
20
-3.58056691404143
30
0.000000000000000
11
-84.4638297872341
21
-3.69474529960183
31
0.000000000000000
  0
LINE
  5
F10632
330
F10633
100
AcDbEntity
8
Geo
100
AcDbLine
10
-84.4638297872341
20
-3.69474529960183
30
0.000000000000000
11
-84.3638297872341
21
-3.80817821285021
31
0.000000000000000
  0
LINE
  5
F10634
330
F10635
100
AcDbEntity
8
Geo
100
AcDbLine
10
-84.3638297872341
20
-3.80817821285021
30
0.000000000000000
11
-84.2638297872341
21
-3.92069762577196
31
0.000000000000000
  0
LINE
  5
F10636
330
F10637
100
AcDbEntity
8
Geo
100
AcDbLine
10
-84.2638297872341
20
-3.92069762577196
30
0.000000000000000
11
-84.1638297872341
21
-4.03213686351918
31
0.000000000000000
  0
LINE
  5
F10638
330
F10639
100
AcDbEntity
8
Geo
100
AcDbLine
10
-84.1638297872341
20
-4.03213686351918
30
0.000000000000000
11
-84.0638297872341
21
-4.14233085130596
31
0.000000000000000
  0
LINE
  5
F1063A
330
F1063B
100
AcDbEntity
8
Geo
100
AcDbLine
10
-84.0638297872341
20
-4.14233085130596
30
0.000000000000000
11
-83.9638297872341
21
-4.25111635893338
31
0.000000000000000
  0
LINE
  5
F1063C
330
F1063D
100
AcDbEntity
8
Geo
100
AcDbLine
10
-83.9638297872341
20
-4.25111635893338
30
0.000000000000000
11
-83.8638297872341
21
-4.35833224258223
31
0.000000000000000
  0
LINE
  5
F1063E
330
F1063F
100
AcDbEntity
8
Geo
100
AcDbLine
10
-83.8638297872341
20
-4.35833224258223
30
0.000000000000000
11
-83.7638297872341
21
-4.46381968351505
31
0.000000000000000
  0
LINE
  5
F10640
330
F10641
100
AcDbEntity
8
Geo
100
AcDbLine
10
-83.7638297872341
20
-4.46381968351505
30
0.000000000000000
11
-83.6638297872341
21
-4.56742242333416
31
0.000000000000000
  0
LINE
  5
F10642
330
F10643
100
AcDbEntity
8
Geo
100
AcDbLine
10
-83.6638297872341
20
-4.56742242333416
30
0.000000000000000
11
-83.5638297872341
21
-4.66898699544698
31
0.000000000000000
  0
LINE
  5
F10644
330
F10645
100
AcDbEntity
8
Geo
100
AcDbLine
10
-83.5638297872341
20
-4.66898699544698
30
0.000000000000000
11
-83.4638297872341
21
-4.76836295239591
31
0.000000000000000
  0
LINE
  5
F10646
330
F10647
100
AcDbEntity
8
Geo
100
AcDbLine
10
-83.4638297872341
20
-4.76836295239591
30
0.000000000000000
11
-83.3638297872341
21
-4.86540308871586
31
0.000000000000000
  0
LINE
  5
F10648
330
F10649
100
AcDbEntity
8
Geo
100
AcDbLine
10
-83.3638297872341
20
-4.86540308871586
30
0.000000000000000
11
-83.2638297872341
21
-4.95996365898958
31
0.000000000000000
  0
LINE
  5
F1064A
330
F1064B
100
AcDbEntity
8
Geo
100
AcDbLine
10
-83.2638297872341
20
-4.95996365898958
30
0.000000000000000
11
-83.1638297872341
21
-5.05190459077752
31
0.000000000000000
  0
LINE
  5
F1064C
330
F1064D
100
AcDbEntity
8
Geo
100
AcDbLine
10
-83.1638297872341
20
-5.05190459077752
30
0.000000000000000
11
-83.0638297872341
21
-5.14108969210690
31
0.000000000000000
  0
LINE
  5
F1064E
330
F1064F
100
AcDbEntity
8
Geo
100
AcDbLine
10
-83.0638297872341
20
-5.14108969210690
30
0.000000000000000
11
-82.9638297872341
21
-5.22738685321273
31
0.000000000000000
  0
LINE
  5
F10650
330
F10651
100
AcDbEntity
8
Geo
100
AcDbLine
10
-82.9638297872341
20
-5.22738685321273
30
0.000000000000000
11
-82.8638297872341
21
-5.31066824223182
31
0.000000000000000
  0
LINE
  5
F10652
330
F10653
100
AcDbEntity
8
Geo
100
AcDbLine
10
-82.8638297872341
20
-5.31066824223182
30
0.000000000000000
11
-82.7638297872341
21
-5.39081049455991
31
0.000000000000000
  0
LINE
  5
F10654
330
F10655
100
AcDbEntity
8
Geo
100
AcDbLine
10
-82.7638297872341
20
-5.39081049455991
30
0.000000000000000
11
-82.6638297872341
21
-5.46769489559149
31
0.000000000000000
  0
LINE
  5
F10656
330
F10657
100
AcDbEntity
8
Geo
100
AcDbLine
10
-82.6638297872341
20
-5.46769489559149
30
0.000000000000000
11
-82.5638297872341
21
-5.54120755657161
31
0.000000000000000
  0
LINE
  5
F10658
330
F10659
100
AcDbEntity
8
Geo
100
AcDbLine
10
-82.5638297872341
20
-5.54120755657161
30
0.000000000000000
11
-82.4638297872341
21
-5.61123958329910
31
0.000000000000000
  0
LINE
  5
F1065A
330
F1065B
100
AcDbEntity
8
Geo
100
AcDbLine
10
-82.4638297872341
20
-5.61123958329910
30
0.000000000000000
11
-82.3638297872341
21
-5.67768723743140
31
0.000000000000000
  0
LINE
  5
F1065C
330
F1065D
100
AcDbEntity
8
Geo
100
AcDbLine
10
-82.3638297872341
20
-5.67768723743140
30
0.000000000000000
11
-82.2638297872341
21
-5.74045209015203
31
0.000000000000000
  0
LINE
  5
F1065E
330
F1065F
100
AcDbEntity
8
Geo
100
AcDbLine
10
-82.2638297872341
20
-5.74045209015203
30
0.000000000000000
11
-82.1638297872341
21
-5.79944116797305
31
0.000000000000000
  0
LINE
  5
F10660
330
F10661
100
AcDbEntity
8
Geo
100
AcDbLine
10
-82.1638297872341
20
-5.79944116797305
30
0.000000000000000
11
-82.0638297872341
21
-5.85456709045657
31
0.000000000000000
  0
LINE
  5
F10662
330
F10663
100
AcDbEntity
8
Geo
100
AcDbLine
10
-82.0638297872341
20
-5.85456709045657
30
0.000000000000000
11
-81.9638297872341
21
-5.90574819965127
31
0.000000000000000
  0
LINE
  5
F10664
330
F10665
100
AcDbEntity
8
Geo
100
AcDbLine
10
-81.9638297872341
20
-5.90574819965127
30
0.000000000000000
11
-81.8638297872341
21
-5.95290868105216
31
0.000000000000000
  0
LINE
  5
F10666
330
F10667
100
AcDbEntity
8
Geo
100
AcDbLine
10
-81.8638297872341
20
-5.95290868105216
30
0.000000000000000
11
-81.7638297872341
21
-5.99597867590459
31
0.000000000000000
  0
LINE
  5
F10668
330
F10669
100
AcDbEntity
8
Geo
100
AcDbLine
10
-81.7638297872341
20
-5.99597867590459
30
0.000000000000000
11
-81.6638297872341
21
-6.03489438468582
31
0.000000000000000
  0
LINE
  5
F1066A
330
F1066B
100
AcDbEntity
8
Geo
100
AcDbLine
10
-81.6638297872341
20
-6.03489438468582
30
0.000000000000000
11
-81.5638297872341
21
-6.06959816161126
31
0.000000000000000
  0
LINE
  5
F1066C
330
F1066D
100
AcDbEntity
8
Geo
100
AcDbLine
10
-81.5638297872341
20
-6.06959816161126
30
0.000000000000000
11
-81.4638297872341
21
-6.10003860002503
31
0.000000000000000
  0
LINE
  5
F1066E
330
F1066F
100
AcDbEntity
8
Geo
100
AcDbLine
10
-81.4638297872341
20
-6.10003860002503
30
0.000000000000000
11
-81.3638297872341
21
-6.12617060854857
31
0.000000000000000
  0
LINE
  5
F10670
330
F10671
100
AcDbEntity
8
Geo
100
AcDbLine
10
-81.3638297872341
20
-6.12617060854857
30
0.000000000000000
11
-81.2638297872341
21
-6.14795547787446
31
0.000000000000000
  0
LINE
  5
F10672
330
F10673
100
AcDbEntity
8
Geo
100
AcDbLine
10
-81.2638297872341
20
-6.14795547787446
30
0.000000000000000
11
-81.1638297872341
21
-6.16536093810646
31
0.000000000000000
  0
LINE
  5
F10674
330
F10675
100
AcDbEntity
8
Geo
100
AcDbLine
10
-81.1638297872341
20
-6.16536093810646
30
0.000000000000000
11
-81.0638297872341
21
-6.17836120656084
31
0.000000000000000
  0
LINE
  5
F10676
330
F10677
100
AcDbEntity
8
Geo
100
AcDbLine
10
-81.0638297872341
20
-6.17836120656084
30
0.000000000000000
11
-80.9638297872341
21
-6.18693702595824
31
0.000000000000000
  0
LINE
  5
F10678
330
F10679
100
AcDbEntity
8
Geo
100
AcDbLine
10
-80.9638297872341
20
-6.18693702595824
30
0.000000000000000
11
-80.8638297872341
21
-6.19107569294948
31
0.000000000000000
  0
LINE
  5
F1067A
330
F1067B
100
AcDbEntity
8
Geo
100
AcDbLine
10
-93.0638297872341
20
-0.343583815002204
30
0.000000000000000
11
-92.9638297872341
21
-0.257135952005775
31
0.000000000000000
  0
LINE
  5
F1067C
330
F1067D
100
AcDbEntity
8
Geo
100
AcDbLine
10
-93.0638297872341
20
-3.48693168760579
30
0.000000000000000
11
-92.9638297872341
21
-3.60014979189196
31
0.000000000000000
  0
LINE
  5
F1067E
330
F1067F
100
AcDbEntity
8
Geo
100
AcDbLine
10
-92.9638297872341
20
-0.257135952005775
30
0.000000000000000
11
-92.8638297872341
21
-0.275034742582283
31
0.000000000000000
  0
LINE
  5
F10680
330
F10681
100
AcDbEntity
8
Geo
100
AcDbLine
10
-92.9638297872341
20
-3.60014979189196
30
0.000000000000000
11
-92.8638297872341
21
-3.71276254805845
31
0.000000000000000
  0
LINE
  5
F10682
330
F10683
100
AcDbEntity
8
Geo
100
AcDbLine
10
-92.8638297872341
20
-0.275034742582283
30
0.000000000000000
11
-92.7638297872341
21
-0.297253673278456
31
0.000000000000000
  0
LINE
  5
F10684
330
F10685
100
AcDbEntity
8
Geo
100
AcDbLine
10
-92.8638297872341
20
-3.71276254805845
30
0.000000000000000
11
-92.7638297872341
21
-3.82460314298817
31
0.000000000000000
  0
LINE
  5
F10686
330
F10687
100
AcDbEntity
8
Geo
100
AcDbLine
10
-92.7638297872341
20
-0.297253673278456
30
0.000000000000000
11
-92.6638297872341
21
-0.323759831223549
31
0.000000000000000
  0
LINE
  5
F10688
330
F10689
100
AcDbEntity
8
Geo
100
AcDbLine
10
-92.7638297872341
20
-3.82460314298817
30
0.000000000000000
11
-92.6638297872341
21
-3.93550590736537
31
0.000000000000000
  0
LINE
  5
F1068A
330
F1068B
100
AcDbEntity
8
Geo
100
AcDbLine
10
-92.6638297872341
20
-0.323759831223549
30
0.000000000000000
11
-92.5638297872341
21
-0.354513952883127
31
0.000000000000000
  0
LINE
  5
F1068C
330
F1068D
100
AcDbEntity
8
Geo
100
AcDbLine
10
-92.6638297872341
20
-3.93550590736537
30
0.000000000000000
11
-92.5638297872341
21
-4.04530656108137
31
0.000000000000000
  0
LINE
  5
F1068E
330
F1068F
100
AcDbEntity
8
Geo
100
AcDbLine
10
-92.5638297872341
20
-0.354513952883127
30
0.000000000000000
11
-92.4638297872341
21
-0.389470482220095
31
0.000000000000000
  0
LINE
  5
F10690
330
F10691
100
AcDbEntity
8
Geo
100
AcDbLine
10
-92.5638297872341
20
-4.04530656108137
30
0.000000000000000
11
-92.4638297872341
21
-4.15384245658249
31
0.000000000000000
  0
LINE
  5
F10692
330
F10693
100
AcDbEntity
8
Geo
100
AcDbLine
10
-92.4638297872341
20
-0.389470482220095
30
0.000000000000000
11
-92.3638297872341
21
-0.428577638176777
31
0.000000000000000
  0
LINE
  5
F10694
330
F10695
100
AcDbEntity
8
Geo
100
AcDbLine
10
-92.4638297872341
20
-4.15384245658249
30
0.000000000000000
11
-92.3638297872341
21
-4.26095281979957
31
0.000000000000000
  0
LINE
  5
F10696
330
F10697
100
AcDbEntity
8
Geo
100
AcDbLine
10
-92.3638297872341
20
-0.428577638176777
30
0.000000000000000
11
-92.2638297872341
21
-0.471777491378136
31
0.000000000000000
  0
LINE
  5
F10698
330
F10699
100
AcDbEntity
8
Geo
100
AcDbLine
10
-92.3638297872341
20
-4.26095281979957
30
0.000000000000000
11
-92.2638297872341
21
-4.36647898830244
31
0.000000000000000
  0
LINE
  5
F1069A
330
F1069B
100
AcDbEntity
8
Geo
100
AcDbLine
10
-92.2638297872341
20
-0.471777491378136
30
0.000000000000000
11
-92.1638297872341
21
-0.519006049942468
31
0.000000000000000
  0
LINE
  5
F1069C
330
F1069D
100
AcDbEntity
8
Geo
100
AcDbLine
10
-92.2638297872341
20
-4.36647898830244
30
0.000000000000000
11
-92.1638297872341
21
-4.47026464632632
31
0.000000000000000
  0
LINE
  5
F1069E
330
F1069F
100
AcDbEntity
8
Geo
100
AcDbLine
10
-92.1638297872341
20
-0.519006049942468
30
0.000000000000000
11
-92.0638297872341
21
-0.570193354272492
31
0.000000000000000
  0
LINE
  5
F106A0
330
F106A1
100
AcDbEntity
8
Geo
100
AcDbLine
10
-92.1638297872341
20
-4.47026464632632
30
0.000000000000000
11
-92.0638297872341
21
-4.57215605632216
31
0.000000000000000
  0
LINE
  5
F106A2
330
F106A3
100
AcDbEntity
8
Geo
100
AcDbLine
10
-92.0638297872341
20
-0.570193354272492
30
0.000000000000000
11
-91.9638297872341
21
-0.625263580686394
31
0.000000000000000
  0
LINE
  5
F106A4
330
F106A5
100
AcDbEntity
8
Geo
100
AcDbLine
10
-92.0638297872341
20
-4.57215605632216
30
0.000000000000000
11
-91.9638297872341
21
-4.67200228668784
31
0.000000000000000
  0
LINE
  5
F106A6
330
F106A7
100
AcDbEntity
8
Geo
100
AcDbLine
10
-91.9638297872341
20
-0.625263580686394
30
0.000000000000000
11
-91.8638297872341
21
-0.684135153735354
31
0.000000000000000
  0
LINE
  5
F106A8
330
F106A9
100
AcDbEntity
8
Geo
100
AcDbLine
10
-91.9638297872341
20
-4.67200228668784
30
0.000000000000000
11
-91.8638297872341
21
-4.76965543534294
31
0.000000000000000
  0
LINE
  5
F106AA
330
F106AB
100
AcDbEntity
8
Geo
100
AcDbLine
10
-91.8638297872341
20
-0.684135153735354
30
0.000000000000000
11
-91.7638297872341
21
-0.746720867041129
31
0.000000000000000
  0
LINE
  5
F106AC
330
F106AD
100
AcDbEntity
8
Geo
100
AcDbLine
10
-91.8638297872341
20
-4.76965543534294
30
0.000000000000000
11
-91.7638297872341
21
-4.86497084881591
31
0.000000000000000
  0
LINE
  5
F106AE
330
F106AF
100
AcDbEntity
8
Geo
100
AcDbLine
10
-91.7638297872341
20
-0.746720867041129
30
0.000000000000000
11
-91.6638297872341
21
-0.812928012474747
31
0.000000000000000
  0
LINE
  5
F106B0
330
F106B1
100
AcDbEntity
8
Geo
100
AcDbLine
10
-91.7638297872341
20
-4.86497084881591
30
0.000000000000000
11
-91.6638297872341
21
-4.95780733651900
31
0.000000000000000
  0
LINE
  5
F106B2
330
F106B3
100
AcDbEntity
8
Geo
100
AcDbLine
10
-91.6638297872341
20
-0.812928012474747
30
0.000000000000000
11
-91.5638297872341
21
-0.882658517484928
31
0.000000000000000
  0
LINE
  5
F106B4
330
F106B5
100
AcDbEntity
8
Geo
100
AcDbLine
10
-91.6638297872341
20
-4.95780733651900
30
0.000000000000000
11
-91.5638297872341
21
-5.04802737989374
31
0.000000000000000
  0
LINE
  5
F106B6
330
F106B7
100
AcDbEntity
8
Geo
100
AcDbLine
10
-91.5638297872341
20
-0.882658517484928
30
0.000000000000000
11
-91.4638297872341
21
-0.955809090372809
31
0.000000000000000
  0
LINE
  5
F106B8
330
F106B9
100
AcDbEntity
8
Geo
100
AcDbLine
10
-91.5638297872341
20
-5.04802737989374
30
0.000000000000000
11
-91.4638297872341
21
-5.13549733611695
31
0.000000000000000
  0
LINE
  5
F106BA
330
F106BB
100
AcDbEntity
8
Geo
100
AcDbLine
10
-91.4638297872341
20
-0.955809090372809
30
0.000000000000000
11
-91.3638297872341
21
-1.03227137329780
31
0.000000000000000
  0
LINE
  5
F106BC
330
F106BD
100
AcDbEntity
8
Geo
100
AcDbLine
10
-91.4638297872341
20
-5.13549733611695
30
0.000000000000000
11
-91.3638297872341
21
-5.22008763606567
31
0.000000000000000
  0
LINE
  5
F106BE
330
F106BF
100
AcDbEntity
8
Geo
100
AcDbLine
10
-91.3638297872341
20
-1.03227137329780
30
0.000000000000000
11
-91.2638297872341
21
-1.11193210278789
31
0.000000000000000
  0
LINE
  5
F106C0
330
F106C1
100
AcDbEntity
8
Geo
100
AcDbLine
10
-91.3638297872341
20
-5.22008763606567
30
0.000000000000000
11
-91.2638297872341
21
-5.30167297624772
31
0.000000000000000
  0
LINE
  5
F106C2
330
F106C3
100
AcDbEntity
8
Geo
100
AcDbLine
10
-91.2638297872341
20
-1.11193210278789
30
0.000000000000000
11
-91.1638297872341
21
-1.19467327751670
31
0.000000000000000
  0
LINE
  5
F106C4
330
F106C5
100
AcDbEntity
8
Geo
100
AcDbLine
10
-91.2638297872341
20
-5.30167297624772
30
0.000000000000000
11
-91.1638297872341
21
-5.38013250441359
31
0.000000000000000
  0
LINE
  5
F106C6
330
F106C7
100
AcDbEntity
8
Geo
100
AcDbLine
10
-91.1638297872341
20
-1.19467327751670
30
0.000000000000000
11
-91.0638297872341
21
-1.28037233309862
31
0.000000000000000
  0
LINE
  5
F106C8
330
F106C9
100
AcDbEntity
8
Geo
100
AcDbLine
10
-91.1638297872341
20
-5.38013250441359
30
0.000000000000000
11
-91.0638297872341
21
-5.45534999857474
31
0.000000000000000
  0
LINE
  5
F106CA
330
F106CB
100
AcDbEntity
8
Geo
100
AcDbLine
10
-91.0638297872341
20
-1.28037233309862
30
0.000000000000000
11
-90.9638297872341
21
-1.36890232364333
31
0.000000000000000
  0
LINE
  5
F106CC
330
F106CD
100
AcDbEntity
8
Geo
100
AcDbLine
10
-91.0638297872341
20
-5.45534999857474
30
0.000000000000000
11
-90.9638297872341
21
-5.52721403916298
31
0.000000000000000
  0
LINE
  5
F106CE
330
F106CF
100
AcDbEntity
8
Geo
100
AcDbLine
10
-90.9638297872341
20
-1.36890232364333
30
0.000000000000000
11
-90.8638297872341
21
-1.46013210980052
31
0.000000000000000
  0
LINE
  5
F106D0
330
F106D1
100
AcDbEntity
8
Geo
100
AcDbLine
10
-90.9638297872341
20
-5.52721403916298
30
0.000000000000000
11
-90.8638297872341
21
-5.59561817407622
31
0.000000000000000
  0
LINE
  5
F106D2
330
F106D3
100
AcDbEntity
8
Geo
100
AcDbLine
10
-90.8638297872341
20
-1.46013210980052
30
0.000000000000000
11
-90.7638297872341
21
-1.55392655301645
31
0.000000000000000
  0
LINE
  5
F106D4
330
F106D5
100
AcDbEntity
8
Geo
100
AcDbLine
10
-90.8638297872341
20
-5.59561817407622
30
0.000000000000000
11
-90.7638297872341
21
-5.66046107636575
31
0.000000000000000
  0
LINE
  5
F106D6
330
F106D7
100
AcDbEntity
8
Geo
100
AcDbLine
10
-90.7638297872341
20
-1.55392655301645
30
0.000000000000000
11
-90.6638297872341
21
-1.65014671571448
31
0.000000000000000
  0
LINE
  5
F106D8
330
F106D9
100
AcDbEntity
8
Geo
100
AcDbLine
10
-90.7638297872341
20
-5.66046107636575
30
0.000000000000000
11
-90.6638297872341
21
-5.72164669433173
31
0.000000000000000
  0
LINE
  5
F106DA
330
F106DB
100
AcDbEntity
8
Geo
100
AcDbLine
10
-90.6638297872341
20
-1.65014671571448
30
0.000000000000000
11
-90.5638297872341
21
-1.74865006710313
31
0.000000000000000
  0
LINE
  5
F106DC
330
F106DD
100
AcDbEntity
8
Geo
100
AcDbLine
10
-90.6638297872341
20
-5.72164669433173
30
0.000000000000000
11
-90.5638297872341
21
-5.77908439380445
31
0.000000000000000
  0
LINE
  5
F106DE
330
F106DF
100
AcDbEntity
8
Geo
100
AcDbLine
10
-90.5638297872341
20
-1.74865006710313
30
0.000000000000000
11
-90.4638297872341
21
-1.84929069430673
31
0.000000000000000
  0
LINE
  5
F106E0
330
F106E1
100
AcDbEntity
8
Geo
100
AcDbLine
10
-90.5638297872341
20
-5.77908439380445
30
0.000000000000000
11
-90.4638297872341
21
-5.83268909240058
31
0.000000000000000
  0
LINE
  5
F106E2
330
F106E3
100
AcDbEntity
8
Geo
100
AcDbLine
10
-90.4638297872341
20
-1.84929069430673
30
0.000000000000000
11
-90.3638297872341
21
-1.95191951850594
31
0.000000000000000
  0
LINE
  5
F106E4
330
F106E5
100
AcDbEntity
8
Geo
100
AcDbLine
10
-90.4638297872341
20
-5.83268909240058
30
0.000000000000000
11
-90.3638297872341
21
-5.88238138555558
31
0.000000000000000
  0
LINE
  5
F106E6
330
F106E7
100
AcDbEntity
8
Geo
100
AcDbLine
10
-90.3638297872341
20
-1.95191951850594
30
0.000000000000000
11
-90.2638297872341
21
-2.05638451576802
31
0.000000000000000
  0
LINE
  5
F106E8
330
F106E9
100
AcDbEntity
8
Geo
100
AcDbLine
10
-90.3638297872341
20
-5.88238138555558
30
0.000000000000000
11
-90.2638297872341
21
-5.92808766414559
31
0.000000000000000
  0
LINE
  5
F106EA
330
F106EB
100
AcDbEntity
8
Geo
100
AcDbLine
10
-90.2638297872341
20
-2.05638451576802
30
0.000000000000000
11
-90.1638297872341
21
-2.16253094223966
31
0.000000000000000
  0
LINE
  5
F106EC
330
F106ED
100
AcDbEntity
8
Geo
100
AcDbLine
10
-90.2638297872341
20
-5.92808766414559
30
0.000000000000000
11
-90.1638297872341
21
-5.96974022352452
31
0.000000000000000
  0
LINE
  5
F106EE
330
F106EF
100
AcDbEntity
8
Geo
100
AcDbLine
10
-90.1638297872341
20
-2.16253094223966
30
0.000000000000000
11
-90.0638297872341
21
-2.27020156336884
31
0.000000000000000
  0
LINE
  5
F106F0
330
F106F1
100
AcDbEntity
8
Geo
100
AcDbLine
10
-90.1638297872341
20
-5.96974022352452
30
0.000000000000000
11
-90.0638297872341
21
-6.00727736381481
31
0.000000000000000
  0
LINE
  5
F106F2
330
F106F3
100
AcDbEntity
8
Geo
100
AcDbLine
10
-90.0638297872341
20
-2.27020156336884
30
0.000000000000000
11
-89.9638297872341
21
-2.37923688681611
31
0.000000000000000
  0
LINE
  5
F106F4
330
F106F5
100
AcDbEntity
8
Geo
100
AcDbLine
10
-90.0638297872341
20
-6.00727736381481
30
0.000000000000000
11
-89.9638297872341
21
-6.04064348130343
31
0.000000000000000
  0
LINE
  5
F106F6
330
F106F7
100
AcDbEntity
8
Geo
100
AcDbLine
10
-89.9638297872341
20
-2.37923688681611
30
0.000000000000000
11
-89.8638297872341
21
-2.48947539871042
31
0.000000000000000
  0
LINE
  5
F106F8
330
F106F9
100
AcDbEntity
8
Geo
100
AcDbLine
10
-89.9638297872341
20
-6.04064348130343
30
0.000000000000000
11
-89.8638297872341
21
-6.06978915080753
31
0.000000000000000
  0
LINE
  5
F106FA
330
F106FB
100
AcDbEntity
8
Geo
100
AcDbLine
10
-89.8638297872341
20
-2.48947539871042
30
0.000000000000000
11
-89.7638297872341
21
-2.60075380289937
31
0.000000000000000
  0
LINE
  5
F106FC
330
F106FD
100
AcDbEntity
8
Geo
100
AcDbLine
10
-89.8638297872341
20
-6.06978915080753
30
0.000000000000000
11
-89.7638297872341
21
-6.09467119888793
31
0.000000000000000
  0
LINE
  5
F106FE
330
F106FF
100
AcDbEntity
8
Geo
100
AcDbLine
10
-89.7638297872341
20
-2.60075380289937
30
0.000000000000000
11
-89.6638297872341
21
-2.71290726283956
31
0.000000000000000
  0
LINE
  5
F10700
330
F10701
100
AcDbEntity
8
Geo
100
AcDbLine
10
-89.7638297872341
20
-6.09467119888793
30
0.000000000000000
11
-89.6638297872341
21
-6.11525276780185
31
0.000000000000000
  0
LINE
  5
F10702
330
F10703
100
AcDbEntity
8
Geo
100
AcDbLine
10
-89.6638297872341
20
-2.71290726283956
30
0.000000000000000
11
-89.5638297872341
21
-2.82576964576875
31
0.000000000000000
  0
LINE
  5
F10704
330
F10705
100
AcDbEntity
8
Geo
100
AcDbLine
10
-89.6638297872341
20
-6.11525276780185
30
0.000000000000000
11
-89.5638297872341
21
-6.13150337010024
31
0.000000000000000
  0
LINE
  5
F10706
330
F10707
100
AcDbEntity
8
Geo
100
AcDbLine
10
-89.5638297872341
20
-2.82576964576875
30
0.000000000000000
11
-89.4638297872341
21
-2.93917376879806
31
0.000000000000000
  0
LINE
  5
F10708
330
F10709
100
AcDbEntity
8
Geo
100
AcDbLine
10
-89.5638297872341
20
-6.13150337010024
30
0.000000000000000
11
-89.4638297872341
21
-6.14339893378881
31
0.000000000000000
  0
LINE
  5
F1070A
330
F1070B
100
AcDbEntity
8
Geo
100
AcDbLine
10
-89.4638297872341
20
-2.93917376879806
30
0.000000000000000
11
-89.3638297872341
21
-3.05295164655976
31
0.000000000000000
  0
LINE
  5
F1070C
330
F1070D
100
AcDbEntity
8
Geo
100
AcDbLine
10
-89.4638297872341
20
-6.14339893378881
30
0.000000000000000
11
-89.3638297872341
21
-6.15092183798582
31
0.000000000000000
  0
LINE
  5
F1070E
330
F1070F
100
AcDbEntity
8
Geo
100
AcDbLine
10
-89.3638297872341
20
-3.05295164655976
30
0.000000000000000
11
-89.2638297872341
21
-3.16693474004379
31
0.000000000000000
  0
LINE
  5
F10710
330
F10711
100
AcDbEntity
8
Geo
100
AcDbLine
10
-89.3638297872341
20
-6.15092183798582
30
0.000000000000000
11
-89.2638297872341
21
-6.15406093902388
31
0.000000000000000
  0
LINE
  5
F10712
330
F10713
100
AcDbEntity
8
Geo
100
AcDbLine
10
-89.2638297872341
20
-3.16693474004379
30
0.000000000000000
11
-89.1638297872341
21
-3.28095420625429
31
0.000000000000000
  0
LINE
  5
F10714
330
F10715
100
AcDbEntity
8
Geo
100
AcDbLine
10
-89.1638297872341
20
-3.28095420625429
30
0.000000000000000
11
-89.0638297872341
21
-3.39484114831656
31
0.000000000000000
  0
LINE
  5
F10716
330
F10717
100
AcDbEntity
8
Geo
100
AcDbLine
10
-89.1638297872341
20
-0.230167136447200
30
0.000000000000000
11
-89.0638297872341
21
-0.235803090955475
31
0.000000000000000
  0
LINE
  5
F10718
330
F10719
100
AcDbEntity
8
Geo
100
AcDbLine
10
-89.0638297872341
20
-3.39484114831656
30
0.000000000000000
11
-88.9638297872341
21
-3.50842686566373
31
0.000000000000000
  0
LINE
  5
F1071A
330
F1071B
100
AcDbEntity
8
Geo
100
AcDbLine
10
-89.0638297872341
20
-0.235803090955475
30
0.000000000000000
11
-88.9638297872341
21
-0.245817299373714
31
0.000000000000000
  0
LINE
  5
F1071C
330
F1071D
100
AcDbEntity
8
Geo
100
AcDbLine
10
-88.9638297872341
20
-3.50842686566373
30
0.000000000000000
11
-88.8638297872341
21
-3.62154310393267
31
0.000000000000000
  0
LINE
  5
F1071E
330
F1071F
100
AcDbEntity
8
Geo
100
AcDbLine
10
-88.9638297872341
20
-0.245817299373714
30
0.000000000000000
11
-88.8638297872341
21
-0.260194927669094
31
0.000000000000000
  0
LINE
  5
F10720
330
F10721
100
AcDbEntity
8
Geo
100
AcDbLine
10
-88.8638297872341
20
-3.62154310393267
30
0.000000000000000
11
-88.7638297872341
21
-3.73402230419894
31
0.000000000000000
  0
LINE
  5
F10722
330
F10723
100
AcDbEntity
8
Geo
100
AcDbLine
10
-88.8638297872341
20
-0.260194927669094
30
0.000000000000000
11
-88.7638297872341
21
-0.278914678281068
31
0.000000000000000
  0
LINE
  5
F10724
330
F10725
100
AcDbEntity
8
Geo
100
AcDbLine
10
-88.7638297872341
20
-3.73402230419894
30
0.000000000000000
11
-88.6638297872341
21
-3.84569785118162
31
0.000000000000000
  0
LINE
  5
F10726
330
F10727
100
AcDbEntity
8
Geo
100
AcDbLine
10
-88.7638297872341
20
-0.278914678281068
30
0.000000000000000
11
-88.6638297872341
21
-0.301948821669421
31
0.000000000000000
  0
LINE
  5
F10728
330
F10729
100
AcDbEntity
8
Geo
100
AcDbLine
10
-88.6638297872341
20
-3.84569785118162
30
0.000000000000000
11
-88.5638297872341
21
-3.95640432005024
31
0.000000000000000
  0
LINE
  5
F1072A
330
F1072B
100
AcDbEntity
8
Geo
100
AcDbLine
10
-88.6638297872341
20
-0.301948821669421
30
0.000000000000000
11
-88.5638297872341
21
-0.329263237389996
31
0.000000000000000
  0
LINE
  5
F1072C
330
F1072D
100
AcDbEntity
8
Geo
100
AcDbLine
10
-88.5638297872341
20
-3.95640432005024
30
0.000000000000000
11
-88.4638297872341
21
-4.06597772146839
31
0.000000000000000
  0
LINE
  5
F1072E
330
F1072F
100
AcDbEntity
8
Geo
100
AcDbLine
10
-88.5638297872341
20
-0.329263237389996
30
0.000000000000000
11
-88.4638297872341
21
-0.360817464637254
31
0.000000000000000
  0
LINE
  5
F10730
330
F10731
100
AcDbEntity
8
Geo
100
AcDbLine
10
-88.4638297872341
20
-4.06597772146839
30
0.000000000000000
11
-88.3638297872341
21
-4.17425574451088
31
0.000000000000000
  0
LINE
  5
F10732
330
F10733
100
AcDbEntity
8
Geo
100
AcDbLine
10
-88.4638297872341
20
-0.360817464637254
30
0.000000000000000
11
-88.3638297872341
21
-0.396564762178816
31
0.000000000000000
  0
LINE
  5
F10734
330
F10735
100
AcDbEntity
8
Geo
100
AcDbLine
10
-88.3638297872341
20
-4.17425574451088
30
0.000000000000000
11
-88.2638297872341
21
-4.28107799709467
31
0.000000000000000
  0
LINE
  5
F10736
330
F10737
100
AcDbEntity
8
Geo
100
AcDbLine
10
-88.3638297872341
20
-0.396564762178816
30
0.000000000000000
11
-88.2638297872341
21
-0.436452177593183
31
0.000000000000000
  0
LINE
  5
F10738
330
F10739
100
AcDbEntity
8
Geo
100
AcDbLine
10
-88.2638297872341
20
-4.28107799709467
30
0.000000000000000
11
-88.1638297872341
21
-4.38628624356748
31
0.000000000000000
  0
LINE
  5
F1073A
330
F1073B
100
AcDbEntity
8
Geo
100
AcDbLine
10
-88.2638297872341
20
-0.436452177593183
30
0.000000000000000
11
-88.1638297872341
21
-0.480420625708080
31
0.000000000000000
  0
LINE
  5
F1073C
330
F1073D
100
AcDbEntity
8
Geo
100
AcDbLine
10
-88.1638297872341
20
-4.38628624356748
30
0.000000000000000
11
-88.0638297872341
21
-4.48972463910197
31
0.000000000000000
  0
LINE
  5
F1073E
330
F1073F
100
AcDbEntity
8
Geo
100
AcDbLine
10
-88.1638297872341
20
-0.480420625708080
30
0.000000000000000
11
-88.0638297872341
21
-0.528404976123239
31
0.000000000000000
  0
LINE
  5
F10740
330
F10741
100
AcDbEntity
8
Geo
100
AcDbLine
10
-88.0638297872341
20
-4.48972463910197
30
0.000000000000000
11
-87.9638297872341
21
-4.59123996054853
31
0.000000000000000
  0
LINE
  5
F10742
330
F10743
100
AcDbEntity
8
Geo
100
AcDbLine
10
-88.0638297872341
20
-0.528404976123239
30
0.000000000000000
11
-87.9638297872341
21
-0.580334149687975
31
0.000000000000000
  0
LINE
  5
F10744
330
F10745
100
AcDbEntity
8
Geo
100
AcDbLine
10
-87.9638297872341
20
-4.59123996054853
30
0.000000000000000
11
-87.8638297872341
21
-4.69068183340448
31
0.000000000000000
  0
LINE
  5
F10746
330
F10747
100
AcDbEntity
8
Geo
100
AcDbLine
10
-87.9638297872341
20
-0.580334149687975
30
0.000000000000000
11
-87.8638297872341
21
-0.636131223790627
31
0.000000000000000
  0
LINE
  5
F10748
330
F10749
100
AcDbEntity
8
Geo
100
AcDbLine
10
-87.8638297872341
20
-4.69068183340448
30
0.000000000000000
11
-87.7638297872341
21
-4.78790295456361
31
0.000000000000000
  0
LINE
  5
F1074A
330
F1074B
100
AcDbEntity
8
Geo
100
AcDbLine
10
-87.8638297872341
20
-0.636131223790627
30
0.000000000000000
11
-87.7638297872341
21
-0.695713546303910
31
0.000000000000000
  0
LINE
  5
F1074C
330
F1074D
100
AcDbEntity
8
Geo
100
AcDbLine
10
-87.7638297872341
20
-4.78790295456361
30
0.000000000000000
11
-87.6638297872341
21
-4.88275931051607
31
0.000000000000000
  0
LINE
  5
F1074E
330
F1074F
100
AcDbEntity
8
Geo
100
AcDbLine
10
-87.7638297872341
20
-0.695713546303910
30
0.000000000000000
11
-87.6638297872341
21
-0.758992858017403
31
0.000000000000000
  0
LINE
  5
F10750
330
F10751
100
AcDbEntity
8
Geo
100
AcDbLine
10
-87.6638297872341
20
-4.88275931051607
30
0.000000000000000
11
-87.5638297872341
21
-4.97511039067541
31
0.000000000000000
  0
LINE
  5
F10752
330
F10753
100
AcDbEntity
8
Geo
100
AcDbLine
10
-87.6638297872341
20
-0.758992858017403
30
0.000000000000000
11
-87.5638297872341
21
-0.825875423375792
31
0.000000000000000
  0
LINE
  5
F10754
330
F10755
100
AcDbEntity
8
Geo
100
AcDbLine
10
-87.5638297872341
20
-4.97511039067541
30
0.000000000000000
11
-87.4638297872341
21
-5.06481939551664
31
0.000000000000000
  0
LINE
  5
F10756
330
F10757
100
AcDbEntity
8
Geo
100
AcDbLine
10
-87.5638297872341
20
-0.825875423375792
30
0.000000000000000
11
-87.4638297872341
21
-0.896262169329210
31
0.000000000000000
  0
LINE
  5
F10758
330
F10759
100
AcDbEntity
8
Geo
100
AcDbLine
10
-87.4638297872341
20
-5.06481939551664
30
0.000000000000000
11
-87.3638297872341
21
-5.15175343921724
31
0.000000000000000
  0
LINE
  5
F1075A
330
F1075B
100
AcDbEntity
8
Geo
100
AcDbLine
10
-87.4638297872341
20
-0.896262169329210
30
0.000000000000000
11
-87.3638297872341
21
-0.970048832090014
31
0.000000000000000
  0
LINE
  5
F1075C
330
F1075D
100
AcDbEntity
8
Geo
100
AcDbLine
10
-87.3638297872341
20
-5.15175343921724
30
0.000000000000000
11
-87.2638297872341
21
-5.23578374650073
31
0.000000000000000
  0
LINE
  5
F1075E
330
F1075F
100
AcDbEntity
8
Geo
100
AcDbLine
10
-87.3638297872341
20
-0.970048832090014
30
0.000000000000000
11
-87.2638297872341
21
-1.04712611157858
31
0.000000000000000
  0
LINE
  5
F10760
330
F10761
100
AcDbEntity
8
Geo
100
AcDbLine
10
-87.2638297872341
20
-5.23578374650073
30
0.000000000000000
11
-87.1638297872341
21
-5.31678584339127
31
0.000000000000000
  0
LINE
  5
F10762
330
F10763
100
AcDbEntity
8
Geo
100
AcDbLine
10
-87.2638297872341
20
-1.04712611157858
30
0.000000000000000
11
-87.1638297872341
21
-1.12737983332935
31
0.000000000000000
  0
LINE
  5
F10764
330
F10765
100
AcDbEntity
8
Geo
100
AcDbLine
10
-87.1638297872341
20
-5.31678584339127
30
0.000000000000000
11
-87.0638297872341
21
-5.39463974159682
31
0.000000000000000
  0
LINE
  5
F10766
330
F10767
100
AcDbEntity
8
Geo
100
AcDbLine
10
-87.1638297872341
20
-1.12737983332935
30
0.000000000000000
11
-87.0638297872341
21
-1.21069111761734
31
0.000000000000000
  0
LINE
  5
F10768
330
F10769
100
AcDbEntity
8
Geo
100
AcDbLine
10
-87.0638297872341
20
-5.39463974159682
30
0.000000000000000
11
-86.9638297872341
21
-5.46923011624763
31
0.000000000000000
  0
LINE
  5
F1076A
330
F1076B
100
AcDbEntity
8
Geo
100
AcDbLine
10
-87.0638297872341
20
-1.21069111761734
30
0.000000000000000
11
-86.9638297872341
21
-1.29693655555446
31
0.000000000000000
  0
LINE
  5
F1076C
330
F1076D
100
AcDbEntity
8
Geo
100
AcDbLine
10
-86.9638297872341
20
-5.46923011624763
30
0.000000000000000
11
-86.8638297872341
21
-5.54044647672679
31
0.000000000000000
  0
LINE
  5
F1076E
330
F1076F
100
AcDbEntity
8
Geo
100
AcDbLine
10
-86.9638297872341
20
-1.29693655555446
30
0.000000000000000
11
-86.8638297872341
21
-1.38598839189498
31
0.000000000000000
  0
LINE
  5
F10770
330
F10771
100
AcDbEntity
8
Geo
100
AcDbLine
10
-86.8638297872341
20
-5.54044647672679
30
0.000000000000000
11
-86.7638297872341
21
-5.60818333033981
31
0.000000000000000
  0
LINE
  5
F10772
330
F10773
100
AcDbEntity
8
Geo
100
AcDbLine
10
-86.8638297872341
20
-1.38598839189498
30
0.000000000000000
11
-86.7638297872341
21
-1.47771471427914
31
0.000000000000000
  0
LINE
  5
F10774
330
F10775
100
AcDbEntity
8
Geo
100
AcDbLine
10
-86.7638297872341
20
-5.60818333033981
30
0.000000000000000
11
-86.6638297872341
21
-5.67234033858084
31
0.000000000000000
  0
LINE
  5
F10776
330
F10777
100
AcDbEntity
8
Geo
100
AcDbLine
10
-86.7638297872341
20
-1.47771471427914
30
0.000000000000000
11
-86.6638297872341
21
-1.57197964863479
31
0.000000000000000
  0
LINE
  5
F10778
330
F10779
100
AcDbEntity
8
Geo
100
AcDbLine
10
-86.6638297872341
20
-5.67234033858084
30
0.000000000000000
11
-86.5638297872341
21
-5.73282246576394
31
0.000000000000000
  0
LINE
  5
F1077A
330
F1077B
100
AcDbEntity
8
Geo
100
AcDbLine
10
-86.6638297872341
20
-1.57197964863479
30
0.000000000000000
11
-86.5638297872341
21
-1.66864356044743
31
0.000000000000000
  0
LINE
  5
F1077C
330
F1077D
100
AcDbEntity
8
Geo
100
AcDbLine
10
-86.5638297872341
20
-5.73282246576394
30
0.000000000000000
11
-86.4638297872341
21
-5.78954011979930
31
0.000000000000000
  0
LINE
  5
F1077E
330
F1077F
100
AcDbEntity
8
Geo
100
AcDbLine
10
-86.5638297872341
20
-1.66864356044743
30
0.000000000000000
11
-86.4638297872341
21
-1.76756326160064
31
0.000000000000000
  0
LINE
  5
F10780
330
F10781
100
AcDbEntity
8
Geo
100
AcDbLine
10
-86.4638297872341
20
-5.78954011979930
30
0.000000000000000
11
-86.3638297872341
21
-5.84240928490587
31
0.000000000000000
  0
LINE
  5
F10782
330
F10783
100
AcDbEntity
8
Geo
100
AcDbLine
10
-86.4638297872341
20
-1.76756326160064
30
0.000000000000000
11
-86.3638297872341
21
-1.86859222248042
31
0.000000000000000
  0
LINE
  5
F10784
330
F10785
100
AcDbEntity
8
Geo
100
AcDbLine
10
-86.3638297872341
20
-5.84240928490587
30
0.000000000000000
11
-86.2638297872341
21
-5.89135164606385
31
0.000000000000000
  0
LINE
  5
F10786
330
F10787
100
AcDbEntity
8
Geo
100
AcDbLine
10
-86.3638297872341
20
-1.86859222248042
30
0.000000000000000
11
-86.2638297872341
21
-1.97158078902932
31
0.000000000000000
  0
LINE
  5
F10788
330
F10789
100
AcDbEntity
8
Geo
100
AcDbLine
10
-86.2638297872341
20
-5.89135164606385
30
0.000000000000000
11
-86.1638297872341
21
-5.93629470502259
31
0.000000000000000
  0
LINE
  5
F1078A
330
F1078B
100
AcDbEntity
8
Geo
100
AcDbLine
10
-86.2638297872341
20
-1.97158078902932
30
0.000000000000000
11
-86.1638297872341
21
-2.07637640442876
31
0.000000000000000
  0
LINE
  5
F1078C
330
F1078D
100
AcDbEntity
8
Geo
100
AcDbLine
10
-86.1638297872341
20
-5.93629470502259
30
0.000000000000000
11
-86.0638297872341
21
-5.97717188769214
31
0.000000000000000
  0
LINE
  5
F1078E
330
F1078F
100
AcDbEntity
8
Geo
100
AcDbLine
10
-86.1638297872341
20
-2.07637640442876
30
0.000000000000000
11
-86.0638297872341
21
-2.18282383508124
31
0.000000000000000
  0
LINE
  5
F10790
330
F10791
100
AcDbEntity
8
Geo
100
AcDbLine
10
-86.0638297872341
20
-5.97717188769214
30
0.000000000000000
11
-85.9638297872341
21
-6.01392264275940
31
0.000000000000000
  0
LINE
  5
F10792
330
F10793
100
AcDbEntity
8
Geo
100
AcDbLine
10
-86.0638297872341
20
-2.18282383508124
30
0.000000000000000
11
-85.9638297872341
21
-2.29076540055766
31
0.000000000000000
  0
LINE
  5
F10794
330
F10795
100
AcDbEntity
8
Geo
100
AcDbLine
10
-85.9638297872341
20
-6.01392264275940
30
0.000000000000000
11
-85.8638297872341
21
-6.04649253138265
31
0.000000000000000
  0
LINE
  5
F10796
330
F10797
100
AcDbEntity
8
Geo
100
AcDbLine
10
-85.9638297872341
20
-2.29076540055766
30
0.000000000000000
11
-85.8638297872341
21
-2.40004120716912
31
0.000000000000000
  0
LINE
  5
F10798
330
F10799
100
AcDbEntity
8
Geo
100
AcDbLine
10
-85.8638297872341
20
-6.04649253138265
30
0.000000000000000
11
-85.7638297872341
21
-6.07483330783173
31
0.000000000000000
  0
LINE
  5
F1079A
330
F1079B
100
AcDbEntity
8
Geo
100
AcDbLine
10
-85.8638297872341
20
-2.40004120716912
30
0.000000000000000
11
-85.7638297872341
21
-2.51048938481718
31
0.000000000000000
  0
LINE
  5
F1079C
330
F1079D
100
AcDbEntity
8
Geo
100
AcDbLine
10
-85.7638297872341
20
-6.07483330783173
30
0.000000000000000
11
-85.6638297872341
21
-6.09890299095441
31
0.000000000000000
  0
LINE
  5
F1079E
330
F1079F
100
AcDbEntity
8
Geo
100
AcDbLine
10
-85.7638297872341
20
-2.51048938481718
30
0.000000000000000
11
-85.6638297872341
21
-2.62194632677186
31
0.000000000000000
  0
LINE
  5
F107A0
330
F107A1
100
AcDbEntity
8
Geo
100
AcDbLine
10
-85.6638297872341
20
-6.09890299095441
30
0.000000000000000
11
-85.5638297872341
21
-6.11866592636298
31
0.000000000000000
  0
LINE
  5
F107A2
330
F107A3
100
AcDbEntity
8
Geo
100
AcDbLine
10
-85.6638297872341
20
-2.62194632677186
30
0.000000000000000
11
-85.5638297872341
21
-2.73424693202201
31
0.000000000000000
  0
LINE
  5
F107A4
330
F107A5
100
AcDbEntity
8
Geo
100
AcDbLine
10
-85.5638297872341
20
-6.11866592636298
30
0.000000000000000
11
-85.4638297872341
21
-6.13409283924907
31
0.000000000000000
  0
LINE
  5
F107A6
330
F107A7
100
AcDbEntity
8
Geo
100
AcDbLine
10
-85.5638297872341
20
-2.73424693202201
30
0.000000000000000
11
-85.4638297872341
21
-2.84722484983926
31
0.000000000000000
  0
LINE
  5
F107A8
330
F107A9
100
AcDbEntity
8
Geo
100
AcDbLine
10
-85.4638297872341
20
-6.13409283924907
30
0.000000000000000
11
-85.3638297872341
21
-6.14516087774832
31
0.000000000000000
  0
LINE
  5
F107AA
330
F107AB
100
AcDbEntity
8
Geo
100
AcDbLine
10
-85.4638297872341
20
-2.84722484983926
30
0.000000000000000
11
-85.3638297872341
21
-2.96071272619305
31
0.000000000000000
  0
LINE
  5
F107AC
330
F107AD
100
AcDbEntity
8
Geo
100
AcDbLine
10
-85.3638297872341
20
-6.14516087774832
30
0.000000000000000
11
-85.2638297872341
21
-6.15185364679091
31
0.000000000000000
  0
LINE
  5
F107AE
330
F107AF
100
AcDbEntity
8
Geo
100
AcDbLine
10
-85.3638297872341
20
-2.96071272619305
30
0.000000000000000
11
-85.2638297872341
21
-3.07454245165199
31
0.000000000000000
  0
LINE
  5
F107B0
330
F107B1
100
AcDbEntity
8
Geo
100
AcDbLine
10
-85.2638297872341
20
-6.15185364679091
30
0.000000000000000
11
-85.1638297872341
21
-6.15416123238748
31
0.000000000000000
  0
LINE
  5
F107B2
330
F107B3
100
AcDbEntity
8
Geo
100
AcDbLine
10
-85.2638297872341
20
-3.07454245165199
30
0.000000000000000
11
-85.1638297872341
21
-3.18854541040407
31
0.000000000000000
  0
LINE
  5
F107B4
330
F107B5
100
AcDbEntity
8
Geo
100
AcDbLine
10
-85.1638297872341
20
-3.18854541040407
30
0.000000000000000
11
-85.0638297872341
21
-3.30255273002707
31
0.000000000000000
  0
LINE
  5
F107B6
330
F107B7
100
AcDbEntity
8
Geo
100
AcDbLine
10
-85.0638297872341
20
-0.230898507089512
30
0.000000000000000
11
-84.9638297872341
21
-0.237365042225394
31
0.000000000000000
  0
LINE
  5
F107B8
330
F107B9
100
AcDbEntity
8
Geo
100
AcDbLine
10
-85.0638297872341
20
-3.30255273002707
30
0.000000000000000
11
-84.9638297872341
21
-3.41639553163899
31
0.000000000000000
  0
LINE
  5
F107BA
330
F107BB
100
AcDbEntity
8
Geo
100
AcDbLine
10
-84.9638297872341
20
-0.237365042225394
30
0.000000000000000
11
-84.8638297872341
21
-0.248207517555024
31
0.000000000000000
  0
LINE
  5
F107BC
330
F107BD
100
AcDbEntity
8
Geo
100
AcDbLine
10
-84.9638297872341
20
-3.41639553163899
30
0.000000000000000
11
-84.8638297872341
21
-3.52990518005815
31
0.000000000000000
  0
LINE
  5
F107BE
330
F107BF
100
AcDbEntity
8
Geo
100
AcDbLine
10
-84.8638297872341
20
-0.248207517555024
30
0.000000000000000
11
-84.7638297872341
21
-0.263409872134969
31
0.000000000000000
  0
LINE
  5
F107C0
330
F107C1
100
AcDbEntity
8
Geo
100
AcDbLine
10
-84.8638297872341
20
-3.52990518005815
30
0.000000000000000
11
-84.7638297872341
21
-3.64291353360222
31
0.000000000000000
  0
LINE
  5
F107C2
330
F107C3
100
AcDbEntity
8
Geo
100
AcDbLine
10
-84.7638297872341
20
-0.263409872134969
30
0.000000000000000
11
-84.6638297872341
21
-0.282949586738801
31
0.000000000000000
  0
LINE
  5
F107C4
330
F107C5
100
AcDbEntity
8
Geo
100
AcDbLine
10
-84.7638297872341
20
-3.64291353360222
30
0.000000000000000
11
-84.6638297872341
21
-3.75525319315625
31
0.000000000000000
  0
LINE
  5
F107C6
330
F107C7
100
AcDbEntity
8
Geo
100
AcDbLine
10
-84.6638297872341
20
-0.282949586738801
30
0.000000000000000
11
-84.5638297872341
21
-0.306797717214796
31
0.000000000000000
  0
LINE
  5
F107C8
330
F107C9
100
AcDbEntity
8
Geo
100
AcDbLine
10
-84.6638297872341
20
-3.75525319315625
30
0.000000000000000
11
-84.5638297872341
21
-3.86675775014077
31
0.000000000000000
  0
LINE
  5
F107CA
330
F107CB
100
AcDbEntity
8
Geo
100
AcDbLine
10
-84.5638297872341
20
-0.306797717214796
30
0.000000000000000
11
-84.4638297872341
21
-0.334918937360869
31
0.000000000000000
  0
LINE
  5
F107CC
330
F107CD
100
AcDbEntity
8
Geo
100
AcDbLine
10
-84.5638297872341
20
-3.86675775014077
30
0.000000000000000
11
-84.4638297872341
21
-3.97726203301257
31
0.000000000000000
  0
LINE
  5
F107CE
330
F107CF
100
AcDbEntity
8
Geo
100
AcDbLine
10
-84.4638297872341
20
-0.334918937360869
30
0.000000000000000
11
-84.3638297872341
21
-0.367271591253225
31
0.000000000000000
  0
LINE
  5
F107D0
330
F107D1
100
AcDbEntity
8
Geo
100
AcDbLine
10
-84.4638297872341
20
-3.97726203301257
30
0.000000000000000
11
-84.3638297872341
21
-4.08660235193307
31
0.000000000000000
  0
LINE
  5
F107D2
330
F107D3
100
AcDbEntity
8
Geo
100
AcDbLine
10
-84.3638297872341
20
-0.367271591253225
30
0.000000000000000
11
-84.2638297872341
21
-0.403807754951219
31
0.000000000000000
  0
LINE
  5
F107D4
330
F107D5
100
AcDbEntity
8
Geo
100
AcDbLine
10
-84.3638297872341
20
-4.08660235193307
30
0.000000000000000
11
-84.2638297872341
21
-4.19461674124185
31
0.000000000000000
  0
LINE
  5
F107D6
330
F107D7
100
AcDbEntity
8
Geo
100
AcDbLine
10
-84.2638297872341
20
-0.403807754951219
30
0.000000000000000
11
-84.1638297872341
21
-0.444473307487025
31
0.000000000000000
  0
LINE
  5
F107D8
330
F107D9
100
AcDbEntity
8
Geo
100
AcDbLine
10
-84.2638297872341
20
-4.19461674124185
30
0.000000000000000
11
-84.1638297872341
21
-4.30114519937615
31
0.000000000000000
  0
LINE
  5
F107DA
330
F107DB
100
AcDbEntity
8
Geo
100
AcDbLine
10
-84.1638297872341
20
-0.444473307487025
30
0.000000000000000
11
-84.0638297872341
21
-0.489208011034946
31
0.000000000000000
  0
LINE
  5
F107DC
330
F107DD
100
AcDbEntity
8
Geo
100
AcDbLine
10
-84.1638297872341
20
-4.30114519937615
30
0.000000000000000
11
-84.0638297872341
21
-4.40602992588099
31
0.000000000000000
  0
LINE
  5
F107DE
330
F107DF
100
AcDbEntity
8
Geo
100
AcDbLine
10
-84.0638297872341
20
-0.489208011034946
30
0.000000000000000
11
-83.9638297872341
21
-0.537945600141622
31
0.000000000000000
  0
LINE
  5
F107E0
330
F107E1
100
AcDbEntity
8
Geo
100
AcDbLine
10
-84.0638297872341
20
-4.40602992588099
30
0.000000000000000
11
-83.9638297872341
21
-4.50911555515871
31
0.000000000000000
  0
LINE
  5
F107E2
330
F107E3
100
AcDbEntity
8
Geo
100
AcDbLine
10
-83.9638297872341
20
-0.537945600141622
30
0.000000000000000
11
-83.8638297872341
21
-0.590613879884956
31
0.000000000000000
  0
LINE
  5
F107E4
330
F107E5
100
AcDbEntity
8
Geo
100
AcDbLine
10
-83.9638297872341
20
-4.50911555515871
30
0.000000000000000
11
-83.8638297872341
21
-4.61024938661185
31
0.000000000000000
  0
LINE
  5
F107E6
330
F107E7
100
AcDbEntity
8
Geo
100
AcDbLine
10
-83.8638297872341
20
-0.590613879884956
30
0.000000000000000
11
-83.7638297872341
21
-0.647134832816340
31
0.000000000000000
  0
LINE
  5
F107E8
330
F107E9
100
AcDbEntity
8
Geo
100
AcDbLine
10
-83.8638297872341
20
-4.61024938661185
30
0.000000000000000
11
-83.7638297872341
21
-4.70928161083833
31
0.000000000000000
  0
LINE
  5
F107EA
330
F107EB
100
AcDbEntity
8
Geo
100
AcDbLine
10
-83.7638297872341
20
-0.647134832816340
30
0.000000000000000
11
-83.6638297872341
21
-0.707424734527804
31
0.000000000000000
  0
LINE
  5
F107EC
330
F107ED
100
AcDbEntity
8
Geo
100
AcDbLine
10
-83.7638297872341
20
-4.70928161083833
30
0.000000000000000
11
-83.6638297872341
21
-4.80606553154387
31
0.000000000000000
  0
LINE
  5
F107EE
330
F107EF
100
AcDbEntity
8
Geo
100
AcDbLine
10
-83.6638297872341
20
-0.707424734527804
30
0.000000000000000
11
-83.5638297872341
21
-0.771394277672858
31
0.000000000000000
  0
LINE
  5
F107F0
330
F107F1
100
AcDbEntity
8
Geo
100
AcDbLine
10
-83.6638297872341
20
-4.80606553154387
30
0.000000000000000
11
-83.5638297872341
21
-4.90045778284305
31
0.000000000000000
  0
LINE
  5
F107F2
330
F107F3
100
AcDbEntity
8
Geo
100
AcDbLine
10
-83.5638297872341
20
-0.771394277672858
30
0.000000000000000
11
-83.4638297872341
21
-0.838948704257338
31
0.000000000000000
  0
LINE
  5
F107F4
330
F107F5
100
AcDbEntity
8
Geo
100
AcDbLine
10
-83.5638297872341
20
-4.90045778284305
30
0.000000000000000
11
-83.4638297872341
21
-4.99231854162697
31
0.000000000000000
  0
LINE
  5
F107F6
330
F107F7
100
AcDbEntity
8
Geo
100
AcDbLine
10
-83.4638297872341
20
-0.838948704257338
30
0.000000000000000
11
-83.3638297872341
21
-0.909987946004291
31
0.000000000000000
  0
LINE
  5
F107F8
330
F107F9
100
AcDbEntity
8
Geo
100
AcDbLine
10
-83.4638297872341
20
-4.99231854162697
30
0.000000000000000
11
-83.3638297872341
21
-5.08151173468302
31
0.000000000000000
  0
LINE
  5
F107FA
330
F107FB
100
AcDbEntity
8
Geo
100
AcDbLine
10
-83.3638297872341
20
-0.909987946004291
30
0.000000000000000
11
-83.2638297872341
21
-0.984406772584969
31
0.000000000000000
  0
LINE
  5
F107FC
330
F107FD
100
AcDbEntity
8
Geo
100
AcDbLine
10
-83.3638297872341
20
-5.08151173468302
30
0.000000000000000
11
-83.2638297872341
21
-5.16790524025994
31
0.000000000000000
  0
LINE
  5
F107FE
330
F107FF
100
AcDbEntity
8
Geo
100
AcDbLine
10
-83.2638297872341
20
-0.984406772584969
30
0.000000000000000
11
-83.1638297872341
21
-1.06209494749637
31
0.000000000000000
  0
LINE
  5
F10800
330
F10801
100
AcDbEntity
8
Geo
100
AcDbLine
10
-83.2638297872341
20
-5.16790524025994
30
0.000000000000000
11
-83.1638297872341
21
-5.25137108377961
31
0.000000000000000
  0
LINE
  5
F10802
330
F10803
100
AcDbEntity
8
Geo
100
AcDbLine
10
-83.1638297872341
20
-1.06209494749637
30
0.000000000000000
11
-83.0638297872341
21
-1.14293739135443
31
0.000000000000000
  0
LINE
  5
F10804
330
F10805
100
AcDbEntity
8
Geo
100
AcDbLine
10
-83.1638297872341
20
-5.25137108377961
30
0.000000000000000
11
-83.0638297872341
21
-5.33178562740557
31
0.000000000000000
  0
LINE
  5
F10806
330
F10807
100
AcDbEntity
8
Geo
100
AcDbLine
10
-83.0638297872341
20
-1.14293739135443
30
0.000000000000000
11
-82.9638297872341
21
-1.22681435236091
31
0.000000000000000
  0
LINE
  5
F10808
330
F10809
100
AcDbEntity
8
Geo
100
AcDbLine
10
-83.0638297872341
20
-5.33178562740557
30
0.000000000000000
11
-82.9638297872341
21
-5.40902975318762
31
0.000000000000000
  0
LINE
  5
F1080A
330
F1080B
100
AcDbEntity
8
Geo
100
AcDbLine
10
-82.9638297872341
20
-1.22681435236091
30
0.000000000000000
11
-82.8638297872341
21
-1.31360158369161
31
0.000000000000000
  0
LINE
  5
F1080C
330
F1080D
100
AcDbEntity
8
Geo
100
AcDbLine
10
-82.9638297872341
20
-5.40902975318762
30
0.000000000000000
11
-82.8638297872341
21
-5.48298903951102
31
0.000000000000000
  0
LINE
  5
F1080E
330
F1080F
100
AcDbEntity
8
Geo
100
AcDbLine
10
-82.8638297872341
20
-1.31360158369161
30
0.000000000000000
11
-82.7638297872341
21
-1.40317052754299
31
0.000000000000000
  0
LINE
  5
F10810
330
F10811
100
AcDbEntity
8
Geo
100
AcDbLine
10
-82.8638297872341
20
-5.48298903951102
30
0.000000000000000
11
-82.7638297872341
21
-5.55355393058911
31
0.000000000000000
  0
LINE
  5
F10812
330
F10813
100
AcDbEntity
8
Geo
100
AcDbLine
10
-82.7638297872341
20
-1.40317052754299
30
0.000000000000000
11
-82.6638297872341
21
-1.49538850556468
31
0.000000000000000
  0
LINE
  5
F10814
330
F10815
100
AcDbEntity
8
Geo
100
AcDbLine
10
-82.7638297872341
20
-5.55355393058911
30
0.000000000000000
11
-82.6638297872341
21
-5.62061989874812
31
0.000000000000000
  0
LINE
  5
F10816
330
F10817
100
AcDbEntity
8
Geo
100
AcDbLine
10
-82.6638297872341
20
-1.49538850556468
30
0.000000000000000
11
-82.5638297872341
21
-1.59011891539572
31
0.000000000000000
  0
LINE
  5
F10818
330
F10819
100
AcDbEntity
8
Geo
100
AcDbLine
10
-82.6638297872341
20
-5.62061989874812
30
0.000000000000000
11
-82.5638297872341
21
-5.68408759926388
31
0.000000000000000
  0
LINE
  5
F1081A
330
F1081B
100
AcDbEntity
8
Geo
100
AcDbLine
10
-82.5638297872341
20
-1.59011891539572
30
0.000000000000000
11
-82.4638297872341
21
-1.68722143301344
31
0.000000000000000
  0
LINE
  5
F1081C
330
F1081D
100
AcDbEntity
8
Geo
100
AcDbLine
10
-82.5638297872341
20
-5.68408759926388
30
0.000000000000000
11
-82.4638297872341
21
-5.74386301752100
31
0.000000000000000
  0
LINE
  5
F1081E
330
F1081F
100
AcDbEntity
8
Geo
100
AcDbLine
10
-82.4638297872341
20
-1.68722143301344
30
0.000000000000000
11
-82.3638297872341
21
-1.78655222059527
31
0.000000000000000
  0
LINE
  5
F10820
330
F10821
100
AcDbEntity
8
Geo
100
AcDbLine
10
-82.4638297872341
20
-5.74386301752100
30
0.000000000000000
11
-82.3638297872341
21
-5.79985760827661
31
0.000000000000000
  0
LINE
  5
F10822
330
F10823
100
AcDbEntity
8
Geo
100
AcDbLine
10
-82.3638297872341
20
-1.78655222059527
30
0.000000000000000
11
-82.2638297872341
21
-1.88796413958546
31
0.000000000000000
  0
LINE
  5
F10824
330
F10825
100
AcDbEntity
8
Geo
100
AcDbLine
10
-82.3638297872341
20
-5.79985760827661
30
0.000000000000000
11
-82.2638297872341
21
-5.85198842682229
31
0.000000000000000
  0
LINE
  5
F10826
330
F10827
100
AcDbEntity
8
Geo
100
AcDbLine
10
-82.2638297872341
20
-1.88796413958546
30
0.000000000000000
11
-82.1638297872341
21
-1.99130696865124
31
0.000000000000000
  0
LINE
  5
F10828
330
F10829
100
AcDbEntity
8
Geo
100
AcDbLine
10
-82.2638297872341
20
-5.85198842682229
30
0.000000000000000
11
-82.1638297872341
21
-5.90017825184994
31
0.000000000000000
  0
LINE
  5
F1082A
330
F1082B
100
AcDbEntity
8
Geo
100
AcDbLine
10
-82.1638297872341
20
-1.99130696865124
30
0.000000000000000
11
-82.0638297872341
21
-2.09642762620547
31
0.000000000000000
  0
LINE
  5
F1082C
330
F1082D
100
AcDbEntity
8
Geo
100
AcDbLine
10
-82.1638297872341
20
-5.90017825184994
30
0.000000000000000
11
-82.0638297872341
21
-5.94435569983963
31
0.000000000000000
  0
LINE
  5
F1082E
330
F1082F
100
AcDbEntity
8
Geo
100
AcDbLine
10
-82.0638297872341
20
-2.09642762620547
30
0.000000000000000
11
-81.9638297872341
21
-2.20317039716616
31
0.000000000000000
  0
LINE
  5
F10830
330
F10831
100
AcDbEntity
8
Geo
100
AcDbLine
10
-82.0638297872341
20
-5.94435569983963
30
0.000000000000000
11
-81.9638297872341
21
-5.98445533079987
31
0.000000000000000
  0
LINE
  5
F10832
330
F10833
100
AcDbEntity
8
Geo
100
AcDbLine
10
-81.9638297872341
20
-2.20317039716616
30
0.000000000000000
11
-81.8638297872341
21
-2.31137716361704
31
0.000000000000000
  0
LINE
  5
F10834
330
F10835
100
AcDbEntity
8
Geo
100
AcDbLine
10
-81.9638297872341
20
-5.98445533079987
30
0.000000000000000
11
-81.8638297872341
21
-6.02041774520380
31
0.000000000000000
  0
LINE
  5
F10836
330
F10837
100
AcDbEntity
8
Geo
100
AcDbLine
10
-81.8638297872341
20
-2.31137716361704
30
0.000000000000000
11
-81.7638297872341
21
-2.42088763902736
31
0.000000000000000
  0
LINE
  5
F10838
330
F10839
100
AcDbEntity
8
Geo
100
AcDbLine
10
-81.8638297872341
20
-6.02041774520380
30
0.000000000000000
11
-81.7638297872341
21
-6.05218967197761
31
0.000000000000000
  0
LINE
  5
F1083A
330
F1083B
100
AcDbEntity
8
Geo
100
AcDbLine
10
-81.7638297872341
20
-2.42088763902736
30
0.000000000000000
11
-81.6638297872341
21
-2.53153960568415
31
0.000000000000000
  0
LINE
  5
F1083C
330
F1083D
100
AcDbEntity
8
Geo
100
AcDbLine
10
-81.7638297872341
20
-6.05218967197761
30
0.000000000000000
11
-81.6638297872341
21
-6.07972404741091
31
0.000000000000000
  0
LINE
  5
F1083E
330
F1083F
100
AcDbEntity
8
Geo
100
AcDbLine
10
-81.6638297872341
20
-2.53153960568415
30
0.000000000000000
11
-81.5638297872341
21
-2.64316915498502
31
0.000000000000000
  0
LINE
  5
F10840
330
F10841
100
AcDbEntity
8
Geo
100
AcDbLine
10
-81.6638297872341
20
-6.07972404741091
30
0.000000000000000
11
-81.5638297872341
21
-6.10298008487217
31
0.000000000000000
  0
LINE
  5
F10842
330
F10843
100
AcDbEntity
8
Geo
100
AcDbLine
10
-81.5638297872341
20
-2.64316915498502
30
0.000000000000000
11
-81.4638297872341
21
-2.75561093023582
31
0.000000000000000
  0
LINE
  5
F10844
330
F10845
100
AcDbEntity
8
Geo
100
AcDbLine
10
-81.5638297872341
20
-6.10298008487217
30
0.000000000000000
11
-81.4638297872341
21
-6.12192333522584
31
0.000000000000000
  0
LINE
  5
F10846
330
F10847
100
AcDbEntity
8
Geo
100
AcDbLine
10
-81.4638297872341
20
-2.75561093023582
30
0.000000000000000
11
-81.3638297872341
21
-2.86869837159325
31
0.000000000000000
  0
LINE
  5
F10848
330
F10849
100
AcDbEntity
8
Geo
100
AcDbLine
10
-81.4638297872341
20
-6.12192333522584
30
0.000000000000000
11
-81.3638297872341
21
-6.13652573786186
31
0.000000000000000
  0
LINE
  5
F1084A
330
F1084B
100
AcDbEntity
8
Geo
100
AcDbLine
10
-81.3638297872341
20
-2.86869837159325
30
0.000000000000000
11
-81.2638297872341
21
-2.98226396278970
31
0.000000000000000
  0
LINE
  5
F1084C
330
F1084D
100
AcDbEntity
8
Geo
100
AcDbLine
10
-81.3638297872341
20
-6.13652573786186
30
0.000000000000000
11
-81.2638297872341
21
-6.14676566226176
31
0.000000000000000
  0
LINE
  5
F1084E
330
F1084F
100
AcDbEntity
8
Geo
100
AcDbLine
10
-81.2638297872341
20
-2.98226396278970
30
0.000000000000000
11
-81.1638297872341
21
-3.09613947927488
31
0.000000000000000
  0
LINE
  5
F10850
330
F10851
100
AcDbEntity
8
Geo
100
AcDbLine
10
-81.2638297872341
20
-6.14676566226176
30
0.000000000000000
11
-81.1638297872341
21
-6.15262794003996
31
0.000000000000000
  0
LINE
  5
F10852
330
F10853
100
AcDbEntity
8
Geo
100
AcDbLine
10
-81.1638297872341
20
-3.09613947927488
30
0.000000000000000
11
-81.0638297872341
21
-3.21015623740661
31
0.000000000000000
  0
LINE
  5
F10854
330
F10855
100
AcDbEntity
8
Geo
100
AcDbLine
10
-81.0638297872341
20
-0.228874835991607
30
0.000000000000000
11
-80.9638297872341
21
-0.231787405343212
31
0.000000000000000
  0
LINE
  5
F10856
330
F10857
100
AcDbEntity
8
Geo
100
AcDbLine
10
-81.0638297872341
20
-3.21015623740661
30
0.000000000000000
11
-80.9638297872341
21
-3.32414534432164
31
0.000000000000000
  0
LINE
  5
F10858
330
F10859
100
AcDbEntity
8
Geo
100
AcDbLine
10
-80.9638297872341
20
-0.231787405343212
30
0.000000000000000
11
-80.8638297872341
21
-0.239084177034224
31
0.000000000000000
  0
LINE
  5
F1085A
330
F1085B
100
AcDbEntity
8
Geo
100
AcDbLine
10
-80.9638297872341
20
-3.32414534432164
30
0.000000000000000
11
-80.8638297872341
21
-3.43793794811645
31
0.000000000000000
  0
LINE
  5
F1085C
330
F1085D
100
AcDbEntity
8
Geo
100
AcDbLine
10
-80.8638297872341
20
-0.239084177034224
30
0.000000000000000
11
-80.7638297872341
21
-0.250754342367017
31
0.000000000000000
  0
LINE
  5
F1085E
330
F1085F
100
AcDbEntity
8
Geo
100
AcDbLine
10
-80.8638297872341
20
-3.43793794811645
30
0.000000000000000
11
-80.7638297872341
21
-3.55136548796732
31
0.000000000000000
  0
LINE
  5
F10860
330
F10861
100
AcDbEntity
8
Geo
100
AcDbLine
10
-80.7638297872341
20
-0.250754342367017
30
0.000000000000000
11
-80.6638297872341
21
-0.266780614342112
31
0.000000000000000
  0
LINE
  5
F10862
330
F10863
100
AcDbEntity
8
Geo
100
AcDbLine
10
-80.7638297872341
20
-3.55136548796732
30
0.000000000000000
11
-80.6638297872341
21
-3.66425994381922
31
0.000000000000000
  0
LINE
  5
F10864
330
F10865
100
AcDbEntity
8
Geo
100
AcDbLine
10
-80.6638297872341
20
-0.266780614342112
30
0.000000000000000
11
-80.5638297872341
21
-0.287139253265412
31
0.000000000000000
  0
LINE
  5
F10866
330
F10867
100
AcDbEntity
8
Geo
100
AcDbLine
10
-80.6638297872341
20
-3.66425994381922
30
0.000000000000000
11
-80.5638297872341
21
-3.77645408527369
31
0.000000000000000
  0
LINE
  5
F10868
330
F10869
100
AcDbEntity
8
Geo
100
AcDbLine
10
-80.5638297872341
20
-0.287139253265412
30
0.000000000000000
11
-80.4638297872341
21
-0.311800101913749
31
0.000000000000000
  0
LINE
  5
F1086A
330
F1086B
100
AcDbEntity
8
Geo
100
AcDbLine
10
-80.5638297872341
20
-3.77645408527369
30
0.000000000000000
11
-80.4638297872341
21
-3.88778171930701
31
0.000000000000000
  0
LINE
  5
F1086C
330
F1086D
100
AcDbEntity
8
Geo
100
AcDbLine
10
-80.4638297872341
20
-0.311800101913749
30
0.000000000000000
11
-80.3638297872341
21
-0.340726630206756
31
0.000000000000000
  0
LINE
  5
F1086E
330
F1086F
100
AcDbEntity
8
Geo
100
AcDbLine
10
-80.4638297872341
20
-3.88778171930701
30
0.000000000000000
11
-80.3638297872341
21
-3.99807793645170
31
0.000000000000000
  0
LINE
  5
F10870
330
F10871
100
AcDbEntity
8
Geo
100
AcDbLine
10
-80.3638297872341
20
-0.340726630206756
30
0.000000000000000
11
-80.2638297872341
21
-0.373875989318814
31
0.000000000000000
  0
LINE
  5
F10872
330
F10873
100
AcDbEntity
8
Geo
100
AcDbLine
10
-80.3638297872341
20
-3.99807793645170
30
0.000000000000000
11
-80.2638297872341
21
-4.10717935507665
31
0.000000000000000
  0
LINE
  5
F10874
330
F10875
100
AcDbEntity
8
Geo
100
AcDbLine
10
-80.2638297872341
20
-0.373875989318814
30
0.000000000000000
11
-80.1638297872341
21
-0.411199075150956
31
0.000000000000000
  0
LINE
  5
F10876
330
F10877
100
AcDbEntity
8
Geo
100
AcDbLine
10
-80.2638297872341
20
-4.10717935507665
30
0.000000000000000
11
-80.1638297872341
21
-4.21492436340409
31
0.000000000000000
  0
LINE
  5
F10878
330
F10879
100
AcDbEntity
8
Geo
100
AcDbLine
10
-80.1638297872341
20
-0.411199075150956
30
0.000000000000000
11
-80.0638297872341
21
-0.452640601068709
31
0.000000000000000
  0
LINE
  5
F1087A
330
F1087B
100
AcDbEntity
8
Geo
100
AcDbLine
10
-80.1638297872341
20
-4.21492436340409
30
0.000000000000000
11
-80.0638297872341
21
-4.32115335890496
31
0.000000000000000
  0
LINE
  5
F1087C
330
F1087D
100
AcDbEntity
8
Geo
100
AcDbLine
10
-80.0638297872341
20
-0.452640601068709
30
0.000000000000000
11
-79.9638297872341
21
-0.498139179798097
31
0.000000000000000
  0
LINE
  5
F1087E
330
F1087F
100
AcDbEntity
8
Geo
100
AcDbLine
10
-80.0638297872341
20
-4.32115335890496
30
0.000000000000000
11
-79.9638297872341
21
-4.42570898471783
31
0.000000000000000
  0
LINE
  5
F10880
330
F10881
100
AcDbEntity
8
Geo
100
AcDbLine
10
-79.9638297872341
20
-0.498139179798097
30
0.000000000000000
11
-79.8638297872341
21
-0.547627414358531
31
0.000000000000000
  0
LINE
  5
F10882
330
F10883
100
AcDbEntity
8
Geo
100
AcDbLine
10
-79.9638297872341
20
-4.42570898471783
30
0.000000000000000
11
-79.8638297872341
21
-4.52843636274144
31
0.000000000000000
  0
LINE
  5
F10884
330
F10885
100
AcDbEntity
8
Geo
100
AcDbLine
10
-79.8638297872341
20
-0.547627414358531
30
0.000000000000000
11
-79.7638297872341
21
-0.601031997897859
31
0.000000000000000
  0
LINE
  5
F10886
330
F10887
100
AcDbEntity
8
Geo
100
AcDbLine
10
-79.8638297872341
20
-4.52843636274144
30
0.000000000000000
11
-79.7638297872341
21
-4.62918332305542
31
0.000000000000000
  0
LINE
  5
F10888
330
F10889
100
AcDbEntity
8
Geo
100
AcDbLine
10
-79.7638297872341
20
-0.601031997897859
30
0.000000000000000
11
-79.6638297872341
21
-0.658273822281697
31
0.000000000000000
  0
LINE
  5
F1088A
330
F1088B
100
AcDbEntity
8
Geo
100
AcDbLine
10
-79.7638297872341
20
-4.62918332305542
30
0.000000000000000
11
-79.6638297872341
21
-4.72780062932934
31
0.000000000000000
  0
LINE
  5
F1088C
330
F1088D
100
AcDbEntity
8
Geo
100
AcDbLine
10
-79.6638297872341
20
-0.658273822281697
30
0.000000000000000
11
-79.5638297872341
21
-0.719268095276210
31
0.000000000000000
  0
LINE
  5
F1088E
330
F1088F
100
AcDbEntity
8
Geo
100
AcDbLine
10
-79.6638297872341
20
-4.72780062932934
30
0.000000000000000
11
-79.5638297872341
21
-4.82414219988632
31
0.000000000000000
  0
LINE
  5
F10890
330
F10891
100
AcDbEntity
8
Geo
100
AcDbLine
10
-79.5638297872341
20
-0.719268095276210
30
0.000000000000000
11
-79.4638297872341
21
-0.783924466150716
31
0.000000000000000
  0
LINE
  5
F10892
330
F10893
100
AcDbEntity
8
Geo
100
AcDbLine
10
-79.5638297872341
20
-4.82414219988632
30
0.000000000000000
11
-79.4638297872341
21
-4.91806532409359
31
0.000000000000000
  0
LINE
  5
F10894
330
F10895
100
AcDbEntity
8
Geo
100
AcDbLine
10
-79.4638297872341
20
-0.783924466150716
30
0.000000000000000
11
-79.3638297872341
21
-0.852147159514104
31
0.000000000000000
  0
LINE
  5
F10896
330
F10897
100
AcDbEntity
8
Geo
100
AcDbLine
10
-79.4638297872341
20
-4.91806532409359
30
0.000000000000000
11
-79.3638297872341
21
-5.00943087375953
31
0.000000000000000
  0
LINE
  5
F10898
330
F10899
100
AcDbEntity
8
Geo
100
AcDbLine
10
-79.3638297872341
20
-0.852147159514104
30
0.000000000000000
11
-79.2638297872341
21
-0.923835117186781
31
0.000000000000000
  0
LINE
  5
F1089A
330
F1089B
100
AcDbEntity
8
Geo
100
AcDbLine
10
-79.3638297872341
20
-5.00943087375953
30
0.000000000000000
11
-79.2638297872341
21
-5.09810350922412
31
0.000000000000000
  0
LINE
  5
F1089C
330
F1089D
100
AcDbEntity
8
Geo
100
AcDbLine
10
-79.2638297872341
20
-0.923835117186781
30
0.000000000000000
11
-79.1638297872341
21
-0.998882147898015
31
0.000000000000000
  0
LINE
  5
F1089E
330
F1089F
100
AcDbEntity
8
Geo
100
AcDbLine
10
-79.2638297872341
20
-5.09810350922412
30
0.000000000000000
11
-79.1638297872341
21
-5.18395187983732
31
0.000000000000000
  0
LINE
  5
F108A0
330
F108A1
100
AcDbEntity
8
Geo
100
AcDbLine
10
-79.1638297872341
20
-0.998882147898015
30
0.000000000000000
11
-79.0638297872341
21
-1.07717708458691
31
0.000000000000000
  0
LINE
  5
F108A2
330
F108A3
100
AcDbEntity
8
Geo
100
AcDbLine
10
-79.1638297872341
20
-5.18395187983732
30
0.000000000000000
11
-79.0638297872341
21
-5.26684881852867
31
0.000000000000000
  0
LINE
  5
F108A4
330
F108A5
100
AcDbEntity
8
Geo
100
AcDbLine
10
-93.0638297872341
20
-3.19148936170212
30
0.000000000000000
11
-93.0638297872341
21
-3.19148936170212
31
0.000000000000000
  0
LINE
  5
F108A6
330
F108A7
100
AcDbEntity
8
Geo
100
AcDbLine
10
-93.0638297872341
20
-3.19148936170212
30
0.000000000000000
11
-93.0638297872341
21
-3.19148936170212
31
0.000000000000000
  0
LINE
  5
F108A8
330
F108A9
100
AcDbEntity
8
Geo
100
AcDbLine
10
-94.0638297872341
20
-3.19148936170212
30
0.000000000000000
11
-93.7638297872341
21
-3.19148936170212
31
0.000000000000000
  0
LINE
  5
F108AA
330
F108AB
100
AcDbEntity
8
Geo
100
AcDbLine
10
-93.6363297872341
20
-3.19148936170212
30
0.000000000000000
11
-93.5513297872341
21
-3.19148936170212
31
0.000000000000000
  0
LINE
  5
F108AC
330
F108AD
100
AcDbEntity
8
Geo
100
AcDbLine
10
-93.3388297872341
20
-3.19148936170212
30
0.000000000000000
11
-92.9138297872341
21
-3.19148936170212
31
0.000000000000000
  0
LINE
  5
F108AE
330
F108AF
100
AcDbEntity
8
Geo
100
AcDbLine
10
-92.7863297872341
20
-3.19148936170212
30
0.000000000000000
11
-92.7013297872341
21
-3.19148936170212
31
0.000000000000000
  0
LINE
  5
F108B0
330
F108B1
100
AcDbEntity
8
Geo
100
AcDbLine
10
-92.4888297872341
20
-3.19148936170212
30
0.000000000000000
11
-92.0638297872341
21
-3.19148936170212
31
0.000000000000000
  0
LINE
  5
F108B2
330
F108B3
100
AcDbEntity
8
Geo
100
AcDbLine
10
-29.0638297872341
20
-0.691489361702124
30
0.000000000000000
11
-29.0638297872341
21
-3.19148936170212
31
0.000000000000000
  0
LINE
  5
F108B4
330
F108B5
100
AcDbEntity
8
Geo
100
AcDbLine
10
-92.9625595557080
20
-3.19148936170212
30
0.000000000000000
11
-93.0638297872341
21
-6.09148936170213
31
0.000000000000000
  0
LINE
  5
F108B6
330
F108B7
100
AcDbEntity
8
Geo
100
AcDbLine
10
-93.0638297872341
20
-6.09148936170213
30
0.000000000000000
11
-92.9638297872341
21
-6.19148936170212
31
0.000000000000000
  0
LINE
  5
F108B8
330
F108B9
100
AcDbEntity
8
Geo
100
AcDbLine
10
-92.9638297872341
20
-6.19148936170212
30
0.000000000000000
11
-74.0638297872341
21
-6.19148936170212
31
0.000000000000000
  0
LINE
  5
F108BA
330
F108BB
100
AcDbEntity
8
Geo
100
AcDbLine
10
-74.0638297872341
20
-6.19148936170212
30
0.000000000000000
11
-68.0638297872341
21
-6.19148936170212
31
0.000000000000000
  0
LINE
  5
F108BC
330
F108BD
100
AcDbEntity
8
Geo
100
AcDbLine
10
-68.0638297872341
20
-6.19148936170212
30
0.000000000000000
11
-29.5638297872341
21
-6.19148936170212
31
0.000000000000000
  0
LINE
  5
F108BE
330
F108BF
100
AcDbEntity
8
Geo
100
AcDbLine
10
-29.5638297872341
20
-6.19148936170212
30
0.000000000000000
11
-29.0638297872341
21
-5.69148936170212
31
0.000000000000000
  0
LINE
  5
F108C0
330
F108C1
100
AcDbEntity
8
Geo
100
AcDbLine
10
-93.0638297872341
20
-0.291489361702125
30
0.000000000000000
11
-93.0638297872341
21
-6.09148936170213
31
0.000000000000000
  0
LINE
  5
F108C2
330
F108C3
100
AcDbEntity
8
Geo
100
AcDbLine
10
-74.0638297872341
20
-0.191489361702125
30
0.000000000000000
11
-74.0638297872341
21
-6.19148936170212
31
0.000000000000000
  0
LINE
  5
F108C4
330
F108C5
100
AcDbEntity
8
Geo
100
AcDbLine
10
-74.0638297872341
20
-0.191489361702125
30
0.000000000000000
11
-74.0638297872341
21
-6.19148936170212
31
0.000000000000000
  0
LINE
  5
F108C6
330
F108C7
100
AcDbEntity
8
Geo
100
AcDbLine
10
-68.0638297872341
20
-0.191489361702125
30
0.000000000000000
11
-68.0638297872341
21
-6.19148936170212
31
0.000000000000000
  0
LINE
  5
F108C8
330
F108C9
100
AcDbEntity
8
Geo
100
AcDbLine
10
-68.0638297872341
20
-0.191489361702125
30
0.000000000000000
11
-68.0638297872341
21
-6.19148936170212
31
0.000000000000000
  0
LINE
  5
F108CA
330
F108CB
100
AcDbEntity
8
Geo
100
AcDbLine
10
-29.5638297872341
20
-0.191489361702125
30
0.000000000000000
11
-29.5638297872341
21
-6.19148936170212
31
0.000000000000000
  0
LINE
  5
F108CC
330
F108CD
100
AcDbEntity
8
Geo
100
AcDbLine
10
-29.0638297872341
20
-0.691489361702124
30
0.000000000000000
11
-29.0638297872341
21
-5.69148936170212
31
0.000000000000000
  0
LWPOLYLINE
  5
F108CE
330
F108CF
100
AcDbEntity
8
Rahmen
100
AcDbPolyline
90
   4
70
   1
43
   0.0
 10
-125.613914359297
 20
102.871140567704
 10
134.443109256533
 20
102.871140567704
 10
134.443109256533
 20
-102.914723561347
 10
-125.613914359297
 20
-102.914723561347
  0
TEXT
  5
F108D0
330
F108D1
 100
AcDbEntity
8
Text
100
AcDbText
10
-124.502559557520
20
-102.414723561347
30
0.000000000000000
40
1.00000000000000
1
ISBESketcher
100
AcDbText
  0
LWPOLYLINE
  5
F108D2
330
F108D3
100
AcDbEntity
8
Rahmen
100
AcDbPolyline
90
   4
70
   1
43
   0.0
 10
94.4343363925591
 20
-99.9511107566079
 10
134.443109256533
 20
-99.9511107566079
 10
134.443109256533
 20
-102.914723561347
 10
94.4343363925591
 20
-102.914723561347
  0
TEXT
  5
F108D4
330
F108D5
 100
AcDbEntity
8
Text
100
AcDbText
10
95.5000000000000
20
-101.990903201185
30
0.000000000000000
40
0.750000000000000
1
Created by:
100
AcDbText
  0
TEXT
  5
F108D6
330
F108D7
 100
AcDbEntity
8
Text
100
AcDbText
10
120.277290396446
20
-101.990903201185
30
0.000000000000000
40
0.750000000000000
1
nsarkol
100
AcDbText
  0
LWPOLYLINE
  5
F108D8
330
F108D9
100
AcDbEntity
8
Rahmen
100
AcDbPolyline
90
   4
70
   1
43
   0.0
 10
54.4255635285854
 20
-99.9511107566079
 10
94.4343363925591
 20
-99.9511107566079
 10
94.4343363925591
 20
-102.914723561347
 10
54.4255635285854
 20
-102.914723561347
  0
TEXT
  5
F108DA
330
F108DB
 100
AcDbEntity
8
Text
100
AcDbText
10
55.5000000000000
20
-101.990903201185
30
0.000000000000000
40
0.750000000000000
1
Created for:
100
AcDbText
  0
TEXT
  5
F108DC
330
F108DD
 100
AcDbEntity
8
Text
100
AcDbText
10
0.000000000000000
20
0.250000000000000
30
0.000000000000000
40
0.750000000000000
1

100
AcDbText
  0
LWPOLYLINE
  5
F108DE
330
F108DF
100
AcDbEntity
8
Rahmen
100
AcDbPolyline
90
   4
70
   1
43
   0.0
 10
121.106851635208
 20
-96.9874979518691
 10
134.443109256533
 20
-96.9874979518691
 10
134.443109256533
 20
-99.9511107566079
 10
121.106851635208
 20
-99.9511107566079
  0
TEXT
  5
F108E0
330
F108E1
 100
AcDbEntity
8
Text
100
AcDbText
10
122.166666666667
20
-98.9909032011847
30
0.000000000000000
40
0.750000000000000
1
Pages
100
AcDbText
  0
TEXT
  5
F108E2
330
F108E3
 100
AcDbEntity
8
Text
100
AcDbText
10
0.000000000000000
20
0.250000000000000
30
0.000000000000000
40
0.750000000000000
1

100
AcDbText
  0
LWPOLYLINE
  5
F108E4
330
F108E5
100
AcDbEntity
8
Rahmen
100
AcDbPolyline
90
   4
70
   1
43
   0.0
 10
121.106851635208
 20
-93.8386593468341
 10
134.443109256533
 20
-93.8386593468341
 10
134.443109256533
 20
-96.9874979518691
 10
121.106851635208
 20
-96.9874979518691
  0
TEXT
  5
F108E6
330
F108E7
 100
AcDbEntity
8
Text
100
AcDbText
10
122.166666666667
20
-95.9909032011847
30
0.000000000000000
40
0.750000000000000
1
Page
100
AcDbText
  0
TEXT
  5
F108E8
330
F108E9
 100
AcDbEntity
8
Text
100
AcDbText
10
0.000000000000000
20
0.250000000000000
30
0.000000000000000
40
0.750000000000000
1

100
AcDbText
  0
LWPOLYLINE
  5
F108EA
330
F108EB
100
AcDbEntity
8
Rahmen
100
AcDbPolyline
90
   4
70
   1
43
   0.0
 10
54.4255635285854
 20
-93.8386593468341
 10
121.106851635208
 20
-93.8386593468341
 10
121.106851635208
 20
-99.9511107566079
 10
54.4255635285854
 20
-99.9511107566079
  0
TEXT
  5
F108EC
330
F108ED
 100
AcDbEntity
8
Text
100
AcDbText
10
55.5000000000000
20
-95.9909032011847
30
0.000000000000000
40
0.750000000000000
1
Date:
100
AcDbText
  0
TEXT
  5
F108EE
330
F108EF
 100
AcDbEntity
8
Text
100
AcDbText
10
84.4066560278541
20
-98.9909032011847
30
0.000000000000000
40
0.750000000000000
1
05.07.2016
100
AcDbText
  0
LWPOLYLINE
  5
F108F0
330
F108F1
100
AcDbEntity
8
Rahmen
100
AcDbPolyline
90
   4
70
   1
43
   0.0
 10
54.4255635285854
 20
-87.9114337373565
 10
134.443109256533
 20
-87.9114337373565
 10
134.443109256533
 20
-93.8386593468341
 10
54.4255635285854
 20
-93.8386593468341
  0
TEXT
  5
F108F2
330
F108F3
 100
AcDbEntity
8
Text
100
AcDbText
10
0.000000000000000
20
0.500000000000000
30
0.000000000000000
40
1.50000000000000
1

100
AcDbText
  0
TEXT
  5
F108F4
330
F108F5
 100
AcDbEntity
8
Text
100
AcDbText
10
72.0876781641628
20
-92.6672149706650
30
0.000000000000000
40
2.50000000000000
1
VHTR 5 060 064 06 03
100
AcDbText
  0
LWPOLYLINE
  5
F108F6
330
F108F7
100
AcDbEntity
8
Rahmen
100
AcDbPolyline
90
   4
70
   1
43
   0.0
 10
94.4343363925591
 20
-81.9842081278789
 10
134.443109256533
 20
-81.9842081278789
 10
134.443109256533
 20
-87.9114337373565
 10
94.4343363925591
 20
-87.9114337373565
  0
TEXT
  5
F108F8
330
F108F9
 100
AcDbEntity
8
Text
100
AcDbText
10
95.5000000000000
20
-83.9909032011847
30
0.000000000000000
40
0.750000000000000
1
Work piece material:
100
AcDbText
  0
TEXT
  5
F108FA
330
F108FB
 100
AcDbEntity
8
Text
100
AcDbText
10
0.000000000000000
20
0.250000000000000
30
0.000000000000000
40
0.750000000000000
1

100
AcDbText
  0
LWPOLYLINE
  5
F108FC
330
F108FD
100
AcDbEntity
8
Rahmen
100
AcDbPolyline
90
   4
70
   1
43
   0.0
 10
54.4255635285854
 20
-81.9842081278789
 10
94.4343363925591
 20
-81.9842081278789
 10
94.4343363925591
 20
-87.9114337373565
 10
54.4255635285854
 20
-87.9114337373565
  0
TEXT
  5
F108FE
330
F108FF
 100
AcDbEntity
8
Text
100
AcDbText
10
55.5000000000000
20
-83.9909032011847
30
0.000000000000000
40
0.750000000000000
1
Tool material:
100
AcDbText
  0
TEXT
  5
F10900
330
F10901
 100
AcDbEntity
8
Text
100
AcDbText
10
0.000000000000000
20
0.250000000000000
30
0.000000000000000
40
0.750000000000000
1

100
AcDbText
  0
LWPOLYLINE
  5
F10902
330
F10903
100
AcDbEntity
8
Rahmen
100
AcDbPolyline
90
   4
70
   1
43
   0.0
 10
94.4343363925591
 20
-79.0205953231401
 10
134.443109256533
 20
-79.0205953231401
 10
134.443109256533
 20
-81.9842081278789
 10
94.4343363925591
 20
-81.9842081278789
  0
TEXT
  5
F10904
330
F10905
 100
AcDbEntity
8
Text
100
AcDbText
10
0.000000000000000
20
0.500000000000000
30
0.000000000000000
40
1.50000000000000
1

100
AcDbText
  0
TEXT
  5
F10906
330
F10907
 100
AcDbEntity
8
Text
100
AcDbText
10
0.000000000000000
20
0.250000000000000
30
0.000000000000000
40
0.750000000000000
1

100
AcDbText
  0
LWPOLYLINE
  5
F10908
330
F10909
100
AcDbEntity
8
Rahmen
100
AcDbPolyline
90
   4
70
   1
43
   0.0
 10
54.4255635285854
 20
-79.0205953231401
 10
94.4343363925591
 20
-79.0205953231401
 10
94.4343363925591
 20
-81.9842081278789
 10
54.4255635285854
 20
-81.9842081278789
  0
TEXT
  5
F1090A
330
F1090B
 100
AcDbEntity
8
Text
100
AcDbText
10
55.5000000000000
20
-80.9909032011847
30
0.000000000000000
40
0.750000000000000
1
Scale:
100
AcDbText
  0
TEXT
  5
F1090C
330
F1090D
 100
AcDbEntity
8
Text
100
AcDbText
10
81.1108064977787
20
-80.9909032011847
30
0.000000000000000
40
0.750000000000000
1
3 : 1
100
AcDbText
0
VIEWPORT
5
294
102
{ACAD_XDICTIONARY
360
58A
102
}
330
25D
100
AcDbEntity
67
1
8
0
60
1
100
AcDbViewport
10
0.0
20
0.0
30
0.0
40
10.0
41
10.0
68
-1
69
1
12
0.0
22
0.0
13
0.0
23
0.0
14
1.0
24
1.0
15
0.0
25
0.0
16
0.0
26
0.0
36
1.0
17
0.0
27
0.0
37
0.0
42
0.0
43
0.0
44
0.0
45
10.0
50
0.0
51
0.0000000000007958
72
100
90
32800
1

281
0
71
0
74
0
110
0.0
120
0.0
130
0.0
111
1.0
121
0.0
131
0.0
112
0.0
122
1.0
132
0.0
79
0
146
0.0
1001
VD_INVISIBLE_NOT_FOR_READ
1000
VD_INVISIBLE_NOT_FOR_READ
0
VIEWPORT
5
295
102
{ACAD_XDICTIONARY
360
58C
102
}
330
25D
100
AcDbEntity
67
1
8
0
60
1
100
AcDbViewport
10
0.0
20
0.0
30
0.0
40
10.0
41
10.0
68
0
69
2
12
0.0
22
0.0
13
0.0
23
0.0
14
1.0
24
1.0
15
0.0
25
0.0
16
0.0
26
0.0
36
1.0
17
0.0
27
0.0
37
0.0
42
0.0
43
0.0
44
0.0
45
10.0
50
0.0
51
0.0000000000007958
72
100
90
163872
1

281
0
71
0
74
0
110
0.0
120
0.0
130
0.0
111
1.0
121
0.0
131
0.0
112
0.0
122
1.0
132
0.0
79
0
146
0.0
1001
VD_INVISIBLE_NOT_FOR_READ
1000
VD_INVISIBLE_NOT_FOR_READ
0
ENDSEC
0
SECTION
2
OBJECTS
0
DICTIONARY
5
13
330
0
100
AcDbDictionary
281
1
3
ACAD_COLOR
350
FA7
3
ACAD_GROUP
350
14
3
ACAD_LAYOUT
350
FCF
3
ACAD_MATERIAL
350
F7A
3
ACAD_MLEADERSTYLE
350
FCD
3
ACAD_MLINESTYLE
350
16
3
ACAD_PLOTSETTINGS
350
17
3
ACAD_PLOTSTYLENAME
350
18
3
ACAD_SCALELIST
350
FAB
3
ACAD_TABLESTYLE
350
FA8
3
ACAD_VISUALSTYLE
350
F93
3
ACDB_RECOMPOSE_DATA
350
107E
3
AcDbVariableDictionary
350
FF0
3
DWGPROPS
350
107F
0
DICTIONARY
5
F1000A
330
F10009
100
AcDbDictionary
280
1
281
1
3
ACAD_MTEXT_2008_RT
360
F1000B
0
DICTIONARY
5
F10014
330
F10013
100
AcDbDictionary
280
1
281
1
3
ACAD_MTEXT_2008_RT
360
F10015
0
DICTIONARY
5
F10019
330
F10018
100
AcDbDictionary
280
1
281
1
3
ACAD_MTEXT_2008_RT
360
F1001A
0
DICTIONARY
5
F10023
330
F10022
100
AcDbDictionary
280
1
281
1
3
ACAD_MTEXT_2008_RT
360
F10024
0
DICTIONARY
5
F10028
330
F10027
100
AcDbDictionary
280
1
281
1
3
ACAD_MTEXT_2008_RT
360
F10029
0
DICTIONARY
5
F10005
330
F10004
100
AcDbDictionary
280
1
281
1
3
ACAD_MTEXT_2008_RT
360
F10006
0
DICTIONARY
5
F1000F
330
F1000E
100
AcDbDictionary
280
1
281
1
3
ACAD_MTEXT_2008_RT
360
F10010
0
DICTIONARY
5
F1001E
330
F1001D
100
AcDbDictionary
280
1
281
1
3
ACAD_MTEXT_2008_RT
360
F1001F
0
DICTIONARY
5
FA7
102
{ACAD_REACTORS
330
13
102
}
330
13
100
AcDbDictionary
281
1
0
DICTIONARY
5
14
330
13
100
AcDbDictionary
281
1
0
DICTIONARY
5
FCF
102
{ACAD_REACTORS
330
13
102
}
330
13
100
AcDbDictionary
281
1
3
Layout1
350
FD1
3
Model
350
FD0
0
DICTIONARY
5
F7A
102
{ACAD_REACTORS
330
13
102
}
330
13
100
AcDbDictionary
281
1
3
ByBlock
350
F83
3
ByLayer
350
F7B
3
Global
350
F8B
0
DICTIONARY
5
FCD
102
{ACAD_REACTORS
330
13
102
}
330
13
100
AcDbDictionary
281
1
3
Standard
350
FCE
0
DICTIONARY
5
16
330
13
100
AcDbDictionary
281
1
3
Standard
350
FAA
0
DICTIONARY
5
17
102
{ACAD_REACTORS
330
13
102
}
330
13
100
AcDbDictionary
281
1
0
ACDBDICTIONARYWDFLT
5
18
102
{ACAD_REACTORS
330
13
102
}
330
13
100
AcDbDictionary
281
1
3
Normal
350
19
100
AcDbDictionaryWithDefault
340
19
0
DICTIONARY
5
FAB
102
{ACAD_REACTORS
330
13
102
}
330
13
100
AcDbDictionary
281
1
3
A0
350
FAC
3
A1
350
FAD
3
A2
350
FAE
3
A3
350
FAF
3
A4
350
FB0
3
A5
350
FB1
3
A6
350
FB2
3
A7
350
FB3
3
A8
350
FB4
3
A9
350
FB5
3
B0
350
FB6
3
B1
350
FB7
3
B2
350
FB8
3
B3
350
FB9
3
B4
350
FBA
3
B5
350
FBB
3
B6
350
FBC
3
B7
350
FBD
3
B8
350
FBE
3
B9
350
FBF
3
C0
350
FC0
3
C1
350
FC1
3
C2
350
FC2
3
C3
350
FC3
3
C4
350
FC4
3
C5
350
FC5
3
C6
350
FC6
3
C7
350
FC7
3
C8
350
FC8
3
C9
350
FC9
3
D0
350
FCA
3
D1
350
FCB
3
D2
350
FCC
0
DICTIONARY
5
FA8
102
{ACAD_REACTORS
330
13
102
}
330
13
100
AcDbDictionary
281
1
3
Standard
350
FA9
0
DICTIONARY
5
F93
102
{ACAD_REACTORS
330
13
102
}
330
13
100
AcDbDictionary
281
1
3
2dWireframe
350
F99
3
3D Hidden
350
F9B
3
3dWireframe
350
F9A
3
Basic
350
F98
3
Brighten
350
F9F
3
ColorChange
350
FA3
3
Conceptual
350
F9C
3
Dim
350
F9E
3
EdgeColorOff
350
FA6
3
Facepattern
350
FA2
3
Flat
350
F94
3
FlatWithEdges
350
F95
3
Gouraud
350
F96
3
GouraudWithEdges
350
F97
3
JitterOff
350
FA4
3
Linepattern
350
FA1
3
OverhangOff
350
FA5
3
Realistic
350
F9D
3
Thicken
350
FA0
0
XRECORD
5
107E
102
{ACAD_REACTORS
330
13
102
}
330
13
100
AcDbXrecord
280
1
90
1
330
FA9
330
F10009
330
F10013
330
F10018
330
F10022
330
F10027
330
F10004
330
F1000E
330
F1001D
0
XRECORD
5
F1000B
102
{ACAD_REACTORS
330
F1000A
102
}
330
F1000A
100
AcDbXrecord
280
1
40
48458.0
1
0.1 x 45°
0
XRECORD
5
F10015
102
{ACAD_REACTORS
330
F10014
102
}
330
F10014
100
AcDbXrecord
280
1
40
48458.0
1
25
0
XRECORD
5
F1001A
102
{ACAD_REACTORS
330
F10019
102
}
330
F10019
100
AcDbXrecord
280
1
40
48458.0
1
39
0
XRECORD
5
F10024
102
{ACAD_REACTORS
330
F10023
102
}
330
F10023
100
AcDbXrecord
280
1
40
48458.0
1
19
0
XRECORD
5
F10029
102
{ACAD_REACTORS
330
F10028
102
}
330
F10028
100
AcDbXrecord
280
1
40
48458.0
1
64
0
XRECORD
5
F10006
102
{ACAD_REACTORS
330
F10005
102
}
330
F10005
100
AcDbXrecord
280
1
40
48458.0
1
2°
0
XRECORD
5
F10010
102
{ACAD_REACTORS
330
F1000F
102
}
330
F1000F
100
AcDbXrecord
280
1
40
48458.0
1
6
0
LAYOUT
5
FD1
102
{ACAD_XDICTIONARY
360
10A9
102
}
102
{ACAD_REACTORS
330
FCF
102
}
330
FCF
100
AcDbPlotSettings
1

2
Microsoft XPS Document Writer
4

6

40
0.0
41
0.0
42
0.0
43
0.0
44
0.0
45
0.0
46
0.0
47
0.0
48
0.0
49
0.0
140
0.0
141
0.0
142
1.0
143
1.0
70
688
72
0
73
0
74
5
7

75
16
147
1.0
148
0.0
149
0.0
100
AcDbLayout
1
Layout1
70
1
71
1
10
0.0
20
0.0
11
12.0
21
9.0
12
0.0
22
0.0
32
0.0
14
1.000000000000000E+20
24
1.000000000000000E+20
34
1.000000000000000E+20
15
-1.000000000000000E+20
25
-1.000000000000000E+20
35
-1.000000000000000E+20
146
0.0
13
0.0
23
0.0
33
0.0
16
1.0
26
0.0
36
0.0
17
0.0
27
1.0
37
0.0
76
0
330
25D
0
LAYOUT
5
FD0
102
{ACAD_XDICTIONARY
360
10A7
102
}
102
{ACAD_REACTORS
330
FCF
102
}
330
FCF
100
AcDbPlotSettings
1

2
Microsoft XPS Document Writer
4

6

40
0.0
41
0.0
42
0.0
43
0.0
44
0.0
45
0.0
46
0.0
47
0.0
48
0.0
49
0.0
140
0.0
141
0.0
142
1.0
143
1.0
70
1712
72
0
73
0
74
0
7

75
0
147
1.0
148
0.0
149
0.0
100
AcDbLayout
1
Model
70
1
71
0
10
0.0
20
0.0
11
12.0
21
9.0
12
0.0
22
0.0
32
0.0
14
0.0
24
0.0
34
0.0
15
0.0
25
0.0
35
0.0
146
0.0
13
0.0
23
0.0
33
0.0
16
1.0
26
0.0
36
0.0
17
0.0
27
1.0
37
0.0
76
0
330
261
331
26B
0
MATERIAL
5
F83
102
{ACAD_XDICTIONARY
360
F84
102
}
102
{ACAD_REACTORS
330
F7A
102
}
330
F7A
100
AcDbMaterial
1
ByBlock
72
0
43
0.0208333333333333
43
0.0
43
0.0
43
0.0
43
0.0
43
0.0208333333333333
43
0.0
43
0.0
43
0.0
43
0.0
43
1.0
43
0.0
43
0.0
43
0.0
43
0.0
43
1.0
77
0
47
0.0208333333333333
47
0.0
47
0.0
47
0.0
47
0.0
47
0.0208333333333333
47
0.0
47
0.0
47
0.0
47
0.0
47
1.0
47
0.0
47
0.0
47
0.0
47
0.0
47
1.0
171
0
49
0.0208333333333333
49
0.0
49
0.0
49
0.0
49
0.0
49
0.0208333333333333
49
0.0
49
0.0
49
0.0
49
0.0
49
1.0
49
0.0
49
0.0
49
0.0
49
0.0
49
1.0
175
0
142
0.0208333333333333
142
0.0
142
0.0
142
0.0
142
0.0
142
0.0208333333333333
142
0.0
142
0.0
142
0.0
142
0.0
142
1.0
142
0.0
142
0.0
142
0.0
142
0.0
142
1.0
179
0
144
0.0208333333333333
144
0.0
144
0.0
144
0.0
144
0.0
144
0.0208333333333333
144
0.0
144
0.0
144
0.0
144
0.0
144
1.0
144
0.0
144
0.0
144
0.0
144
0.0
144
1.0
147
0.0208333333333333
147
0.0
147
0.0
147
0.0
147
0.0
147
0.0208333333333333
147
0.0
147
0.0
147
0.0
147
0.0
147
1.0
147
0.0
147
0.0
147
0.0
147
0.0
147
1.0
0
MATERIAL
5
F7B
102
{ACAD_XDICTIONARY
360
F7C
102
}
102
{ACAD_REACTORS
330
F7A
102
}
330
F7A
100
AcDbMaterial
1
ByLayer
72
0
43
0.0208333333333333
43
0.0
43
0.0
43
0.0
43
0.0
43
0.0208333333333333
43
0.0
43
0.0
43
0.0
43
0.0
43
1.0
43
0.0
43
0.0
43
0.0
43
0.0
43
1.0
77
0
47
0.0208333333333333
47
0.0
47
0.0
47
0.0
47
0.0
47
0.0208333333333333
47
0.0
47
0.0
47
0.0
47
0.0
47
1.0
47
0.0
47
0.0
47
0.0
47
0.0
47
1.0
171
0
49
0.0208333333333333
49
0.0
49
0.0
49
0.0
49
0.0
49
0.0208333333333333
49
0.0
49
0.0
49
0.0
49
0.0
49
1.0
49
0.0
49
0.0
49
0.0
49
0.0
49
1.0
175
0
142
0.0208333333333333
142
0.0
142
0.0
142
0.0
142
0.0
142
0.0208333333333333
142
0.0
142
0.0
142
0.0
142
0.0
142
1.0
142
0.0
142
0.0
142
0.0
142
0.0
142
1.0
179
0
144
0.0208333333333333
144
0.0
144
0.0
144
0.0
144
0.0
144
0.0208333333333333
144
0.0
144
0.0
144
0.0
144
0.0
144
1.0
144
0.0
144
0.0
144
0.0
144
0.0
144
1.0
147
0.0208333333333333
147
0.0
147
0.0
147
0.0
147
0.0
147
0.0208333333333333
147
0.0
147
0.0
147
0.0
147
0.0
147
1.0
147
0.0
147
0.0
147
0.0
147
0.0
147
1.0
0
MATERIAL
5
F8B
102
{ACAD_XDICTIONARY
360
F8C
102
}
102
{ACAD_REACTORS
330
F7A
102
}
330
F7A
100
AcDbMaterial
1
Global
72
0
43
0.0208333333333333
43
0.0
43
0.0
43
0.0
43
0.0
43
0.0208333333333333
43
0.0
43
0.0
43
0.0
43
0.0
43
1.0
43
0.0
43
0.0
43
0.0
43
0.0
43
1.0
77
0
47
0.0208333333333333
47
0.0
47
0.0
47
0.0
47
0.0
47
0.0208333333333333
47
0.0
47
0.0
47
0.0
47
0.0
47
1.0
47
0.0
47
0.0
47
0.0
47
0.0
47
1.0
171
0
49
0.0208333333333333
49
0.0
49
0.0
49
0.0
49
0.0
49
0.0208333333333333
49
0.0
49
0.0
49
0.0
49
0.0
49
1.0
49
0.0
49
0.0
49
0.0
49
0.0
49
1.0
175
0
142
0.0208333333333333
142
0.0
142
0.0
142
0.0
142
0.0
142
0.0208333333333333
142
0.0
142
0.0
142
0.0
142
0.0
142
1.0
142
0.0
142
0.0
142
0.0
142
0.0
142
1.0
179
0
144
0.0208333333333333
144
0.0
144
0.0
144
0.0
144
0.0
144
0.0208333333333333
144
0.0
144
0.0
144
0.0
144
0.0
144
1.0
144
0.0
144
0.0
144
0.0
144
0.0
144
1.0
147
0.0208333333333333
147
0.0
147
0.0
147
0.0
147
0.0
147
0.0208333333333333
147
0.0
147
0.0
147
0.0
147
0.0
147
1.0
147
0.0
147
0.0
147
0.0
147
0.0
147
1.0
0
MLEADERSTYLE
5
FCE
102
{ACAD_REACTORS
330
FCD
102
}
330
FCD
100
AcDbMLeaderStyle
170
2
171
1
172
0
90
2
40
0.0
41
0.0
173
1
91
-1056964608
340
256
92
-2
290
1
42
0.09
291
1
43
0.36
3
Standard
44
0.18
300

342
253
174
1
178
6
175
1
176
0
93
-1056964608
45
0.18
292
0
297
0
46
0.18
94
-1056964608
47
1.0
49
1.0
140
1.0
293
1
141
0.0
294
1
177
0
142
1.0
295
0
296
0
143
0.125
1001
ACAD_MLEADERVER
1070
2
0
MLINESTYLE
5
FAA
102
{ACAD_REACTORS
330
16
102
}
330
16
100
AcDbMlineStyle
2
STANDARD
70
0
3

62
256
51
90.0
52
90.0
71
2
49
0.5
62
256
6
BYLAYER
49
-0.5
62
256
6
BYLAYER
0
ACDBPLACEHOLDER
5
19
102
{ACAD_REACTORS
330
18
102
}
330
18
0
SCALE
5
FAC
102
{ACAD_REACTORS
330
FAB
102
}
330
FAB
100
AcDbScale
70
0
300
1:1
140
1.0
141
1.0
290
1
0
SCALE
5
FAD
102
{ACAD_REACTORS
330
FAB
102
}
330
FAB
100
AcDbScale
70
0
300
1:2
140
1.0
141
2.0
290
0
0
SCALE
5
FAE
102
{ACAD_REACTORS
330
FAB
102
}
330
FAB
100
AcDbScale
70
0
300
1:4
140
1.0
141
4.0
290
0
0
SCALE
5
FAF
102
{ACAD_REACTORS
330
FAB
102
}
330
FAB
100
AcDbScale
70
0
300
1:5
140
1.0
141
5.0
290
0
0
SCALE
5
FB0
102
{ACAD_REACTORS
330
FAB
102
}
330
FAB
100
AcDbScale
70
0
300
1:8
140
1.0
141
8.0
290
0
0
SCALE
5
FB1
102
{ACAD_REACTORS
330
FAB
102
}
330
FAB
100
AcDbScale
70
0
300
1:10
140
1.0
141
10.0
290
0
0
SCALE
5
FB2
102
{ACAD_REACTORS
330
FAB
102
}
330
FAB
100
AcDbScale
70
0
300
1:16
140
1.0
141
16.0
290
0
0
SCALE
5
FB3
102
{ACAD_REACTORS
330
FAB
102
}
330
FAB
100
AcDbScale
70
0
300
1:20
140
1.0
141
20.0
290
0
0
SCALE
5
FB4
102
{ACAD_REACTORS
330
FAB
102
}
330
FAB
100
AcDbScale
70
0
300
1:30
140
1.0
141
30.0
290
0
0
SCALE
5
FB5
102
{ACAD_REACTORS
330
FAB
102
}
330
FAB
100
AcDbScale
70
0
300
1:40
140
1.0
141
40.0
290
0
0
SCALE
5
FB6
102
{ACAD_REACTORS
330
FAB
102
}
330
FAB
100
AcDbScale
70
0
300
1:50
140
1.0
141
50.0
290
0
0
SCALE
5
FB7
102
{ACAD_REACTORS
330
FAB
102
}
330
FAB
100
AcDbScale
70
0
300
1:100
140
1.0
141
100.0
290
0
0
SCALE
5
FB8
102
{ACAD_REACTORS
330
FAB
102
}
330
FAB
100
AcDbScale
70
0
300
2:1
140
2.0
141
1.0
290
0
0
SCALE
5
FB9
102
{ACAD_REACTORS
330
FAB
102
}
330
FAB
100
AcDbScale
70
0
300
4:1
140
4.0
141
1.0
290
0
0
SCALE
5
FBA
102
{ACAD_REACTORS
330
FAB
102
}
330
FAB
100
AcDbScale
70
0
300
8:1
140
8.0
141
1.0
290
0
0
SCALE
5
FBB
102
{ACAD_REACTORS
330
FAB
102
}
330
FAB
100
AcDbScale
70
0
300
10:1
140
10.0
141
1.0
290
0
0
SCALE
5
FBC
102
{ACAD_REACTORS
330
FAB
102
}
330
FAB
100
AcDbScale
70
0
300
100:1
140
100.0
141
1.0
290
0
0
SCALE
5
FBD
102
{ACAD_REACTORS
330
FAB
102
}
330
FAB
100
AcDbScale
70
0
300
1/128" = 1'-0"
140
0.0078125
141
12.0
290
0
0
SCALE
5
FBE
102
{ACAD_REACTORS
330
FAB
102
}
330
FAB
100
AcDbScale
70
0
300
1/64" = 1'-0"
140
0.015625
141
12.0
290
0
0
SCALE
5
FBF
102
{ACAD_REACTORS
330
FAB
102
}
330
FAB
100
AcDbScale
70
0
300
1/32" = 1'-0"
140
0.03125
141
12.0
290
0
0
SCALE
5
FC0
102
{ACAD_REACTORS
330
FAB
102
}
330
FAB
100
AcDbScale
70
0
300
1/16" = 1'-0"
140
0.0625
141
12.0
290
0
0
SCALE
5
FC1
102
{ACAD_REACTORS
330
FAB
102
}
330
FAB
100
AcDbScale
70
0
300
3/32" = 1'-0"
140
0.09375
141
12.0
290
0
0
SCALE
5
FC2
102
{ACAD_REACTORS
330
FAB
102
}
330
FAB
100
AcDbScale
70
0
300
1/8" = 1'-0"
140
0.125
141
12.0
290
0
0
SCALE
5
FC3
102
{ACAD_REACTORS
330
FAB
102
}
330
FAB
100
AcDbScale
70
0
300
3/16" = 1'-0"
140
0.1875
141
12.0
290
0
0
SCALE
5
FC4
102
{ACAD_REACTORS
330
FAB
102
}
330
FAB
100
AcDbScale
70
0
300
1/4" = 1'-0"
140
0.25
141
12.0
290
0
0
SCALE
5
FC5
102
{ACAD_REACTORS
330
FAB
102
}
330
FAB
100
AcDbScale
70
0
300
3/8" = 1'-0"
140
0.375
141
12.0
290
0
0
SCALE
5
FC6
102
{ACAD_REACTORS
330
FAB
102
}
330
FAB
100
AcDbScale
70
0
300
1/2" = 1'-0"
140
0.5
141
12.0
290
0
0
SCALE
5
FC7
102
{ACAD_REACTORS
330
FAB
102
}
330
FAB
100
AcDbScale
70
0
300
3/4" = 1'-0"
140
0.75
141
12.0
290
0
0
SCALE
5
FC8
102
{ACAD_REACTORS
330
FAB
102
}
330
FAB
100
AcDbScale
70
0
300
1" = 1'-0"
140
1.0
141
12.0
290
0
0
SCALE
5
FC9
102
{ACAD_REACTORS
330
FAB
102
}
330
FAB
100
AcDbScale
70
0
300
1-1/2" = 1'-0"
140
1.5
141
12.0
290
0
0
SCALE
5
FCA
102
{ACAD_REACTORS
330
FAB
102
}
330
FAB
100
AcDbScale
70
0
300
3" = 1'-0"
140
3.0
141
12.0
290
0
0
SCALE
5
FCB
102
{ACAD_REACTORS
330
FAB
102
}
330
FAB
100
AcDbScale
70
0
300
6" = 1'-0"
140
6.0
141
12.0
290
0
0
SCALE
5
FCC
102
{ACAD_REACTORS
330
FAB
102
}
330
FAB
100
AcDbScale
70
0
300
1'-0" = 1'-0"
140
12.0
141
12.0
290
0
0
TABLESTYLE
5
FA9
102
{ACAD_XDICTIONARY
360
FF8
102
}
102
{ACAD_REACTORS
330
FA8
102
}
330
FA8
100
AcDbTableStyle
3
Standard
70
0
71
0
40
0.06
41
0.06
280
0
281
0
7
Standard
140
0.18
170
2
62
0
63
7
283
0
274
-2
284
1
64
0
275
-2
285
1
65
0
276
-2
286
1
66
0
277
-2
287
1
67
0
278
-2
288
1
68
0
279
-2
289
1
69
0
7
Standard
140
0.25
170
5
62
0
63
7
283
0
274
-2
284
1
64
0
275
-2
285
1
65
0
276
-2
286
1
66
0
277
-2
287
1
67
0
278
-2
288
1
68
0
279
-2
289
1
69
0
7
Standard
140
0.18
170
5
62
0
63
7
283
0
274
-2
284
1
64
0
275
-2
285
1
65
0
276
-2
286
1
66
0
277
-2
287
1
67
0
278
-2
288
1
68
0
279
-2
289
1
69
0
0
VISUALSTYLE
5
F99
102
{ACAD_XDICTIONARY
360
108A
102
}
102
{ACAD_REACTORS
330
F93
102
}
330
F93
100
AcDbVisualStyle
2

70
4
71
0
72
2
73
0
90
0
40
-0.6
41
-30.0
62
5
63
7
74
1
91
4
64
7
65
257
75
1
175
1
42
1.0
92
0
66
257
43
1.0
76
1
77
6
78
2
67
7
79
5
170
0
171
0
290
0
174
0
93
1
44
0.0
173
0
291
0
45
0.0
1001
ACAD
1000
AcDbSavedByObjectVersion
1070
0
0
VISUALSTYLE
5
F9B
102
{ACAD_XDICTIONARY
360
108E
102
}
102
{ACAD_REACTORS
330
F93
102
}
330
F93
100
AcDbVisualStyle
2

70
6
71
1
72
2
73
2
90
0
40
-0.6
41
-30.0
62
5
63
7
74
2
91
2
64
7
65
257
75
2
175
1
42
179.0
92
0
66
257
43
1.0
76
1
77
6
78
2
67
7
79
3
170
0
171
0
290
0
174
0
93
1
44
0.0
173
0
291
0
45
0.0
1001
ACAD
1000
AcDbSavedByObjectVersion
1070
0
0
VISUALSTYLE
5
F9A
102
{ACAD_XDICTIONARY
360
108C
102
}
102
{ACAD_REACTORS
330
F93
102
}
330
F93
100
AcDbVisualStyle
2

70
5
71
0
72
2
73
0
90
0
40
-0.6
41
-30.0
62
5
63
7
74
1
91
4
64
7
65
257
75
1
175
1
42
1.0
92
0
66
257
43
1.0
76
1
77
6
78
2
67
7
79
5
170
0
171
0
290
0
174
0
93
1
44
0.0
173
0
291
0
45
0.0
1001
ACAD
1000
AcDbSavedByObjectVersion
1070
0
0
VISUALSTYLE
5
F98
102
{ACAD_XDICTIONARY
360
1088
102
}
102
{ACAD_REACTORS
330
F93
102
}
330
F93
100
AcDbVisualStyle
2

70
7
71
1
72
0
73
1
90
0
40
-0.6
41
-30.0
62
5
63
7
74
0
91
4
64
7
65
257
75
1
175
1
42
1.0
92
8
66
7
43
1.0
76
1
77
6
78
2
67
7
79
5
170
0
171
0
290
0
174
0
93
1
44
0.0
173
0
291
1
45
0.0
1001
ACAD
1000
AcDbSavedByObjectVersion
1070
0
0
VISUALSTYLE
5
F9F
102
{ACAD_XDICTIONARY
360
1096
102
}
102
{ACAD_REACTORS
330
F93
102
}
330
F93
100
AcDbVisualStyle
2

70
12
71
2
72
2
73
0
90
0
40
-0.6
41
-30.0
62
5
63
7
74
1
91
4
64
7
65
257
75
1
175
1
42
1.0
92
8
66
7
43
1.0
76
1
77
6
78
2
67
7
79
5
170
0
171
0
290
0
174
0
93
1
44
50.0
173
0
291
1
45
0.0
1001
ACAD
1000
AcDbSavedByObjectVersion
1070
0
0
VISUALSTYLE
5
FA3
102
{ACAD_XDICTIONARY
360
109E
102
}
102
{ACAD_REACTORS
330
F93
102
}
330
F93
100
AcDbVisualStyle
2

70
16
71
2
72
2
73
3
90
0
40
-0.6
41
-30.0
62
5
63
8
74
1
91
4
64
7
65
257
75
1
175
1
42
1.0
92
8
66
8
43
1.0
76
1
77
6
78
2
67
7
79
5
170
0
171
0
290
0
174
0
93
1
44
0.0
173
0
291
1
45
0.0
1001
ACAD
1000
AcDbSavedByObjectVersion
1070
0
0
VISUALSTYLE
5
F9C
102
{ACAD_XDICTIONARY
360
1090
102
}
102
{ACAD_REACTORS
330
F93
102
}
330
F93
100
AcDbVisualStyle
2

70
9
71
3
72
2
73
0
90
0
40
-0.6
41
-30.0
62
5
63
7
74
2
91
2
64
7
65
257
75
1
175
1
42
179.0
92
8
66
7
43
1.0
76
1
77
6
78
2
67
7
79
3
170
0
171
0
290
0
174
0
93
1
44
0.0
173
0
291
0
45
0.0
1001
ACAD
1000
AcDbSavedByObjectVersion
1070
0
0
VISUALSTYLE
5
F9E
102
{ACAD_XDICTIONARY
360
1094
102
}
102
{ACAD_REACTORS
330
F93
102
}
330
F93
100
AcDbVisualStyle
2

70
11
71
2
72
2
73
0
90
0
40
-0.6
41
-30.0
62
5
63
7
74
1
91
4
64
7
65
257
75
1
175
1
42
1.0
92
8
66
7
43
1.0
76
1
77
6
78
2
67
7
79
5
170
0
171
0
290
0
174
0
93
1
44
-50.0
173
0
291
1
45
0.0
1001
ACAD
1000
AcDbSavedByObjectVersion
1070
0
0
VISUALSTYLE
5
FA6
102
{ACAD_XDICTIONARY
360
10A4
102
}
102
{ACAD_REACTORS
330
F93
102
}
330
F93
100
AcDbVisualStyle
2

70
22
71
2
72
2
73
0
90
0
40
-0.6
41
-30.0
62
5
63
7
74
1
91
4
64
7
65
257
75
1
175
1
42
1.0
92
8
66
7
43
1.0
76
1
77
6
78
2
67
7
79
5
170
0
171
0
290
0
174
0
93
1
44
0.0
173
0
291
1
45
0.0
1001
ACAD
1000
AcDbSavedByObjectVersion
1070
0
0
VISUALSTYLE
5
FA2
102
{ACAD_XDICTIONARY
360
109C
102
}
102
{ACAD_REACTORS
330
F93
102
}
330
F93
100
AcDbVisualStyle
2

70
15
71
2
72
2
73
0
90
0
40
-0.6
41
-30.0
62
5
63
7
74
1
91
4
64
7
65
257
75
1
175
1
42
1.0
92
8
66
7
43
1.0
76
1
77
6
78
2
67
7
79
5
170
0
171
0
290
0
174
0
93
1
44
0.0
173
0
291
1
45
0.0
1001
ACAD
1000
AcDbSavedByObjectVersion
1070
0
0
VISUALSTYLE
5
F94
102
{ACAD_XDICTIONARY
360
1080
102
}
102
{ACAD_REACTORS
330
F93
102
}
330
F93
100
AcDbVisualStyle
2

70
0
71
2
72
1
73
1
90
2
40
-0.6
41
30.0
62
5
63
7
74
0
91
4
64
7
65
257
75
1
175
1
42
1.0
92
8
66
7
43
1.0
76
1
77
6
78
2
67
7
79
5
170
0
171
0
290
0
174
0
93
13
44
0.0
173
0
291
1
45
0.0
1001
ACAD
1000
AcDbSavedByObjectVersion
1070
0
0
VISUALSTYLE
5
F95
102
{ACAD_XDICTIONARY
360
1082
102
}
102
{ACAD_REACTORS
330
F93
102
}
330
F93
100
AcDbVisualStyle
2

70
1
71
2
72
1
73
1
90
2
40
-0.6
41
30.0
62
5
63
7
74
1
91
4
64
7
65
257
75
1
175
1
42
1.0
92
0
66
257
43
1.0
76
1
77
6
78
2
67
7
79
5
170
0
171
0
290
0
174
0
93
13
44
0.0
173
0
291
1
45
0.0
1001
ACAD
1000
AcDbSavedByObjectVersion
1070
0
0
VISUALSTYLE
5
F96
102
{ACAD_XDICTIONARY
360
1084
102
}
102
{ACAD_REACTORS
330
F93
102
}
330
F93
100
AcDbVisualStyle
2

70
2
71
2
72
2
73
1
90
2
40
-0.6
41
30.0
62
5
63
7
74
0
91
4
64
7
65
257
75
1
175
1
42
1.0
92
0
66
7
43
1.0
76
1
77
6
78
2
67
7
79
5
170
0
171
0
290
0
174
0
93
13
44
0.0
173
0
291
1
45
0.0
1001
ACAD
1000
AcDbSavedByObjectVersion
1070
0
0
VISUALSTYLE
5
F97
102
{ACAD_XDICTIONARY
360
1086
102
}
102
{ACAD_REACTORS
330
F93
102
}
330
F93
100
AcDbVisualStyle
2

70
3
71
2
72
2
73
1
90
2
40
-0.6
41
30.0
62
5
63
7
74
1
91
4
64
7
65
257
75
1
175
1
42
1.0
92
0
66
257
43
1.0
76
1
77
6
78
2
67
7
79
5
170
0
171
0
290
0
174
0
93
13
44
0.0
173
0
291
1
45
0.0
1001
ACAD
1000
AcDbSavedByObjectVersion
1070
0
0
VISUALSTYLE
5
FA4
102
{ACAD_XDICTIONARY
360
10A0
102
}
102
{ACAD_REACTORS
330
F93
102
}
330
F93
100
AcDbVisualStyle
2

70
20
71
2
72
2
73
0
90
0
40
-0.6
41
-30.0
62
5
63
7
74
1
91
4
64
7
65
257
75
1
175
1
42
1.0
92
10
66
7
43
1.0
76
1
77
6
78
2
67
7
79
5
170
0
171
0
290
0
174
0
93
1
44
0.0
173
0
291
1
45
0.0
1001
ACAD
1000
AcDbSavedByObjectVersion
1070
0
0
VISUALSTYLE
5
FA1
102
{ACAD_XDICTIONARY
360
109A
102
}
102
{ACAD_REACTORS
330
F93
102
}
330
F93
100
AcDbVisualStyle
2

70
14
71
2
72
2
73
0
90
0
40
-0.6
41
-30.0
62
5
63
7
74
1
91
4
64
7
65
257
75
7
175
7
42
1.0
92
8
66
7
43
1.0
76
1
77
6
78
2
67
7
79
5
170
0
171
0
290
0
174
0
93
1
44
0.0
173
0
291
1
45
0.0
1001
ACAD
1000
AcDbSavedByObjectVersion
1070
0
0
VISUALSTYLE
5
FA5
102
{ACAD_XDICTIONARY
360
10A2
102
}
102
{ACAD_REACTORS
330
F93
102
}
330
F93
100
AcDbVisualStyle
2

70
21
71
2
72
2
73
0
90
0
40
-0.6
41
-30.0
62
5
63
7
74
1
91
4
64
7
65
257
75
1
175
1
42
1.0
92
9
66
7
43
1.0
76
1
77
6
78
2
67
7
79
5
170
0
171
0
290
0
174
0
93
1
44
0.0
173
0
291
1
45
0.0
1001
ACAD
1000
AcDbSavedByObjectVersion
1070
0
0
VISUALSTYLE
5
F9D
102
{ACAD_XDICTIONARY
360
1092
102
}
102
{ACAD_REACTORS
330
F93
102
}
330
F93
100
AcDbVisualStyle
2

70
8
71
2
72
2
73
0
90
0
40
-0.6
41
-30.0
62
5
63
7
74
1
91
0
64
7
65
257
75
1
175
1
42
1.0
92
8
66
8
43
1.0
76
1
77
6
78
2
67
7
79
5
170
0
171
0
290
0
174
0
93
13
44
0.0
173
0
291
0
45
0.0
1001
ACAD
1000
AcDbSavedByObjectVersion
1070
0
0
VISUALSTYLE
5
FA0
102
{ACAD_XDICTIONARY
360
1098
102
}
102
{ACAD_REACTORS
330
F93
102
}
330
F93
100
AcDbVisualStyle
2

70
13
71
2
72
2
73
0
90
0
40
-0.6
41
-30.0
62
5
63
7
74
1
91
4
64
7
65
257
75
1
175
1
42
1.0
92
12
66
7
43
1.0
76
1
77
6
78
2
67
7
79
5
170
0
171
0
290
0
174
0
93
1
44
0.0
173
0
291
1
45
0.0
1001
ACAD
1000
AcDbSavedByObjectVersion
1070
0
0
DICTIONARYVAR
5
FF3
102
{ACAD_REACTORS
330
FF0
102
}
330
FF0
100
DictionaryVariables
280
0
1
1:1
0
DICTIONARYVAR
5
FF2
102
{ACAD_REACTORS
330
FF0
102
}
330
FF0
100
DictionaryVariables
280
0
1
STANDARD
0
DICTIONARYVAR
5
FF1
102
{ACAD_REACTORS
330
FF0
102
}
330
FF0
100
DictionaryVariables
280
0
1
STANDARD
0
DICTIONARYVAR
5
FF6
102
{ACAD_REACTORS
330
FF0
102
}
330
FF0
100
DictionaryVariables
280
0
1
1
0
DICTIONARYVAR
5
FF5
102
{ACAD_REACTORS
330
FF0
102
}
330
FF0
100
DictionaryVariables
280
0
1
0
0
DICTIONARYVAR
5
FF4
102
{ACAD_REACTORS
330
FF0
102
}
330
FF0
100
DictionaryVariables
280
0
1
127
0
DICTIONARYVAR
5
1078
102
{ACAD_REACTORS
330
FF0
102
}
330
FF0
100
DictionaryVariables
280
0
1
2
0
DICTIONARY
5
10A9
330
FD1
100
AcDbDictionary
280
1
281
1
3
ACAD_XREC_ROUNDTRIP
360
10AA
0
DICTIONARY
5
10A7
330
FD0
100
AcDbDictionary
280
1
281
1
3
ACAD_XREC_ROUNDTRIP
360
10A8
0
DICTIONARY
5
F84
330
F83
100
AcDbDictionary
280
1
281
1
3
ACAD_XREC_ROUNDTRIP
360
FFF
3
BUMPTILE
360
F86
3
DIFFUSETILE
360
F85
3
OPACITYTILE
360
F89
3
REFLECTIONTILE
360
F88
3
REFRACTIONTILE
360
F8A
3
SPECULARTILE
360
F87
0
DICTIONARY
5
F7C
330
F7B
100
AcDbDictionary
280
1
281
1
3
ACAD_XREC_ROUNDTRIP
360
FFE
3
BUMPTILE
360
F7E
3
DIFFUSETILE
360
F7D
3
OPACITYTILE
360
F81
3
REFLECTIONTILE
360
F80
3
REFRACTIONTILE
360
F82
3
SPECULARTILE
360
F7F
0
DICTIONARY
5
F8C
330
F8B
100
AcDbDictionary
280
1
281
1
3
ACAD_XREC_ROUNDTRIP
360
1000
3
BUMPTILE
360
F8E
3
DIFFUSETILE
360
F8D
3
OPACITYTILE
360
F91
3
REFLECTIONTILE
360
F90
3
REFRACTIONTILE
360
F92
3
SPECULARTILE
360
F8F
0
DICTIONARY
5
FF8
330
FA9
100
AcDbDictionary
280
1
281
1
3
ACAD_ROUNDTRIP_2008_TABLESTYLE_CELLSTYLEMAP
360
1079
3
ACAD_XREC_ROUNDTRIP
360
10A6
0
DICTIONARY
5
108A
330
F99
100
AcDbDictionary
280
1
281
1
3
ACAD_XREC_ROUNDTRIP
360
108B
0
DICTIONARY
5
108E
330
F9B
100
AcDbDictionary
280
1
281
1
3
ACAD_XREC_ROUNDTRIP
360
108F
0
DICTIONARY
5
108C
330
F9A
100
AcDbDictionary
280
1
281
1
3
ACAD_XREC_ROUNDTRIP
360
108D
0
DICTIONARY
5
1088
330
F98
100
AcDbDictionary
280
1
281
1
3
ACAD_XREC_ROUNDTRIP
360
1089
0
DICTIONARY
5
1096
330
F9F
100
AcDbDictionary
280
1
281
1
3
ACAD_XREC_ROUNDTRIP
360
1097
0
DICTIONARY
5
109E
330
FA3
100
AcDbDictionary
280
1
281
1
3
ACAD_XREC_ROUNDTRIP
360
109F
0
DICTIONARY
5
1090
330
F9C
100
AcDbDictionary
280
1
281
1
3
ACAD_XREC_ROUNDTRIP
360
1091
0
DICTIONARY
5
1094
330
F9E
100
AcDbDictionary
280
1
281
1
3
ACAD_XREC_ROUNDTRIP
360
1095
0
DICTIONARY
5
10A4
330
FA6
100
AcDbDictionary
280
1
281
1
3
ACAD_XREC_ROUNDTRIP
360
10A5
0
DICTIONARY
5
109C
330
FA2
100
AcDbDictionary
280
1
281
1
3
ACAD_XREC_ROUNDTRIP
360
109D
0
DICTIONARY
5
1080
330
F94
100
AcDbDictionary
280
1
281
1
3
ACAD_XREC_ROUNDTRIP
360
1081
0
DICTIONARY
5
1082
330
F95
100
AcDbDictionary
280
1
281
1
3
ACAD_XREC_ROUNDTRIP
360
1083
0
DICTIONARY
5
1084
330
F96
100
AcDbDictionary
280
1
281
1
3
ACAD_XREC_ROUNDTRIP
360
1085
0
DICTIONARY
5
1086
330
F97
100
AcDbDictionary
280
1
281
1
3
ACAD_XREC_ROUNDTRIP
360
1087
0
DICTIONARY
5
10A0
330
FA4
100
AcDbDictionary
280
1
281
1
3
ACAD_XREC_ROUNDTRIP
360
10A1
0
DICTIONARY
5
109A
330
FA1
100
AcDbDictionary
280
1
281
1
3
ACAD_XREC_ROUNDTRIP
360
109B
0
DICTIONARY
5
10A2
330
FA5
100
AcDbDictionary
280
1
281
1
3
ACAD_XREC_ROUNDTRIP
360
10A3
0
DICTIONARY
5
1092
330
F9D
100
AcDbDictionary
280
1
281
1
3
ACAD_XREC_ROUNDTRIP
360
1093
0
DICTIONARY
5
1098
330
FA0
100
AcDbDictionary
280
1
281
1
3
ACAD_XREC_ROUNDTRIP
360
1099
0
XRECORD
5
10AA
102
{ACAD_REACTORS
330
10A9
102
}
330
10A9
100
AcDbXrecord
280
1
102
SHADEPLOT
70
0
102
SHADEPLOTRESLEVEL
70
2
102
SHADEPLOTCUSTOMDPI
70
300
0
XRECORD
5
10A8
102
{ACAD_REACTORS
330
10A7
102
}
330
10A7
100
AcDbXrecord
280
1
102
SHADEPLOT
70
0
102
SHADEPLOTRESLEVEL
70
2
102
SHADEPLOTCUSTOMDPI
70
300
0
XRECORD
5
FFF
102
{ACAD_REACTORS
330
F84
102
}
330
F84
100
AcDbXrecord
280
1
102
MATERIAL
148
0.0
149
0.0
149
0.0
93
0
94
127
282
0
72
0
77
0
171
0
175
0
179
0
273
0
0
XRECORD
5
F86
102
{ACAD_REACTORS
330
F84
102
}
330
F84
100
AcDbXrecord
280
1
270
1
271
1
0
XRECORD
5
F85
102
{ACAD_REACTORS
330
F84
102
}
330
F84
100
AcDbXrecord
280
1
270
1
271
1
0
XRECORD
5
F89
102
{ACAD_REACTORS
330
F84
102
}
330
F84
100
AcDbXrecord
280
1
270
1
271
1
0
XRECORD
5
F88
102
{ACAD_REACTORS
330
F84
102
}
330
F84
100
AcDbXrecord
280
1
270
1
271
1
0
XRECORD
5
F8A
102
{ACAD_REACTORS
330
F84
102
}
330
F84
100
AcDbXrecord
280
1
270
1
271
1
0
XRECORD
5
F87
102
{ACAD_REACTORS
330
F84
102
}
330
F84
100
AcDbXrecord
280
1
270
1
271
1
0
XRECORD
5
FFE
102
{ACAD_REACTORS
330
F7C
102
}
330
F7C
100
AcDbXrecord
280
1
102
MATERIAL
148
0.0
149
0.0
149
0.0
93
0
94
127
282
0
72
0
77
0
171
0
175
0
179
0
273
0
0
XRECORD
5
F7E
102
{ACAD_REACTORS
330
F7C
102
}
330
F7C
100
AcDbXrecord
280
1
270
1
271
1
0
XRECORD
5
F7D
102
{ACAD_REACTORS
330
F7C
102
}
330
F7C
100
AcDbXrecord
280
1
270
1
271
1
0
XRECORD
5
F81
102
{ACAD_REACTORS
330
F7C
102
}
330
F7C
100
AcDbXrecord
280
1
270
1
271
1
0
XRECORD
5
F80
102
{ACAD_REACTORS
330
F7C
102
}
330
F7C
100
AcDbXrecord
280
1
270
1
271
1
0
XRECORD
5
F82
102
{ACAD_REACTORS
330
F7C
102
}
330
F7C
100
AcDbXrecord
280
1
270
1
271
1
0
XRECORD
5
F7F
102
{ACAD_REACTORS
330
F7C
102
}
330
F7C
100
AcDbXrecord
280
1
270
1
271
1
0
XRECORD
5
1000
102
{ACAD_REACTORS
330
F8C
102
}
330
F8C
100
AcDbXrecord
280
1
102
MATERIAL
148
0.0
149
0.0
149
0.0
93
0
94
127
282
0
72
0
77
0
171
0
175
0
179
0
273
0
0
XRECORD
5
F8E
102
{ACAD_REACTORS
330
F8C
102
}
330
F8C
100
AcDbXrecord
280
1
270
1
271
1
0
XRECORD
5
F8D
102
{ACAD_REACTORS
330
F8C
102
}
330
F8C
100
AcDbXrecord
280
1
270
1
271
1
0
XRECORD
5
F91
102
{ACAD_REACTORS
330
F8C
102
}
330
F8C
100
AcDbXrecord
280
1
270
1
271
1
0
XRECORD
5
F90
102
{ACAD_REACTORS
330
F8C
102
}
330
F8C
100
AcDbXrecord
280
1
270
1
271
1
0
XRECORD
5
F92
102
{ACAD_REACTORS
330
F8C
102
}
330
F8C
100
AcDbXrecord
280
1
270
1
271
1
0
XRECORD
5
F8F
102
{ACAD_REACTORS
330
F8C
102
}
330
F8C
100
AcDbXrecord
280
1
270
1
271
1
0
CELLSTYLEMAP
5
1079
102
{ACAD_REACTORS
330
FF8
102
}
330
FF8
100
AcDbCellStyleMap
90
3
300
CELLSTYLE
1
TABLEFORMAT_BEGIN
90
5
170
1
91
0
92
32768
62
257
93
1
300
CONTENTFORMAT
1
CONTENTFORMAT_BEGIN
90
0
91
0
92
512
93
0
300

40
0.0
140
1.0
94
5
62
0
340
253
144
0.25
309
CONTENTFORMAT_END
171
1
301
MARGIN
1
CELLMARGIN_BEGIN
40
0.06
40
0.06
40
0.06
40
0.06
40
0.18
40
0.18
309
CELLMARGIN_END
94
6
95
1
302
GRIDFORMAT
1
GRIDFORMAT_BEGIN
90
0
91
1
62
0
92
-2
340
0
93
0
40
0.045
309
GRIDFORMAT_END
95
2
302
GRIDFORMAT
1
GRIDFORMAT_BEGIN
90
0
91
1
62
0
92
-2
340
0
93
0
40
0.045
309
GRIDFORMAT_END
95
4
302
GRIDFORMAT
1
GRIDFORMAT_BEGIN
90
0
91
1
62
0
92
-2
340
0
93
0
40
0.045
309
GRIDFORMAT_END
95
8
302
GRIDFORMAT
1
GRIDFORMAT_BEGIN
90
0
91
1
62
0
92
-2
340
0
93
0
40
0.045
309
GRIDFORMAT_END
95
16
302
GRIDFORMAT
1
GRIDFORMAT_BEGIN
90
0
91
1
62
0
92
-2
340
0
93
0
40
0.045
309
GRIDFORMAT_END
95
32
302
GRIDFORMAT
1
GRIDFORMAT_BEGIN
90
0
91
1
62
0
92
-2
340
0
93
0
40
0.045
309
GRIDFORMAT_END
309
TABLEFORMAT_END
1
CELLSTYLE_BEGIN
90
1
91
1
300
_TITLE
309
CELLSTYLE_END
300
CELLSTYLE
1
TABLEFORMAT_BEGIN
90
5
170
1
91
0
92
0
62
257
93
1
300
CONTENTFORMAT
1
CONTENTFORMAT_BEGIN
90
0
91
0
92
512
93
0
300

40
0.0
140
1.0
94
5
62
0
340
253
144
0.18
309
CONTENTFORMAT_END
171
1
301
MARGIN
1
CELLMARGIN_BEGIN
40
0.06
40
0.06
40
0.06
40
0.06
40
0.18
40
0.18
309
CELLMARGIN_END
94
6
95
1
302
GRIDFORMAT
1
GRIDFORMAT_BEGIN
90
0
91
1
62
0
92
-2
340
0
93
0
40
0.045
309
GRIDFORMAT_END
95
2
302
GRIDFORMAT
1
GRIDFORMAT_BEGIN
90
0
91
1
62
0
92
-2
340
0
93
0
40
0.045
309
GRIDFORMAT_END
95
4
302
GRIDFORMAT
1
GRIDFORMAT_BEGIN
90
0
91
1
62
0
92
-2
340
0
93
0
40
0.045
309
GRIDFORMAT_END
95
8
302
GRIDFORMAT
1
GRIDFORMAT_BEGIN
90
0
91
1
62
0
92
-2
340
0
93
0
40
0.045
309
GRIDFORMAT_END
95
16
302
GRIDFORMAT
1
GRIDFORMAT_BEGIN
90
0
91
1
62
0
92
-2
340
0
93
0
40
0.045
309
GRIDFORMAT_END
95
32
302
GRIDFORMAT
1
GRIDFORMAT_BEGIN
90
0
91
1
62
0
92
-2
340
0
93
0
40
0.045
309
GRIDFORMAT_END
309
TABLEFORMAT_END
1
CELLSTYLE_BEGIN
90
2
91
1
300
_HEADER
309
CELLSTYLE_END
300
CELLSTYLE
1
TABLEFORMAT_BEGIN
90
5
170
1
91
0
92
0
62
257
93
1
300
CONTENTFORMAT
1
CONTENTFORMAT_BEGIN
90
0
91
0
92
512
93
0
300

40
0.0
140
1.0
94
2
62
0
340
253
144
0.18
309
CONTENTFORMAT_END
171
1
301
MARGIN
1
CELLMARGIN_BEGIN
40
0.06
40
0.06
40
0.06
40
0.06
40
0.18
40
0.18
309
CELLMARGIN_END
94
6
95
1
302
GRIDFORMAT
1
GRIDFORMAT_BEGIN
90
0
91
1
62
0
92
-2
340
0
93
0
40
0.045
309
GRIDFORMAT_END
95
2
302
GRIDFORMAT
1
GRIDFORMAT_BEGIN
90
0
91
1
62
0
92
-2
340
0
93
0
40
0.045
309
GRIDFORMAT_END
95
4
302
GRIDFORMAT
1
GRIDFORMAT_BEGIN
90
0
91
1
62
0
92
-2
340
0
93
0
40
0.045
309
GRIDFORMAT_END
95
8
302
GRIDFORMAT
1
GRIDFORMAT_BEGIN
90
0
91
1
62
0
92
-2
340
0
93
0
40
0.045
309
GRIDFORMAT_END
95
16
302
GRIDFORMAT
1
GRIDFORMAT_BEGIN
90
0
91
1
62
0
92
-2
340
0
93
0
40
0.045
309
GRIDFORMAT_END
95
32
302
GRIDFORMAT
1
GRIDFORMAT_BEGIN
90
0
91
1
62
0
92
-2
340
0
93
0
40
0.045
309
GRIDFORMAT_END
309
TABLEFORMAT_END
1
CELLSTYLE_BEGIN
90
3
91
2
300
_DATA
309
CELLSTYLE_END
0
XRECORD
5
10A6
102
{ACAD_REACTORS
330
FF8
102
}
330
FF8
100
AcDbXrecord
280
1
102
ACAD_ROUNDTRIP_PRE2007_TABLESTYLE
90
512
91
0
1

92
512
93
0
2

94
512
95
0
3

0
XRECORD
5
108B
102
{ACAD_REACTORS
330
108A
102
}
330
108A
100
AcDbXrecord
280
1
102
RTVSPropertyOp0
70
1
102
RTVSPropertyOp1
70
1
102
RTVSPropertyOp2
70
1
102
RTVSPropertyOp3
70
1
102
RTVSPropertyOp4
70
1
102
RTVSPropertyOp5
70
1
102
RTVSPropertyOp6
70
1
102
RTVSPropertyOp7
70
1
102
RTVSPropertyOp8
70
1
102
RTVSPropertyOp9
70
1
102
RTVSPropertyOp10
70
1
102
RTVSPropertyOp11
70
1
102
RTVSPropertyOp12
70
1
102
RTVSPropertyOp13
70
1
102
RTVSPropertyOp14
70
1
102
RTVSPropertyOp15
70
1
102
RTVSPropertyOp16
70
1
102
RTVSPropertyOp17
70
1
102
RTVSPropertyOp18
70
1
102
RTVSPropertyOp19
70
1
102
RTVSPropertyOp20
70
1
102
RTVSPropertyOp21
70
1
102
RTVSPropertyOp22
70
1
102
RTVSPropertyOp23
70
1
102
RTVSPropertyOp24
70
1
102
RTVSPropertyOp25
70
1
102
RTVSPropertyOp26
70
1
102
RTVSPropertyOp27
70
1
0
XRECORD
5
108F
102
{ACAD_REACTORS
330
108E
102
}
330
108E
100
AcDbXrecord
280
1
102
RTVSPropertyOp0
70
1
102
RTVSPropertyOp1
70
1
102
RTVSPropertyOp2
70
1
102
RTVSPropertyOp3
70
1
102
RTVSPropertyOp4
70
1
102
RTVSPropertyOp5
70
1
102
RTVSPropertyOp6
70
1
102
RTVSPropertyOp7
70
1
102
RTVSPropertyOp8
70
1
102
RTVSPropertyOp9
70
1
102
RTVSPropertyOp10
70
1
102
RTVSPropertyOp11
70
1
102
RTVSPropertyOp12
70
1
102
RTVSPropertyOp13
70
1
102
RTVSPropertyOp14
70
1
102
RTVSPropertyOp15
70
1
102
RTVSPropertyOp16
70
1
102
RTVSPropertyOp17
70
1
102
RTVSPropertyOp18
70
1
102
RTVSPropertyOp19
70
1
102
RTVSPropertyOp20
70
1
102
RTVSPropertyOp21
70
1
102
RTVSPropertyOp22
70
1
102
RTVSPropertyOp23
70
1
102
RTVSPropertyOp24
70
1
102
RTVSPropertyOp25
70
1
102
RTVSPropertyOp26
70
1
102
RTVSPropertyOp27
70
1
0
XRECORD
5
108D
102
{ACAD_REACTORS
330
108C
102
}
330
108C
100
AcDbXrecord
280
1
102
RTVSPropertyOp0
70
1
102
RTVSPropertyOp1
70
1
102
RTVSPropertyOp2
70
1
102
RTVSPropertyOp3
70
1
102
RTVSPropertyOp4
70
1
102
RTVSPropertyOp5
70
1
102
RTVSPropertyOp6
70
1
102
RTVSPropertyOp7
70
1
102
RTVSPropertyOp8
70
1
102
RTVSPropertyOp9
70
1
102
RTVSPropertyOp10
70
1
102
RTVSPropertyOp11
70
1
102
RTVSPropertyOp12
70
1
102
RTVSPropertyOp13
70
1
102
RTVSPropertyOp14
70
1
102
RTVSPropertyOp15
70
1
102
RTVSPropertyOp16
70
1
102
RTVSPropertyOp17
70
1
102
RTVSPropertyOp18
70
1
102
RTVSPropertyOp19
70
1
102
RTVSPropertyOp20
70
1
102
RTVSPropertyOp21
70
1
102
RTVSPropertyOp22
70
1
102
RTVSPropertyOp23
70
1
102
RTVSPropertyOp24
70
1
102
RTVSPropertyOp25
70
1
102
RTVSPropertyOp26
70
1
102
RTVSPropertyOp27
70
1
0
XRECORD
5
1089
102
{ACAD_REACTORS
330
1088
102
}
330
1088
100
AcDbXrecord
280
1
102
RTVSPropertyOp0
70
1
102
RTVSPropertyOp1
70
1
102
RTVSPropertyOp2
70
1
102
RTVSPropertyOp3
70
1
102
RTVSPropertyOp4
70
1
102
RTVSPropertyOp5
70
1
102
RTVSPropertyOp6
70
1
102
RTVSPropertyOp7
70
1
102
RTVSPropertyOp8
70
1
102
RTVSPropertyOp9
70
1
102
RTVSPropertyOp10
70
1
102
RTVSPropertyOp11
70
1
102
RTVSPropertyOp12
70
1
102
RTVSPropertyOp13
70
1
102
RTVSPropertyOp14
70
1
102
RTVSPropertyOp15
70
1
102
RTVSPropertyOp16
70
1
102
RTVSPropertyOp17
70
1
102
RTVSPropertyOp18
70
1
102
RTVSPropertyOp19
70
1
102
RTVSPropertyOp20
70
1
102
RTVSPropertyOp21
70
1
102
RTVSPropertyOp22
70
1
102
RTVSPropertyOp23
70
1
102
RTVSPropertyOp24
70
1
102
RTVSPropertyOp25
70
1
102
RTVSPropertyOp26
70
1
102
RTVSPropertyOp27
70
1
0
XRECORD
5
1097
102
{ACAD_REACTORS
330
1096
102
}
330
1096
100
AcDbXrecord
280
1
102
RTVSPropertyOp0
70
1
102
RTVSPropertyOp1
70
1
102
RTVSPropertyOp2
70
1
102
RTVSPropertyOp3
70
1
102
RTVSPropertyOp4
70
1
102
RTVSPropertyOp5
70
1
102
RTVSPropertyOp6
70
1
102
RTVSPropertyOp7
70
1
102
RTVSPropertyOp8
70
1
102
RTVSPropertyOp9
70
1
102
RTVSPropertyOp10
70
1
102
RTVSPropertyOp11
70
1
102
RTVSPropertyOp12
70
1
102
RTVSPropertyOp13
70
1
102
RTVSPropertyOp14
70
1
102
RTVSPropertyOp15
70
1
102
RTVSPropertyOp16
70
1
102
RTVSPropertyOp17
70
1
102
RTVSPropertyOp18
70
1
102
RTVSPropertyOp19
70
1
102
RTVSPropertyOp20
70
1
102
RTVSPropertyOp21
70
1
102
RTVSPropertyOp22
70
1
102
RTVSPropertyOp23
70
1
102
RTVSPropertyOp24
70
1
102
RTVSPropertyOp25
70
1
102
RTVSPropertyOp26
70
1
102
RTVSPropertyOp27
70
1
0
XRECORD
5
109F
102
{ACAD_REACTORS
330
109E
102
}
330
109E
100
AcDbXrecord
280
1
102
RTVSPropertyOp0
70
1
102
RTVSPropertyOp1
70
1
102
RTVSPropertyOp2
70
1
102
RTVSPropertyOp3
70
1
102
RTVSPropertyOp4
70
1
102
RTVSPropertyOp5
70
1
102
RTVSPropertyOp6
70
1
102
RTVSPropertyOp7
70
1
102
RTVSPropertyOp8
70
1
102
RTVSPropertyOp9
70
1
102
RTVSPropertyOp10
70
1
102
RTVSPropertyOp11
70
1
102
RTVSPropertyOp12
70
1
102
RTVSPropertyOp13
70
1
102
RTVSPropertyOp14
70
1
102
RTVSPropertyOp15
70
1
102
RTVSPropertyOp16
70
1
102
RTVSPropertyOp17
70
1
102
RTVSPropertyOp18
70
1
102
RTVSPropertyOp19
70
1
102
RTVSPropertyOp20
70
1
102
RTVSPropertyOp21
70
1
102
RTVSPropertyOp22
70
1
102
RTVSPropertyOp23
70
1
102
RTVSPropertyOp24
70
1
102
RTVSPropertyOp25
70
1
102
RTVSPropertyOp26
70
1
102
RTVSPropertyOp27
70
1
0
XRECORD
5
1091
102
{ACAD_REACTORS
330
1090
102
}
330
1090
100
AcDbXrecord
280
1
102
RTVSPropertyOp0
70
1
102
RTVSPropertyOp1
70
1
102
RTVSPropertyOp2
70
1
102
RTVSPropertyOp3
70
1
102
RTVSPropertyOp4
70
1
102
RTVSPropertyOp5
70
1
102
RTVSPropertyOp6
70
1
102
RTVSPropertyOp7
70
1
102
RTVSPropertyOp8
70
1
102
RTVSPropertyOp9
70
1
102
RTVSPropertyOp10
70
1
102
RTVSPropertyOp11
70
1
102
RTVSPropertyOp12
70
1
102
RTVSPropertyOp13
70
1
102
RTVSPropertyOp14
70
1
102
RTVSPropertyOp15
70
1
102
RTVSPropertyOp16
70
1
102
RTVSPropertyOp17
70
1
102
RTVSPropertyOp18
70
1
102
RTVSPropertyOp19
70
1
102
RTVSPropertyOp20
70
1
102
RTVSPropertyOp21
70
1
102
RTVSPropertyOp22
70
1
102
RTVSPropertyOp23
70
1
102
RTVSPropertyOp24
70
1
102
RTVSPropertyOp25
70
1
102
RTVSPropertyOp26
70
1
102
RTVSPropertyOp27
70
1
0
XRECORD
5
1095
102
{ACAD_REACTORS
330
1094
102
}
330
1094
100
AcDbXrecord
280
1
102
RTVSPropertyOp0
70
1
102
RTVSPropertyOp1
70
1
102
RTVSPropertyOp2
70
1
102
RTVSPropertyOp3
70
1
102
RTVSPropertyOp4
70
1
102
RTVSPropertyOp5
70
1
102
RTVSPropertyOp6
70
1
102
RTVSPropertyOp7
70
1
102
RTVSPropertyOp8
70
1
102
RTVSPropertyOp9
70
1
102
RTVSPropertyOp10
70
1
102
RTVSPropertyOp11
70
1
102
RTVSPropertyOp12
70
1
102
RTVSPropertyOp13
70
1
102
RTVSPropertyOp14
70
1
102
RTVSPropertyOp15
70
1
102
RTVSPropertyOp16
70
1
102
RTVSPropertyOp17
70
1
102
RTVSPropertyOp18
70
1
102
RTVSPropertyOp19
70
1
102
RTVSPropertyOp20
70
1
102
RTVSPropertyOp21
70
1
102
RTVSPropertyOp22
70
1
102
RTVSPropertyOp23
70
1
102
RTVSPropertyOp24
70
1
102
RTVSPropertyOp25
70
1
102
RTVSPropertyOp26
70
1
102
RTVSPropertyOp27
70
1
0
XRECORD
5
10A5
102
{ACAD_REACTORS
330
10A4
102
}
330
10A4
100
AcDbXrecord
280
1
102
RTVSPropertyOp0
70
0
102
RTVSPropertyOp1
70
0
102
RTVSPropertyOp2
70
0
102
RTVSPropertyOp3
70
0
102
RTVSPropertyOp4
70
0
102
RTVSPropertyOp5
70
0
102
RTVSPropertyOp6
70
0
102
RTVSPropertyOp7
70
0
102
RTVSPropertyOp8
70
0
102
RTVSPropertyOp9
70
0
102
RTVSPropertyOp10
70
0
102
RTVSPropertyOp11
70
0
102
RTVSPropertyOp12
70
0
102
RTVSPropertyOp13
70
0
102
RTVSPropertyOp14
70
2
102
RTVSPropertyOp15
70
0
102
RTVSPropertyOp16
70
0
102
RTVSPropertyOp17
70
0
102
RTVSPropertyOp18
70
0
102
RTVSPropertyOp19
70
0
102
RTVSPropertyOp20
70
0
102
RTVSPropertyOp21
70
0
102
RTVSPropertyOp22
70
0
102
RTVSPropertyOp23
70
0
102
RTVSPropertyOp24
70
0
102
RTVSPropertyOp25
70
0
102
RTVSPropertyOp26
70
0
102
RTVSPropertyOp27
70
0
0
XRECORD
5
109D
102
{ACAD_REACTORS
330
109C
102
}
330
109C
100
AcDbXrecord
280
1
102
RTVSPropertyOp0
70
1
102
RTVSPropertyOp1
70
1
102
RTVSPropertyOp2
70
1
102
RTVSPropertyOp3
70
1
102
RTVSPropertyOp4
70
1
102
RTVSPropertyOp5
70
1
102
RTVSPropertyOp6
70
1
102
RTVSPropertyOp7
70
1
102
RTVSPropertyOp8
70
1
102
RTVSPropertyOp9
70
1
102
RTVSPropertyOp10
70
1
102
RTVSPropertyOp11
70
1
102
RTVSPropertyOp12
70
1
102
RTVSPropertyOp13
70
1
102
RTVSPropertyOp14
70
1
102
RTVSPropertyOp15
70
1
102
RTVSPropertyOp16
70
1
102
RTVSPropertyOp17
70
1
102
RTVSPropertyOp18
70
1
102
RTVSPropertyOp19
70
1
102
RTVSPropertyOp20
70
1
102
RTVSPropertyOp21
70
1
102
RTVSPropertyOp22
70
1
102
RTVSPropertyOp23
70
1
102
RTVSPropertyOp24
70
1
102
RTVSPropertyOp25
70
1
102
RTVSPropertyOp26
70
1
102
RTVSPropertyOp27
70
1
0
XRECORD
5
1081
102
{ACAD_REACTORS
330
1080
102
}
330
1080
100
AcDbXrecord
280
1
102
RTVSPropertyOp0
70
1
102
RTVSPropertyOp1
70
1
102
RTVSPropertyOp2
70
1
102
RTVSPropertyOp3
70
1
102
RTVSPropertyOp4
70
1
102
RTVSPropertyOp5
70
1
102
RTVSPropertyOp6
70
1
102
RTVSPropertyOp7
70
1
102
RTVSPropertyOp8
70
1
102
RTVSPropertyOp9
70
1
102
RTVSPropertyOp10
70
1
102
RTVSPropertyOp11
70
1
102
RTVSPropertyOp12
70
1
102
RTVSPropertyOp13
70
1
102
RTVSPropertyOp14
70
1
102
RTVSPropertyOp15
70
1
102
RTVSPropertyOp16
70
1
102
RTVSPropertyOp17
70
1
102
RTVSPropertyOp18
70
1
102
RTVSPropertyOp19
70
1
102
RTVSPropertyOp20
70
1
102
RTVSPropertyOp21
70
1
102
RTVSPropertyOp22
70
1
102
RTVSPropertyOp23
70
1
102
RTVSPropertyOp24
70
1
102
RTVSPropertyOp25
70
1
102
RTVSPropertyOp26
70
1
102
RTVSPropertyOp27
70
1
0
XRECORD
5
1083
102
{ACAD_REACTORS
330
1082
102
}
330
1082
100
AcDbXrecord
280
1
102
RTVSPropertyOp0
70
1
102
RTVSPropertyOp1
70
1
102
RTVSPropertyOp2
70
1
102
RTVSPropertyOp3
70
1
102
RTVSPropertyOp4
70
1
102
RTVSPropertyOp5
70
1
102
RTVSPropertyOp6
70
1
102
RTVSPropertyOp7
70
1
102
RTVSPropertyOp8
70
1
102
RTVSPropertyOp9
70
1
102
RTVSPropertyOp10
70
1
102
RTVSPropertyOp11
70
1
102
RTVSPropertyOp12
70
1
102
RTVSPropertyOp13
70
1
102
RTVSPropertyOp14
70
1
102
RTVSPropertyOp15
70
1
102
RTVSPropertyOp16
70
1
102
RTVSPropertyOp17
70
1
102
RTVSPropertyOp18
70
1
102
RTVSPropertyOp19
70
1
102
RTVSPropertyOp20
70
1
102
RTVSPropertyOp21
70
1
102
RTVSPropertyOp22
70
1
102
RTVSPropertyOp23
70
1
102
RTVSPropertyOp24
70
1
102
RTVSPropertyOp25
70
1
102
RTVSPropertyOp26
70
1
102
RTVSPropertyOp27
70
1
0
XRECORD
5
1085
102
{ACAD_REACTORS
330
1084
102
}
330
1084
100
AcDbXrecord
280
1
102
RTVSPropertyOp0
70
1
102
RTVSPropertyOp1
70
1
102
RTVSPropertyOp2
70
1
102
RTVSPropertyOp3
70
1
102
RTVSPropertyOp4
70
1
102
RTVSPropertyOp5
70
1
102
RTVSPropertyOp6
70
1
102
RTVSPropertyOp7
70
1
102
RTVSPropertyOp8
70
1
102
RTVSPropertyOp9
70
1
102
RTVSPropertyOp10
70
1
102
RTVSPropertyOp11
70
1
102
RTVSPropertyOp12
70
1
102
RTVSPropertyOp13
70
1
102
RTVSPropertyOp14
70
1
102
RTVSPropertyOp15
70
1
102
RTVSPropertyOp16
70
1
102
RTVSPropertyOp17
70
1
102
RTVSPropertyOp18
70
1
102
RTVSPropertyOp19
70
1
102
RTVSPropertyOp20
70
1
102
RTVSPropertyOp21
70
1
102
RTVSPropertyOp22
70
1
102
RTVSPropertyOp23
70
1
102
RTVSPropertyOp24
70
1
102
RTVSPropertyOp25
70
1
102
RTVSPropertyOp26
70
1
102
RTVSPropertyOp27
70
1
0
XRECORD
5
1087
102
{ACAD_REACTORS
330
1086
102
}
330
1086
100
AcDbXrecord
280
1
102
RTVSPropertyOp0
70
1
102
RTVSPropertyOp1
70
1
102
RTVSPropertyOp2
70
1
102
RTVSPropertyOp3
70
1
102
RTVSPropertyOp4
70
1
102
RTVSPropertyOp5
70
1
102
RTVSPropertyOp6
70
1
102
RTVSPropertyOp7
70
1
102
RTVSPropertyOp8
70
1
102
RTVSPropertyOp9
70
1
102
RTVSPropertyOp10
70
1
102
RTVSPropertyOp11
70
1
102
RTVSPropertyOp12
70
1
102
RTVSPropertyOp13
70
1
102
RTVSPropertyOp14
70
1
102
RTVSPropertyOp15
70
1
102
RTVSPropertyOp16
70
1
102
RTVSPropertyOp17
70
1
102
RTVSPropertyOp18
70
1
102
RTVSPropertyOp19
70
1
102
RTVSPropertyOp20
70
1
102
RTVSPropertyOp21
70
1
102
RTVSPropertyOp22
70
1
102
RTVSPropertyOp23
70
1
102
RTVSPropertyOp24
70
1
102
RTVSPropertyOp25
70
1
102
RTVSPropertyOp26
70
1
102
RTVSPropertyOp27
70
1
0
XRECORD
5
10A1
102
{ACAD_REACTORS
330
10A0
102
}
330
10A0
100
AcDbXrecord
280
1
102
RTVSPropertyOp0
70
0
102
RTVSPropertyOp1
70
0
102
RTVSPropertyOp2
70
0
102
RTVSPropertyOp3
70
0
102
RTVSPropertyOp4
70
0
102
RTVSPropertyOp5
70
0
102
RTVSPropertyOp6
70
0
102
RTVSPropertyOp7
70
0
102
RTVSPropertyOp8
70
0
102
RTVSPropertyOp9
70
0
102
RTVSPropertyOp10
70
0
102
RTVSPropertyOp11
70
0
102
RTVSPropertyOp12
70
0
102
RTVSPropertyOp13
70
0
102
RTVSPropertyOp14
70
2
102
RTVSPropertyOp15
70
0
102
RTVSPropertyOp16
70
0
102
RTVSPropertyOp17
70
0
102
RTVSPropertyOp18
70
0
102
RTVSPropertyOp19
70
0
102
RTVSPropertyOp20
70
0
102
RTVSPropertyOp21
70
0
102
RTVSPropertyOp22
70
0
102
RTVSPropertyOp23
70
0
102
RTVSPropertyOp24
70
0
102
RTVSPropertyOp25
70
0
102
RTVSPropertyOp26
70
0
102
RTVSPropertyOp27
70
0
0
XRECORD
5
109B
102
{ACAD_REACTORS
330
109A
102
}
330
109A
100
AcDbXrecord
280
1
102
RTVSPropertyOp0
70
1
102
RTVSPropertyOp1
70
1
102
RTVSPropertyOp2
70
1
102
RTVSPropertyOp3
70
1
102
RTVSPropertyOp4
70
1
102
RTVSPropertyOp5
70
1
102
RTVSPropertyOp6
70
1
102
RTVSPropertyOp7
70
1
102
RTVSPropertyOp8
70
1
102
RTVSPropertyOp9
70
1
102
RTVSPropertyOp10
70
1
102
RTVSPropertyOp11
70
1
102
RTVSPropertyOp12
70
1
102
RTVSPropertyOp13
70
1
102
RTVSPropertyOp14
70
1
102
RTVSPropertyOp15
70
1
102
RTVSPropertyOp16
70
1
102
RTVSPropertyOp17
70
1
102
RTVSPropertyOp18
70
1
102
RTVSPropertyOp19
70
1
102
RTVSPropertyOp20
70
1
102
RTVSPropertyOp21
70
1
102
RTVSPropertyOp22
70
1
102
RTVSPropertyOp23
70
1
102
RTVSPropertyOp24
70
1
102
RTVSPropertyOp25
70
1
102
RTVSPropertyOp26
70
1
102
RTVSPropertyOp27
70
1
0
XRECORD
5
10A3
102
{ACAD_REACTORS
330
10A2
102
}
330
10A2
100
AcDbXrecord
280
1
102
RTVSPropertyOp0
70
0
102
RTVSPropertyOp1
70
0
102
RTVSPropertyOp2
70
0
102
RTVSPropertyOp3
70
0
102
RTVSPropertyOp4
70
0
102
RTVSPropertyOp5
70
0
102
RTVSPropertyOp6
70
0
102
RTVSPropertyOp7
70
0
102
RTVSPropertyOp8
70
0
102
RTVSPropertyOp9
70
0
102
RTVSPropertyOp10
70
0
102
RTVSPropertyOp11
70
0
102
RTVSPropertyOp12
70
0
102
RTVSPropertyOp13
70
0
102
RTVSPropertyOp14
70
2
102
RTVSPropertyOp15
70
0
102
RTVSPropertyOp16
70
0
102
RTVSPropertyOp17
70
0
102
RTVSPropertyOp18
70
0
102
RTVSPropertyOp19
70
0
102
RTVSPropertyOp20
70
0
102
RTVSPropertyOp21
70
0
102
RTVSPropertyOp22
70
0
102
RTVSPropertyOp23
70
0
102
RTVSPropertyOp24
70
0
102
RTVSPropertyOp25
70
0
102
RTVSPropertyOp26
70
0
102
RTVSPropertyOp27
70
0
0
XRECORD
5
1093
102
{ACAD_REACTORS
330
1092
102
}
330
1092
100
AcDbXrecord
280
1
102
RTVSPropertyOp0
70
1
102
RTVSPropertyOp1
70
1
102
RTVSPropertyOp2
70
1
102
RTVSPropertyOp3
70
1
102
RTVSPropertyOp4
70
1
102
RTVSPropertyOp5
70
1
102
RTVSPropertyOp6
70
1
102
RTVSPropertyOp7
70
1
102
RTVSPropertyOp8
70
1
102
RTVSPropertyOp9
70
1
102
RTVSPropertyOp10
70
1
102
RTVSPropertyOp11
70
1
102
RTVSPropertyOp12
70
1
102
RTVSPropertyOp13
70
1
102
RTVSPropertyOp14
70
1
102
RTVSPropertyOp15
70
1
102
RTVSPropertyOp16
70
1
102
RTVSPropertyOp17
70
1
102
RTVSPropertyOp18
70
1
102
RTVSPropertyOp19
70
1
102
RTVSPropertyOp20
70
1
102
RTVSPropertyOp21
70
1
102
RTVSPropertyOp22
70
1
102
RTVSPropertyOp23
70
1
102
RTVSPropertyOp24
70
1
102
RTVSPropertyOp25
70
1
102
RTVSPropertyOp26
70
1
102
RTVSPropertyOp27
70
1
0
XRECORD
5
1099
102
{ACAD_REACTORS
330
1098
102
}
330
1098
100
AcDbXrecord
280
1
102
RTVSPropertyOp0
70
1
102
RTVSPropertyOp1
70
1
102
RTVSPropertyOp2
70
1
102
RTVSPropertyOp3
70
1
102
RTVSPropertyOp4
70
1
102
RTVSPropertyOp5
70
1
102
RTVSPropertyOp6
70
1
102
RTVSPropertyOp7
70
1
102
RTVSPropertyOp8
70
1
102
RTVSPropertyOp9
70
1
102
RTVSPropertyOp10
70
1
102
RTVSPropertyOp11
70
1
102
RTVSPropertyOp12
70
1
102
RTVSPropertyOp13
70
1
102
RTVSPropertyOp14
70
1
102
RTVSPropertyOp15
70
1
102
RTVSPropertyOp16
70
1
102
RTVSPropertyOp17
70
1
102
RTVSPropertyOp18
70
1
102
RTVSPropertyOp19
70
1
102
RTVSPropertyOp20
70
1
102
RTVSPropertyOp21
70
1
102
RTVSPropertyOp22
70
1
102
RTVSPropertyOp23
70
1
102
RTVSPropertyOp24
70
1
102
RTVSPropertyOp25
70
1
102
RTVSPropertyOp26
70
1
102
RTVSPropertyOp27
70
1
0
ENDSEC
0
EOF
