0
SECTION
2
HEADER
9
$ACADVER
1
AC1015
9
$ACADMAINTVER
70
20
9
$DWGCODEPAGE
3
ANSI_1252
9
$INSBASE
10
0.0
20
0.0
30
0.0
9
$EXTMIN
10
-150.000000000000
20
-105.000000000000
30
0.0
9
$EXTMAX
10
150.000000000000
20
105.000000000000
30
0.0
9
$LIMMIN
10
0.0
20
0.0
9
$LIMMAX
10
12.0
20
9.0
9
$ORTHOMODE
70
0
9
$REGENMODE
70
1
9
$FILLMODE
70
1
9
$QTEXTMODE
70
0
9
$MIRRTEXT
70
1
9
$LTSCALE
40
1.0
9
$ATTMODE
70
1
9
$TEXTSIZE
40
0.2
9
$TRACEWID
40
0.05
9
$TEXTSTYLE
7
Standard
9
$CLAYER
8
0
9
$CELTYPE
6
ByLayer
9
$CECOLOR
62
256
9
$CELTSCALE
40
1.0
9
$DISPSILH
70
0
9
$DIMSCALE
40
1.0
9
$DIMASZ
40
2.5
9
$DIMEXO
40
0.625
9
$DIMDLI
40
0.38
9
$DIMRND
40
0.0
9
$DIMDLE
40
0.0
9
$DIMEXE
40
1.25
9
$DIMTP
40
0.0
9
$DIMTM
40
0.000000001
9
$DIMTXT
40
2.5
9
$DIMCEN
40
0.09
9
$DIMTSZ
40
0.0
9
$DIMTOL
70
1
9
$DIMLIM
70
0
9
$DIMTIH
70
0
9
$DIMTOH
70
0
9
$DIMSE1
70
0
9
$DIMSE2
70
0
9
$DIMTAD
70
1
9
$DIMZIN
70
0
9
$DIMBLK
1
VDDIM_DEFAULT
9
$DIMASO
70
1
9
$DIMSHO
70
1
9
$DIMPOST
1

9
$DIMAPOST
1

9
$DIMALT
70
0
9
$DIMALTD
70
2
9
$DIMALTF
40
25.4
9
$DIMLFAC
40
1.00000000000000
9
$DIMTOFL
70
0
9
$DIMTVP
40
0.0
9
$DIMTIX
70
0
9
$DIMSOXD
70
0
9
$DIMSAH
70
0
9
$DIMBLK1
1

9
$DIMBLK2
1

9
$DIMSTYLE
2
BEM-ISBE
9
$DIMCLRD
70
0
9
$DIMCLRE
70
0
9
$DIMCLRT
70
0
9
$DIMTFAC
40
0.5
9
$DIMGAP
40
0.625
9
$DIMJUST
70
0
9
$DIMSD1
70
0
9
$DIMSD2
70
0
9
$DIMTOLJ
70
1
9
$DIMTZIN
70
0
9
$DIMALTZ
70
0
9
$DIMALTTZ
70
0
9
$DIMUPT
70
0
9
$DIMDEC
70
3
9
$DIMTDEC
70
3
9
$DIMALTU
70
2
9
$DIMALTTD
70
2
9
$DIMTXSTY
7
Standard
9
$DIMAUNIT
70
0
9
$DIMADEC
70
3
9
$DIMALTRND
40
0.0
9
$DIMAZIN
70
0
9
$DIMDSEP
70
46
9
$DIMATFIT
70
3
9
$DIMFRAC
70
0
9
$DIMLDRBLK
1

9
$DIMLUNIT
70
2
9
$DIMLWD
70
-2
9
$DIMLWE
70
-2
9
$DIMTMOVE
70
0
9
$LUNITS
70
2
9
$LUPREC
70
4
9
$SKETCHINC
40
0.1
9
$FILLETRAD
40
0.5
9
$AUNITS
70
0
9
$AUPREC
70
0
9
$MENU
1
.
9
$ELEVATION
40
0.0
9
$PELEVATION
40
0.0
9
$THICKNESS
40
0.0
9
$LIMCHECK
70
0
9
$CHAMFERA
40
0.5
9
$CHAMFERB
40
0.5
9
$CHAMFERC
40
1.0
9
$CHAMFERD
40
0.0
9
$SKPOLY
70
0
9
$TDCREATE
40
0.0
9
$TDUCREATE
40
0.0
9
$TDUPDATE
40
0.0
9
$TDUUPDATE
40
0.0
9
$TDINDWG
40
0.0
9
$TDUSRTIMER
40
0.0
9
$USRTIMER
70
1
9
$ANGBASE
50
0.0
9
$ANGDIR
70
0
9
$PDMODE
70
0
9
$PDSIZE
40
0.0
9
$PLINEWID
40
0.0
9
$SPLFRAME
70
0
9
$SPLINETYPE
70
6
9
$SPLINESEGS
70
8
9
$HANDSEED
5
10AB
9
$SURFTAB1
70
6
9
$SURFTAB2
70
6
9
$SURFTYPE
70
6
9
$SURFU
70
6
9
$SURFV
70
6
9
$UCSBASE
2

9
$UCSNAME
2

9
$UCSORG
10
0.0
20
0.0
30
0.0
9
$UCSXDIR
10
1.0
20
0.0
30
0.0
9
$UCSYDIR
10
0.0
20
1.0
30
0.0
9
$UCSORTHOREF
2

9
$UCSORTHOVIEW
70
0
9
$UCSORGTOP
10
0.0
20
0.0
30
0.0
9
$UCSORGBOTTOM
10
0.0
20
0.0
30
0.0
9
$UCSORGLEFT
10
0.0
20
0.0
30
0.0
9
$UCSORGRIGHT
10
0.0
20
0.0
30
0.0
9
$UCSORGFRONT
10
0.0
20
0.0
30
0.0
9
$UCSORGBACK
10
0.0
20
0.0
30
0.0
9
$PUCSBASE
2

9
$PUCSNAME
2

9
$PUCSORG
10
0.0
20
0.0
30
0.0
9
$PUCSXDIR
10
1.0
20
0.0
30
0.0
9
$PUCSYDIR
10
0.0
20
1.0
30
0.0
9
$PUCSORTHOREF
2

9
$PUCSORTHOVIEW
70
0
9
$PUCSORGTOP
10
0.0
20
0.0
30
0.0
9
$PUCSORGBOTTOM
10
0.0
20
0.0
30
0.0
9
$PUCSORGLEFT
10
0.0
20
0.0
30
0.0
9
$PUCSORGRIGHT
10
0.0
20
0.0
30
0.0
9
$PUCSORGFRONT
10
0.0
20
0.0
30
0.0
9
$PUCSORGBACK
10
0.0
20
0.0
30
0.0
9
$USERI1
70
0
9
$USERI2
70
0
9
$USERI3
70
0
9
$USERI4
70
0
9
$USERI5
70
0
9
$USERR1
40
0.0
9
$USERR2
40
0.0
9
$USERR3
40
0.0
9
$USERR4
40
0.0
9
$USERR5
40
0.0
9
$WORLDVIEW
70
1
9
$SHADEDGE
70
3
9
$SHADEDIF
70
70
9
$TILEMODE
70
1
9
$MAXACTVP
70
64
9
$PINSBASE
10
0.0
20
0.0
30
0.0
9
$PLIMCHECK
70
0
9
$PEXTMIN
10
1.000000000000000E+20
20
1.000000000000000E+20
30
1.000000000000000E+20
9
$PEXTMAX
10
-1.000000000000000E+20
20
-1.000000000000000E+20
30
-1.000000000000000E+20
9
$PLIMMIN
10
0.0
20
0.0
9
$PLIMMAX
10
12.0
20
9.0
9
$UNITMODE
70
0
9
$VISRETAIN
70
1
9
$PLINEGEN
70
0
9
$PSLTSCALE
70
1
9
$TREEDEPTH
70
3020
9
$CMLSTYLE
2
Standard
9
$CMLJUST
70
0
9
$CMLSCALE
40
1.0
9
$PROXYGRAPHICS
70
1
9
$MEASUREMENT
70
0
9
$CELWEIGHT
370
-1
9
$ENDCAPS
280
0
9
$JOINSTYLE
280
0
9
$LWDISPLAY
290
0
9
$INSUNITS
70
4
9
$HYPERLINKBASE
1

9
$STYLESHEET
1

9
$XEDIT
290
1
9
$CEPSNTYPE
380
0
9
$PSTYLEMODE
290
0
9
$FINGERPRINTGUID
2
{FAEB1C30-E019-11D5-929B-00C0DF256EC4}
9
$VERSIONGUID
2
{04C5C4E4-4947-4D90-8812-D401569E61F7}
9
$EXTNAMES
290
1
9
$PSVPSCALE
40
0.0
9
$OLESTARTUP
290
0
0
ENDSEC
0
SECTION
2
TABLES
0
TABLE
2
VPORT
5
24A
330
0
100
AcDbSymbolTable
70
1
0
VPORT
5
26B
330
24A
100
AcDbSymbolTableRecord
100
AcDbViewportTableRecord
2
*Active
70
0
10
0.0
20
0.0
11
1.0
21
1.0
12
0.000000000000000
22
0.000000000000000
13
0.0
23
0.0
14
10.0
24
10.0
15
10.0
25
10.0
16
0.0
26
0.0
36
1.0
17
0.0
27
0.0
37
0.0
40
210.000000000000
41
1.42857142857143
42
1.0
43
0.0
44
0.0
50
0.0
51
0.0000000000007958
71
0
72
100
73
1
74
3
75
0
76
0
77
0
78
1
281
0
65
1
110
0.0
120
0.0
130
0.0
111
1.0
121
0.0
131
0.0
112
0.0
122
1.0
132
0.0
79
0
146
0.0
0
ENDTAB
0
TABLE
2
LTYPE
5
247
330
0
100
AcDbSymbolTable
70
25
0
LTYPE
5
256
330
247
100
AcDbSymbolTableRecord
100
AcDbLinetypeTableRecord
2
ByBlock
70
0
3

72
65
73
0
40
0.0
0
LTYPE
5
257
330
247
100
AcDbSymbolTableRecord
100
AcDbLinetypeTableRecord
2
ByLayer
70
0
3

72
65
73
0
40
0.0
0
LTYPE
5
258
330
247
100
AcDbSymbolTableRecord
100
AcDbLinetypeTableRecord
2
Continuous
70
0
3
Solid line
72
65
73
0
40
0.0
0
LTYPE
5
273
330
247
100
AcDbSymbolTableRecord
100
AcDbLinetypeTableRecord
2
CENTER
70
0
3
Center ____ _ ____ _ ____ _ ____ _ ____ _ ____
72
65
73
4
40
2.0
49
1.25
74
0
49
-0.25
74
0
49
0.25
74
0
49
-0.25
74
0
0
LTYPE
5
274
330
247
100
AcDbSymbolTableRecord
100
AcDbLinetypeTableRecord
2
DASHDOT
70
0
3
Dashdot __ . __ . __ . __ . __ . __ . __ . __
72
65
73
4
40
1.0
49
0.5
74
0
49
-0.25
74
0
49
0.0
74
0
49
-0.25
74
0
0
LTYPE
5
275
330
247
100
AcDbSymbolTableRecord
100
AcDbLinetypeTableRecord
2
DASHED
70
0
3
Dashed __ __ __ __ __ __ __ __ __ __ __ __ __ _
72
65
73
2
40
0.75
49
0.5
74
0
49
-0.25
74
0
0
LTYPE
5
276
330
247
100
AcDbSymbolTableRecord
100
AcDbLinetypeTableRecord
2
HIDDEN
70
0
3
Hidden __ __ __ __ __ __ __ __ __ __ __ __ __ __
72
65
73
2
40
0.375
49
0.25
74
0
49
-0.125
74
0
0
LTYPE
5
277
330
247
100
AcDbSymbolTableRecord
100
AcDbLinetypeTableRecord
2
HIDDEN2
70
0
3
Hidden2 _ _ _ _ _ _ _ _ _ _ _ _ _ _ _ _ _
72
65
73
2
40
0.1875
49
0.125
74
0
49
-0.0625
74
0
0
LTYPE
5
278
330
247
100
AcDbSymbolTableRecord
100
AcDbLinetypeTableRecord
2
BORDER
70
0
3
Border __ __ . __ __ . __ __ . __ __ . __ __ .
72
65
73
6
40
1.75
49
0.5
74
0
49
-0.25
74
0
49
0.5
74
0
49
-0.25
74
0
49
0.0
74
0
49
-0.25
74
0
0
LTYPE
5
279
330
247
100
AcDbSymbolTableRecord
100
AcDbLinetypeTableRecord
2
BORDER2
70
0
3
Border2 __.__.__.__.__.__.__.__.__.__.__.
72
65
73
6
40
0.875
49
0.25
74
0
49
-0.125
74
0
49
0.25
74
0
49
-0.125
74
0
49
0.0
74
0
49
-0.125
74
0
0
LTYPE
5
27A
330
247
100
AcDbSymbolTableRecord
100
AcDbLinetypeTableRecord
2
BORDERX2
70
0
3
Borderx2  ____  ____  .  ____  ____  .  ___
72
65
73
6
40
3.5
49
1.0
74
0
49
-0.5
74
0
49
1.0
74
0
49
-0.5
74
0
49
0.0
74
0
49
-0.5
74
0
0
LTYPE
5
27B
330
247
100
AcDbSymbolTableRecord
100
AcDbLinetypeTableRecord
2
CENTER2
70
0
3
Center2  ___ _ ___ _ ___ _ ___ _ ___ _ ___
72
65
73
4
40
1.125
49
0.75
74
0
49
-0.125
74
0
49
0.125
74
0
49
-0.125
74
0
0
LTYPE
5
27C
330
247
100
AcDbSymbolTableRecord
100
AcDbLinetypeTableRecord
2
CENTERX2
70
0
3
Centerx2  ________  __  ________  __  _____
72
65
73
4
40
4.0
49
2.5
74
0
49
-0.5
74
0
49
0.5
74
0
49
-0.5
74
0
0
LTYPE
5
27D
330
247
100
AcDbSymbolTableRecord
100
AcDbLinetypeTableRecord
2
DASHDOT2
70
0
3
Dashdot2  _._._._._._._._._._._._._._._.
72
65
73
4
40
0.5
49
0.25
74
0
49
-0.125
74
0
49
0.0
74
0
49
-0.125
74
0
0
LTYPE
5
27E
330
247
100
AcDbSymbolTableRecord
100
AcDbLinetypeTableRecord
2
DASHDOTX2
70
0
3
Dashdotx2 ____  .  ____  .  ____  .  ___
72
65
73
4
40
2.0
49
1.0
74
0
49
-0.5
74
0
49
0.0
74
0
49
-0.5
74
0
0
LTYPE
5
27F
330
247
100
AcDbSymbolTableRecord
100
AcDbLinetypeTableRecord
2
DASHED2
70
0
3
Dashed2 _ _ _ _ _ _ _ _ _ _ _ _ _ _ _ _ _
72
65
73
2
40
0.375
49
0.25
74
0
49
-0.125
74
0
0
LTYPE
5
280
330
247
100
AcDbSymbolTableRecord
100
AcDbLinetypeTableRecord
2
DASHEDX2
70
0
3
Dashedx2 ____  ____  ____  ____  ____  ___
72
65
73
2
40
1.5
49
1.0
74
0
49
-0.5
74
0
0
LTYPE
5
281
330
247
100
AcDbSymbolTableRecord
100
AcDbLinetypeTableRecord
2
DIVIDE
70
0
3
Divide ____ . . ____ . . ____ . . ____ . . ____
72
65
73
6
40
1.25
49
0.5
74
0
49
-0.25
74
0
49
0.0
74
0
49
-0.25
74
0
49
0.0
74
0
49
-0.25
74
0
0
LTYPE
5
282
330
247
100
AcDbSymbolTableRecord
100
AcDbLinetypeTableRecord
2
DIVIDE2
70
0
3
Divide2 __..__..__..__..__..__..__..__.._
72
65
73
6
40
0.625
49
0.25
74
0
49
-0.125
74
0
49
0.0
74
0
49
-0.125
74
0
49
0.0
74
0
49
-0.125
74
0
0
LTYPE
5
283
330
247
100
AcDbSymbolTableRecord
100
AcDbLinetypeTableRecord
2
DIVIDEX2
70
0
3
Dividex2 ________  .  .  ________  .  .  _
72
65
73
6
40
2.5
49
1.0
74
0
49
-0.5
74
0
49
0.0
74
0
49
-0.5
74
0
49
0.0
74
0
49
-0.5
74
0
0
LTYPE
5
284
330
247
100
AcDbSymbolTableRecord
100
AcDbLinetypeTableRecord
2
DOT
70
0
3
Dot . . . . . . . . . . . . . . . . . . . . . . . .
72
65
73
2
40
0.25
49
0.0
74
0
49
-0.25
74
0
0
LTYPE
5
285
330
247
100
AcDbSymbolTableRecord
100
AcDbLinetypeTableRecord
2
DOT2
70
0
3
Dot2 ........................................
72
65
73
2
40
0.125
49
0.0
74
0
49
-0.125
74
0
0
LTYPE
5
286
330
247
100
AcDbSymbolTableRecord
100
AcDbLinetypeTableRecord
2
DOTX2
70
0
3
Dotx2 .  .  .  .  .  .  .  .  .  .  .  .  .  .
72
65
73
2
40
0.5
49
0.0
74
0
49
-0.5
74
0
0
LTYPE
5
287
330
247
100
AcDbSymbolTableRecord
100
AcDbLinetypeTableRecord
2
HIDDENX2
70
0
3
Hiddenx2 ____ ____ ____ ____ ____ ____ ____
72
65
73
2
40
0.75
49
0.5
74
0
49
-0.25
74
0
0
LTYPE
5
288
330
247
100
AcDbSymbolTableRecord
100
AcDbLinetypeTableRecord
2
PHANTOM
70
0
3
Phantom ______  __  __  ______  __  __  ______
72
65
73
6
40
2.5
49
1.25
74
0
49
-0.25
74
0
49
0.25
74
0
49
-0.25
74
0
49
0.25
74
0
49
-0.25
74
0
0
LTYPE
5
289
330
247
100
AcDbSymbolTableRecord
100
AcDbLinetypeTableRecord
2
PHANTOM2
70
0
3
Phantom2 ___ _ _ ___ _ _ ___ _ _ ___ _ _
72
65
73
6
40
1.25
49
0.625
74
0
49
-0.125
74
0
49
0.125
74
0
49
-0.125
74
0
49
0.125
74
0
49
-0.125
74
0
0
LTYPE
5
28A
330
247
100
AcDbSymbolTableRecord
100
AcDbLinetypeTableRecord
2
PHANTOMX2
70
0
3
Phantomx2 ____________    ____    ____   _
72
65
73
6
40
5.0
49
2.5
74
0
49
-0.5
74
0
49
0.5
74
0
49
-0.5
74
0
49
0.5
74
0
49
-0.5
74
0
0
ENDTAB
0
TABLE
2
LAYER
5
244
330
0
100
AcDbSymbolTable
70
6
0
LAYER
5
252
330
244
100
AcDbSymbolTableRecord
100
AcDbLayerTableRecord
2
0
70
0
62
7
6
Continuous
370
0
390
251
0
LAYER
5
23F
330
244
100
AcDbSymbolTableRecord
100
AcDbLayerTableRecord
2
Bemassung
70
0
 62
   7
6
Continuous
370
0
390
251
0
LAYER
5
240
330
244
100
AcDbSymbolTableRecord
100
AcDbLayerTableRecord
2
Rahmen
70
0
 62
   7
6
Continuous
370
0
390
251
0
LAYER
5
241
330
244
100
AcDbSymbolTableRecord
100
AcDbLayerTableRecord
2
Geo
70
0
 62
   7
6
Continuous
370
0
390
251
0
LAYER
5
33A
330
244
100
AcDbSymbolTableRecord
100
AcDbLayerTableRecord
2
Defpoints
70
0
62
7
6
Continuous
290
0
370
-3
390
251
0
LAYER
5
57E
330
244
100
AcDbSymbolTableRecord
100
AcDbLayerTableRecord
2
Text
70
0
 62
   7
6
Continuous
370
0
390
251
1001
AcAecLayerStandard
1000

1000

0
ENDTAB
0
TABLE
2
STYLE
5
245
330
0
100
AcDbSymbolTable
70
2
0
STYLE
5
253
330
245
100
AcDbSymbolTableRecord
100
AcDbTextStyleTableRecord
2
Standard
70
0
40
0.0
41
1.0
50
0.0
71
0
42
0.2
3
Arial
4

1001
ACAD
1000
Arial
1071
0
0
STYLE
5
132
330
245
100
AcDbSymbolTableRecord
100
AcDbTextStyleTableRecord
2
Beschriftung
70
0
40
0.0
41
1.0
50
0.0
71
0
42
0.2
3
Arial
4

1001
ACAD
1000
Arial
1071
0
1001
AcadAnnotative
1000
AnnotativeData
1070
1
1070
1
0
ENDTAB
0
TABLE
2
VIEW
5
248
330
0
100
AcDbSymbolTable
70
0
0
ENDTAB
0
TABLE
2
UCS
5
249
330
0
100
AcDbSymbolTable
70
0
0
ENDTAB
0
TABLE
2
APPID
5
24B
330
0
100
AcDbSymbolTable
70
13
0
APPID
5
254
330
24B
100
AcDbSymbolTableRecord
100
AcDbRegAppTableRecord
2
ACAD
70
0
0
APPID
5
26C
330
24B
100
AcDbSymbolTableRecord
100
AcDbRegAppTableRecord
2
VD_INVISIBLE_NOT_FOR_READ
70
0
0
APPID
5
26D
330
24B
100
AcDbSymbolTableRecord
100
AcDbRegAppTableRecord
2
VD_TEMPHATCH
70
0
0
APPID
5
26E
330
24B
100
AcDbSymbolTableRecord
100
AcDbRegAppTableRecord
2
VDEXTRAPARAM
70
0
0
APPID
5
26F
330
24B
100
AcDbSymbolTableRecord
100
AcDbRegAppTableRecord
2
PE_URL
70
0
0
APPID
5
270
330
24B
100
AcDbSymbolTableRecord
100
AcDbRegAppTableRecord
2
VD_UNKNOWN
70
0
0
APPID
5
28F
330
24B
100
AcDbSymbolTableRecord
100
AcDbRegAppTableRecord
2
AcadAnnotative
70
0
0
APPID
5
290
330
24B
100
AcDbSymbolTableRecord
100
AcDbRegAppTableRecord
2
ACAD_DSTYLE_DIMJAG
70
0
0
APPID
5
291
330
24B
100
AcDbSymbolTableRecord
100
AcDbRegAppTableRecord
2
ACAD_DSTYLE_DIMTALN
70
0
0
APPID
5
293
330
24B
100
AcDbSymbolTableRecord
100
AcDbRegAppTableRecord
2
ACAD_PSEXT
70
0
0
APPID
5
42A
330
24B
100
AcDbSymbolTableRecord
100
AcDbRegAppTableRecord
2
ACAD_MLEADERVER
70
0
0
APPID
5
532
330
24B
100
AcDbSymbolTableRecord
100
AcDbRegAppTableRecord
2
ACAD_EXEMPT_FROM_CAD_STANDARDS
70
0
0
APPID
5
57F
330
24B
100
AcDbSymbolTableRecord
100
AcDbRegAppTableRecord
2
AcAecLayerStandard
70
0
0
ENDTAB
0
TABLE
2
DIMSTYLE
5
24C
330
0
100
AcDbSymbolTable
70
3
100
AcDbDimStyleTable
71
2
340
27
340
269
0
DIMSTYLE
105
269
330
24C
100
AcDbSymbolTableRecord
100
AcDbDimStyleTableRecord
2
Standard
70
0
172
1
174
1
288
1
340
253
342
23C
0
DIMSTYLE
105
137
330
24C
100
AcDbSymbolTableRecord
100
AcDbDimStyleTableRecord
2
Beschriftung
70
0
41
2.5
42
0.625
44
1.25
73
0
74
0
77
1
140
2.5
147
0.625
172
1
174
1
271
2
288
1
340
253
342
23C
1001
AcadAnnotative
1000
AnnotativeData
1070
1
1070
1
1001
ACAD_DSTYLE_DIMJAG
1070
388
1040
1.5
1001
ACAD_DSTYLE_DIMTALN
1070
392
1070
0
0
DIMSTYLE
105
27
102
{ACAD_REACTORS
330
F10017
330
F1001C
330
F10026
330
F1002B
330
F10003
330
F1000D
330
F10008
330
F10012
330
F10021
102
}
330
24C
100
AcDbSymbolTableRecord
100
AcDbDimStyleTableRecord
2
BEM-ISBE
70
0
41
2.5
42
0.625
44
1.25
48
0.000000001
71
1
73
0
74
0
77
1
140
2.5
144
1.00000000000000
146
0.5
147
0.625
171
 3
172
 1
179
 3
271
 3
272
 3
274
 3
340
253
342
23C
1001
ACAD_DSTYLE_DIMJAG
1070
388
1040
1.5
1001
ACAD_DSTYLE_DIMTALN
1070
392
1070
1
0
ENDTAB
0
TABLE
2
BLOCK_RECORD
5
243
330
0
100
AcDbSymbolTable
70
5
0
BLOCK_RECORD
5
261
330
243
100
AcDbSymbolTableRecord
100
AcDbBlockTableRecord
2
*Model_Space
340
FD0
0
BLOCK_RECORD
5
25D
330
243
100
AcDbSymbolTableRecord
100
AcDbBlockTableRecord
2
*Paper_Space
340
FD1
0
BLOCK_RECORD
5
265
330
243
100
AcDbSymbolTableRecord
100
AcDbBlockTableRecord
2
*Paper_Space0
340
0
0
BLOCK_RECORD
5
23C
330
243
100
AcDbSymbolTableRecord
100
AcDbBlockTableRecord
2
VDDIM_DEFAULT
340
0
102
{BLKREFS
102
}
0
BLOCK_RECORD
5
23E
330
243
100
AcDbSymbolTableRecord
100
AcDbBlockTableRecord
2
VDDIM_NONE
340
0
0
BLOCK_RECORD
5
F10016
330
243
100
AcDbSymbolTableRecord
100
AcDbBlockTableRecord
2
*D7
340
0
0
BLOCK_RECORD
5
F1001B
330
243
100
AcDbSymbolTableRecord
100
AcDbBlockTableRecord
2
*D8
340
0
0
BLOCK_RECORD
5
F10025
330
243
100
AcDbSymbolTableRecord
100
AcDbBlockTableRecord
2
*D10
340
0
0
BLOCK_RECORD
5
F1002A
330
243
100
AcDbSymbolTableRecord
100
AcDbBlockTableRecord
2
*D11
340
0
0
BLOCK_RECORD
5
F10002
330
243
100
AcDbSymbolTableRecord
100
AcDbBlockTableRecord
2
*D3
340
0
0
BLOCK_RECORD
5
F1000C
330
243
100
AcDbSymbolTableRecord
100
AcDbBlockTableRecord
2
*D5
340
0
0
BLOCK_RECORD
5
F10007
330
243
100
AcDbSymbolTableRecord
100
AcDbBlockTableRecord
2
*D4
340
0
0
BLOCK_RECORD
5
F10011
330
243
100
AcDbSymbolTableRecord
100
AcDbBlockTableRecord
2
*D6
340
0
0
BLOCK_RECORD
5
F10020
330
243
100
AcDbSymbolTableRecord
100
AcDbBlockTableRecord
2
*D9
340
0
0
ENDTAB
0
ENDSEC
0
SECTION
2
BLOCKS
0
BLOCK
5
262
330
261
100
AcDbEntity
8
0
100
AcDbBlockBegin
2
*Model_Space
70
0
10
0.0
20
0.0
30
0.0
3
*Model_Space
1

0
ENDBLK
5
263
330
261
100
AcDbEntity
8
0
100
AcDbBlockEnd
0
BLOCK
5
25E
330
25D
100
AcDbEntity
67
1
8
0
100
AcDbBlockBegin
2
*Paper_Space
70
0
10
0.0
20
0.0
30
0.0
3
*Paper_Space
1

0
ENDBLK
5
25F
330
25D
100
AcDbEntity
67
1
8
0
100
AcDbBlockEnd
0
BLOCK
5
266
330
265
100
AcDbEntity
8
0
100
AcDbBlockBegin
2
*Paper_Space0
70
0
10
0.0
20
0.0
30
0.0
3
*Paper_Space0
1

0
VIEWPORT
5
296
102
{ACAD_XDICTIONARY
360
58E
102
}
330
265
100
AcDbEntity
8
0
60
1
100
AcDbViewport
10
0.0
20
0.0
30
0.0
40
10.0
41
10.0
69
0
12
0.0
22
0.0
13
0.0
23
0.0
14
1.0
24
1.0
15
0.0
25
0.0
16
0.0
26
0.0
36
1.0
17
0.0
27
0.0
37
0.0
42
0.0
43
0.0
44
0.0
45
10.0
50
0.0
51
0.0000000000007958
72
100
90
163872
1

281
0
71
0
74
0
110
0.0
120
0.0
130
0.0
111
1.0
121
0.0
131
0.0
112
0.0
122
1.0
132
0.0
79
0
146
0.0
1001
VD_INVISIBLE_NOT_FOR_READ
1000
VD_INVISIBLE_NOT_FOR_READ
0
VIEWPORT
5
297
102
{ACAD_XDICTIONARY
360
590
102
}
330
265
100
AcDbEntity
8
0
60
1
100
AcDbViewport
10
0.0
20
0.0
30
0.0
40
10.0
41
10.0
69
0
12
0.0
22
0.0
13
0.0
23
0.0
14
1.0
24
1.0
15
0.0
25
0.0
16
0.0
26
0.0
36
1.0
17
0.0
27
0.0
37
0.0
42
0.0
43
0.0
44
0.0
45
10.0
50
0.0
51
0.0000000000007958
72
100
90
163872
1

281
0
71
0
74
0
110
0.0
120
0.0
130
0.0
111
1.0
121
0.0
131
0.0
112
0.0
122
1.0
132
0.0
79
0
146
0.0
1001
VD_INVISIBLE_NOT_FOR_READ
1000
VD_INVISIBLE_NOT_FOR_READ
0
ENDBLK
5
267
330
265
100
AcDbEntity
8
0
100
AcDbBlockEnd
0
BLOCK
5
28B
330
23C
100
AcDbEntity
8
0
100
AcDbBlockBegin
2
VDDIM_DEFAULT
70
0
10
0.0
20
0.0
30
0.0
3
VDDIM_DEFAULT
1

0
LWPOLYLINE
5
23D
330
23C
100
AcDbEntity
8
0
6
Continuous
62
0
100
AcDbPolyline
90
4
70
0
43
0.0
10
0.0
20
0.0
10
-1.0
20
-0.1665
10
-1.0
20
0.1665
10
0.0
20
0.0
1001
VDEXTRAPARAM
1071
1
1071
0
1071
0
1040
1.0
1000

1000

1040
0.0
1040
0.0
0
HATCH
5
292
330
23C
100
AcDbEntity
8
0
6
Continuous
62
0
100
AcDbHatch
10
0.0
20
0.0
30
0.0
210
0.0
220
0.0
230
1.0
2
SOLID
70
1
71
0
91
1
92
2
72
0
73
1
93
3
10
0.0
20
0.0
10
-1.0
20
-0.1665
10
-1.0
20
0.1665
97
0
75
0
76
1
98
1
10
0.0
20
0.0
1001
VDEXTRAPARAM
1071
1
1071
0
1071
0
1040
1.0
1000

1000

1040
0.0
1040
0.0
1001
VD_TEMPHATCH
1000
VD_TEMPHATCH
0
ENDBLK
5
28C
330
23C
100
AcDbEntity
8
0
100
AcDbBlockEnd
0
BLOCK
5
28D
330
23E
100
AcDbEntity
8
0
100
AcDbBlockBegin
2
VDDIM_NONE
70
0
10
0.0
20
0.0
30
0.0
3
VDDIM_NONE
1

0
ENDBLK
5
28E
330
23E
100
AcDbEntity
8
0
100
AcDbBlockEnd
  0
BLOCK
  5
F1002F
330
F10016
100
AcDbEntity
  8
0
100
AcDbBlockBegin
  2
*D7
 70
     1
 10
0.0
 20
0.0
 30
0.0
  3
*D7
  1

  0
LINE
  5
F10030
330
F10016
100
AcDbEntity
  8
Bemassung
 62
     0
370
    -2
100
AcDbLine
10
-96.0974477958237
20
-12.7517401392111
30
0.000000000000000
11
-96.0974477958237
21
26.2482598607889
31
0.000000000000000
  0
LINE
  5
F10031
330
F10016
100
AcDbEntity
  8
Bemassung
 62
     0
370
    -2
100
AcDbLine
10
-66.0974477958237
20
3.94825986078886
30
0.000000000000000
11
-66.0974477958237
21
16.2482598607889
31
0.000000000000000
  0
LINE
  5
F10032
330
F10016
100
AcDbEntity
  8
Bemassung
 62
     0
370
    -2
100
AcDbLine
10
-96.0974477958237
20
14.2482598607889
30
0.000000000000000
11
-50.2489955877275
21
14.2482598607889
31
0.000000000000000
  0
INSERT
  5
F10033
330
F10016
100
AcDbEntity
  8
Bemassung
 62
     0
370
    -2
100
AcDbBlockReference
  2
VDDIM_DEFAULT
10
-96.0974477958237
20
14.2482598607889
30
0.000000000000000
 41
2.50000000000000
 42
2.50000000000000
 43
2.50000000000000
 50
180.000000000000
  0
INSERT
  5
F10034
330
F10016
100
AcDbEntity
  8
Bemassung
 62
     0
370
    -2
100
AcDbBlockReference
  2
VDDIM_DEFAULT
10
-66.0974477958237
20
14.2482598607889
30
0.000000000000000
 41
2.50000000000000
 42
2.50000000000000
 43
2.50000000000000
  0
MTEXT
  5
F10035
330
F10016
100
AcDbEntity
  8
Bemassung
 62
     0
100
AcDbMText
10
-81.0974477958237
20
14.9149265274555
30
0.000000000000000
 40
2.50000000000000
 41
0.0
 71
     8
 72
     1
  1
30
 11
1.00000000000000
 21
0.000000000000000
 31
0.0
 73
     1
 44
1.0
1001
ACAD
1000
MTEXTBEGIN
1070
73
1070
1
1070
44
1040
1.0
1070
74
1070
0
1000
MTEXTEND
  0
POINT
  5
F10036
330
F10016
100
AcDbEntity
  8
Bemassung
 62
     0
100
AcDbPoint
10
-96.0974477958237
20
-12.7517401392111
30
0.000000000000000
  0
POINT
  5
F10037
330
F10016
100
AcDbEntity
  8
Bemassung
 62
     0
100
AcDbPoint
10
-66.0974477958237
20
3.94825986078886
30
0.000000000000000
  0
ENDBLK
  5
F10038
330
F10016
100
AcDbEntity
  8
0
100
AcDbBlockEnd
  0
BLOCK
  5
F10039
330
F1001B
100
AcDbEntity
  8
0
100
AcDbBlockBegin
  2
*D8
 70
     1
 10
0.0
 20
0.0
 30
0.0
  3
*D8
  1

  0
LINE
  5
F1003A
330
F1001B
100
AcDbEntity
  8
Bemassung
 62
     0
370
    -2
100
AcDbLine
10
-66.0974477958237
20
3.94825986078886
30
0.000000000000000
11
-66.0974477958237
21
21.2482598607889
31
0.000000000000000
  0
LINE
  5
F1003B
330
F1001B
100
AcDbEntity
  8
Bemassung
 62
     0
370
    -2
100
AcDbLine
10
-26.0974477958237
20
3.24825986078886
30
0.000000000000000
11
-26.0974477958237
21
26.2482598607889
31
0.000000000000000
  0
LINE
  5
F1003C
330
F1001B
100
AcDbEntity
  8
Bemassung
 62
     0
370
    -2
100
AcDbLine
10
-66.0974477958237
20
19.2482598607889
30
0.000000000000000
11
54.7745878252943
21
19.2482598607889
31
0.000000000000000
  0
INSERT
  5
F1003D
330
F1001B
100
AcDbEntity
  8
Bemassung
 62
     0
370
    -2
100
AcDbBlockReference
  2
VDDIM_DEFAULT
10
-66.0974477958237
20
19.2482598607889
30
0.000000000000000
 41
2.50000000000000
 42
2.50000000000000
 43
2.50000000000000
 50
180.000000000000
  0
INSERT
  5
F1003E
330
F1001B
100
AcDbEntity
  8
Bemassung
 62
     0
370
    -2
100
AcDbBlockReference
  2
VDDIM_DEFAULT
10
-26.0974477958237
20
19.2482598607889
30
0.000000000000000
 41
2.50000000000000
 42
2.50000000000000
 43
2.50000000000000
  0
MTEXT
  5
F1003F
330
F1001B
100
AcDbEntity
  8
Bemassung
 62
     0
100
AcDbMText
10
-46.0974477958237
20
19.9149265274555
30
0.000000000000000
 40
2.50000000000000
 41
0.0
 71
     8
 72
     1
  1
40
 11
1.00000000000000
 21
0.000000000000000
 31
0.0
 73
     1
 44
1.0
1001
ACAD
1000
MTEXTBEGIN
1070
73
1070
1
1070
44
1040
1.0
1070
74
1070
0
1000
MTEXTEND
  0
POINT
  5
F10040
330
F1001B
100
AcDbEntity
  8
Bemassung
 62
     0
100
AcDbPoint
10
-66.0974477958237
20
3.94825986078886
30
0.000000000000000
  0
POINT
  5
F10041
330
F1001B
100
AcDbEntity
  8
Bemassung
 62
     0
100
AcDbPoint
10
-26.0974477958237
20
3.24825986078886
30
0.000000000000000
  0
ENDBLK
  5
F10042
330
F1001B
100
AcDbEntity
  8
0
100
AcDbBlockEnd
  0
BLOCK
  5
F10043
330
F10025
100
AcDbEntity
  8
0
100
AcDbBlockBegin
  2
*D10
 70
     1
 10
0.0
 20
0.0
 30
0.0
  3
*D10
  1

  0
LINE
  5
F10044
330
F10025
100
AcDbEntity
  8
Bemassung
 62
     0
370
    -2
100
AcDbLine
10
-74.0974477958237
20
-5.45174013921114
30
0.000000000000000
11
-74.0974477958237
21
-12.7517401392111
31
0.000000000000000
  0
LINE
  5
F10045
330
F10025
100
AcDbEntity
  8
Bemassung
 62
     0
370
    -2
100
AcDbLine
10
-96.0974477958237
20
-12.7517401392111
30
0.000000000000000
11
-96.0974477958237
21
26.2482598607889
31
0.000000000000000
  0
LINE
  5
F10046
330
F10025
100
AcDbEntity
  8
Bemassung
 62
     0
370
    -2
100
AcDbLine
10
-62.2294636215092
20
-10.7517401392111
30
0.000000000000000
11
-96.0974477958237
21
-10.7517401392111
31
0.000000000000000
  0
INSERT
  5
F10047
330
F10025
100
AcDbEntity
  8
Bemassung
 62
     0
370
    -2
100
AcDbBlockReference
  2
VDDIM_DEFAULT
10
-74.0974477958237
20
-10.7517401392111
30
0.000000000000000
 41
2.50000000000000
 42
2.50000000000000
 43
2.50000000000000
  0
INSERT
  5
F10048
330
F10025
100
AcDbEntity
  8
Bemassung
 62
     0
370
    -2
100
AcDbBlockReference
  2
VDDIM_DEFAULT
10
-96.0974477958237
20
-10.7517401392111
30
0.000000000000000
 41
2.50000000000000
 42
2.50000000000000
 43
2.50000000000000
 50
180.000000000000
  0
MTEXT
  5
F10049
330
F10025
100
AcDbEntity
  8
Bemassung
 62
     0
100
AcDbMText
10
-85.0974477958237
20
-10.0850734725445
30
0.000000000000000
 40
2.50000000000000
 41
0.0
 71
     8
 72
     1
  1
22
 11
1.00000000000000
 21
0.000000000000000
 31
0.0
 73
     1
 44
1.0
1001
ACAD
1000
MTEXTBEGIN
1070
73
1070
1
1070
44
1040
1.0
1070
74
1070
0
1000
MTEXTEND
  0
POINT
  5
F1004A
330
F10025
100
AcDbEntity
  8
Bemassung
 62
     0
100
AcDbPoint
10
-74.0974477958237
20
-5.45174013921114
30
0.000000000000000
  0
POINT
  5
F1004B
330
F10025
100
AcDbEntity
  8
Bemassung
 62
     0
100
AcDbPoint
10
-96.0974477958237
20
-12.7517401392111
30
0.000000000000000
  0
ENDBLK
  5
F1004C
330
F10025
100
AcDbEntity
  8
0
100
AcDbBlockEnd
  0
BLOCK
  5
F1004D
330
F1002A
100
AcDbEntity
  8
0
100
AcDbBlockBegin
  2
*D11
 70
     1
 10
0.0
 20
0.0
 30
0.0
  3
*D11
  1

  0
LINE
  5
F1004E
330
F1002A
100
AcDbEntity
  8
Bemassung
 62
     0
370
    -2
100
AcDbLine
10
-26.0974477958237
20
3.24825986078886
30
0.000000000000000
11
-26.0974477958237
21
26.2482598607889
31
0.000000000000000
  0
LINE
  5
F1004F
330
F1002A
100
AcDbEntity
  8
Bemassung
 62
     0
370
    -2
100
AcDbLine
10
-96.0974477958237
20
-12.7517401392111
30
0.000000000000000
11
-96.0974477958237
21
26.2482598607889
31
0.000000000000000
  0
LINE
  5
F10050
330
F1002A
100
AcDbEntity
  8
Bemassung
 62
     0
370
    -2
100
AcDbLine
10
9.80893507512647
20
24.2482598607889
30
0.000000000000000
11
-96.0974477958237
21
24.2482598607889
31
0.000000000000000
  0
INSERT
  5
F10051
330
F1002A
100
AcDbEntity
  8
Bemassung
 62
     0
370
    -2
100
AcDbBlockReference
  2
VDDIM_DEFAULT
10
-26.0974477958237
20
24.2482598607889
30
0.000000000000000
 41
2.50000000000000
 42
2.50000000000000
 43
2.50000000000000
  0
INSERT
  5
F10052
330
F1002A
100
AcDbEntity
  8
Bemassung
 62
     0
370
    -2
100
AcDbBlockReference
  2
VDDIM_DEFAULT
10
-96.0974477958237
20
24.2482598607889
30
0.000000000000000
 41
2.50000000000000
 42
2.50000000000000
 43
2.50000000000000
 50
180.000000000000
  0
MTEXT
  5
F10053
330
F1002A
100
AcDbEntity
  8
Bemassung
 62
     0
100
AcDbMText
10
-61.0974477958237
20
24.9149265274555
30
0.000000000000000
 40
2.50000000000000
 41
0.0
 71
     8
 72
     1
  1
70
 11
1.00000000000000
 21
0.000000000000000
 31
0.0
 73
     1
 44
1.0
1001
ACAD
1000
MTEXTBEGIN
1070
73
1070
1
1070
44
1040
1.0
1070
74
1070
0
1000
MTEXTEND
  0
POINT
  5
F10054
330
F1002A
100
AcDbEntity
  8
Bemassung
 62
     0
100
AcDbPoint
10
-26.0974477958237
20
3.24825986078886
30
0.000000000000000
  0
POINT
  5
F10055
330
F1002A
100
AcDbEntity
  8
Bemassung
 62
     0
100
AcDbPoint
10
-96.0974477958237
20
-12.7517401392111
30
0.000000000000000
  0
ENDBLK
  5
F10056
330
F1002A
100
AcDbEntity
  8
0
100
AcDbBlockEnd
  0
BLOCK
  5
F10057
330
F10002
100
AcDbEntity
  8
0
100
AcDbBlockBegin
  2
*D3
 70
     1
 10
0.0
 20
0.0
 30
0.0
  3
*D3
  1

 0
ARC
  5
F10058
330
F10002
100
AcDbEntity
  8
Bemassung
 62
     0
370
   -2
100
AcDbCircle
10
-96.0971432093332
20
3.73081011243761
30
0.000000000000000
 40
17.3099229392749
100
AcDbArc
 50
90.0000000000000
 51
101.430099411668
  0
LINE
  5
F10059
330
F10002
100
AcDbEntity
  8
Bemassung
 62
     0
370
    -2
100
AcDbLine
10
-96.0971432093332
20
3.73081011243761
30
0.000000000000000
11
-96.0971432093332
21
23.0407330517125
31
0.000000000000000
  0
LINE
  5
F1005A
330
F10002
100
AcDbEntity
  8
Bemassung
 62
     0
370
    -2
100
AcDbLine
10
-96.0971432093332
20
3.73081011243761
30
0.000000000000000
11
-96.7710498012780
21
23.0289699683946
31
0.000000000000000
  0
INSERT
  5
F1005B
330
F10002
100
AcDbEntity
  8
Bemassung
 62
     0
370
    -2
100
AcDbBlockReference
  2
VDDIM_DEFAULT
10
-96.0971432093332
20
21.0407330517125
30
0.000000000000000
 41
2.50000000000000
 42
2.50000000000000
 43
2.50000000000000
 50
179.834499958810
  0
INSERT
  5
F1005C
330
F10002
100
AcDbEntity
  8
Bemassung
 62
     0
370
    -2
100
AcDbBlockReference
  2
VDDIM_DEFAULT
10
-96.7012508078730
20
21.0301883143564
30
0.000000000000000
 41
2.50000000000000
 42
2.50000000000000
 43
2.50000000000000
 50
2.16550004118926
  0
MTEXT
  5
F1005D
330
F10002
100
AcDbEntity
  8
Bemassung
 62
     0
100
AcDbMText
10
-100.213152027020
20
20.5442542443327
30
0.000000000000000
 40
2.50000000000000
 41
0.0
 71
     8
 72
     1
  1
2°
 11
0.970142500145332
 21
0.242535625036333
 31
0.0
 73
     1
 44
1.0
1001
ACAD
1000
MTEXTBEGIN
1070
73
1070
1
1070
44
1040
1.0
1070
74
1070
0
1000
MTEXTEND
  0
POINT
  5
F1005E
330
F10002
100
AcDbEntity
  8
Bemassung
 62
     0
100
AcDbPoint
10
-96.0971432093332
20
3.73081011243761
30
0.000000000000000
  0
POINT
  5
F1005F
330
F10002
100
AcDbEntity
  8
Bemassung
 62
     0
100
AcDbPoint
10
-96.0971432093332
20
21.0407330517125
30
0.000000000000000
  0
POINT
  5
F10060
330
F10002
100
AcDbEntity
  8
Bemassung
 62
     0
100
AcDbPoint
10
-96.7012508078730
20
21.0301883143564
30
0.000000000000000
  0
POINT
  5
F10061
330
F10002
100
AcDbEntity
  8
Bemassung
 62
     0
100
AcDbPoint
10
-96.3992430198675
20
21.0380966666064
30
0.000000000000000
  0
ENDBLK
  5
F10062
330
F10002
100
AcDbEntity
  8
0
100
AcDbBlockEnd
  0
BLOCK
  5
F10063
330
F1000C
100
AcDbEntity
  8
0
100
AcDbBlockBegin
  2
*D5
 70
     1
 10
0.0
 20
0.0
 30
0.0
  3
*D5
  1

  0
LINE
  5
F10064
330
F1000C
100
AcDbEntity
  8
Bemassung
 62
     0
370
    -2
100
AcDbLine
10
-95.9571176959930
20
4.09558904601836
30
0.000000000000000
11
-109.206852862305
21
16.8907095652921
31
0.000000000000000
  0
INSERT
  5
F10065
330
F1000C
100
AcDbEntity
  8
Bemassung
 62
     0
370
    -2
100
AcDbBlockReference
  2
VDDIM_DEFAULT
10
-95.9571176959930
20
4.09558904601836
30
0.000000000000000
 41
2.50000000000000
 42
2.50000000000000
 43
2.50000000000000
 50
316.000000000000
  0
MTEXT
  5
F10066
330
F1000C
100
AcDbEntity
  8
Bemassung
 62
     0
100
AcDbMText
10
-103.150515699380
20
11.0421727506083
30
0.000000000000000
 40
2.50000000000000
 41
0.0
 71
     8
 72
     1
  1
R0.5
 11
0.719339800338652
 21
-0.694658370458996
 31
0.0
 73
     1
 44
1.0
1001
ACAD
1000
MTEXTBEGIN
1070
73
1070
1
1070
44
1040
1.0
1070
74
1070
0
1000
MTEXTEND
  0
POINT
  5
F10067
330
F1000C
100
AcDbEntity
  8
Bemassung
 62
     0
100
AcDbPoint
10
-95.9571176959930
20
4.09558904601836
30
0.000000000000000
  0
POINT
  5
F10068
330
F1000C
100
AcDbEntity
  8
Bemassung
 62
     0
100
AcDbPoint
10
-95.5974477958237
20
3.74825986078886
30
0.000000000000000
  0
ENDBLK
  5
F10069
330
F1000C
100
AcDbEntity
  8
0
100
AcDbBlockEnd
  0
BLOCK
  5
F1006A
330
F10007
100
AcDbEntity
  8
0
100
AcDbBlockBegin
  2
*D4
 70
     1
 10
0.0
 20
0.0
 30
0.0
  3
*D4
  1

  0
LINE
  5
F1006B
330
F10007
100
AcDbEntity
  8
Bemassung
 62
     0
370
    -2
100
AcDbLine
10
-95.5974477958237
20
-5.75174013921114
30
0.000000000000000
11
-108.097447795824
21
-5.75174013921114
31
0.000000000000000
  0
LINE
  5
F1006C
330
F10007
100
AcDbEntity
  8
Bemassung
 62
     0
370
    -2
100
AcDbLine
10
-95.5974477958237
20
4.24825986078886
30
0.000000000000000
11
-108.097447795824
21
4.24825986078886
31
0.000000000000000
  0
LINE
  5
F1006D
330
F10007
100
AcDbEntity
  8
Bemassung
 62
     0
370
    -2
100
AcDbLine
10
-106.097447795824
20
-5.75174013921114
30
0.000000000000000
11
-106.097447795824
21
4.24825986078886
31
0.000000000000000
  0
INSERT
  5
F1006E
330
F10007
100
AcDbEntity
  8
Bemassung
 62
     0
370
    -2
100
AcDbBlockReference
  2
VDDIM_DEFAULT
10
-106.097447795824
20
-5.75174013921114
30
0.000000000000000
 41
2.50000000000000
 42
2.50000000000000
 43
2.50000000000000
 50
270.000000000000
  0
INSERT
  5
F1006F
330
F10007
100
AcDbEntity
  8
Bemassung
 62
     0
370
    -2
100
AcDbBlockReference
  2
VDDIM_DEFAULT
10
-106.097447795824
20
4.24825986078886
30
0.000000000000000
 41
2.50000000000000
 42
2.50000000000000
 43
2.50000000000000
 50
90.0000000000000
  0
MTEXT
  5
F10070
330
F10007
100
AcDbEntity
  8
Bemassung
 62
     0
100
AcDbMText
10
-105.430781129157
20
-0.751740139211137
30
0.000000000000000
 40
2.50000000000000
 41
0.0
 71
     8
 72
     1
  1
10
 11
6.12323399573677e-017
 21
1.00000000000000
 31
0.0
 73
     1
 44
1.0
1001
ACAD
1000
MTEXTBEGIN
1070
73
1070
1
1070
44
1040
1.0
1070
74
1070
0
1000
MTEXTEND
  0
POINT
  5
F10071
330
F10007
100
AcDbEntity
  8
Bemassung
 62
     0
100
AcDbPoint
10
-95.5974477958237
20
-5.75174013921114
30
0.000000000000000
  0
POINT
  5
F10072
330
F10007
100
AcDbEntity
  8
Bemassung
 62
     0
100
AcDbPoint
10
-95.5974477958237
20
4.24825986078886
30
0.000000000000000
  0
ENDBLK
  5
F10073
330
F10007
100
AcDbEntity
  8
0
100
AcDbBlockEnd
  0
BLOCK
  5
F10074
330
F10011
100
AcDbEntity
  8
0
100
AcDbBlockBegin
  2
*D6
 70
     1
 10
0.0
 20
0.0
 30
0.0
  3
*D6
  1

  0
LINE
  5
F10075
330
F10011
100
AcDbEntity
  8
Bemassung
 62
     0
370
    -2
100
AcDbLine
10
-74.0974477958237
20
-5.45174013921114
30
0.000000000000000
11
-65.0974477958237
21
-5.45174013921114
31
0.000000000000000
  0
LINE
  5
F10076
330
F10011
100
AcDbEntity
  8
Bemassung
 62
     0
370
    -2
100
AcDbLine
10
-74.0974477958237
20
3.94825986078886
30
0.000000000000000
11
-65.0974477958237
21
3.94825986078886
31
0.000000000000000
  0
LINE
  5
F10077
330
F10011
100
AcDbEntity
  8
Bemassung
 62
     0
370
    -2
100
AcDbLine
10
-67.0974477958237
20
-37.0836810480736
30
0.000000000000000
11
-67.0974477958237
21
3.94825986078886
31
0.000000000000000
  0
INSERT
  5
F10078
330
F10011
100
AcDbEntity
  8
Bemassung
 62
     0
370
    -2
100
AcDbBlockReference
  2
VDDIM_DEFAULT
10
-67.0974477958237
20
-5.45174013921114
30
0.000000000000000
 41
2.50000000000000
 42
2.50000000000000
 43
2.50000000000000
 50
270.000000000000
  0
INSERT
  5
F10079
330
F10011
100
AcDbEntity
  8
Bemassung
 62
     0
370
    -2
100
AcDbBlockReference
  2
VDDIM_DEFAULT
10
-67.0974477958237
20
3.94825986078886
30
0.000000000000000
 41
2.50000000000000
 42
2.50000000000000
 43
2.50000000000000
 50
90.0000000000000
  0
MTEXT
  5
F1007A
330
F10011
100
AcDbEntity
  8
Bemassung
 62
     0
100
AcDbMText
10
-66.4307811291570
20
-11.6176631572702
30
0.000000000000000
 40
2.50000000000000
 41
0.0
 71
     8
 72
     1
  1
9.4
 11
6.12323399573677e-017
 21
1.00000000000000
 31
0.0
 73
     1
 44
1.0
1001
ACAD
1000
MTEXTBEGIN
1070
73
1070
1
1070
44
1040
1.0
1070
74
1070
0
1000
MTEXTEND
  0
POINT
  5
F1007B
330
F10011
100
AcDbEntity
  8
Bemassung
 62
     0
100
AcDbPoint
10
-74.0974477958237
20
-5.45174013921114
30
0.000000000000000
  0
POINT
  5
F1007C
330
F10011
100
AcDbEntity
  8
Bemassung
 62
     0
100
AcDbPoint
10
-74.0974477958237
20
3.94825986078886
30
0.000000000000000
  0
ENDBLK
  5
F1007D
330
F10011
100
AcDbEntity
  8
0
100
AcDbBlockEnd
  0
BLOCK
  5
F1007E
330
F10020
100
AcDbEntity
  8
0
100
AcDbBlockBegin
  2
*D9
 70
     1
 10
0.0
 20
0.0
 30
0.0
  3
*D9
  1

  0
LINE
  5
F1007F
330
F10020
100
AcDbEntity
  8
Bemassung
 62
     0
370
    -2
100
AcDbLine
10
-27.0974477958237
20
-5.75174013921114
30
0.000000000000000
11
-14.0974477958237
21
-5.75174013921114
31
0.000000000000000
  0
LINE
  5
F10080
330
F10020
100
AcDbEntity
  8
Bemassung
 62
     0
370
    -2
100
AcDbLine
10
-27.0974477958237
20
4.24825986078886
30
0.000000000000000
11
-14.0974477958237
21
4.24825986078886
31
0.000000000000000
  0
LINE
  5
F10081
330
F10020
100
AcDbEntity
  8
Bemassung
 62
     0
370
    -2
100
AcDbLine
10
-16.0974477958237
20
-5.75174013921114
30
0.000000000000000
11
-16.0974477958237
21
4.24825986078886
31
0.000000000000000
  0
INSERT
  5
F10082
330
F10020
100
AcDbEntity
  8
Bemassung
 62
     0
370
    -2
100
AcDbBlockReference
  2
VDDIM_DEFAULT
10
-16.0974477958237
20
-5.75174013921114
30
0.000000000000000
 41
2.50000000000000
 42
2.50000000000000
 43
2.50000000000000
 50
270.000000000000
  0
INSERT
  5
F10083
330
F10020
100
AcDbEntity
  8
Bemassung
 62
     0
370
    -2
100
AcDbBlockReference
  2
VDDIM_DEFAULT
10
-16.0974477958237
20
4.24825986078886
30
0.000000000000000
 41
2.50000000000000
 42
2.50000000000000
 43
2.50000000000000
 50
90.0000000000000
  0
MTEXT
  5
F10084
330
F10020
100
AcDbEntity
  8
Bemassung
 62
     0
100
AcDbMText
10
-15.4307811291570
20
-0.751740139211137
30
0.000000000000000
 40
2.50000000000000
 41
0.0
 71
     8
 72
     1
  1
10h6
 11
6.12323399573677e-017
 21
1.00000000000000
 31
0.0
 73
     1
 44
1.0
  0
POINT
  5
F10085
330
F10020
100
AcDbEntity
  8
Bemassung
 62
     0
100
AcDbPoint
10
-27.0974477958237
20
-5.75174013921114
30
0.000000000000000
  0
POINT
  5
F10086
330
F10020
100
AcDbEntity
  8
Bemassung
 62
     0
100
AcDbPoint
10
-27.0974477958237
20
4.24825986078886
30
0.000000000000000
  0
ENDBLK
  5
F10087
330
F10020
100
AcDbEntity
  8
0
100
AcDbBlockEnd
0
ENDSEC
0
SECTION
2
ENTITIES
  0
DIMENSION
  5
F10017
330
261
100
AcDbEntity
  8
Bemassung
100
AcDbDimension
  2
*D7
10
-66.0974477958237
20
14.2482598607889
30
0.000000000000000
11
-81.0974477958237
21
14.9149265274555
31
0.000000000000000
 70
32
 1
30
 71
     8
  3
BEM-ISBE
100
AcDbAlignedDimension
13
-96.0974477958237
23
-12.7517401392111
33
0.000000000000000
14
-66.0974477958237
24
3.94825986078886
34
0.000000000000000
100
AcDbRotatedDimension
1001
ACAD
1000
DSTYLE
1002
{
1070
284
1070
8
1070
78
1070
8
1070
144
1040
1.00000000000000
1070
147
1040
0.625
1070
 72
1070
 0
1070
 71
1070
 0
1002
}
  0
DIMENSION
  5
F1001C
330
261
100
AcDbEntity
  8
Bemassung
100
AcDbDimension
  2
*D8
10
-26.0974477958237
20
19.2482598607889
30
0.000000000000000
11
-46.0974477958237
21
19.9149265274555
31
0.000000000000000
 70
32
 1
40
 71
     8
  3
BEM-ISBE
100
AcDbAlignedDimension
13
-66.0974477958237
23
3.94825986078886
33
0.000000000000000
14
-26.0974477958237
24
3.24825986078886
34
0.000000000000000
100
AcDbRotatedDimension
1001
ACAD
1000
DSTYLE
1002
{
1070
284
1070
8
1070
78
1070
8
1070
144
1040
1.00000000000000
1070
147
1040
0.625
1070
 72
1070
 0
1070
 71
1070
 0
1002
}
  0
DIMENSION
  5
F10026
330
261
100
AcDbEntity
  8
Bemassung
100
AcDbDimension
  2
*D10
10
-96.0974477958237
20
-10.7517401392111
30
0.000000000000000
11
-85.0974477958237
21
-10.0850734725445
31
0.000000000000000
 70
32
 1
22
 71
     8
  3
BEM-ISBE
100
AcDbAlignedDimension
13
-74.0974477958237
23
-5.45174013921114
33
0.000000000000000
14
-96.0974477958237
24
-12.7517401392111
34
0.000000000000000
100
AcDbRotatedDimension
1001
ACAD
1000
DSTYLE
1002
{
1070
284
1070
8
1070
78
1070
8
1070
144
1040
1.00000000000000
1070
147
1040
0.625
1070
 72
1070
 0
1070
 71
1070
 0
1002
}
  0
DIMENSION
  5
F1002B
330
261
100
AcDbEntity
  8
Bemassung
100
AcDbDimension
  2
*D11
10
-96.0974477958237
20
24.2482598607889
30
0.000000000000000
11
-61.0974477958237
21
24.9149265274555
31
0.000000000000000
 70
32
 1
70
 71
     8
  3
BEM-ISBE
100
AcDbAlignedDimension
13
-26.0974477958237
23
3.24825986078886
33
0.000000000000000
14
-96.0974477958237
24
-12.7517401392111
34
0.000000000000000
100
AcDbRotatedDimension
1001
ACAD
1000
DSTYLE
1002
{
1070
284
1070
8
1070
78
1070
8
1070
144
1040
1.00000000000000
1070
147
1040
0.625
1070
 72
1070
 0
1070
 71
1070
 0
1002
}
  0
DIMENSION
  5
F10003
330
261
100
AcDbEntity
  8
Bemassung
100
AcDbDimension
  2
*D3
10
-96.0971432093332
20
3.73081011243761
30
0.000000000000000
11
-100.213152027020
21
20.5442542443327
31
0.000000000000000
 70
34
 1
2°
 71
     8
  3
BEM-ISBE
100
AcDb2LineAngularDimension
13
-96.0971432093332
23
3.73081011243761
33
0.000000000000000
14
-99.5274901515381
24
20.6974288686819
34
0.000000000000000
15
-96.0971432093332
25
21.0407330517125
35
0.000000000000000
16
-96.3992430198675
26
21.0380966666064
36
0.000000000000000
1001
ACAD
1000
DSTYLE
1002
{
1070
284
1070
8
1070
79
1070
2
1070
147
1040
0.625
1070
 72
1070
 0
1070
 71
1070
 0
1002
}
  0
DIMENSION
  5
F1000D
330
261
100
AcDbEntity
  8
Bemassung
100
AcDbDimension
  2
*D5
10
-95.5974477958237
20
3.74825986078886
30
0.000000000000000
11
-103.150515699380
21
11.0421727506083
31
0.000000000000000
 70
164
 1
R0.5
 71
     8
  3
BEM-ISBE
100
AcDbRadialDimension
15
-95.9571176959930
25
4.09558904601836
35
0.000000000000000
40
0.0
1001
ACAD
1000
DSTYLE
1002
{
1070
284
1070
8
1070
78
1070
8
1070
144
1040
1.00000000000000
1070
147
1040
0.625
1070
 72
1070
 0
1070
 71
1070
 0
1002
}
  0
DIMENSION
  5
F10008
330
261
100
AcDbEntity
  8
Bemassung
100
AcDbDimension
  2
*D4
10
-106.097447795824
20
4.24825986078886
30
0.000000000000000
11
-105.430781129157
21
-0.751740139211137
31
0.000000000000000
 70
32
 1
10
 71
     8
  3
BEM-ISBE
100
AcDbAlignedDimension
13
-95.5974477958237
23
-5.75174013921114
33
0.000000000000000
14
-95.5974477958237
24
4.24825986078886
34
0.000000000000000
50
90.0000000000000
100
AcDbRotatedDimension
1001
ACAD
1000
DSTYLE
1002
{
1070
284
1070
8
1070
78
1070
8
1070
144
1040
1.00000000000000
1070
147
1040
0.625
1070
 72
1070
 0
1070
 71
1070
 0
1002
}
  0
DIMENSION
  5
F10012
330
261
100
AcDbEntity
  8
Bemassung
100
AcDbDimension
  2
*D6
10
-67.0974477958237
20
3.94825986078886
30
0.000000000000000
11
-66.4307811291570
21
-11.6176631572702
31
0.000000000000000
 70
32
 1
9.4
 71
     8
  3
BEM-ISBE
100
AcDbAlignedDimension
13
-74.0974477958237
23
-5.45174013921114
33
0.000000000000000
14
-74.0974477958237
24
3.94825986078886
34
0.000000000000000
50
90.0000000000000
100
AcDbRotatedDimension
1001
ACAD
1000
DSTYLE
1002
{
1070
284
1070
8
1070
78
1070
8
1070
144
1040
1.00000000000000
1070
147
1040
0.625
1070
 72
1070
 0
1070
 71
1070
 0
1002
}
  0
DIMENSION
  5
F10021
330
261
100
AcDbEntity
  8
Bemassung
100
AcDbDimension
  2
*D9
10
-16.0974477958237
20
4.24825986078886
30
0.000000000000000
11
-15.4307811291570
21
-0.751740139211137
31
0.000000000000000
 70
32
 1
10h6
 71
     8
  3
BEM-ISBE
100
AcDbAlignedDimension
13
-27.0974477958237
23
-5.75174013921114
33
0.000000000000000
14
-27.0974477958237
24
4.24825986078886
34
0.000000000000000
50
90.0000000000000
100
AcDbRotatedDimension
1001
ACAD
1000
DSTYLE
1002
{
1070
284
1070
8
1070
78
1070
8
1070
144
1040
1.00000000000000
1070
147
1040
0.625
1070
 72
1070
 0
1070
 71
1070
 0
1002
}
  0
LINE
  5
F10088
330
F10089
100
AcDbEntity
8
Geo
100
AcDbLine
10
-95.9406091052602
20
-0.751740139211137
30
0.000000000000000
11
-96.0971432093332
21
3.73081011243761
31
0.000000000000000
  0
ARC
  5
F1008A
330
F1008B
100
AcDbEntity
8
Geo
100
AcDbCircle
10
-95.5974477958237
20
3.74825986078886
30
0.000000000000000
 40
0.500000000000000
100
AcDbArc
 50
90.0000000000000
 51
182.000000000000
  0
LINE
  5
F1008C
330
F1008D
100
AcDbEntity
8
Geo
100
AcDbLine
10
-95.5974477958237
20
4.24825986078886
30
0.000000000000000
11
-74.0974477958237
21
4.24825986078886
31
0.000000000000000
  0
LINE
  5
F1008E
330
F1008F
100
AcDbEntity
8
Geo
100
AcDbLine
10
-74.0974477958237
20
4.24825986078886
30
0.000000000000000
11
-74.0974477958237
21
3.94825986078886
31
0.000000000000000
  0
LINE
  5
F10090
330
F10091
100
AcDbEntity
8
Geo
100
AcDbLine
10
-74.0974477958237
20
3.94825986078886
30
0.000000000000000
11
-66.0974477958237
21
3.94825986078886
31
0.000000000000000
  0
LINE
  5
F10092
330
F10093
100
AcDbEntity
8
Geo
100
AcDbLine
10
-66.0974477958237
20
3.94825986078886
30
0.000000000000000
11
-66.0974477958237
21
4.24825986078886
31
0.000000000000000
  0
LINE
  5
F10094
330
F10095
100
AcDbEntity
8
Geo
100
AcDbLine
10
-66.0974477958237
20
4.24825986078886
30
0.000000000000000
11
-27.0974477958237
21
4.24825986078886
31
0.000000000000000
  0
LINE
  5
F10096
330
F10097
100
AcDbEntity
8
Geo
100
AcDbLine
10
-27.0974477958237
20
4.24825986078886
30
0.000000000000000
11
-26.0974477958237
21
3.24825986078886
31
0.000000000000000
  0
LINE
  5
F10098
330
F10099
100
AcDbEntity
8
Geo
100
AcDbLine
10
-92.8974477958237
20
4.24670287597329
30
0.000000000000000
11
-92.7974477958237
21
4.24780197663911
31
0.000000000000000
  0
LINE
  5
F1009A
330
F1009B
100
AcDbEntity
8
Geo
100
AcDbLine
10
-92.7974477958237
20
4.24780197663911
30
0.000000000000000
11
-92.6974477958236
21
4.24149526261025
31
0.000000000000000
  0
LINE
  5
F1009C
330
F1009D
100
AcDbEntity
8
Geo
100
AcDbLine
10
-92.6974477958236
20
4.24149526261025
30
0.000000000000000
11
-92.5974477958237
21
4.22779207601333
31
0.000000000000000
  0
LINE
  5
F1009E
330
F1009F
100
AcDbEntity
8
Geo
100
AcDbLine
10
-92.5974477958237
20
4.22779207601333
30
0.000000000000000
11
-92.4974477958236
21
4.20671271535933
31
0.000000000000000
  0
LINE
  5
F100A0
330
F100A1
100
AcDbEntity
8
Geo
100
AcDbLine
10
-92.4974477958236
20
4.20671271535933
30
0.000000000000000
11
-92.3974477958237
21
4.17828840547552
31
0.000000000000000
  0
LINE
  5
F100A2
330
F100A3
100
AcDbEntity
8
Geo
100
AcDbLine
10
-92.3974477958237
20
4.17828840547552
30
0.000000000000000
11
-92.2974477958237
21
4.14256125125210
31
0.000000000000000
  0
LINE
  5
F100A4
330
F100A5
100
AcDbEntity
8
Geo
100
AcDbLine
10
-92.2974477958237
20
4.14256125125210
30
0.000000000000000
11
-92.1974477958236
21
4.09958417527228
31
0.000000000000000
  0
LINE
  5
F100A6
330
F100A7
100
AcDbEntity
8
Geo
100
AcDbLine
10
-92.1974477958236
20
4.09958417527228
30
0.000000000000000
11
-92.0974477958237
21
4.04942083941819
31
0.000000000000000
  0
LINE
  5
F100A8
330
F100A9
100
AcDbEntity
8
Geo
100
AcDbLine
10
-92.0974477958237
20
4.04942083941819
30
0.000000000000000
11
-91.9974477958237
21
3.99214555056859
31
0.000000000000000
  0
LINE
  5
F100AA
330
F100AB
100
AcDbEntity
8
Geo
100
AcDbLine
10
-91.9974477958237
20
3.99214555056859
30
0.000000000000000
11
-91.8974477958237
21
3.92784315052817
31
0.000000000000000
  0
LINE
  5
F100AC
330
F100AD
100
AcDbEntity
8
Geo
100
AcDbLine
10
-91.8974477958237
20
3.92784315052817
30
0.000000000000000
11
-91.7974477958237
21
3.85660889035154
31
0.000000000000000
  0
LINE
  5
F100AE
330
F100AF
100
AcDbEntity
8
Geo
100
AcDbLine
10
-91.7974477958237
20
3.85660889035154
30
0.000000000000000
11
-91.6974477958236
21
3.77854828924799
31
0.000000000000000
  0
LINE
  5
F100B0
330
F100B1
100
AcDbEntity
8
Geo
100
AcDbLine
10
-91.6974477958236
20
3.77854828924799
30
0.000000000000000
11
-91.5974477958237
21
3.69377697827598
31
0.000000000000000
  0
LINE
  5
F100B2
330
F100B3
100
AcDbEntity
8
Geo
100
AcDbLine
10
-91.5974477958237
20
3.69377697827598
30
0.000000000000000
11
-91.4974477958237
21
3.60242052905905
31
0.000000000000000
  0
LINE
  5
F100B4
330
F100B5
100
AcDbEntity
8
Geo
100
AcDbLine
10
-91.4974477958237
20
3.60242052905905
30
0.000000000000000
11
-91.3974477958237
21
3.50461426777677
31
0.000000000000000
  0
LINE
  5
F100B6
330
F100B7
100
AcDbEntity
8
Geo
100
AcDbLine
10
-91.3974477958237
20
3.50461426777677
30
0.000000000000000
11
-91.2974477958237
21
3.40050307470622
31
0.000000000000000
  0
LINE
  5
F100B8
330
F100B9
100
AcDbEntity
8
Geo
100
AcDbLine
10
-91.2974477958237
20
3.40050307470622
30
0.000000000000000
11
-91.1974477958236
21
3.29024116961105
31
0.000000000000000
  0
LINE
  5
F100BA
330
F100BB
100
AcDbEntity
8
Geo
100
AcDbLine
10
-91.1974477958236
20
3.29024116961105
30
0.000000000000000
11
-91.0974477958237
21
3.17399188329600
31
0.000000000000000
  0
LINE
  5
F100BC
330
F100BD
100
AcDbEntity
8
Geo
100
AcDbLine
10
-91.0974477958237
20
3.17399188329600
30
0.000000000000000
11
-90.9974477958237
21
3.05192741566514
31
0.000000000000000
  0
LINE
  5
F100BE
330
F100BF
100
AcDbEntity
8
Geo
100
AcDbLine
10
-90.9974477958237
20
3.05192741566514
30
0.000000000000000
11
-90.8974477958237
21
2.92422858064247
31
0.000000000000000
  0
LINE
  5
F100C0
330
F100C1
100
AcDbEntity
8
Geo
100
AcDbLine
10
-90.8974477958237
20
2.92422858064247
30
0.000000000000000
11
-90.7974477958237
21
2.79108453833244
31
0.000000000000000
  0
LINE
  5
F100C2
330
F100C3
100
AcDbEntity
8
Geo
100
AcDbLine
10
-90.7974477958237
20
2.79108453833244
30
0.000000000000000
11
-90.6974477958237
21
2.65269251481740
31
0.000000000000000
  0
LINE
  5
F100C4
330
F100C5
100
AcDbEntity
8
Geo
100
AcDbLine
10
-90.6974477958237
20
2.65269251481740
30
0.000000000000000
11
-90.5974477958237
21
2.50925751000687
31
0.000000000000000
  0
LINE
  5
F100C6
330
F100C7
100
AcDbEntity
8
Geo
100
AcDbLine
10
-90.5974477958237
20
2.50925751000687
30
0.000000000000000
11
-90.4974477958237
21
2.36099199397146
31
0.000000000000000
  0
LINE
  5
F100C8
330
F100C9
100
AcDbEntity
8
Geo
100
AcDbLine
10
-90.4974477958237
20
2.36099199397146
30
0.000000000000000
11
-90.3974477958237
21
2.20811559221124
31
0.000000000000000
  0
LINE
  5
F100CA
330
F100CB
100
AcDbEntity
8
Geo
100
AcDbLine
10
-90.3974477958237
20
2.20811559221124
30
0.000000000000000
11
-90.2974477958237
21
2.05085476032484
31
0.000000000000000
  0
LINE
  5
F100CC
330
F100CD
100
AcDbEntity
8
Geo
100
AcDbLine
10
-90.2974477958237
20
2.05085476032484
30
0.000000000000000
11
-90.1974477958237
21
1.88944244856102
31
0.000000000000000
  0
LINE
  5
F100CE
330
F100CF
100
AcDbEntity
8
Geo
100
AcDbLine
10
-90.1974477958237
20
1.88944244856102
30
0.000000000000000
11
-90.0974477958237
21
1.72411775674988
31
0.000000000000000
  0
LINE
  5
F100D0
330
F100D1
100
AcDbEntity
8
Geo
100
AcDbLine
10
-90.0974477958237
20
1.72411775674988
30
0.000000000000000
11
-89.9974477958237
21
1.55512558012453
31
0.000000000000000
  0
LINE
  5
F100D2
330
F100D3
100
AcDbEntity
8
Geo
100
AcDbLine
10
-89.9974477958237
20
1.55512558012453
30
0.000000000000000
11
-89.8974477958237
21
1.38271624655819
31
0.000000000000000
  0
LINE
  5
F100D4
330
F100D5
100
AcDbEntity
8
Geo
100
AcDbLine
10
-89.8974477958237
20
1.38271624655819
30
0.000000000000000
11
-89.7974477958237
21
1.20714514575387
31
0.000000000000000
  0
LINE
  5
F100D6
330
F100D7
100
AcDbEntity
8
Geo
100
AcDbLine
10
-89.7974477958237
20
1.20714514575387
30
0.000000000000000
11
-89.6974477958237
21
1.02867235093588
31
0.000000000000000
  0
LINE
  5
F100D8
330
F100D9
100
AcDbEntity
8
Geo
100
AcDbLine
10
-89.6974477958237
20
1.02867235093588
30
0.000000000000000
11
-89.5974477958237
21
0.847562233603839
31
0.000000000000000
  0
LINE
  5
F100DA
330
F100DB
100
AcDbEntity
8
Geo
100
AcDbLine
10
-89.5974477958237
20
0.847562233603839
30
0.000000000000000
11
-89.4974477958237
21
0.664083071919459
31
0.000000000000000
  0
LINE
  5
F100DC
330
F100DD
100
AcDbEntity
8
Geo
100
AcDbLine
10
-89.4974477958237
20
0.664083071919459
30
0.000000000000000
11
-89.3974477958237
21
0.478506653306524
31
0.000000000000000
  0
LINE
  5
F100DE
330
F100DF
100
AcDbEntity
8
Geo
100
AcDbLine
10
-89.3974477958237
20
0.478506653306524
30
0.000000000000000
11
-89.2974477958237
21
0.291107871852557
31
0.000000000000000
  0
LINE
  5
F100E0
330
F100E1
100
AcDbEntity
8
Geo
100
AcDbLine
10
-89.2974477958237
20
0.291107871852557
30
0.000000000000000
11
-89.1974477958237
21
0.102164321108585
31
0.000000000000000
  0
LINE
  5
F100E2
330
F100E3
100
AcDbEntity
8
Geo
100
AcDbLine
10
-89.1974477958237
20
0.102164321108585
30
0.000000000000000
11
-89.0974477958237
21
-0.0880441171097892
31
0.000000000000000
  0
LINE
  5
F100E4
330
F100E5
100
AcDbEntity
8
Geo
100
AcDbLine
10
-89.0974477958237
20
-0.0880441171097892
30
0.000000000000000
11
-88.9974477958237
21
-0.279235687310930
31
0.000000000000000
  0
LINE
  5
F100E6
330
F100E7
100
AcDbEntity
8
Geo
100
AcDbLine
10
-88.9974477958237
20
-0.279235687310930
30
0.000000000000000
11
-88.8974477958237
21
-0.471127177691180
31
0.000000000000000
  0
LINE
  5
F100E8
330
F100E9
100
AcDbEntity
8
Geo
100
AcDbLine
10
-88.8974477958237
20
-0.471127177691180
30
0.000000000000000
11
-88.7974477958237
21
-0.663434339656103
31
0.000000000000000
  0
LINE
  5
F100EA
330
F100EB
100
AcDbEntity
8
Geo
100
AcDbLine
10
-88.7974477958237
20
-0.663434339656103
30
0.000000000000000
11
-88.6974477958237
21
-0.855872308877533
31
0.000000000000000
  0
LINE
  5
F100EC
330
F100ED
100
AcDbEntity
8
Geo
100
AcDbLine
10
-88.6974477958237
20
-0.855872308877533
30
0.000000000000000
11
-88.5974477958237
21
-1.04815602726270
31
0.000000000000000
  0
LINE
  5
F100EE
330
F100EF
100
AcDbEntity
8
Geo
100
AcDbLine
10
-88.5974477958237
20
-1.04815602726270
30
0.000000000000000
11
-88.4974477958237
21
-1.24000066521038
31
0.000000000000000
  0
LINE
  5
F100F0
330
F100F1
100
AcDbEntity
8
Geo
100
AcDbLine
10
-88.4974477958237
20
-1.24000066521038
30
0.000000000000000
11
-88.3974477958237
21
-1.43112204352858
31
0.000000000000000
  0
LINE
  5
F100F2
330
F100F3
100
AcDbEntity
8
Geo
100
AcDbLine
10
-88.3974477958237
20
-1.43112204352858
30
0.000000000000000
11
-88.2974477958237
21
-1.62123705438878
31
0.000000000000000
  0
LINE
  5
F100F4
330
F100F5
100
AcDbEntity
8
Geo
100
AcDbLine
10
-88.2974477958237
20
-1.62123705438878
30
0.000000000000000
11
-88.1974477958237
21
-1.81006408069316
31
0.000000000000000
  0
LINE
  5
F100F6
330
F100F7
100
AcDbEntity
8
Geo
100
AcDbLine
10
-88.1974477958237
20
-1.81006408069316
30
0.000000000000000
11
-88.0974477958237
21
-1.99732341323360
31
0.000000000000000
  0
LINE
  5
F100F8
330
F100F9
100
AcDbEntity
8
Geo
100
AcDbLine
10
-88.0974477958237
20
-1.99732341323360
30
0.000000000000000
11
-87.9974477958237
21
-2.18273766502455
31
0.000000000000000
  0
LINE
  5
F100FA
330
F100FB
100
AcDbEntity
8
Geo
100
AcDbLine
10
-87.9974477958237
20
-2.18273766502455
30
0.000000000000000
11
-87.8974477958237
21
-2.36603218219599
31
0.000000000000000
  0
LINE
  5
F100FC
330
F100FD
100
AcDbEntity
8
Geo
100
AcDbLine
10
-87.8974477958237
20
-2.36603218219599
30
0.000000000000000
11
-87.7974477958237
21
-2.54693545083777
31
0.000000000000000
  0
LINE
  5
F100FE
330
F100FF
100
AcDbEntity
8
Geo
100
AcDbLine
10
-87.7974477958237
20
-2.54693545083777
30
0.000000000000000
11
-87.6974477958237
21
-2.72517949919286
31
0.000000000000000
  0
LINE
  5
F10100
330
F10101
100
AcDbEntity
8
Geo
100
AcDbLine
10
-87.6974477958237
20
-2.72517949919286
30
0.000000000000000
11
-87.5974477958237
21
-2.90050029460347
31
0.000000000000000
  0
LINE
  5
F10102
330
F10103
100
AcDbEntity
8
Geo
100
AcDbLine
10
-87.5974477958237
20
-2.90050029460347
30
0.000000000000000
11
-87.4974477958237
21
-3.07263813462228
31
0.000000000000000
  0
LINE
  5
F10104
330
F10105
100
AcDbEntity
8
Geo
100
AcDbLine
10
-87.4974477958237
20
-3.07263813462228
30
0.000000000000000
11
-87.3974477958237
21
-3.24133803170933
31
0.000000000000000
  0
LINE
  5
F10106
330
F10107
100
AcDbEntity
8
Geo
100
AcDbLine
10
-87.3974477958237
20
-3.24133803170933
30
0.000000000000000
11
-87.2974477958237
21
-3.40635009094466
31
0.000000000000000
  0
LINE
  5
F10108
330
F10109
100
AcDbEntity
8
Geo
100
AcDbLine
10
-87.2974477958237
20
-3.40635009094466
30
0.000000000000000
11
-87.1974477958237
21
-3.56742988019733
31
0.000000000000000
  0
LINE
  5
F1010A
330
F1010B
100
AcDbEntity
8
Geo
100
AcDbLine
10
-87.1974477958237
20
-3.56742988019733
30
0.000000000000000
11
-87.0974477958237
21
-3.72433879220239
31
0.000000000000000
  0
LINE
  5
F1010C
330
F1010D
100
AcDbEntity
8
Geo
100
AcDbLine
10
-87.0974477958237
20
-3.72433879220239
30
0.000000000000000
11
-86.9974477958237
21
-3.87684439800949
31
0.000000000000000
  0
LINE
  5
F1010E
330
F1010F
100
AcDbEntity
8
Geo
100
AcDbLine
10
-86.9974477958237
20
-3.87684439800949
30
0.000000000000000
11
-86.8974477958237
21
-4.02472079127954
31
0.000000000000000
  0
LINE
  5
F10110
330
F10111
100
AcDbEntity
8
Geo
100
AcDbLine
10
-86.8974477958237
20
-4.02472079127954
30
0.000000000000000
11
-86.7974477958237
21
-4.16774892291946
31
0.000000000000000
  0
LINE
  5
F10112
330
F10113
100
AcDbEntity
8
Geo
100
AcDbLine
10
-86.7974477958237
20
-4.16774892291946
30
0.000000000000000
11
-86.6974477958237
21
-4.30571692555930
31
0.000000000000000
  0
LINE
  5
F10114
330
F10115
100
AcDbEntity
8
Geo
100
AcDbLine
10
-86.6974477958237
20
-4.30571692555930
30
0.000000000000000
11
-86.5974477958237
21
-4.43842042739106
31
0.000000000000000
  0
LINE
  5
F10116
330
F10117
100
AcDbEntity
8
Geo
100
AcDbLine
10
-86.5974477958237
20
-4.43842042739106
30
0.000000000000000
11
-86.4974477958237
21
-4.56566285490440
31
0.000000000000000
  0
LINE
  5
F10118
330
F10119
100
AcDbEntity
8
Geo
100
AcDbLine
10
-86.4974477958237
20
-4.56566285490440
30
0.000000000000000
11
-86.3974477958237
21
-4.68725572407064
31
0.000000000000000
  0
LINE
  5
F1011A
330
F1011B
100
AcDbEntity
8
Geo
100
AcDbLine
10
-86.3974477958237
20
-4.68725572407064
30
0.000000000000000
11
-86.2974477958237
21
-4.80301891954394
31
0.000000000000000
  0
LINE
  5
F1011C
330
F1011D
100
AcDbEntity
8
Geo
100
AcDbLine
10
-86.2974477958237
20
-4.80301891954394
30
0.000000000000000
11
-86.1974477958237
21
-4.91278096146591
31
0.000000000000000
  0
LINE
  5
F1011E
330
F1011F
100
AcDbEntity
8
Geo
100
AcDbLine
10
-86.1974477958237
20
-4.91278096146591
30
0.000000000000000
11
-86.0974477958237
21
-5.01637925947842
31
0.000000000000000
  0
LINE
  5
F10120
330
F10121
100
AcDbEntity
8
Geo
100
AcDbLine
10
-86.0974477958237
20
-5.01637925947842
30
0.000000000000000
11
-85.9974477958237
21
-5.11366035356855
31
0.000000000000000
  0
LINE
  5
F10122
330
F10123
100
AcDbEntity
8
Geo
100
AcDbLine
10
-85.9974477958237
20
-5.11366035356855
30
0.000000000000000
11
-85.8974477958237
21
-5.20448014138863
31
0.000000000000000
  0
LINE
  5
F10124
330
F10125
100
AcDbEntity
8
Geo
100
AcDbLine
10
-85.8974477958237
20
-5.20448014138863
30
0.000000000000000
11
-85.7974477958237
21
-5.28870409171488
31
0.000000000000000
  0
LINE
  5
F10126
330
F10127
100
AcDbEntity
8
Geo
100
AcDbLine
10
-85.7974477958237
20
-5.28870409171488
30
0.000000000000000
11
-85.6974477958237
21
-5.36620744372831
31
0.000000000000000
  0
LINE
  5
F10128
330
F10129
100
AcDbEntity
8
Geo
100
AcDbLine
10
-85.6974477958237
20
-5.36620744372831
30
0.000000000000000
11
-85.5974477958237
21
-5.43687539182273
31
0.000000000000000
  0
LINE
  5
F1012A
330
F1012B
100
AcDbEntity
8
Geo
100
AcDbLine
10
-85.5974477958237
20
-5.43687539182273
30
0.000000000000000
11
-85.4974477958237
21
-5.50060325566617
31
0.000000000000000
  0
LINE
  5
F1012C
330
F1012D
100
AcDbEntity
8
Geo
100
AcDbLine
10
-85.4974477958237
20
-5.50060325566617
30
0.000000000000000
11
-85.3974477958237
21
-5.55729663526367
31
0.000000000000000
  0
LINE
  5
F1012E
330
F1012F
100
AcDbEntity
8
Geo
100
AcDbLine
10
-85.3974477958237
20
-5.55729663526367
30
0.000000000000000
11
-85.2974477958237
21
-5.60687155079188
31
0.000000000000000
  0
LINE
  5
F10130
330
F10131
100
AcDbEntity
8
Geo
100
AcDbLine
10
-85.2974477958237
20
-5.60687155079188
30
0.000000000000000
11
-85.1974477958237
21
-5.64925456699825
31
0.000000000000000
  0
LINE
  5
F10132
330
F10133
100
AcDbEntity
8
Geo
100
AcDbLine
10
-85.1974477958237
20
-5.64925456699825
30
0.000000000000000
11
-85.0974477958237
21
-5.68438290198057
31
0.000000000000000
  0
LINE
  5
F10134
330
F10135
100
AcDbEntity
8
Geo
100
AcDbLine
10
-85.0974477958237
20
-5.68438290198057
30
0.000000000000000
11
-84.9974477958237
21
-5.71220452018571
31
0.000000000000000
  0
LINE
  5
F10136
330
F10137
100
AcDbEntity
8
Geo
100
AcDbLine
10
-84.9974477958237
20
-5.71220452018571
30
0.000000000000000
11
-84.8974477958237
21
-5.73267820948981
31
0.000000000000000
  0
LINE
  5
F10138
330
F10139
100
AcDbEntity
8
Geo
100
AcDbLine
10
-84.8974477958237
20
-5.73267820948981
30
0.000000000000000
11
-84.7974477958237
21
-5.74577364224572
31
0.000000000000000
  0
LINE
  5
F1013A
330
F1013B
100
AcDbEntity
8
Geo
100
AcDbLine
10
-84.7974477958237
20
-5.74577364224572
30
0.000000000000000
11
-84.6974477958237
21
-5.75147142020737
31
0.000000000000000
  0
LINE
  5
F1013C
330
F1013D
100
AcDbEntity
8
Geo
100
AcDbLine
10
-75.7974477958236
20
4.24825986078886
30
0.000000000000000
11
-75.6974477958236
21
4.24825985116284
31
0.000000000000000
  0
LINE
  5
F1013E
330
F1013F
100
AcDbEntity
8
Geo
100
AcDbLine
10
-75.6974477958236
20
4.24825985116284
30
0.000000000000000
11
-75.5974477958236
21
4.24771706517906
31
0.000000000000000
  0
LINE
  5
F10140
330
F10141
100
AcDbEntity
8
Geo
100
AcDbLine
10
-75.5974477958236
20
4.24771706517906
30
0.000000000000000
11
-75.4974477958236
21
4.24621915712051
31
0.000000000000000
  0
LINE
  5
F10142
330
F10143
100
AcDbEntity
8
Geo
100
AcDbLine
10
-75.4974477958236
20
4.24621915712051
30
0.000000000000000
11
-75.3974477958236
21
4.24393996971231
31
0.000000000000000
  0
LINE
  5
F10144
330
F10145
100
AcDbEntity
8
Geo
100
AcDbLine
10
-75.3974477958236
20
4.24393996971231
30
0.000000000000000
11
-75.2974477958236
21
4.24104289223643
31
0.000000000000000
  0
LINE
  5
F10146
330
F10147
100
AcDbEntity
8
Geo
100
AcDbLine
10
-75.2974477958236
20
4.24104289223643
30
0.000000000000000
11
-75.1974477958236
21
4.23768079179695
31
0.000000000000000
  0
LINE
  5
F10148
330
F10149
100
AcDbEntity
8
Geo
100
AcDbLine
10
-75.1974477958236
20
4.23768079179695
30
0.000000000000000
11
-75.0974477958236
21
4.23399596776777
31
0.000000000000000
  0
LINE
  5
F1014A
330
F1014B
100
AcDbEntity
8
Geo
100
AcDbLine
10
-75.0974477958236
20
4.23399596776777
30
0.000000000000000
11
-74.9974477958236
21
4.23012012568322
31
0.000000000000000
  0
LINE
  5
F1014C
330
F1014D
100
AcDbEntity
8
Geo
100
AcDbLine
10
-74.9974477958236
20
4.23012012568322
30
0.000000000000000
11
-74.8974477958236
21
4.22617436708290
31
0.000000000000000
  0
LINE
  5
F1014E
330
F1014F
100
AcDbEntity
8
Geo
100
AcDbLine
10
-74.8974477958236
20
4.22617436708290
30
0.000000000000000
11
-74.7974477958236
21
4.22226919207753
31
0.000000000000000
  0
LINE
  5
F10150
330
F10151
100
AcDbEntity
8
Geo
100
AcDbLine
10
-74.7974477958236
20
4.22226919207753
30
0.000000000000000
11
-74.6974477958236
21
4.21850451166018
31
0.000000000000000
  0
LINE
  5
F10152
330
F10153
100
AcDbEntity
8
Geo
100
AcDbLine
10
-74.6974477958236
20
4.21850451166018
30
0.000000000000000
11
-74.5974477958236
21
4.21496966704683
31
0.000000000000000
  0
LINE
  5
F10154
330
F10155
100
AcDbEntity
8
Geo
100
AcDbLine
10
-74.5974477958236
20
4.21496966704683
30
0.000000000000000
11
-74.4974477958236
21
4.21174345359012
31
0.000000000000000
  0
LINE
  5
F10156
330
F10157
100
AcDbEntity
8
Geo
100
AcDbLine
10
-74.4974477958236
20
4.21174345359012
30
0.000000000000000
11
-74.3974477958236
21
4.20889414707079
31
0.000000000000000
  0
LINE
  5
F10158
330
F10159
100
AcDbEntity
8
Geo
100
AcDbLine
10
-74.3974477958236
20
4.20889414707079
30
0.000000000000000
11
-74.2974477958236
21
4.20647953043097
31
0.000000000000000
  0
LINE
  5
F1015A
330
F1015B
100
AcDbEntity
8
Geo
100
AcDbLine
10
-74.2974477958236
20
4.20647953043097
30
0.000000000000000
11
-74.1974477958236
21
4.20454691927277
31
0.000000000000000
  0
LINE
  5
F1015C
330
F1015D
100
AcDbEntity
8
Geo
100
AcDbLine
10
-74.1974477958236
20
4.20454691927277
30
0.000000000000000
11
-74.0974477958237
21
4.20313318470429
31
0.000000000000000
  0
LINE
  5
F1015E
330
F1015F
100
AcDbEntity
8
Geo
100
AcDbLine
10
-96.0974477958237
20
3.74825986078886
30
0.000000000000000
11
-95.9974477958237
21
4.04470474416911
31
0.000000000000000
  0
LINE
  5
F10160
330
F10161
100
AcDbEntity
8
Geo
100
AcDbLine
10
-95.9974477958237
20
4.04470474416911
30
0.000000000000000
11
-95.8974477958237
21
4.13374851049304
31
0.000000000000000
  0
LINE
  5
F10162
330
F10163
100
AcDbEntity
8
Geo
100
AcDbLine
10
-95.8974477958237
20
4.13374851049304
30
0.000000000000000
11
-95.7974477958237
21
4.17349909133540
31
0.000000000000000
  0
LINE
  5
F10164
330
F10165
100
AcDbEntity
8
Geo
100
AcDbLine
10
-95.7974477958237
20
4.17349909133540
30
0.000000000000000
11
-95.6974477958236
21
4.17913500466825
31
0.000000000000000
  0
LINE
  5
F10166
330
F10167
100
AcDbEntity
8
Geo
100
AcDbLine
10
-95.6974477958236
20
4.17913500466825
30
0.000000000000000
11
-95.5974477958237
21
4.15595269522196
31
0.000000000000000
  0
LINE
  5
F10168
330
F10169
100
AcDbEntity
8
Geo
100
AcDbLine
10
-95.5974477958237
20
4.15595269522196
30
0.000000000000000
11
-95.4974477958237
21
4.11551806755292
31
0.000000000000000
  0
LINE
  5
F1016A
330
F1016B
100
AcDbEntity
8
Geo
100
AcDbLine
10
-95.4974477958237
20
4.11551806755292
30
0.000000000000000
11
-95.3974477958237
21
4.06787357715742
31
0.000000000000000
  0
LINE
  5
F1016C
330
F1016D
100
AcDbEntity
8
Geo
100
AcDbLine
10
-95.3974477958237
20
4.06787357715742
30
0.000000000000000
11
-95.2974477958237
21
4.01308979975197
31
0.000000000000000
  0
LINE
  5
F1016E
330
F1016F
100
AcDbEntity
8
Geo
100
AcDbLine
10
-95.2974477958237
20
4.01308979975197
30
0.000000000000000
11
-95.1974477958236
21
3.95124788646889
31
0.000000000000000
  0
LINE
  5
F10170
330
F10171
100
AcDbEntity
8
Geo
100
AcDbLine
10
-95.1974477958236
20
3.95124788646889
30
0.000000000000000
11
-95.0974477958237
21
3.88243944364723
31
0.000000000000000
  0
LINE
  5
F10172
330
F10173
100
AcDbEntity
8
Geo
100
AcDbLine
10
-95.0974477958237
20
3.88243944364723
30
0.000000000000000
11
-94.9974477958237
21
3.80676639713642
31
0.000000000000000
  0
LINE
  5
F10174
330
F10175
100
AcDbEntity
8
Geo
100
AcDbLine
10
-94.9974477958237
20
3.80676639713642
30
0.000000000000000
11
-94.8974477958237
21
3.72434084131368
31
0.000000000000000
  0
LINE
  5
F10176
330
F10177
100
AcDbEntity
8
Geo
100
AcDbLine
10
-94.8974477958237
20
3.72434084131368
30
0.000000000000000
11
-94.7974477958237
21
3.63528487303875
31
0.000000000000000
  0
LINE
  5
F10178
330
F10179
100
AcDbEntity
8
Geo
100
AcDbLine
10
-94.7974477958237
20
3.63528487303875
30
0.000000000000000
11
-94.6974477958236
21
3.53973041079202
31
0.000000000000000
  0
LINE
  5
F1017A
330
F1017B
100
AcDbEntity
8
Geo
100
AcDbLine
10
-94.6974477958236
20
3.53973041079202
30
0.000000000000000
11
-94.5974477958237
21
3.43781899926383
31
0.000000000000000
  0
LINE
  5
F1017C
330
F1017D
100
AcDbEntity
8
Geo
100
AcDbLine
10
-94.5974477958237
20
3.43781899926383
30
0.000000000000000
11
-94.4974477958237
21
3.32970159968453
31
0.000000000000000
  0
LINE
  5
F1017E
330
F1017F
100
AcDbEntity
8
Geo
100
AcDbLine
10
-94.4974477958237
20
3.32970159968453
30
0.000000000000000
11
-94.3974477958237
21
3.21553836620586
31
0.000000000000000
  0
LINE
  5
F10180
330
F10181
100
AcDbEntity
8
Geo
100
AcDbLine
10
-94.3974477958237
20
3.21553836620586
30
0.000000000000000
11
-94.2974477958237
21
3.09549840866476
31
0.000000000000000
  0
LINE
  5
F10182
330
F10183
100
AcDbEntity
8
Geo
100
AcDbLine
10
-94.2974477958237
20
3.09549840866476
30
0.000000000000000
11
-94.1974477958236
21
2.96975954208129
31
0.000000000000000
  0
LINE
  5
F10184
330
F10185
100
AcDbEntity
8
Geo
100
AcDbLine
10
-94.1974477958236
20
2.96975954208129
30
0.000000000000000
11
-94.0974477958237
21
2.83850802326140
31
0.000000000000000
  0
LINE
  5
F10186
330
F10187
100
AcDbEntity
8
Geo
100
AcDbLine
10
-94.0974477958237
20
2.83850802326140
30
0.000000000000000
11
-93.9974477958237
21
2.70193827489508
31
0.000000000000000
  0
LINE
  5
F10188
330
F10189
100
AcDbEntity
8
Geo
100
AcDbLine
10
-93.9974477958237
20
2.70193827489508
30
0.000000000000000
11
-93.8974477958237
21
2.56025259755822
31
0.000000000000000
  0
LINE
  5
F1018A
330
F1018B
100
AcDbEntity
8
Geo
100
AcDbLine
10
-93.8974477958237
20
2.56025259755822
30
0.000000000000000
11
-93.7974477958237
21
2.41366087004511
31
0.000000000000000
  0
LINE
  5
F1018C
330
F1018D
100
AcDbEntity
8
Geo
100
AcDbLine
10
-93.7974477958237
20
2.41366087004511
30
0.000000000000000
11
-93.6974477958236
21
2.26238023847525
31
0.000000000000000
  0
LINE
  5
F1018E
330
F1018F
100
AcDbEntity
8
Geo
100
AcDbLine
10
-93.6974477958236
20
2.26238023847525
30
0.000000000000000
11
-93.5974477958237
21
2.10663479463512
31
0.000000000000000
  0
LINE
  5
F10190
330
F10191
100
AcDbEntity
8
Geo
100
AcDbLine
10
-93.5974477958237
20
2.10663479463512
30
0.000000000000000
11
-93.4974477958237
21
1.94665524403132
31
0.000000000000000
  0
LINE
  5
F10192
330
F10193
100
AcDbEntity
8
Geo
100
AcDbLine
10
-93.4974477958237
20
1.94665524403132
30
0.000000000000000
11
-93.3974477958237
21
1.78267856414683
31
0.000000000000000
  0
LINE
  5
F10194
330
F10195
100
AcDbEntity
8
Geo
100
AcDbLine
10
-93.3974477958237
20
1.78267856414683
30
0.000000000000000
11
-93.2974477958237
21
1.61494765340662
31
0.000000000000000
  0
LINE
  5
F10196
330
F10197
100
AcDbEntity
8
Geo
100
AcDbLine
10
-93.2974477958237
20
1.61494765340662
30
0.000000000000000
11
-93.1974477958236
21
1.44371097137254
31
0.000000000000000
  0
LINE
  5
F10198
330
F10199
100
AcDbEntity
8
Geo
100
AcDbLine
10
-93.1974477958236
20
1.44371097137254
30
0.000000000000000
11
-93.0974477958237
21
1.26922217070050
31
0.000000000000000
  0
LINE
  5
F1019A
330
F1019B
100
AcDbEntity
8
Geo
100
AcDbLine
10
-93.0974477958237
20
1.26922217070050
30
0.000000000000000
11
-92.9974477958237
21
1.09173972140518
31
0.000000000000000
  0
LINE
  5
F1019C
330
F1019D
100
AcDbEntity
8
Geo
100
AcDbLine
10
-92.9974477958237
20
1.09173972140518
30
0.000000000000000
11
-92.8974477958237
21
0.911526527988749
31
0.000000000000000
  0
LINE
  5
F1019E
330
F1019F
100
AcDbEntity
8
Geo
100
AcDbLine
10
-92.8974477958237
20
0.911526527988749
30
0.000000000000000
11
-92.7974477958237
21
0.728849540000798
31
0.000000000000000
  0
LINE
  5
F101A0
330
F101A1
100
AcDbEntity
8
Geo
100
AcDbLine
10
-92.7974477958237
20
0.728849540000798
30
0.000000000000000
11
-92.6974477958236
21
0.543979356606347
31
0.000000000000000
  0
LINE
  5
F101A2
330
F101A3
100
AcDbEntity
8
Geo
100
AcDbLine
10
-92.6974477958236
20
0.543979356606347
30
0.000000000000000
11
-92.5974477958237
21
0.357189825747678
31
0.000000000000000
  0
LINE
  5
F101A4
330
F101A5
100
AcDbEntity
8
Geo
100
AcDbLine
10
-92.5974477958237
20
0.357189825747678
30
0.000000000000000
11
-92.4974477958236
21
0.168757638493771
31
0.000000000000000
  0
LINE
  5
F101A6
330
F101A7
100
AcDbEntity
8
Geo
100
AcDbLine
10
-92.4974477958236
20
0.168757638493771
30
0.000000000000000
11
-92.3974477958237
21
-0.0210380808217885
31
0.000000000000000
  0
LINE
  5
F101A8
330
F101A9
100
AcDbEntity
8
Geo
100
AcDbLine
10
-92.3974477958237
20
-0.0210380808217885
30
0.000000000000000
11
-92.2974477958237
21
-0.211916188067294
31
0.000000000000000
  0
LINE
  5
F101AA
330
F101AB
100
AcDbEntity
8
Geo
100
AcDbLine
10
-92.2974477958237
20
-0.211916188067294
30
0.000000000000000
11
-92.1974477958236
21
-0.403593935771323
31
0.000000000000000
  0
LINE
  5
F101AC
330
F101AD
100
AcDbEntity
8
Geo
100
AcDbLine
10
-92.1974477958236
20
-0.403593935771323
30
0.000000000000000
11
-92.0974477958237
21
-0.595787391956164
31
0.000000000000000
  0
LINE
  5
F101AE
330
F101AF
100
AcDbEntity
8
Geo
100
AcDbLine
10
-92.0974477958237
20
-0.595787391956164
30
0.000000000000000
11
-91.9974477958237
21
-0.788211860725864
31
0.000000000000000
  0
LINE
  5
F101B0
330
F101B1
100
AcDbEntity
8
Geo
100
AcDbLine
10
-91.9974477958237
20
-0.788211860725864
30
0.000000000000000
11
-91.8974477958237
21
-0.980582303985854
31
0.000000000000000
  0
LINE
  5
F101B2
330
F101B3
100
AcDbEntity
8
Geo
100
AcDbLine
10
-91.8974477958237
20
-0.980582303985854
30
0.000000000000000
11
-91.7974477958237
21
-1.17261376366947
31
0.000000000000000
  0
LINE
  5
F101B4
330
F101B5
100
AcDbEntity
8
Geo
100
AcDbLine
10
-91.7974477958237
20
-1.17261376366947
30
0.000000000000000
11
-91.6974477958236
21
-1.36402178384595
31
0.000000000000000
  0
LINE
  5
F101B6
330
F101B7
100
AcDbEntity
8
Geo
100
AcDbLine
10
-91.6974477958236
20
-1.36402178384595
30
0.000000000000000
11
-91.5974477958237
21
-1.55452283208459
31
0.000000000000000
  0
LINE
  5
F101B8
330
F101B9
100
AcDbEntity
8
Geo
100
AcDbLine
10
-91.5974477958237
20
-1.55452283208459
30
0.000000000000000
11
-91.4974477958237
21
-1.74383471945095
31
0.000000000000000
  0
LINE
  5
F101BA
330
F101BB
100
AcDbEntity
8
Geo
100
AcDbLine
10
-91.4974477958237
20
-1.74383471945095
30
0.000000000000000
11
-91.3974477958237
21
-1.93167701851290
31
0.000000000000000
  0
LINE
  5
F101BC
330
F101BD
100
AcDbEntity
8
Geo
100
AcDbLine
10
-91.3974477958237
20
-1.93167701851290
30
0.000000000000000
11
-91.2974477958237
21
-2.11777147873740
31
0.000000000000000
  0
LINE
  5
F101BE
330
F101BF
100
AcDbEntity
8
Geo
100
AcDbLine
10
-91.2974477958237
20
-2.11777147873740
30
0.000000000000000
11
-91.1974477958236
21
-2.30184243866263
31
0.000000000000000
  0
LINE
  5
F101C0
330
F101C1
100
AcDbEntity
8
Geo
100
AcDbLine
10
-91.1974477958236
20
-2.30184243866263
30
0.000000000000000
11
-91.0974477958237
21
-2.48361723423490
31
0.000000000000000
  0
LINE
  5
F101C2
330
F101C3
100
AcDbEntity
8
Geo
100
AcDbLine
10
-91.0974477958237
20
-2.48361723423490
30
0.000000000000000
11
-90.9974477958237
21
-2.66282660270554
31
0.000000000000000
  0
LINE
  5
F101C4
330
F101C5
100
AcDbEntity
8
Geo
100
AcDbLine
10
-90.9974477958237
20
-2.66282660270554
30
0.000000000000000
11
-90.8974477958237
21
-2.83920508148946
31
0.000000000000000
  0
LINE
  5
F101C6
330
F101C7
100
AcDbEntity
8
Geo
100
AcDbLine
10
-90.8974477958237
20
-2.83920508148946
30
0.000000000000000
11
-90.7974477958237
21
-3.01249140139443
31
0.000000000000000
  0
LINE
  5
F101C8
330
F101C9
100
AcDbEntity
8
Geo
100
AcDbLine
10
-90.7974477958237
20
-3.01249140139443
30
0.000000000000000
11
-90.6974477958237
21
-3.18242887363886
31
0.000000000000000
  0
LINE
  5
F101CA
330
F101CB
100
AcDbEntity
8
Geo
100
AcDbLine
10
-90.6974477958237
20
-3.18242887363886
30
0.000000000000000
11
-90.5974477958237
21
-3.34876577008444
31
0.000000000000000
  0
LINE
  5
F101CC
330
F101CD
100
AcDbEntity
8
Geo
100
AcDbLine
10
-90.5974477958237
20
-3.34876577008444
30
0.000000000000000
11
-90.4974477958237
21
-3.51125569612076
31
0.000000000000000
  0
LINE
  5
F101CE
330
F101CF
100
AcDbEntity
8
Geo
100
AcDbLine
10
-90.4974477958237
20
-3.51125569612076
30
0.000000000000000
11
-90.3974477958237
21
-3.66965795564922
31
0.000000000000000
  0
LINE
  5
F101D0
330
F101D1
100
AcDbEntity
8
Geo
100
AcDbLine
10
-90.3974477958237
20
-3.66965795564922
30
0.000000000000000
11
-90.2974477958237
21
-3.82373790762589
31
0.000000000000000
  0
LINE
  5
F101D2
330
F101D3
100
AcDbEntity
8
Geo
100
AcDbLine
10
-90.2974477958237
20
-3.82373790762589
30
0.000000000000000
11
-90.1974477958237
21
-3.97326731363491
31
0.000000000000000
  0
LINE
  5
F101D4
330
F101D5
100
AcDbEntity
8
Geo
100
AcDbLine
10
-90.1974477958237
20
-3.97326731363491
30
0.000000000000000
11
-90.0974477958237
21
-4.11802467597778
31
0.000000000000000
  0
LINE
  5
F101D6
330
F101D7
100
AcDbEntity
8
Geo
100
AcDbLine
10
-90.0974477958237
20
-4.11802467597778
30
0.000000000000000
11
-89.9974477958237
21
-4.25779556577752
31
0.000000000000000
  0
LINE
  5
F101D8
330
F101D9
100
AcDbEntity
8
Geo
100
AcDbLine
10
-89.9974477958237
20
-4.25779556577752
30
0.000000000000000
11
-89.8974477958237
21
-4.39237294061195
31
0.000000000000000
  0
LINE
  5
F101DA
330
F101DB
100
AcDbEntity
8
Geo
100
AcDbLine
10
-89.8974477958237
20
-4.39237294061195
30
0.000000000000000
11
-89.7974477958237
21
-4.52155745120525
31
0.000000000000000
  0
LINE
  5
F101DC
330
F101DD
100
AcDbEntity
8
Geo
100
AcDbLine
10
-89.7974477958237
20
-4.52155745120525
30
0.000000000000000
11
-89.6974477958237
21
-4.64515773672384
31
0.000000000000000
  0
LINE
  5
F101DE
330
F101DF
100
AcDbEntity
8
Geo
100
AcDbLine
10
-89.6974477958237
20
-4.64515773672384
30
0.000000000000000
11
-89.5974477958237
21
-4.76299070823886
31
0.000000000000000
  0
LINE
  5
F101E0
330
F101E1
100
AcDbEntity
8
Geo
100
AcDbLine
10
-89.5974477958237
20
-4.76299070823886
30
0.000000000000000
11
-89.4974477958237
21
-4.87488181993556
31
0.000000000000000
  0
LINE
  5
F101E2
330
F101E3
100
AcDbEntity
8
Geo
100
AcDbLine
10
-89.4974477958237
20
-4.87488181993556
30
0.000000000000000
11
-89.3974477958237
21
-4.98066532766779
31
0.000000000000000
  0
LINE
  5
F101E4
330
F101E5
100
AcDbEntity
8
Geo
100
AcDbLine
10
-89.3974477958237
20
-4.98066532766779
30
0.000000000000000
11
-89.2974477958237
21
-5.08018453447452
31
0.000000000000000
  0
LINE
  5
F101E6
330
F101E7
100
AcDbEntity
8
Geo
100
AcDbLine
10
-89.2974477958237
20
-5.08018453447452
30
0.000000000000000
11
-89.1974477958237
21
-5.17329202269488
31
0.000000000000000
  0
LINE
  5
F101E8
330
F101E9
100
AcDbEntity
8
Geo
100
AcDbLine
10
-89.1974477958237
20
-5.17329202269488
30
0.000000000000000
11
-89.0974477958237
21
-5.25984987233770
31
0.000000000000000
  0
LINE
  5
F101EA
330
F101EB
100
AcDbEntity
8
Geo
100
AcDbLine
10
-89.0974477958237
20
-5.25984987233770
30
0.000000000000000
11
-88.9974477958237
21
-5.33972986538223
31
0.000000000000000
  0
LINE
  5
F101EC
330
F101ED
100
AcDbEntity
8
Geo
100
AcDbLine
10
-88.9974477958237
20
-5.33972986538223
30
0.000000000000000
11
-88.8974477958237
21
-5.41281367570726
31
0.000000000000000
  0
LINE
  5
F101EE
330
F101EF
100
AcDbEntity
8
Geo
100
AcDbLine
10
-88.8974477958237
20
-5.41281367570726
30
0.000000000000000
11
-88.7974477958237
21
-5.47899304436750
31
0.000000000000000
  0
LINE
  5
F101F0
330
F101F1
100
AcDbEntity
8
Geo
100
AcDbLine
10
-88.7974477958237
20
-5.47899304436750
30
0.000000000000000
11
-88.6974477958237
21
-5.53816993995736
31
0.000000000000000
  0
LINE
  5
F101F2
330
F101F3
100
AcDbEntity
8
Geo
100
AcDbLine
10
-88.6974477958237
20
-5.53816993995736
30
0.000000000000000
11
-88.5974477958237
21
-5.59025670382475
31
0.000000000000000
  0
LINE
  5
F101F4
330
F101F5
100
AcDbEntity
8
Geo
100
AcDbLine
10
-88.5974477958237
20
-5.59025670382475
30
0.000000000000000
11
-88.4974477958237
21
-5.63517617991971
31
0.000000000000000
  0
LINE
  5
F101F6
330
F101F7
100
AcDbEntity
8
Geo
100
AcDbLine
10
-88.4974477958237
20
-5.63517617991971
30
0.000000000000000
11
-88.3974477958237
21
-5.67286182908558
31
0.000000000000000
  0
LINE
  5
F101F8
330
F101F9
100
AcDbEntity
8
Geo
100
AcDbLine
10
-88.3974477958237
20
-5.67286182908558
30
0.000000000000000
11
-88.2974477958237
21
-5.70325782762331
31
0.000000000000000
  0
LINE
  5
F101FA
330
F101FB
100
AcDbEntity
8
Geo
100
AcDbLine
10
-88.2974477958237
20
-5.70325782762331
30
0.000000000000000
11
-88.1974477958237
21
-5.72631914998309
31
0.000000000000000
  0
LINE
  5
F101FC
330
F101FD
100
AcDbEntity
8
Geo
100
AcDbLine
10
-88.1974477958237
20
-5.72631914998309
30
0.000000000000000
11
-88.0974477958237
21
-5.74201163546059
31
0.000000000000000
  0
LINE
  5
F101FE
330
F101FF
100
AcDbEntity
8
Geo
100
AcDbLine
10
-88.0974477958237
20
-5.74201163546059
30
0.000000000000000
11
-87.9974477958237
21
-5.75031203879916
31
0.000000000000000
  0
LINE
  5
F10200
330
F10201
100
AcDbEntity
8
Geo
100
AcDbLine
10
-79.7974477958237
20
4.24804306121000
30
0.000000000000000
11
-79.6974477958237
21
4.24613167567782
31
0.000000000000000
  0
LINE
  5
F10202
330
F10203
100
AcDbEntity
8
Geo
100
AcDbLine
10
-79.6974477958237
20
4.24613167567782
30
0.000000000000000
11
-79.5974477958237
21
4.23681694966541
31
0.000000000000000
  0
LINE
  5
F10204
330
F10205
100
AcDbEntity
8
Geo
100
AcDbLine
10
-79.5974477958237
20
4.23681694966541
30
0.000000000000000
11
-79.4974477958237
21
4.22011268106332
31
0.000000000000000
  0
LINE
  5
F10206
330
F10207
100
AcDbEntity
8
Geo
100
AcDbLine
10
-79.4974477958237
20
4.22011268106332
30
0.000000000000000
11
-79.3974477958237
21
4.19604361388108
31
0.000000000000000
  0
LINE
  5
F10208
330
F10209
100
AcDbEntity
8
Geo
100
AcDbLine
10
-79.3974477958237
20
4.19604361388108
30
0.000000000000000
11
-79.2974477958237
21
4.16464540159402
31
0.000000000000000
  0
LINE
  5
F1020A
330
F1020B
100
AcDbEntity
8
Geo
100
AcDbLine
10
-79.2974477958237
20
4.16464540159402
30
0.000000000000000
11
-79.1974477958237
21
4.12596455432978
31
0.000000000000000
  0
LINE
  5
F1020C
330
F1020D
100
AcDbEntity
8
Geo
100
AcDbLine
10
-79.1974477958237
20
4.12596455432978
30
0.000000000000000
11
-79.0974477958237
21
4.08005836997291
31
0.000000000000000
  0
LINE
  5
F1020E
330
F1020F
100
AcDbEntity
8
Geo
100
AcDbLine
10
-79.0974477958237
20
4.08005836997291
30
0.000000000000000
11
-78.9974477958237
21
4.08616313422218
31
0.000000000000000
  0
LINE
  5
F10210
330
F10211
100
AcDbEntity
8
Geo
100
AcDbLine
10
-78.9974477958237
20
4.08616313422218
30
0.000000000000000
11
-78.8974477958237
21
4.09204164960437
31
0.000000000000000
  0
LINE
  5
F10212
330
F10213
100
AcDbEntity
8
Geo
100
AcDbLine
10
-78.8974477958237
20
4.09204164960437
30
0.000000000000000
11
-78.7974477958236
21
4.09770012653694
31
0.000000000000000
  0
LINE
  5
F10214
330
F10215
100
AcDbEntity
8
Geo
100
AcDbLine
10
-78.7974477958236
20
4.09770012653694
30
0.000000000000000
11
-78.6974477958236
21
4.10314466714907
31
0.000000000000000
  0
LINE
  5
F10216
330
F10217
100
AcDbEntity
8
Geo
100
AcDbLine
10
-78.6974477958236
20
4.10314466714907
30
0.000000000000000
11
-78.5974477958237
21
4.10838126411105
31
0.000000000000000
  0
LINE
  5
F10218
330
F10219
100
AcDbEntity
8
Geo
100
AcDbLine
10
-78.5974477958237
20
4.10838126411105
30
0.000000000000000
11
-78.4974477958236
21
4.11341579951658
31
0.000000000000000
  0
LINE
  5
F1021A
330
F1021B
100
AcDbEntity
8
Geo
100
AcDbLine
10
-78.4974477958236
20
4.11341579951658
30
0.000000000000000
11
-78.3974477958236
21
4.11825404381649
31
0.000000000000000
  0
LINE
  5
F1021C
330
F1021D
100
AcDbEntity
8
Geo
100
AcDbLine
10
-78.3974477958236
20
4.11825404381649
30
0.000000000000000
11
-78.2974477958236
21
4.12290165480210
31
0.000000000000000
  0
LINE
  5
F1021E
330
F1021F
100
AcDbEntity
8
Geo
100
AcDbLine
10
-78.2974477958236
20
4.12290165480210
30
0.000000000000000
11
-78.1974477958236
21
4.12736417663650
31
0.000000000000000
  0
LINE
  5
F10220
330
F10221
100
AcDbEntity
8
Geo
100
AcDbLine
10
-78.1974477958236
20
4.12736417663650
30
0.000000000000000
11
-78.0974477958236
21
4.13164703893210
31
0.000000000000000
  0
LINE
  5
F10222
330
F10223
100
AcDbEntity
8
Geo
100
AcDbLine
10
-78.0974477958236
20
4.13164703893210
30
0.000000000000000
11
-77.9974477958236
21
4.13575555587300
31
0.000000000000000
  0
LINE
  5
F10224
330
F10225
100
AcDbEntity
8
Geo
100
AcDbLine
10
-77.9974477958236
20
4.13575555587300
30
0.000000000000000
11
-77.8974477958236
21
4.13969492538035
31
0.000000000000000
  0
LINE
  5
F10226
330
F10227
100
AcDbEntity
8
Geo
100
AcDbLine
10
-77.8974477958236
20
4.13969492538035
30
0.000000000000000
11
-77.7974477958236
21
4.14347022831930
31
0.000000000000000
  0
LINE
  5
F10228
330
F10229
100
AcDbEntity
8
Geo
100
AcDbLine
10
-77.7974477958236
20
4.14347022831930
30
0.000000000000000
11
-77.6974477958236
21
4.14708642774600
31
0.000000000000000
  0
LINE
  5
F1022A
330
F1022B
100
AcDbEntity
8
Geo
100
AcDbLine
10
-77.6974477958236
20
4.14708642774600
30
0.000000000000000
11
-77.5974477958236
21
4.15054836819309
31
0.000000000000000
  0
LINE
  5
F1022C
330
F1022D
100
AcDbEntity
8
Geo
100
AcDbLine
10
-77.5974477958236
20
4.15054836819309
30
0.000000000000000
11
-77.4974477958236
21
4.15386077499229
31
0.000000000000000
  0
LINE
  5
F1022E
330
F1022F
100
AcDbEntity
8
Geo
100
AcDbLine
10
-77.4974477958236
20
4.15386077499229
30
0.000000000000000
11
-77.3974477958236
21
4.15702825363260
31
0.000000000000000
  0
LINE
  5
F10230
330
F10231
100
AcDbEntity
8
Geo
100
AcDbLine
10
-77.3974477958236
20
4.15702825363260
30
0.000000000000000
11
-77.2974477958236
21
4.16005528915278
31
0.000000000000000
  0
LINE
  5
F10232
330
F10233
100
AcDbEntity
8
Geo
100
AcDbLine
10
-77.2974477958236
20
4.16005528915278
30
0.000000000000000
11
-77.1974477958236
21
4.16294624556661
31
0.000000000000000
  0
LINE
  5
F10234
330
F10235
100
AcDbEntity
8
Geo
100
AcDbLine
10
-77.1974477958236
20
4.16294624556661
30
0.000000000000000
11
-77.0974477958236
21
4.16570536531981
31
0.000000000000000
  0
LINE
  5
F10236
330
F10237
100
AcDbEntity
8
Geo
100
AcDbLine
10
-77.0974477958236
20
4.16570536531981
30
0.000000000000000
11
-76.9974477958236
21
4.16833676877716
31
0.000000000000000
  0
LINE
  5
F10238
330
F10239
100
AcDbEntity
8
Geo
100
AcDbLine
10
-76.9974477958236
20
4.16833676877716
30
0.000000000000000
11
-76.8974477958236
21
4.17084445373853
31
0.000000000000000
  0
LINE
  5
F1023A
330
F1023B
100
AcDbEntity
8
Geo
100
AcDbLine
10
-76.8974477958236
20
4.17084445373853
30
0.000000000000000
11
-76.7974477958236
21
4.17323229498278
31
0.000000000000000
  0
LINE
  5
F1023C
330
F1023D
100
AcDbEntity
8
Geo
100
AcDbLine
10
-76.7974477958236
20
4.17323229498278
30
0.000000000000000
11
-76.6974477958236
21
4.17550404383814
31
0.000000000000000
  0
LINE
  5
F1023E
330
F1023F
100
AcDbEntity
8
Geo
100
AcDbLine
10
-76.6974477958236
20
4.17550404383814
30
0.000000000000000
11
-76.5974477958236
21
4.17766332777803
31
0.000000000000000
  0
LINE
  5
F10240
330
F10241
100
AcDbEntity
8
Geo
100
AcDbLine
10
-76.5974477958236
20
4.17766332777803
30
0.000000000000000
11
-76.4974477958236
21
4.17971365004117
31
0.000000000000000
  0
LINE
  5
F10242
330
F10243
100
AcDbEntity
8
Geo
100
AcDbLine
10
-76.4974477958236
20
4.17971365004117
30
0.000000000000000
11
-76.3974477958236
21
4.18165838927483
31
0.000000000000000
  0
LINE
  5
F10244
330
F10245
100
AcDbEntity
8
Geo
100
AcDbLine
10
-76.3974477958236
20
4.18165838927483
30
0.000000000000000
11
-76.2974477958236
21
4.18350079920030
31
0.000000000000000
  0
LINE
  5
F10246
330
F10247
100
AcDbEntity
8
Geo
100
AcDbLine
10
-76.2974477958236
20
4.18350079920030
30
0.000000000000000
11
-76.1974477958236
21
4.18524400829945
31
0.000000000000000
  0
LINE
  5
F10248
330
F10249
100
AcDbEntity
8
Geo
100
AcDbLine
10
-76.1974477958236
20
4.18524400829945
30
0.000000000000000
11
-76.0974477958236
21
4.18689101952147
31
0.000000000000000
  0
LINE
  5
F1024A
330
F1024B
100
AcDbEntity
8
Geo
100
AcDbLine
10
-76.0974477958236
20
4.18689101952147
30
0.000000000000000
11
-75.9974477958236
21
4.18844471000878
31
0.000000000000000
  0
LINE
  5
F1024C
330
F1024D
100
AcDbEntity
8
Geo
100
AcDbLine
10
-75.9974477958236
20
4.18844471000878
30
0.000000000000000
11
-75.8974477958236
21
4.18990783084133
31
0.000000000000000
  0
LINE
  5
F1024E
330
F1024F
100
AcDbEntity
8
Geo
100
AcDbLine
10
-75.8974477958236
20
4.18990783084133
30
0.000000000000000
11
-75.7974477958236
21
4.19128300679831
31
0.000000000000000
  0
LINE
  5
F10250
330
F10251
100
AcDbEntity
8
Geo
100
AcDbLine
10
-75.7974477958236
20
4.19128300679831
30
0.000000000000000
11
-75.6974477958236
21
4.19257273613646
31
0.000000000000000
  0
LINE
  5
F10252
330
F10253
100
AcDbEntity
8
Geo
100
AcDbLine
10
-75.6974477958236
20
4.19257273613646
30
0.000000000000000
11
-75.5974477958236
21
4.19377939038428
31
0.000000000000000
  0
LINE
  5
F10254
330
F10255
100
AcDbEntity
8
Geo
100
AcDbLine
10
-75.5974477958236
20
4.19377939038428
30
0.000000000000000
11
-75.4974477958236
21
4.19490521415124
31
0.000000000000000
  0
LINE
  5
F10256
330
F10257
100
AcDbEntity
8
Geo
100
AcDbLine
10
-75.4974477958236
20
4.19490521415124
30
0.000000000000000
11
-75.3974477958236
21
4.19595232495141
31
0.000000000000000
  0
LINE
  5
F10258
330
F10259
100
AcDbEntity
8
Geo
100
AcDbLine
10
-75.3974477958236
20
4.19595232495141
30
0.000000000000000
11
-75.2974477958236
21
4.19692271304081
31
0.000000000000000
  0
LINE
  5
F1025A
330
F1025B
100
AcDbEntity
8
Geo
100
AcDbLine
10
-75.2974477958236
20
4.19692271304081
30
0.000000000000000
11
-75.1974477958236
21
4.19781824126768
31
0.000000000000000
  0
LINE
  5
F1025C
330
F1025D
100
AcDbEntity
8
Geo
100
AcDbLine
10
-75.1974477958236
20
4.19781824126768
30
0.000000000000000
11
-75.0974477958236
21
4.19864064493539
31
0.000000000000000
  0
LINE
  5
F1025E
330
F1025F
100
AcDbEntity
8
Geo
100
AcDbLine
10
-75.0974477958236
20
4.19864064493539
30
0.000000000000000
11
-74.9974477958236
21
4.19939153167705
31
0.000000000000000
  0
LINE
  5
F10260
330
F10261
100
AcDbEntity
8
Geo
100
AcDbLine
10
-74.9974477958236
20
4.19939153167705
30
0.000000000000000
11
-74.8974477958236
21
4.20007238134164
31
0.000000000000000
  0
LINE
  5
F10262
330
F10263
100
AcDbEntity
8
Geo
100
AcDbLine
10
-74.8974477958236
20
4.20007238134164
30
0.000000000000000
11
-74.7974477958236
21
4.20068454589092
31
0.000000000000000
  0
LINE
  5
F10264
330
F10265
100
AcDbEntity
8
Geo
100
AcDbLine
10
-74.7974477958236
20
4.20068454589092
30
0.000000000000000
11
-74.6974477958236
21
4.20122924930682
31
0.000000000000000
  0
LINE
  5
F10266
330
F10267
100
AcDbEntity
8
Geo
100
AcDbLine
10
-74.6974477958236
20
4.20122924930682
30
0.000000000000000
11
-74.5974477958236
21
4.20170758750881
31
0.000000000000000
  0
LINE
  5
F10268
330
F10269
100
AcDbEntity
8
Geo
100
AcDbLine
10
-74.5974477958236
20
4.20170758750881
30
0.000000000000000
11
-74.4974477958236
21
4.20212052828103
31
0.000000000000000
  0
LINE
  5
F1026A
330
F1026B
100
AcDbEntity
8
Geo
100
AcDbLine
10
-74.4974477958236
20
4.20212052828103
30
0.000000000000000
11
-74.3974477958236
21
4.20246891120857
31
0.000000000000000
  0
LINE
  5
F1026C
330
F1026D
100
AcDbEntity
8
Geo
100
AcDbLine
10
-74.3974477958236
20
4.20246891120857
30
0.000000000000000
11
-74.2974477958236
21
4.20275344762297
31
0.000000000000000
  0
LINE
  5
F1026E
330
F1026F
100
AcDbEntity
8
Geo
100
AcDbLine
10
-74.2974477958236
20
4.20275344762297
30
0.000000000000000
11
-74.1974477958236
21
4.20297472055638
31
0.000000000000000
  0
LINE
  5
F10270
330
F10271
100
AcDbEntity
8
Geo
100
AcDbLine
10
-74.1974477958236
20
4.20297472055638
30
0.000000000000000
11
-74.0974477958237
21
4.20313318470429
31
0.000000000000000
  0
LINE
  5
F10272
330
F10273
100
AcDbEntity
8
Geo
100
AcDbLine
10
-96.0974477958237
20
3.52801418411705
30
0.000000000000000
11
-95.9974477958237
21
3.75287258344548
31
0.000000000000000
  0
LINE
  5
F10274
330
F10275
100
AcDbEntity
8
Geo
100
AcDbLine
10
-95.9974477958237
20
3.75287258344548
30
0.000000000000000
11
-95.8974477958237
21
3.77818888245823
31
0.000000000000000
  0
LINE
  5
F10276
330
F10277
100
AcDbEntity
8
Geo
100
AcDbLine
10
-95.8974477958237
20
3.77818888245823
30
0.000000000000000
11
-95.7974477958237
21
3.75591203960454
31
0.000000000000000
  0
LINE
  5
F10278
330
F10279
100
AcDbEntity
8
Geo
100
AcDbLine
10
-95.7974477958237
20
3.75591203960454
30
0.000000000000000
11
-95.6974477958236
21
3.70133679091708
31
0.000000000000000
  0
LINE
  5
F1027A
330
F1027B
100
AcDbEntity
8
Geo
100
AcDbLine
10
-95.6974477958236
20
3.70133679091708
30
0.000000000000000
11
-95.5974477958237
21
3.62023347796426
31
0.000000000000000
  0
LINE
  5
F1027C
330
F1027D
100
AcDbEntity
8
Geo
100
AcDbLine
10
-95.5974477958237
20
3.62023347796426
30
0.000000000000000
11
-95.4974477958237
21
3.52363870968616
31
0.000000000000000
  0
LINE
  5
F1027E
330
F1027F
100
AcDbEntity
8
Geo
100
AcDbLine
10
-95.4974477958237
20
3.52363870968616
30
0.000000000000000
11
-95.3974477958237
21
3.42071082874077
31
0.000000000000000
  0
LINE
  5
F10280
330
F10281
100
AcDbEntity
8
Geo
100
AcDbLine
10
-95.3974477958237
20
3.42071082874077
30
0.000000000000000
11
-95.2974477958237
21
3.31160230205319
31
0.000000000000000
  0
LINE
  5
F10282
330
F10283
100
AcDbEntity
8
Geo
100
AcDbLine
10
-95.2974477958237
20
3.31160230205319
30
0.000000000000000
11
-95.1974477958236
21
3.19647475193031
31
0.000000000000000
  0
LINE
  5
F10284
330
F10285
100
AcDbEntity
8
Geo
100
AcDbLine
10
-95.1974477958236
20
3.19647475193031
30
0.000000000000000
11
-95.0974477958237
21
3.07549871664999
31
0.000000000000000
  0
LINE
  5
F10286
330
F10287
100
AcDbEntity
8
Geo
100
AcDbLine
10
-95.0974477958237
20
3.07549871664999
30
0.000000000000000
11
-94.9974477958237
21
2.94885339784290
31
0.000000000000000
  0
LINE
  5
F10288
330
F10289
100
AcDbEntity
8
Geo
100
AcDbLine
10
-94.9974477958237
20
2.94885339784290
30
0.000000000000000
11
-94.8974477958237
21
2.81672639504142
31
0.000000000000000
  0
LINE
  5
F1028A
330
F1028B
100
AcDbEntity
8
Geo
100
AcDbLine
10
-94.8974477958237
20
2.81672639504142
30
0.000000000000000
11
-94.7974477958237
21
2.67931342778871
31
0.000000000000000
  0
LINE
  5
F1028C
330
F1028D
100
AcDbEntity
8
Geo
100
AcDbLine
10
-94.7974477958237
20
2.67931342778871
30
0.000000000000000
11
-94.6974477958236
21
2.53681804571961
31
0.000000000000000
  0
LINE
  5
F1028E
330
F1028F
100
AcDbEntity
8
Geo
100
AcDbLine
10
-94.6974477958236
20
2.53681804571961
30
0.000000000000000
11
-94.5974477958237
21
2.38945132704289
31
0.000000000000000
  0
LINE
  5
F10290
330
F10291
100
AcDbEntity
8
Geo
100
AcDbLine
10
-94.5974477958237
20
2.38945132704289
30
0.000000000000000
11
-94.4974477958237
21
2.23743156587138
31
0.000000000000000
  0
LINE
  5
F10292
330
F10293
100
AcDbEntity
8
Geo
100
AcDbLine
10
-94.4974477958237
20
2.23743156587138
30
0.000000000000000
11
-94.3974477958237
21
2.08098394886318
31
0.000000000000000
  0
LINE
  5
F10294
330
F10295
100
AcDbEntity
8
Geo
100
AcDbLine
10
-94.3974477958237
20
2.08098394886318
30
0.000000000000000
11
-94.2974477958237
21
1.92034022165303
31
0.000000000000000
  0
LINE
  5
F10296
330
F10297
100
AcDbEntity
8
Geo
100
AcDbLine
10
-94.2974477958237
20
1.92034022165303
30
0.000000000000000
11
-94.1974477958236
21
1.75573834556778
31
0.000000000000000
  0
LINE
  5
F10298
330
F10299
100
AcDbEntity
8
Geo
100
AcDbLine
10
-94.1974477958236
20
1.75573834556778
30
0.000000000000000
11
-94.0974477958237
21
1.58742214513464
31
0.000000000000000
  0
LINE
  5
F1029A
330
F1029B
100
AcDbEntity
8
Geo
100
AcDbLine
10
-94.0974477958237
20
1.58742214513464
30
0.000000000000000
11
-93.9974477958237
21
1.41564094690427
31
0.000000000000000
  0
LINE
  5
F1029C
330
F1029D
100
AcDbEntity
8
Geo
100
AcDbLine
10
-93.9974477958237
20
1.41564094690427
30
0.000000000000000
11
-93.8974477958237
21
1.24064921012365
31
0.000000000000000
  0
LINE
  5
F1029E
330
F1029F
100
AcDbEntity
8
Geo
100
AcDbLine
10
-93.8974477958237
20
1.24064921012365
30
0.000000000000000
11
-93.7974477958237
21
1.06270614980600
31
0.000000000000000
  0
LINE
  5
F102A0
330
F102A1
100
AcDbEntity
8
Geo
100
AcDbLine
10
-93.7974477958237
20
1.06270614980600
30
0.000000000000000
11
-93.6974477958236
21
0.882075352755970
31
0.000000000000000
  0
LINE
  5
F102A2
330
F102A3
100
AcDbEntity
8
Geo
100
AcDbLine
10
-93.6974477958236
20
0.882075352755970
30
0.000000000000000
11
-93.5974477958237
21
0.699024387118809
31
0.000000000000000
  0
LINE
  5
F102A4
330
F102A5
100
AcDbEntity
8
Geo
100
AcDbLine
10
-93.5974477958237
20
0.699024387118809
30
0.000000000000000
11
-93.4974477958237
21
0.513824406032102
31
0.000000000000000
  0
LINE
  5
F102A6
330
F102A7
100
AcDbEntity
8
Geo
100
AcDbLine
10
-93.4974477958237
20
0.513824406032102
30
0.000000000000000
11
-93.3974477958237
21
0.326749745966992
31
0.000000000000000
  0
LINE
  5
F102A8
330
F102A9
100
AcDbEntity
8
Geo
100
AcDbLine
10
-93.3974477958237
20
0.326749745966992
30
0.000000000000000
11
-93.2974477958237
21
0.138077520353951
31
0.000000000000000
  0
LINE
  5
F102AA
330
F102AB
100
AcDbEntity
8
Geo
100
AcDbLine
10
-93.2974477958237
20
0.138077520353951
30
0.000000000000000
11
-93.1974477958236
21
-0.0519127909049537
31
0.000000000000000
  0
LINE
  5
F102AC
330
F102AD
100
AcDbEntity
8
Geo
100
AcDbLine
10
-93.1974477958236
20
-0.0519127909049537
30
0.000000000000000
11
-93.0974477958237
21
-0.242939755429243
31
0.000000000000000
  0
LINE
  5
F102AE
330
F102AF
100
AcDbEntity
8
Geo
100
AcDbLine
10
-93.0974477958237
20
-0.242939755429243
30
0.000000000000000
11
-92.9974477958237
21
-0.434720405245416
31
0.000000000000000
  0
LINE
  5
F102B0
330
F102B1
100
AcDbEntity
8
Geo
100
AcDbLine
10
-92.9974477958237
20
-0.434720405245416
30
0.000000000000000
11
-92.8974477958237
21
-0.626970655947010
31
0.000000000000000
  0
LINE
  5
F102B2
330
F102B3
100
AcDbEntity
8
Geo
100
AcDbLine
10
-92.8974477958237
20
-0.626970655947010
30
0.000000000000000
11
-92.7974477958237
21
-0.819405727508435
31
0.000000000000000
  0
LINE
  5
F102B4
330
F102B5
100
AcDbEntity
8
Geo
100
AcDbLine
10
-92.7974477958237
20
-0.819405727508435
30
0.000000000000000
11
-92.6974477958236
21
-1.01174056612922
31
0.000000000000000
  0
LINE
  5
F102B6
330
F102B7
100
AcDbEntity
8
Geo
100
AcDbLine
10
-92.6974477958236
20
-1.01174056612922
30
0.000000000000000
11
-92.5974477958237
21
-1.20369026648380
31
0.000000000000000
  0
LINE
  5
F102B8
330
F102B9
100
AcDbEntity
8
Geo
100
AcDbLine
10
-92.5974477958237
20
-1.20369026648380
30
0.000000000000000
11
-92.4974477958236
21
-1.39497049375139
31
0.000000000000000
  0
LINE
  5
F102BA
330
F102BB
100
AcDbEntity
8
Geo
100
AcDbLine
10
-92.4974477958236
20
-1.39497049375139
30
0.000000000000000
11
-92.3974477958237
21
-1.58529790480076
31
0.000000000000000
  0
LINE
  5
F102BC
330
F102BD
100
AcDbEntity
8
Geo
100
AcDbLine
10
-92.3974477958237
20
-1.58529790480076
30
0.000000000000000
11
-92.2974477958237
21
-1.77439056790596
31
0.000000000000000
  0
LINE
  5
F102BE
330
F102BF
100
AcDbEntity
8
Geo
100
AcDbLine
10
-92.2974477958237
20
-1.77439056790596
30
0.000000000000000
11
-92.1974477958236
21
-1.96196838037148
31
0.000000000000000
  0
LINE
  5
F102C0
330
F102C1
100
AcDbEntity
8
Geo
100
AcDbLine
10
-92.1974477958236
20
-1.96196838037148
30
0.000000000000000
11
-92.0974477958237
21
-2.14775348344790
31
0.000000000000000
  0
LINE
  5
F102C2
330
F102C3
100
AcDbEntity
8
Geo
100
AcDbLine
10
-92.0974477958237
20
-2.14775348344790
30
0.000000000000000
11
-91.9974477958237
21
-2.33147067392369
31
0.000000000000000
  0
LINE
  5
F102C4
330
F102C5
100
AcDbEntity
8
Geo
100
AcDbLine
10
-91.9974477958237
20
-2.33147067392369
30
0.000000000000000
11
-91.8974477958237
21
-2.51284781178336
31
0.000000000000000
  0
LINE
  5
F102C6
330
F102C7
100
AcDbEntity
8
Geo
100
AcDbLine
10
-91.8974477958237
20
-2.51284781178336
30
0.000000000000000
11
-91.7974477958237
21
-2.69161622332805
31
0.000000000000000
  0
LINE
  5
F102C8
330
F102C9
100
AcDbEntity
8
Geo
100
AcDbLine
10
-91.7974477958237
20
-2.69161622332805
30
0.000000000000000
11
-91.6974477958236
21
-2.86751109916153
31
0.000000000000000
  0
LINE
  5
F102CA
330
F102CB
100
AcDbEntity
8
Geo
100
AcDbLine
10
-91.6974477958236
20
-2.86751109916153
30
0.000000000000000
11
-91.5974477958237
21
-3.04027188645196
31
0.000000000000000
  0
LINE
  5
F102CC
330
F102CD
100
AcDbEntity
8
Geo
100
AcDbLine
10
-91.5974477958237
20
-3.04027188645196
30
0.000000000000000
11
-91.4974477958237
21
-3.20964267488846
31
0.000000000000000
  0
LINE
  5
F102CE
330
F102CF
100
AcDbEntity
8
Geo
100
AcDbLine
10
-91.4974477958237
20
-3.20964267488846
30
0.000000000000000
11
-91.3974477958237
21
-3.37537257576064
31
0.000000000000000
  0
LINE
  5
F102D0
330
F102D1
100
AcDbEntity
8
Geo
100
AcDbLine
10
-91.3974477958237
20
-3.37537257576064
30
0.000000000000000
11
-91.2974477958237
21
-3.53721609359979
31
0.000000000000000
  0
LINE
  5
F102D2
330
F102D3
100
AcDbEntity
8
Geo
100
AcDbLine
10
-91.2974477958237
20
-3.53721609359979
30
0.000000000000000
11
-91.1974477958236
21
-3.69493348983086
31
0.000000000000000
  0
LINE
  5
F102D4
330
F102D5
100
AcDbEntity
8
Geo
100
AcDbLine
10
-91.1974477958236
20
-3.69493348983086
30
0.000000000000000
11
-91.0974477958237
21
-3.84829113789695
31
0.000000000000000
  0
LINE
  5
F102D6
330
F102D7
100
AcDbEntity
8
Geo
100
AcDbLine
10
-91.0974477958237
20
-3.84829113789695
30
0.000000000000000
11
-90.9974477958237
21
-3.99706186932998
31
0.000000000000000
  0
LINE
  5
F102D8
330
F102D9
100
AcDbEntity
8
Geo
100
AcDbLine
10
-90.9974477958237
20
-3.99706186932998
30
0.000000000000000
11
-90.8974477958237
21
-4.14102531025502
31
0.000000000000000
  0
LINE
  5
F102DA
330
F102DB
100
AcDbEntity
8
Geo
100
AcDbLine
10
-90.8974477958237
20
-4.14102531025502
30
0.000000000000000
11
-90.7974477958237
21
-4.27996820782977
31
0.000000000000000
  0
LINE
  5
F102DC
330
F102DD
100
AcDbEntity
8
Geo
100
AcDbLine
10
-90.7974477958237
20
-4.27996820782977
30
0.000000000000000
11
-90.6974477958237
21
-4.41368474613576
31
0.000000000000000
  0
LINE
  5
F102DE
330
F102DF
100
AcDbEntity
8
Geo
100
AcDbLine
10
-90.6974477958237
20
-4.41368474613576
30
0.000000000000000
11
-90.5974477958237
21
-4.54197685105312
31
0.000000000000000
  0
LINE
  5
F102E0
330
F102E1
100
AcDbEntity
8
Geo
100
AcDbLine
10
-90.5974477958237
20
-4.54197685105312
30
0.000000000000000
11
-90.4974477958237
21
-4.66465448366753
31
0.000000000000000
  0
LINE
  5
F102E2
330
F102E3
100
AcDbEntity
8
Geo
100
AcDbLine
10
-90.4974477958237
20
-4.66465448366753
30
0.000000000000000
11
-90.3974477958237
21
-4.78153592177459
31
0.000000000000000
  0
LINE
  5
F102E4
330
F102E5
100
AcDbEntity
8
Geo
100
AcDbLine
10
-90.3974477958237
20
-4.78153592177459
30
0.000000000000000
11
-90.2974477958237
21
-4.89244802906464
31
0.000000000000000
  0
LINE
  5
F102E6
330
F102E7
100
AcDbEntity
8
Geo
100
AcDbLine
10
-90.2974477958237
20
-4.89244802906464
30
0.000000000000000
11
-90.1974477958237
21
-4.99722651158936
31
0.000000000000000
  0
LINE
  5
F102E8
330
F102E9
100
AcDbEntity
8
Geo
100
AcDbLine
10
-90.1974477958237
20
-4.99722651158936
30
0.000000000000000
11
-90.0974477958237
21
-5.09571616113018
31
0.000000000000000
  0
LINE
  5
F102EA
330
F102EB
100
AcDbEntity
8
Geo
100
AcDbLine
10
-90.0974477958237
20
-5.09571616113018
30
0.000000000000000
11
-89.9974477958237
21
-5.18777108510793
31
0.000000000000000
  0
LINE
  5
F102EC
330
F102ED
100
AcDbEntity
8
Geo
100
AcDbLine
10
-89.9974477958237
20
-5.18777108510793
30
0.000000000000000
11
-89.8974477958237
21
-5.27325492269339
31
0.000000000000000
  0
LINE
  5
F102EE
330
F102EF
100
AcDbEntity
8
Geo
100
AcDbLine
10
-89.8974477958237
20
-5.27325492269339
30
0.000000000000000
11
-89.7974477958237
21
-5.35204104679834
31
0.000000000000000
  0
LINE
  5
F102F0
330
F102F1
100
AcDbEntity
8
Geo
100
AcDbLine
10
-89.7974477958237
20
-5.35204104679834
30
0.000000000000000
11
-89.6974477958237
21
-5.42401275164810
31
0.000000000000000
  0
LINE
  5
F102F2
330
F102F3
100
AcDbEntity
8
Geo
100
AcDbLine
10
-89.6974477958237
20
-5.42401275164810
30
0.000000000000000
11
-89.5974477958237
21
-5.48906342565765
31
0.000000000000000
  0
LINE
  5
F102F4
330
F102F5
100
AcDbEntity
8
Geo
100
AcDbLine
10
-89.5974477958237
20
-5.48906342565765
30
0.000000000000000
11
-89.4974477958237
21
-5.54709670935521
31
0.000000000000000
  0
LINE
  5
F102F6
330
F102F7
100
AcDbEntity
8
Geo
100
AcDbLine
10
-89.4974477958237
20
-5.54709670935521
30
0.000000000000000
11
-89.3974477958237
21
-5.59802663811935
31
0.000000000000000
  0
LINE
  5
F102F8
330
F102F9
100
AcDbEntity
8
Geo
100
AcDbLine
10
-89.3974477958237
20
-5.59802663811935
30
0.000000000000000
11
-89.2974477958237
21
-5.64177776951834
31
0.000000000000000
  0
LINE
  5
F102FA
330
F102FB
100
AcDbEntity
8
Geo
100
AcDbLine
10
-89.2974477958237
20
-5.64177776951834
30
0.000000000000000
11
-89.1974477958237
21
-5.67828529506286
31
0.000000000000000
  0
LINE
  5
F102FC
330
F102FD
100
AcDbEntity
8
Geo
100
AcDbLine
10
-89.1974477958237
20
-5.67828529506286
30
0.000000000000000
11
-89.0974477958237
21
-5.70749513620674
31
0.000000000000000
  0
LINE
  5
F102FE
330
F102FF
100
AcDbEntity
8
Geo
100
AcDbLine
10
-89.0974477958237
20
-5.70749513620674
30
0.000000000000000
11
-88.9974477958237
21
-5.72936402445342
31
0.000000000000000
  0
LINE
  5
F10300
330
F10301
100
AcDbEntity
8
Geo
100
AcDbLine
10
-88.9974477958237
20
-5.72936402445342
30
0.000000000000000
11
-88.8974477958237
21
-5.74385956544956
31
0.000000000000000
  0
LINE
  5
F10302
330
F10303
100
AcDbEntity
8
Geo
100
AcDbLine
10
-88.8974477958237
20
-5.74385956544956
30
0.000000000000000
11
-88.7974477958237
21
-5.75096028697068
31
0.000000000000000
  0
LINE
  5
F10304
330
F10305
100
AcDbEntity
8
Geo
100
AcDbLine
10
-80.5974477958237
20
4.24823624848689
30
0.000000000000000
11
-80.4974477958237
21
4.24512432173978
31
0.000000000000000
  0
LINE
  5
F10306
330
F10307
100
AcDbEntity
8
Geo
100
AcDbLine
10
-80.4974477958237
20
4.24512432173978
30
0.000000000000000
11
-80.3974477958237
21
4.23461054670442
31
0.000000000000000
  0
LINE
  5
F10308
330
F10309
100
AcDbEntity
8
Geo
100
AcDbLine
10
-80.3974477958237
20
4.23461054670442
30
0.000000000000000
11
-80.2974477958237
21
4.21671049742097
31
0.000000000000000
  0
LINE
  5
F1030A
330
F1030B
100
AcDbEntity
8
Geo
100
AcDbLine
10
-80.2974477958237
20
4.21671049742097
30
0.000000000000000
11
-80.1974477958237
21
4.19145068920721
31
0.000000000000000
  0
LINE
  5
F1030C
330
F1030D
100
AcDbEntity
8
Geo
100
AcDbLine
10
-80.1974477958237
20
4.19145068920721
30
0.000000000000000
11
-80.0974477958237
21
4.15886853938148
31
0.000000000000000
  0
LINE
  5
F1030E
330
F1030F
100
AcDbEntity
8
Geo
100
AcDbLine
10
-80.0974477958237
20
4.15886853938148
30
0.000000000000000
11
-79.9974477958237
21
4.11901231183643
31
0.000000000000000
  0
LINE
  5
F10310
330
F10311
100
AcDbEntity
8
Geo
100
AcDbLine
10
-79.9974477958237
20
4.11901231183643
30
0.000000000000000
11
-79.8974477958237
21
4.07194104554577
31
0.000000000000000
  0
LINE
  5
F10312
330
F10313
100
AcDbEntity
8
Geo
100
AcDbLine
10
-79.8974477958237
20
4.07194104554577
30
0.000000000000000
11
-79.7974477958237
21
4.01772446710998
31
0.000000000000000
  0
LINE
  5
F10314
330
F10315
100
AcDbEntity
8
Geo
100
AcDbLine
10
-79.7974477958237
20
4.01772446710998
30
0.000000000000000
11
-79.6974477958237
21
3.95644288747032
31
0.000000000000000
  0
LINE
  5
F10316
330
F10317
100
AcDbEntity
8
Geo
100
AcDbLine
10
-79.6974477958237
20
3.95644288747032
30
0.000000000000000
11
-79.5974477958237
21
3.88818708294441
31
0.000000000000000
  0
LINE
  5
F10318
330
F10319
100
AcDbEntity
8
Geo
100
AcDbLine
10
-79.5974477958237
20
3.88818708294441
30
0.000000000000000
11
-79.4974477958237
21
3.81305816075936
31
0.000000000000000
  0
LINE
  5
F1031A
330
F1031B
100
AcDbEntity
8
Geo
100
AcDbLine
10
-79.4974477958237
20
3.81305816075936
30
0.000000000000000
11
-79.3974477958237
21
3.73116740928178
31
0.000000000000000
  0
LINE
  5
F1031C
330
F1031D
100
AcDbEntity
8
Geo
100
AcDbLine
10
-79.3974477958237
20
3.73116740928178
30
0.000000000000000
11
-79.2974477958237
21
3.64263613316650
31
0.000000000000000
  0
LINE
  5
F1031E
330
F1031F
100
AcDbEntity
8
Geo
100
AcDbLine
10
-79.2974477958237
20
3.64263613316650
30
0.000000000000000
11
-79.1974477958237
21
3.54759547366815
31
0.000000000000000
  0
LINE
  5
F10320
330
F10321
100
AcDbEntity
8
Geo
100
AcDbLine
10
-79.1974477958237
20
3.54759547366815
30
0.000000000000000
11
-79.0974477958237
21
3.44618621438174
31
0.000000000000000
  0
LINE
  5
F10322
330
F10323
100
AcDbEntity
8
Geo
100
AcDbLine
10
-79.0974477958237
20
3.44618621438174
30
0.000000000000000
11
-78.9974477958237
21
3.32522090135667
31
0.000000000000000
  0
LINE
  5
F10324
330
F10325
100
AcDbEntity
8
Geo
100
AcDbLine
10
-78.9974477958237
20
3.32522090135667
30
0.000000000000000
11
-78.8974477958237
21
3.19924335153039
31
0.000000000000000
  0
LINE
  5
F10326
330
F10327
100
AcDbEntity
8
Geo
100
AcDbLine
10
-78.8974477958237
20
3.19924335153039
30
0.000000000000000
11
-78.7974477958236
21
3.06890447073027
31
0.000000000000000
  0
LINE
  5
F10328
330
F10329
100
AcDbEntity
8
Geo
100
AcDbLine
10
-78.7974477958236
20
3.06890447073027
30
0.000000000000000
11
-78.6974477958236
21
2.93483210289427
31
0.000000000000000
  0
LINE
  5
F1032A
330
F1032B
100
AcDbEntity
8
Geo
100
AcDbLine
10
-78.6974477958236
20
2.93483210289427
30
0.000000000000000
11
-78.5974477958237
21
2.79762969683432
31
0.000000000000000
  0
LINE
  5
F1032C
330
F1032D
100
AcDbEntity
8
Geo
100
AcDbLine
10
-78.5974477958237
20
2.79762969683432
30
0.000000000000000
11
-78.4974477958236
21
2.65787524340856
31
0.000000000000000
  0
LINE
  5
F1032E
330
F1032F
100
AcDbEntity
8
Geo
100
AcDbLine
10
-78.4974477958236
20
2.65787524340856
30
0.000000000000000
11
-78.3974477958236
21
2.51612046542982
31
0.000000000000000
  0
LINE
  5
F10330
330
F10331
100
AcDbEntity
8
Geo
100
AcDbLine
10
-78.3974477958236
20
2.51612046542982
30
0.000000000000000
11
-78.2974477958236
21
2.37289024244031
31
0.000000000000000
  0
LINE
  5
F10332
330
F10333
100
AcDbEntity
8
Geo
100
AcDbLine
10
-78.2974477958236
20
2.37289024244031
30
0.000000000000000
11
-78.1974477958236
21
2.22868225246251
31
0.000000000000000
  0
LINE
  5
F10334
330
F10335
100
AcDbEntity
8
Geo
100
AcDbLine
10
-78.1974477958236
20
2.22868225246251
30
0.000000000000000
11
-78.0974477958236
21
2.08396681297323
31
0.000000000000000
  0
LINE
  5
F10336
330
F10337
100
AcDbEntity
8
Geo
100
AcDbLine
10
-78.0974477958236
20
2.08396681297323
30
0.000000000000000
11
-77.9974477958236
21
1.93918690362228
31
0.000000000000000
  0
LINE
  5
F10338
330
F10339
100
AcDbEntity
8
Geo
100
AcDbLine
10
-77.9974477958236
20
1.93918690362228
30
0.000000000000000
11
-77.8974477958236
21
1.79475835361058
31
0.000000000000000
  0
LINE
  5
F1033A
330
F1033B
100
AcDbEntity
8
Geo
100
AcDbLine
10
-77.8974477958236
20
1.79475835361058
30
0.000000000000000
11
-77.7974477958236
21
1.65107017713729
31
0.000000000000000
  0
LINE
  5
F1033C
330
F1033D
100
AcDbEntity
8
Geo
100
AcDbLine
10
-77.7974477958236
20
1.65107017713729
30
0.000000000000000
11
-77.6974477958236
21
1.50848504090485
31
0.000000000000000
  0
LINE
  5
F1033E
330
F1033F
100
AcDbEntity
8
Geo
100
AcDbLine
10
-77.6974477958236
20
1.50848504090485
30
0.000000000000000
11
-77.5974477958236
21
1.36733984831986
31
0.000000000000000
  0
LINE
  5
F10340
330
F10341
100
AcDbEntity
8
Geo
100
AcDbLine
10
-77.5974477958236
20
1.36733984831986
30
0.000000000000000
11
-77.4974477958236
21
1.22794642573154
31
0.000000000000000
  0
LINE
  5
F10342
330
F10343
100
AcDbEntity
8
Geo
100
AcDbLine
10
-77.4974477958236
20
1.22794642573154
30
0.000000000000000
11
-77.3974477958236
21
1.09059229679552
31
0.000000000000000
  0
LINE
  5
F10344
330
F10345
100
AcDbEntity
8
Geo
100
AcDbLine
10
-77.3974477958236
20
1.09059229679552
30
0.000000000000000
11
-77.2974477958236
21
0.955541531826921
31
0.000000000000000
  0
LINE
  5
F10346
330
F10347
100
AcDbEntity
8
Geo
100
AcDbLine
10
-77.2974477958236
20
0.955541531826921
30
0.000000000000000
11
-77.1974477958236
21
0.823035659801943
31
0.000000000000000
  0
LINE
  5
F10348
330
F10349
100
AcDbEntity
8
Geo
100
AcDbLine
10
-77.1974477958236
20
0.823035659801943
30
0.000000000000000
11
-77.0974477958236
21
0.693294631472195
31
0.000000000000000
  0
LINE
  5
F1034A
330
F1034B
100
AcDbEntity
8
Geo
100
AcDbLine
10
-77.0974477958236
20
0.693294631472195
30
0.000000000000000
11
-76.9974477958236
21
0.566517822862054
31
0.000000000000000
  0
LINE
  5
F1034C
330
F1034D
100
AcDbEntity
8
Geo
100
AcDbLine
10
-76.9974477958236
20
0.566517822862054
30
0.000000000000000
11
-76.8974477958236
21
0.442885069218538
31
0.000000000000000
  0
LINE
  5
F1034E
330
F1034F
100
AcDbEntity
8
Geo
100
AcDbLine
10
-76.8974477958236
20
0.442885069218538
30
0.000000000000000
11
-76.7974477958236
21
0.322557720269386
31
0.000000000000000
  0
LINE
  5
F10350
330
F10351
100
AcDbEntity
8
Geo
100
AcDbLine
10
-76.7974477958236
20
0.322557720269386
30
0.000000000000000
11
-76.6974477958236
21
0.205679708412092
31
0.000000000000000
  0
LINE
  5
F10352
330
F10353
100
AcDbEntity
8
Geo
100
AcDbLine
10
-76.6974477958236
20
0.205679708412092
30
0.000000000000000
11
-76.5974477958236
21
0.0923786222000351
31
0.000000000000000
  0
LINE
  5
F10354
330
F10355
100
AcDbEntity
8
Geo
100
AcDbLine
10
-76.5974477958236
20
0.0923786222000351
30
0.000000000000000
11
-76.4974477958236
21
-0.0172332217927025
31
0.000000000000000
  0
LINE
  5
F10356
330
F10357
100
AcDbEntity
8
Geo
100
AcDbLine
10
-76.4974477958236
20
-0.0172332217927025
30
0.000000000000000
11
-76.3974477958236
21
-0.123057714961850
31
0.000000000000000
  0
LINE
  5
F10358
330
F10359
100
AcDbEntity
8
Geo
100
AcDbLine
10
-76.3974477958236
20
-0.123057714961850
30
0.000000000000000
11
-76.2974477958236
21
-0.225009906102221
31
0.000000000000000
  0
LINE
  5
F1035A
330
F1035B
100
AcDbEntity
8
Geo
100
AcDbLine
10
-76.2974477958236
20
-0.225009906102221
30
0.000000000000000
11
-76.1974477958236
21
-0.323016969244322
31
0.000000000000000
  0
LINE
  5
F1035C
330
F1035D
100
AcDbEntity
8
Geo
100
AcDbLine
10
-76.1974477958236
20
-0.323016969244322
30
0.000000000000000
11
-76.0974477958236
21
-0.417017194289207
31
0.000000000000000
  0
LINE
  5
F1035E
330
F1035F
100
AcDbEntity
8
Geo
100
AcDbLine
10
-76.0974477958236
20
-0.417017194289207
30
0.000000000000000
11
-75.9974477958236
21
-0.506959004292890
31
0.000000000000000
  0
LINE
  5
F10360
330
F10361
100
AcDbEntity
8
Geo
100
AcDbLine
10
-75.9974477958236
20
-0.506959004292890
30
0.000000000000000
11
-75.8974477958236
21
-0.592800002750711
31
0.000000000000000
  0
LINE
  5
F10362
330
F10363
100
AcDbEntity
8
Geo
100
AcDbLine
10
-75.8974477958236
20
-0.592800002750711
30
0.000000000000000
11
-75.7974477958236
21
-0.674506053769606
31
0.000000000000000
  0
LINE
  5
F10364
330
F10365
100
AcDbEntity
8
Geo
100
AcDbLine
10
-75.7974477958236
20
-0.674506053769606
30
0.000000000000000
11
-75.6974477958236
21
-0.752050397592338
31
0.000000000000000
  0
LINE
  5
F10366
330
F10367
100
AcDbEntity
8
Geo
100
AcDbLine
10
-75.6974477958236
20
-0.752050397592338
30
0.000000000000000
11
-75.5974477958236
21
-0.825412803551441
31
0.000000000000000
  0
LINE
  5
F10368
330
F10369
100
AcDbEntity
8
Geo
100
AcDbLine
10
-75.5974477958236
20
-0.825412803551441
30
0.000000000000000
11
-75.4974477958236
21
-0.894578762181367
31
0.000000000000000
  0
LINE
  5
F1036A
330
F1036B
100
AcDbEntity
8
Geo
100
AcDbLine
10
-75.4974477958236
20
-0.894578762181367
30
0.000000000000000
11
-75.3974477958236
21
-0.959538717903735
31
0.000000000000000
  0
LINE
  5
F1036C
330
F1036D
100
AcDbEntity
8
Geo
100
AcDbLine
10
-75.3974477958236
20
-0.959538717903735
30
0.000000000000000
11
-75.2974477958236
21
-1.02028734342165
31
0.000000000000000
  0
LINE
  5
F1036E
330
F1036F
100
AcDbEntity
8
Geo
100
AcDbLine
10
-75.2974477958236
20
-1.02028734342165
30
0.000000000000000
11
-75.1974477958236
21
-1.07682285671308
31
0.000000000000000
  0
LINE
  5
F10370
330
F10371
100
AcDbEntity
8
Geo
100
AcDbLine
10
-75.1974477958236
20
-1.07682285671308
30
0.000000000000000
11
-75.0974477958236
21
-1.12914638129893
31
0.000000000000000
  0
LINE
  5
F10372
330
F10373
100
AcDbEntity
8
Geo
100
AcDbLine
10
-75.0974477958236
20
-1.12914638129893
30
0.000000000000000
11
-74.9974477958236
21
-1.17726135027676
31
0.000000000000000
  0
LINE
  5
F10374
330
F10375
100
AcDbEntity
8
Geo
100
AcDbLine
10
-74.9974477958236
20
-1.17726135027676
30
0.000000000000000
11
-74.8974477958236
21
-1.22117295445463
31
0.000000000000000
  0
LINE
  5
F10376
330
F10377
100
AcDbEntity
8
Geo
100
AcDbLine
10
-74.8974477958236
20
-1.22117295445463
30
0.000000000000000
11
-74.7974477958236
21
-1.26088763478911
31
0.000000000000000
  0
LINE
  5
F10378
330
F10379
100
AcDbEntity
8
Geo
100
AcDbLine
10
-74.7974477958236
20
-1.26088763478911
30
0.000000000000000
11
-74.6974477958236
21
-1.29641261922553
31
0.000000000000000
  0
LINE
  5
F1037A
330
F1037B
100
AcDbEntity
8
Geo
100
AcDbLine
10
-74.6974477958236
20
-1.29641261922553
30
0.000000000000000
11
-74.5974477958236
21
-1.32775550395494
31
0.000000000000000
  0
LINE
  5
F1037C
330
F1037D
100
AcDbEntity
8
Geo
100
AcDbLine
10
-74.5974477958236
20
-1.32775550395494
30
0.000000000000000
11
-74.4974477958236
21
-1.35492387903903
31
0.000000000000000
  0
LINE
  5
F1037E
330
F1037F
100
AcDbEntity
8
Geo
100
AcDbLine
10
-74.4974477958236
20
-1.35492387903903
30
0.000000000000000
11
-74.3974477958236
21
-1.37792499830963
31
0.000000000000000
  0
LINE
  5
F10380
330
F10381
100
AcDbEntity
8
Geo
100
AcDbLine
10
-74.3974477958236
20
-1.37792499830963
30
0.000000000000000
11
-74.2974477958236
21
-1.39676549342147
31
0.000000000000000
  0
LINE
  5
F10382
330
F10383
100
AcDbEntity
8
Geo
100
AcDbLine
10
-74.2974477958236
20
-1.39676549342147
30
0.000000000000000
11
-74.1974477958236
21
-1.41145113192311
31
0.000000000000000
  0
LINE
  5
F10384
330
F10385
100
AcDbEntity
8
Geo
100
AcDbLine
10
-74.1974477958236
20
-1.41145113192311
30
0.000000000000000
11
-74.0974477958237
21
-1.42198661921031
31
0.000000000000000
  0
LINE
  5
F10386
330
F10387
100
AcDbEntity
8
Geo
100
AcDbLine
10
-96.0974477958237
20
-0.751740139211152
30
0.000000000000000
11
-95.9974477958237
21
-0.936446610931764
31
0.000000000000000
  0
LINE
  5
F10388
330
F10389
100
AcDbEntity
8
Geo
100
AcDbLine
10
-95.9974477958237
20
-0.936446610931764
30
0.000000000000000
11
-95.8974477958237
21
-1.12856988009106
31
0.000000000000000
  0
LINE
  5
F1038A
330
F1038B
100
AcDbEntity
8
Geo
100
AcDbLine
10
-95.8974477958237
20
-1.12856988009106
30
0.000000000000000
11
-95.7974477958237
21
-1.32299896614134
31
0.000000000000000
  0
LINE
  5
F1038C
330
F1038D
100
AcDbEntity
8
Geo
100
AcDbLine
10
-95.7974477958237
20
-1.32299896614134
30
0.000000000000000
11
-95.6974477958236
21
-1.51695373846440
31
0.000000000000000
  0
LINE
  5
F1038E
330
F1038F
100
AcDbEntity
8
Geo
100
AcDbLine
10
-95.6974477958236
20
-1.51695373846440
30
0.000000000000000
11
-95.5974477958237
21
-1.70806176024358
31
0.000000000000000
  0
LINE
  5
F10390
330
F10391
100
AcDbEntity
8
Geo
100
AcDbLine
10
-95.5974477958237
20
-1.70806176024358
30
0.000000000000000
11
-95.4974477958237
21
-1.89620400875356
31
0.000000000000000
  0
LINE
  5
F10392
330
F10393
100
AcDbEntity
8
Geo
100
AcDbLine
10
-95.4974477958237
20
-1.89620400875356
30
0.000000000000000
11
-95.3974477958237
21
-2.08265096454548
31
0.000000000000000
  0
LINE
  5
F10394
330
F10395
100
AcDbEntity
8
Geo
100
AcDbLine
10
-95.3974477958237
20
-2.08265096454548
30
0.000000000000000
11
-95.2974477958237
21
-2.26712644400634
31
0.000000000000000
  0
LINE
  5
F10396
330
F10397
100
AcDbEntity
8
Geo
100
AcDbLine
10
-95.2974477958237
20
-2.26712644400634
30
0.000000000000000
11
-95.1974477958236
21
-2.44935718386823
31
0.000000000000000
  0
LINE
  5
F10398
330
F10399
100
AcDbEntity
8
Geo
100
AcDbLine
10
-95.1974477958236
20
-2.44935718386823
30
0.000000000000000
11
-95.0974477958237
21
-2.62907324599286
31
0.000000000000000
  0
LINE
  5
F1039A
330
F1039B
100
AcDbEntity
8
Geo
100
AcDbLine
10
-95.0974477958237
20
-2.62907324599286
30
0.000000000000000
11
-94.9974477958237
21
-2.80600841723051
31
0.000000000000000
  0
LINE
  5
F1039C
330
F1039D
100
AcDbEntity
8
Geo
100
AcDbLine
10
-94.9974477958237
20
-2.80600841723051
30
0.000000000000000
11
-94.8974477958237
21
-2.97990060376123
31
0.000000000000000
  0
LINE
  5
F1039E
330
F1039F
100
AcDbEntity
8
Geo
100
AcDbLine
10
-94.8974477958237
20
-2.97990060376123
30
0.000000000000000
11
-94.7974477958237
21
-3.15049221933404
31
0.000000000000000
  0
LINE
  5
F103A0
330
F103A1
100
AcDbEntity
8
Geo
100
AcDbLine
10
-94.7974477958237
20
-3.15049221933404
30
0.000000000000000
11
-94.6974477958236
21
-3.31753056682904
31
0.000000000000000
  0
LINE
  5
F103A2
330
F103A3
100
AcDbEntity
8
Geo
100
AcDbLine
10
-94.6974477958236
20
-3.31753056682904
30
0.000000000000000
11
-94.5974477958237
21
-3.48076821257737
31
0.000000000000000
  0
LINE
  5
F103A4
330
F103A5
100
AcDbEntity
8
Geo
100
AcDbLine
10
-94.5974477958237
20
-3.48076821257737
30
0.000000000000000
11
-94.4974477958237
21
-3.63996335288427
31
0.000000000000000
  0
LINE
  5
F103A6
330
F103A7
100
AcDbEntity
8
Geo
100
AcDbLine
10
-94.4974477958237
20
-3.63996335288427
30
0.000000000000000
11
-94.3974477958237
21
-3.79488017221264
31
0.000000000000000
  0
LINE
  5
F103A8
330
F103A9
100
AcDbEntity
8
Geo
100
AcDbLine
10
-94.3974477958237
20
-3.79488017221264
30
0.000000000000000
11
-94.2974477958237
21
-3.94528919249618
31
0.000000000000000
  0
LINE
  5
F103AA
330
F103AB
100
AcDbEntity
8
Geo
100
AcDbLine
10
-94.2974477958237
20
-3.94528919249618
30
0.000000000000000
11
-94.1974477958236
21
-4.09096761306500
31
0.000000000000000
  0
LINE
  5
F103AC
330
F103AD
100
AcDbEntity
8
Geo
100
AcDbLine
10
-94.1974477958236
20
-4.09096761306500
30
0.000000000000000
11
-94.0974477958237
21
-4.23169964067989
31
0.000000000000000
  0
LINE
  5
F103AE
330
F103AF
100
AcDbEntity
8
Geo
100
AcDbLine
10
-94.0974477958237
20
-4.23169964067989
30
0.000000000000000
11
-93.9974477958237
21
-4.36727680918655
31
0.000000000000000
  0
LINE
  5
F103B0
330
F103B1
100
AcDbEntity
8
Geo
100
AcDbLine
10
-93.9974477958237
20
-4.36727680918655
30
0.000000000000000
11
-93.8974477958237
21
-4.49749828831622
31
0.000000000000000
  0
LINE
  5
F103B2
330
F103B3
100
AcDbEntity
8
Geo
100
AcDbLine
10
-93.8974477958237
20
-4.49749828831622
30
0.000000000000000
11
-93.7974477958237
21
-4.62217118117528
31
0.000000000000000
  0
LINE
  5
F103B4
330
F103B5
100
AcDbEntity
8
Geo
100
AcDbLine
10
-93.7974477958237
20
-4.62217118117528
30
0.000000000000000
11
-93.6974477958236
21
-4.74111080998313
31
0.000000000000000
  0
LINE
  5
F103B6
330
F103B7
100
AcDbEntity
8
Geo
100
AcDbLine
10
-93.6974477958236
20
-4.74111080998313
30
0.000000000000000
11
-93.5974477958237
21
-4.85414098963513
31
0.000000000000000
  0
LINE
  5
F103B8
330
F103B9
100
AcDbEntity
8
Geo
100
AcDbLine
10
-93.5974477958237
20
-4.85414098963513
30
0.000000000000000
11
-93.4974477958237
21
-4.96109428868536
31
0.000000000000000
  0
LINE
  5
F103BA
330
F103BB
100
AcDbEntity
8
Geo
100
AcDbLine
10
-93.4974477958237
20
-4.96109428868536
30
0.000000000000000
11
-93.3974477958237
21
-5.06181227736259
31
0.000000000000000
  0
LINE
  5
F103BC
330
F103BD
100
AcDbEntity
8
Geo
100
AcDbLine
10
-93.3974477958237
20
-5.06181227736259
30
0.000000000000000
11
-93.2974477958237
21
-5.15614576225202
31
0.000000000000000
  0
LINE
  5
F103BE
330
F103BF
100
AcDbEntity
8
Geo
100
AcDbLine
10
-93.2974477958237
20
-5.15614576225202
30
0.000000000000000
11
-93.1974477958236
21
-5.24395500729536
31
0.000000000000000
  0
LINE
  5
F103C0
330
F103C1
100
AcDbEntity
8
Geo
100
AcDbLine
10
-93.1974477958236
20
-5.24395500729536
30
0.000000000000000
11
-93.0974477958237
21
-5.32510994078160
31
0.000000000000000
  0
LINE
  5
F103C2
330
F103C3
100
AcDbEntity
8
Geo
100
AcDbLine
10
-93.0974477958237
20
-5.32510994078160
30
0.000000000000000
11
-92.9974477958237
21
-5.39949034802207
31
0.000000000000000
  0
LINE
  5
F103C4
330
F103C5
100
AcDbEntity
8
Geo
100
AcDbLine
10
-92.9974477958237
20
-5.39949034802207
30
0.000000000000000
11
-92.8974477958237
21
-5.46698604942429
31
0.000000000000000
  0
LINE
  5
F103C6
330
F103C7
100
AcDbEntity
8
Geo
100
AcDbLine
10
-92.8974477958237
20
-5.46698604942429
30
0.000000000000000
11
-92.7974477958237
21
-5.52749706370082
31
0.000000000000000
  0
LINE
  5
F103C8
330
F103C9
100
AcDbEntity
8
Geo
100
AcDbLine
10
-92.7974477958237
20
-5.52749706370082
30
0.000000000000000
11
-92.6974477958236
21
-5.58093375597145
31
0.000000000000000
  0
LINE
  5
F103CA
330
F103CB
100
AcDbEntity
8
Geo
100
AcDbLine
10
-92.6974477958236
20
-5.58093375597145
30
0.000000000000000
11
-92.5974477958237
21
-5.62721697053917
31
0.000000000000000
  0
LINE
  5
F103CC
330
F103CD
100
AcDbEntity
8
Geo
100
AcDbLine
10
-92.5974477958237
20
-5.62721697053917
30
0.000000000000000
11
-92.4974477958236
21
-5.66627814814345
31
0.000000000000000
  0
LINE
  5
F103CE
330
F103CF
100
AcDbEntity
8
Geo
100
AcDbLine
10
-92.4974477958236
20
-5.66627814814345
30
0.000000000000000
11
-92.3974477958237
21
-5.69805942751690
31
0.000000000000000
  0
LINE
  5
F103D0
330
F103D1
100
AcDbEntity
8
Geo
100
AcDbLine
10
-92.3974477958237
20
-5.69805942751690
30
0.000000000000000
11
-92.2974477958237
21
-5.72251373109515
31
0.000000000000000
  0
LINE
  5
F103D2
330
F103D3
100
AcDbEntity
8
Geo
100
AcDbLine
10
-92.2974477958237
20
-5.72251373109515
30
0.000000000000000
11
-92.1974477958236
21
-5.73960483475275
31
0.000000000000000
  0
LINE
  5
F103D4
330
F103D5
100
AcDbEntity
8
Geo
100
AcDbLine
10
-92.1974477958236
20
-5.73960483475275
30
0.000000000000000
11
-92.0974477958237
21
-5.74930742146193
31
0.000000000000000
  0
LINE
  5
F103D6
330
F103D7
100
AcDbEntity
8
Geo
100
AcDbLine
10
-83.8974477958237
20
4.24757041286778
30
0.000000000000000
11
-83.7974477958237
21
4.24706271950691
31
0.000000000000000
  0
LINE
  5
F103D8
330
F103D9
100
AcDbEntity
8
Geo
100
AcDbLine
10
-83.7974477958237
20
4.24706271950691
30
0.000000000000000
11
-83.6974477958237
21
4.23915030651191
31
0.000000000000000
  0
LINE
  5
F103DA
330
F103DB
100
AcDbEntity
8
Geo
100
AcDbLine
10
-83.6974477958237
20
4.23915030651191
30
0.000000000000000
11
-83.5974477958237
21
4.22384489452901
31
0.000000000000000
  0
LINE
  5
F103DC
330
F103DD
100
AcDbEntity
8
Geo
100
AcDbLine
10
-83.5974477958237
20
4.22384489452901
30
0.000000000000000
11
-83.4974477958237
21
4.20116915544341
31
0.000000000000000
  0
LINE
  5
F103DE
330
F103DF
100
AcDbEntity
8
Geo
100
AcDbLine
10
-83.4974477958237
20
4.20116915544341
30
0.000000000000000
11
-83.3974477958237
21
4.17115667879550
31
0.000000000000000
  0
LINE
  5
F103E0
330
F103E1
100
AcDbEntity
8
Geo
100
AcDbLine
10
-83.3974477958237
20
4.17115667879550
30
0.000000000000000
11
-83.2974477958237
21
4.13385192202465
31
0.000000000000000
  0
LINE
  5
F103E2
330
F103E3
100
AcDbEntity
8
Geo
100
AcDbLine
10
-83.2974477958237
20
4.13385192202465
30
0.000000000000000
11
-83.1974477958237
21
4.08931014461453
31
0.000000000000000
  0
LINE
  5
F103E4
330
F103E5
100
AcDbEntity
8
Geo
100
AcDbLine
10
-83.1974477958237
20
4.08931014461453
30
0.000000000000000
11
-83.0974477958237
21
4.03759732623729
31
0.000000000000000
  0
LINE
  5
F103E6
330
F103E7
100
AcDbEntity
8
Geo
100
AcDbLine
10
-83.0974477958237
20
4.03759732623729
30
0.000000000000000
11
-82.9974477958237
21
3.97879006901795
31
0.000000000000000
  0
LINE
  5
F103E8
330
F103E9
100
AcDbEntity
8
Geo
100
AcDbLine
10
-82.9974477958237
20
3.97879006901795
30
0.000000000000000
11
-82.8974477958237
21
3.91297548406380
31
0.000000000000000
  0
LINE
  5
F103EA
330
F103EB
100
AcDbEntity
8
Geo
100
AcDbLine
10
-82.8974477958237
20
3.91297548406380
30
0.000000000000000
11
-82.7974477958237
21
3.84025106242684
31
0.000000000000000
  0
LINE
  5
F103EC
330
F103ED
100
AcDbEntity
8
Geo
100
AcDbLine
10
-82.7974477958237
20
3.84025106242684
30
0.000000000000000
11
-82.6974477958237
21
3.76072453069042
31
0.000000000000000
  0
LINE
  5
F103EE
330
F103EF
100
AcDbEntity
8
Geo
100
AcDbLine
10
-82.6974477958237
20
3.76072453069042
30
0.000000000000000
11
-82.5974477958237
21
3.67451369139399
31
0.000000000000000
  0
LINE
  5
F103F0
330
F103F1
100
AcDbEntity
8
Geo
100
AcDbLine
10
-82.5974477958237
20
3.67451369139399
30
0.000000000000000
11
-82.4974477958237
21
3.58174624853238
31
0.000000000000000
  0
LINE
  5
F103F2
330
F103F3
100
AcDbEntity
8
Geo
100
AcDbLine
10
-82.4974477958237
20
3.58174624853238
30
0.000000000000000
11
-82.3974477958237
21
3.48255961838803
31
0.000000000000000
  0
LINE
  5
F103F4
330
F103F5
100
AcDbEntity
8
Geo
100
AcDbLine
10
-82.3974477958237
20
3.48255961838803
30
0.000000000000000
11
-82.2974477958237
21
3.37710072597649
31
0.000000000000000
  0
LINE
  5
F103F6
330
F103F7
100
AcDbEntity
8
Geo
100
AcDbLine
10
-82.2974477958237
20
3.37710072597649
30
0.000000000000000
11
-82.1974477958237
21
3.26552578740655
31
0.000000000000000
  0
LINE
  5
F103F8
330
F103F9
100
AcDbEntity
8
Geo
100
AcDbLine
10
-82.1974477958237
20
3.26552578740655
30
0.000000000000000
11
-82.0974477958237
21
3.14800007847757
31
0.000000000000000
  0
LINE
  5
F103FA
330
F103FB
100
AcDbEntity
8
Geo
100
AcDbLine
10
-82.0974477958237
20
3.14800007847757
30
0.000000000000000
11
-81.9974477958237
21
3.02469768985665
31
0.000000000000000
  0
LINE
  5
F103FC
330
F103FD
100
AcDbEntity
8
Geo
100
AcDbLine
10
-81.9974477958237
20
3.02469768985665
30
0.000000000000000
11
-81.8974477958237
21
2.89580126919841
31
0.000000000000000
  0
LINE
  5
F103FE
330
F103FF
100
AcDbEntity
8
Geo
100
AcDbLine
10
-81.8974477958237
20
2.89580126919841
30
0.000000000000000
11
-81.7974477958237
21
2.76150175058921
31
0.000000000000000
  0
LINE
  5
F10400
330
F10401
100
AcDbEntity
8
Geo
100
AcDbLine
10
-81.7974477958237
20
2.76150175058921
30
0.000000000000000
11
-81.6974477958237
21
2.62199807171683
31
0.000000000000000
  0
LINE
  5
F10402
330
F10403
100
AcDbEntity
8
Geo
100
AcDbLine
10
-81.6974477958237
20
2.62199807171683
30
0.000000000000000
11
-81.5974477958237
21
2.47749687918429
31
0.000000000000000
  0
LINE
  5
F10404
330
F10405
100
AcDbEntity
8
Geo
100
AcDbLine
10
-81.5974477958237
20
2.47749687918429
30
0.000000000000000
11
-81.4974477958237
21
2.32821222240457
31
0.000000000000000
  0
LINE
  5
F10406
330
F10407
100
AcDbEntity
8
Geo
100
AcDbLine
10
-81.4974477958237
20
2.32821222240457
30
0.000000000000000
11
-81.3974477958237
21
2.17436523652951
31
0.000000000000000
  0
LINE
  5
F10408
330
F10409
100
AcDbEntity
8
Geo
100
AcDbLine
10
-81.3974477958237
20
2.17436523652951
30
0.000000000000000
11
-81.2974477958237
21
2.01618381488259
31
0.000000000000000
  0
LINE
  5
F1040A
330
F1040B
100
AcDbEntity
8
Geo
100
AcDbLine
10
-81.2974477958237
20
2.01618381488259
30
0.000000000000000
11
-81.1974477958237
21
1.85390227138091
31
0.000000000000000
  0
LINE
  5
F1040C
330
F1040D
100
AcDbEntity
8
Geo
100
AcDbLine
10
-81.1974477958237
20
1.85390227138091
30
0.000000000000000
11
-81.0974477958237
21
1.68776099344630
31
0.000000000000000
  0
LINE
  5
F1040E
330
F1040F
100
AcDbEntity
8
Geo
100
AcDbLine
10
-81.0974477958237
20
1.68776099344630
30
0.000000000000000
11
-80.9974477958237
21
1.51800608591976
31
0.000000000000000
  0
LINE
  5
F10410
330
F10411
100
AcDbEntity
8
Geo
100
AcDbLine
10
-80.9974477958237
20
1.51800608591976
30
0.000000000000000
11
-80.8974477958237
21
1.34488900650672
31
0.000000000000000
  0
LINE
  5
F10412
330
F10413
100
AcDbEntity
8
Geo
100
AcDbLine
10
-80.8974477958237
20
1.34488900650672
30
0.000000000000000
11
-80.7974477958237
21
1.16866619329310
31
0.000000000000000
  0
LINE
  5
F10414
330
F10415
100
AcDbEntity
8
Geo
100
AcDbLine
10
-80.7974477958237
20
1.16866619329310
30
0.000000000000000
11
-80.6974477958237
21
0.989598684883908
31
0.000000000000000
  0
LINE
  5
F10416
330
F10417
100
AcDbEntity
8
Geo
100
AcDbLine
10
-80.6974477958237
20
0.989598684883908
30
0.000000000000000
11
-80.5974477958237
21
0.807951733727148
31
0.000000000000000
  0
LINE
  5
F10418
330
F10419
100
AcDbEntity
8
Geo
100
AcDbLine
10
-80.5974477958237
20
0.807951733727148
30
0.000000000000000
11
-80.4974477958237
21
0.623994413195729
31
0.000000000000000
  0
LINE
  5
F1041A
330
F1041B
100
AcDbEntity
8
Geo
100
AcDbLine
10
-80.4974477958237
20
0.623994413195729
30
0.000000000000000
11
-80.3974477958237
21
0.437999219009462
31
0.000000000000000
  0
LINE
  5
F1041C
330
F1041D
100
AcDbEntity
8
Geo
100
AcDbLine
10
-80.3974477958237
20
0.437999219009462
30
0.000000000000000
11
-80.2974477958237
21
0.250241665587534
31
0.000000000000000
  0
LINE
  5
F1041E
330
F1041F
100
AcDbEntity
8
Geo
100
AcDbLine
10
-80.2974477958237
20
0.250241665587534
30
0.000000000000000
11
-80.1974477958237
21
0.0609998779293841
31
0.000000000000000
  0
LINE
  5
F10420
330
F10421
100
AcDbEntity
8
Geo
100
AcDbLine
10
-80.1974477958237
20
0.0609998779293841
30
0.000000000000000
11
-80.0974477958237
21
-0.129445820371465
31
0.000000000000000
  0
LINE
  5
F10422
330
F10423
100
AcDbEntity
8
Geo
100
AcDbLine
10
-80.0974477958237
20
-0.129445820371465
30
0.000000000000000
11
-79.9974477958237
21
-0.320813322370350
31
0.000000000000000
  0
LINE
  5
F10424
330
F10425
100
AcDbEntity
8
Geo
100
AcDbLine
10
-79.9974477958237
20
-0.320813322370350
30
0.000000000000000
11
-79.8974477958237
21
-0.512819155656093
31
0.000000000000000
  0
LINE
  5
F10426
330
F10427
100
AcDbEntity
8
Geo
100
AcDbLine
10
-79.8974477958237
20
-0.512819155656093
30
0.000000000000000
11
-79.7974477958237
21
-0.705178902258272
31
0.000000000000000
  0
LINE
  5
F10428
330
F10429
100
AcDbEntity
8
Geo
100
AcDbLine
10
-79.7974477958237
20
-0.705178902258272
30
0.000000000000000
11
-79.6974477958237
21
-0.897607619955170
31
0.000000000000000
  0
LINE
  5
F1042A
330
F1042B
100
AcDbEntity
8
Geo
100
AcDbLine
10
-79.6974477958237
20
-0.897607619955170
30
0.000000000000000
11
-79.5974477958237
21
-1.08982026435829
31
0.000000000000000
  0
LINE
  5
F1042C
330
F1042D
100
AcDbEntity
8
Geo
100
AcDbLine
10
-79.5974477958237
20
-1.08982026435829
30
0.000000000000000
11
-79.4974477958237
21
-1.28153211114819
31
0.000000000000000
  0
LINE
  5
F1042E
330
F1042F
100
AcDbEntity
8
Geo
100
AcDbLine
10
-79.4974477958237
20
-1.28153211114819
30
0.000000000000000
11
-79.3974477958237
21
-1.47245917783624
31
0.000000000000000
  0
LINE
  5
F10430
330
F10431
100
AcDbEntity
8
Geo
100
AcDbLine
10
-79.3974477958237
20
-1.47245917783624
30
0.000000000000000
11
-79.2974477958237
21
-1.66231864442745
31
0.000000000000000
  0
LINE
  5
F10432
330
F10433
100
AcDbEntity
8
Geo
100
AcDbLine
10
-79.2974477958237
20
-1.66231864442745
30
0.000000000000000
11
-79.1974477958237
21
-1.85082927236138
31
0.000000000000000
  0
LINE
  5
F10434
330
F10435
100
AcDbEntity
8
Geo
100
AcDbLine
10
-79.1974477958237
20
-1.85082927236138
30
0.000000000000000
11
-79.0974477958237
21
-2.03771182111043
31
0.000000000000000
  0
LINE
  5
F10436
330
F10437
100
AcDbEntity
8
Geo
100
AcDbLine
10
-79.0974477958237
20
-2.03771182111043
30
0.000000000000000
11
-78.9974477958237
21
-2.01455125608619
31
0.000000000000000
  0
LINE
  5
F10438
330
F10439
100
AcDbEntity
8
Geo
100
AcDbLine
10
-78.9974477958237
20
-2.01455125608619
30
0.000000000000000
11
-78.8974477958237
21
-1.99181190420672
31
0.000000000000000
  0
LINE
  5
F1043A
330
F1043B
100
AcDbEntity
8
Geo
100
AcDbLine
10
-78.8974477958237
20
-1.99181190420672
30
0.000000000000000
11
-78.7974477958236
21
-1.96949590657227
31
0.000000000000000
  0
LINE
  5
F1043C
330
F1043D
100
AcDbEntity
8
Geo
100
AcDbLine
10
-78.7974477958236
20
-1.96949590657227
30
0.000000000000000
11
-78.6974477958236
21
-1.94760531429269
31
0.000000000000000
  0
LINE
  5
F1043E
330
F1043F
100
AcDbEntity
8
Geo
100
AcDbLine
10
-78.6974477958236
20
-1.94760531429269
30
0.000000000000000
11
-78.5974477958237
21
-1.92614209125720
31
0.000000000000000
  0
LINE
  5
F10440
330
F10441
100
AcDbEntity
8
Geo
100
AcDbLine
10
-78.5974477958237
20
-1.92614209125720
30
0.000000000000000
11
-78.4974477958236
21
-1.90510811685856
31
0.000000000000000
  0
LINE
  5
F10442
330
F10443
100
AcDbEntity
8
Geo
100
AcDbLine
10
-78.4974477958236
20
-1.90510811685856
30
0.000000000000000
11
-78.3974477958236
21
-1.88450518867070
31
0.000000000000000
  0
LINE
  5
F10444
330
F10445
100
AcDbEntity
8
Geo
100
AcDbLine
10
-78.3974477958236
20
-1.88450518867070
30
0.000000000000000
11
-78.2974477958236
21
-1.86433502507904
31
0.000000000000000
  0
LINE
  5
F10446
330
F10447
100
AcDbEntity
8
Geo
100
AcDbLine
10
-78.2974477958236
20
-1.86433502507904
30
0.000000000000000
11
-78.1974477958236
21
-1.84459926786269
31
0.000000000000000
  0
LINE
  5
F10448
330
F10449
100
AcDbEntity
8
Geo
100
AcDbLine
10
-78.1974477958236
20
-1.84459926786269
30
0.000000000000000
11
-78.0974477958236
21
-1.82529948472785
31
0.000000000000000
  0
LINE
  5
F1044A
330
F1044B
100
AcDbEntity
8
Geo
100
AcDbLine
10
-78.0974477958236
20
-1.82529948472785
30
0.000000000000000
11
-77.9974477958236
21
-1.80643717179160
31
0.000000000000000
  0
LINE
  5
F1044C
330
F1044D
100
AcDbEntity
8
Geo
100
AcDbLine
10
-77.9974477958236
20
-1.80643717179160
30
0.000000000000000
11
-77.8974477958236
21
-1.78801375601555
31
0.000000000000000
  0
LINE
  5
F1044E
330
F1044F
100
AcDbEntity
8
Geo
100
AcDbLine
10
-77.8974477958236
20
-1.78801375601555
30
0.000000000000000
11
-77.7974477958236
21
-1.77003059758859
31
0.000000000000000
  0
LINE
  5
F10450
330
F10451
100
AcDbEntity
8
Geo
100
AcDbLine
10
-77.7974477958236
20
-1.77003059758859
30
0.000000000000000
11
-77.6974477958236
21
-1.75248899225820
31
0.000000000000000
  0
LINE
  5
F10452
330
F10453
100
AcDbEntity
8
Geo
100
AcDbLine
10
-77.6974477958236
20
-1.75248899225820
30
0.000000000000000
11
-77.5974477958236
21
-1.73539017360980
31
0.000000000000000
  0
LINE
  5
F10454
330
F10455
100
AcDbEntity
8
Geo
100
AcDbLine
10
-77.5974477958236
20
-1.73539017360980
30
0.000000000000000
11
-77.4974477958236
21
-1.71873531529350
31
0.000000000000000
  0
LINE
  5
F10456
330
F10457
100
AcDbEntity
8
Geo
100
AcDbLine
10
-77.4974477958236
20
-1.71873531529350
30
0.000000000000000
11
-77.3974477958236
21
-1.70252553319776
31
0.000000000000000
  0
LINE
  5
F10458
330
F10459
100
AcDbEntity
8
Geo
100
AcDbLine
10
-77.3974477958236
20
-1.70252553319776
30
0.000000000000000
11
-77.2974477958236
21
-1.68676188756964
31
0.000000000000000
  0
LINE
  5
F1045A
330
F1045B
100
AcDbEntity
8
Geo
100
AcDbLine
10
-77.2974477958236
20
-1.68676188756964
30
0.000000000000000
11
-77.1974477958236
21
-1.67144538508088
31
0.000000000000000
  0
LINE
  5
F1045C
330
F1045D
100
AcDbEntity
8
Geo
100
AcDbLine
10
-77.1974477958236
20
-1.67144538508088
30
0.000000000000000
11
-77.0974477958236
21
-1.65657698083971
31
0.000000000000000
  0
LINE
  5
F1045E
330
F1045F
100
AcDbEntity
8
Geo
100
AcDbLine
10
-77.0974477958236
20
-1.65657698083971
30
0.000000000000000
11
-76.9974477958236
21
-1.64215758034778
31
0.000000000000000
  0
LINE
  5
F10460
330
F10461
100
AcDbEntity
8
Geo
100
AcDbLine
10
-76.9974477958236
20
-1.64215758034778
30
0.000000000000000
11
-76.8974477958236
21
-1.62818804140189
31
0.000000000000000
  0
LINE
  5
F10462
330
F10463
100
AcDbEntity
8
Geo
100
AcDbLine
10
-76.8974477958236
20
-1.62818804140189
30
0.000000000000000
11
-76.7974477958236
21
-1.61466917594017
31
0.000000000000000
  0
LINE
  5
F10464
330
F10465
100
AcDbEntity
8
Geo
100
AcDbLine
10
-76.7974477958236
20
-1.61466917594017
30
0.000000000000000
11
-76.6974477958236
21
-1.60160175183235
31
0.000000000000000
  0
LINE
  5
F10466
330
F10467
100
AcDbEntity
8
Geo
100
AcDbLine
10
-76.6974477958236
20
-1.60160175183235
30
0.000000000000000
11
-76.5974477958236
21
-1.58898649461390
31
0.000000000000000
  0
LINE
  5
F10468
330
F10469
100
AcDbEntity
8
Geo
100
AcDbLine
10
-76.5974477958236
20
-1.58898649461390
30
0.000000000000000
11
-76.4974477958236
21
-1.57682408916358
31
0.000000000000000
  0
LINE
  5
F1046A
330
F1046B
100
AcDbEntity
8
Geo
100
AcDbLine
10
-76.4974477958236
20
-1.57682408916358
30
0.000000000000000
11
-76.3974477958236
21
-1.56511518132428
31
0.000000000000000
  0
LINE
  5
F1046C
330
F1046D
100
AcDbEntity
8
Geo
100
AcDbLine
10
-76.3974477958236
20
-1.56511518132428
30
0.000000000000000
11
-76.2974477958236
21
-1.55386037946682
31
0.000000000000000
  0
LINE
  5
F1046E
330
F1046F
100
AcDbEntity
8
Geo
100
AcDbLine
10
-76.2974477958236
20
-1.55386037946682
30
0.000000000000000
11
-76.1974477958236
21
-1.54306025599647
31
0.000000000000000
  0
LINE
  5
F10470
330
F10471
100
AcDbEntity
8
Geo
100
AcDbLine
10
-76.1974477958236
20
-1.54306025599647
30
0.000000000000000
11
-76.0974477958236
21
-1.53271534880198
31
0.000000000000000
  0
LINE
  5
F10472
330
F10473
100
AcDbEntity
8
Geo
100
AcDbLine
10
-76.0974477958236
20
-1.53271534880198
30
0.000000000000000
11
-75.9974477958236
21
-1.52282616264694
31
0.000000000000000
  0
LINE
  5
F10474
330
F10475
100
AcDbEntity
8
Geo
100
AcDbLine
10
-75.9974477958236
20
-1.52282616264694
30
0.000000000000000
11
-75.8974477958236
21
-1.51339317050318
31
0.000000000000000
  0
LINE
  5
F10476
330
F10477
100
AcDbEntity
8
Geo
100
AcDbLine
10
-75.8974477958236
20
-1.51339317050318
30
0.000000000000000
11
-75.7974477958236
21
-1.50441681482617
31
0.000000000000000
  0
LINE
  5
F10478
330
F10479
100
AcDbEntity
8
Geo
100
AcDbLine
10
-75.7974477958236
20
-1.50441681482617
30
0.000000000000000
11
-75.6974477958236
21
-1.49589750877215
31
0.000000000000000
  0
LINE
  5
F1047A
330
F1047B
100
AcDbEntity
8
Geo
100
AcDbLine
10
-75.6974477958236
20
-1.49589750877215
30
0.000000000000000
11
-75.5974477958236
21
-1.48783563735682
31
0.000000000000000
  0
LINE
  5
F1047C
330
F1047D
100
AcDbEntity
8
Geo
100
AcDbLine
10
-75.5974477958236
20
-1.48783563735682
30
0.000000000000000
11
-75.4974477958236
21
-1.48023155855556
31
0.000000000000000
  0
LINE
  5
F1047E
330
F1047F
100
AcDbEntity
8
Geo
100
AcDbLine
10
-75.4974477958236
20
-1.48023155855556
30
0.000000000000000
11
-75.3974477958236
21
-1.47308560434496
31
0.000000000000000
  0
LINE
  5
F10480
330
F10481
100
AcDbEntity
8
Geo
100
AcDbLine
10
-75.3974477958236
20
-1.47308560434496
30
0.000000000000000
11
-75.2974477958236
21
-1.46639808168550
31
0.000000000000000
  0
LINE
  5
F10482
330
F10483
100
AcDbEntity
8
Geo
100
AcDbLine
10
-75.2974477958236
20
-1.46639808168550
30
0.000000000000000
11
-75.1974477958236
21
-1.46016927344541
31
0.000000000000000
  0
LINE
  5
F10484
330
F10485
100
AcDbEntity
8
Geo
100
AcDbLine
10
-75.1974477958236
20
-1.46016927344541
30
0.000000000000000
11
-75.0974477958236
21
-1.45439943926549
31
0.000000000000000
  0
LINE
  5
F10486
330
F10487
100
AcDbEntity
8
Geo
100
AcDbLine
10
-75.0974477958236
20
-1.45439943926549
30
0.000000000000000
11
-74.9974477958236
21
-1.44908881636481
31
0.000000000000000
  0
LINE
  5
F10488
330
F10489
100
AcDbEntity
8
Geo
100
AcDbLine
10
-74.9974477958236
20
-1.44908881636481
30
0.000000000000000
11
-74.8974477958236
21
-1.44423762028725
31
0.000000000000000
  0
LINE
  5
F1048A
330
F1048B
100
AcDbEntity
8
Geo
100
AcDbLine
10
-74.8974477958236
20
-1.44423762028725
30
0.000000000000000
11
-74.7974477958236
21
-1.43984604558877
31
0.000000000000000
  0
LINE
  5
F1048C
330
F1048D
100
AcDbEntity
8
Geo
100
AcDbLine
10
-74.7974477958236
20
-1.43984604558877
30
0.000000000000000
11
-74.6974477958236
21
-1.43591426646538
31
0.000000000000000
  0
LINE
  5
F1048E
330
F1048F
100
AcDbEntity
8
Geo
100
AcDbLine
10
-74.6974477958236
20
-1.43591426646538
30
0.000000000000000
11
-74.5974477958236
21
-1.43244243732168
31
0.000000000000000
  0
LINE
  5
F10490
330
F10491
100
AcDbEntity
8
Geo
100
AcDbLine
10
-74.5974477958236
20
-1.43244243732168
30
0.000000000000000
11
-74.4974477958236
21
-1.42943069327998
31
0.000000000000000
  0
LINE
  5
F10492
330
F10493
100
AcDbEntity
8
Geo
100
AcDbLine
10
-74.4974477958236
20
-1.42943069327998
30
0.000000000000000
11
-74.3974477958236
21
-1.42687915062991
31
0.000000000000000
  0
LINE
  5
F10494
330
F10495
100
AcDbEntity
8
Geo
100
AcDbLine
10
-74.3974477958236
20
-1.42687915062991
30
0.000000000000000
11
-74.2974477958236
21
-1.42478790721849
31
0.000000000000000
  0
LINE
  5
F10496
330
F10497
100
AcDbEntity
8
Geo
100
AcDbLine
10
-74.2974477958236
20
-1.42478790721849
30
0.000000000000000
11
-74.1974477958236
21
-1.42315704278070
31
0.000000000000000
  0
LINE
  5
F10498
330
F10499
100
AcDbEntity
8
Geo
100
AcDbLine
10
-74.1974477958236
20
-1.42315704278070
30
0.000000000000000
11
-74.0974477958237
21
-1.42198661921031
31
0.000000000000000
  0
LINE
  5
F1049A
330
F1049B
100
AcDbEntity
8
Geo
100
AcDbLine
10
-96.0974477958237
20
-2.14231661389839
30
0.000000000000000
11
-95.9974477958237
21
-2.40958941429015
31
0.000000000000000
  0
LINE
  5
F1049C
330
F1049D
100
AcDbEntity
8
Geo
100
AcDbLine
10
-95.9974477958237
20
-2.40958941429015
30
0.000000000000000
11
-95.8974477958237
21
-2.61982553839328
31
0.000000000000000
  0
LINE
  5
F1049E
330
F1049F
100
AcDbEntity
8
Geo
100
AcDbLine
10
-95.8974477958237
20
-2.61982553839328
30
0.000000000000000
11
-95.7974477958237
21
-2.81702219265527
31
0.000000000000000
  0
LINE
  5
F104A0
330
F104A1
100
AcDbEntity
8
Geo
100
AcDbLine
10
-95.7974477958237
20
-2.81702219265527
30
0.000000000000000
11
-95.6974477958236
21
-3.00322573573834
31
0.000000000000000
  0
LINE
  5
F104A2
330
F104A3
100
AcDbEntity
8
Geo
100
AcDbLine
10
-95.6974477958236
20
-3.00322573573834
30
0.000000000000000
11
-95.5974477958237
21
-3.17781653757994
31
0.000000000000000
  0
LINE
  5
F104A4
330
F104A5
100
AcDbEntity
8
Geo
100
AcDbLine
10
-95.5974477958237
20
-3.17781653757994
30
0.000000000000000
11
-95.4974477958237
21
-3.34425546190481
31
0.000000000000000
  0
LINE
  5
F104A6
330
F104A7
100
AcDbEntity
8
Geo
100
AcDbLine
10
-95.4974477958237
20
-3.34425546190481
30
0.000000000000000
11
-95.3974477958237
21
-3.50685409693358
31
0.000000000000000
  0
LINE
  5
F104A8
330
F104A9
100
AcDbEntity
8
Geo
100
AcDbLine
10
-95.3974477958237
20
-3.50685409693358
30
0.000000000000000
11
-95.2974477958237
21
-3.66537158553717
31
0.000000000000000
  0
LINE
  5
F104AA
330
F104AB
100
AcDbEntity
8
Geo
100
AcDbLine
10
-95.2974477958237
20
-3.66537158553717
30
0.000000000000000
11
-95.1974477958236
21
-3.81957311598297
31
0.000000000000000
  0
LINE
  5
F104AC
330
F104AD
100
AcDbEntity
8
Geo
100
AcDbLine
10
-95.1974477958236
20
-3.81957311598297
30
0.000000000000000
11
-95.0974477958237
21
-3.96923026976113
31
0.000000000000000
  0
LINE
  5
F104AE
330
F104AF
100
AcDbEntity
8
Geo
100
AcDbLine
10
-95.0974477958237
20
-3.96923026976113
30
0.000000000000000
11
-94.9974477958237
21
-4.11412135994053
31
0.000000000000000
  0
LINE
  5
F104B0
330
F104B1
100
AcDbEntity
8
Geo
100
AcDbLine
10
-94.9974477958237
20
-4.11412135994053
30
0.000000000000000
11
-94.8974477958237
21
-4.25403175955336
31
0.000000000000000
  0
LINE
  5
F104B2
330
F104B3
100
AcDbEntity
8
Geo
100
AcDbLine
10
-94.8974477958237
20
-4.25403175955336
30
0.000000000000000
11
-94.7974477958237
21
-4.38875421952173
31
0.000000000000000
  0
LINE
  5
F104B4
330
F104B5
100
AcDbEntity
8
Geo
100
AcDbLine
10
-94.7974477958237
20
-4.38875421952173
30
0.000000000000000
11
-94.6974477958236
21
-4.51808917565543
31
0.000000000000000
  0
LINE
  5
F104B6
330
F104B7
100
AcDbEntity
8
Geo
100
AcDbLine
10
-94.6974477958236
20
-4.51808917565543
30
0.000000000000000
11
-94.5974477958237
21
-4.64184504426610
31
0.000000000000000
  0
LINE
  5
F104B8
330
F104B9
100
AcDbEntity
8
Geo
100
AcDbLine
10
-94.5974477958237
20
-4.64184504426610
30
0.000000000000000
11
-94.4974477958237
21
-4.75983850595988
31
0.000000000000000
  0
LINE
  5
F104BA
330
F104BB
100
AcDbEntity
8
Geo
100
AcDbLine
10
-94.4974477958237
20
-4.75983850595988
30
0.000000000000000
11
-94.3974477958237
21
-4.87189477718813
31
0.000000000000000
  0
LINE
  5
F104BC
330
F104BD
100
AcDbEntity
8
Geo
100
AcDbLine
10
-94.3974477958237
20
-4.87189477718813
30
0.000000000000000
11
-94.2974477958237
21
-4.97784786915413
31
0.000000000000000
  0
LINE
  5
F104BE
330
F104BF
100
AcDbEntity
8
Geo
100
AcDbLine
10
-94.2974477958237
20
-4.97784786915413
30
0.000000000000000
11
-94.1974477958236
21
-5.07754083369195
31
0.000000000000000
  0
LINE
  5
F104C0
330
F104C1
100
AcDbEntity
8
Geo
100
AcDbLine
10
-94.1974477958236
20
-5.07754083369195
30
0.000000000000000
11
-94.0974477958237
21
-5.17082599575365
31
0.000000000000000
  0
LINE
  5
F104C2
330
F104C3
100
AcDbEntity
8
Geo
100
AcDbLine
10
-94.0974477958237
20
-5.17082599575365
30
0.000000000000000
11
-93.9974477958237
21
-5.25756517216005
31
0.000000000000000
  0
LINE
  5
F104C4
330
F104C5
100
AcDbEntity
8
Geo
100
AcDbLine
10
-93.9974477958237
20
-5.25756517216005
30
0.000000000000000
11
-93.8974477958237
21
-5.33762987629130
31
0.000000000000000
  0
LINE
  5
F104C6
330
F104C7
100
AcDbEntity
8
Geo
100
AcDbLine
10
-93.8974477958237
20
-5.33762987629130
30
0.000000000000000
11
-93.7974477958237
21
-5.41090150841395
31
0.000000000000000
  0
LINE
  5
F104C8
330
F104C9
100
AcDbEntity
8
Geo
100
AcDbLine
10
-93.7974477958237
20
-5.41090150841395
30
0.000000000000000
11
-93.6974477958236
21
-5.47727153136252
31
0.000000000000000
  0
LINE
  5
F104CA
330
F104CB
100
AcDbEntity
8
Geo
100
AcDbLine
10
-93.6974477958236
20
-5.47727153136252
30
0.000000000000000
11
-93.5974477958237
21
-5.53664163131550
31
0.000000000000000
  0
LINE
  5
F104CC
330
F104CD
100
AcDbEntity
8
Geo
100
AcDbLine
10
-93.5974477958237
20
-5.53664163131550
30
0.000000000000000
11
-93.4974477958237
21
-5.58892386342745
31
0.000000000000000
  0
LINE
  5
F104CE
330
F104CF
100
AcDbEntity
8
Geo
100
AcDbLine
10
-93.4974477958237
20
-5.58892386342745
30
0.000000000000000
11
-93.3974477958237
21
-5.63404078210158
31
0.000000000000000
  0
LINE
  5
F104D0
330
F104D1
100
AcDbEntity
8
Geo
100
AcDbLine
10
-93.3974477958237
20
-5.63404078210158
30
0.000000000000000
11
-93.2974477958237
21
-5.67192555570979
31
0.000000000000000
  0
LINE
  5
F104D2
330
F104D3
100
AcDbEntity
8
Geo
100
AcDbLine
10
-93.2974477958237
20
-5.67192555570979
30
0.000000000000000
11
-93.1974477958236
21
-5.70252206559031
31
0.000000000000000
  0
LINE
  5
F104D4
330
F104D5
100
AcDbEntity
8
Geo
100
AcDbLine
10
-93.1974477958236
20
-5.70252206559031
30
0.000000000000000
11
-93.0974477958237
21
-5.72578498917614
31
0.000000000000000
  0
LINE
  5
F104D6
330
F104D7
100
AcDbEntity
8
Geo
100
AcDbLine
10
-93.0974477958237
20
-5.72578498917614
30
0.000000000000000
11
-92.9974477958237
21
-5.74167986713133
31
0.000000000000000
  0
LINE
  5
F104D8
330
F104D9
100
AcDbEntity
8
Geo
100
AcDbLine
10
-92.9974477958237
20
-5.74167986713133
30
0.000000000000000
11
-92.8974477958237
21
-5.75018315439556
31
0.000000000000000
  0
LINE
  5
F104DA
330
F104DB
100
AcDbEntity
8
Geo
100
AcDbLine
10
-84.6974477958237
20
4.24799114178509
30
0.000000000000000
11
-84.5974477958237
21
4.24628282484199
31
0.000000000000000
  0
LINE
  5
F104DC
330
F104DD
100
AcDbEntity
8
Geo
100
AcDbLine
10
-84.5974477958237
20
4.24628282484199
30
0.000000000000000
11
-84.4974477958237
21
4.23717094352163
31
0.000000000000000
  0
LINE
  5
F104DE
330
F104DF
100
AcDbEntity
8
Geo
100
AcDbLine
10
-84.4974477958237
20
4.23717094352163
30
0.000000000000000
11
-84.3974477958237
21
4.22066899524098
31
0.000000000000000
  0
LINE
  5
F104E0
330
F104E1
100
AcDbEntity
8
Geo
100
AcDbLine
10
-84.3974477958237
20
4.22066899524098
30
0.000000000000000
11
-84.2974477958237
21
4.19680142431278
31
0.000000000000000
  0
LINE
  5
F104E2
330
F104E3
100
AcDbEntity
8
Geo
100
AcDbLine
10
-84.2974477958237
20
4.19680142431278
30
0.000000000000000
11
-84.1974477958237
21
4.16560358573623
31
0.000000000000000
  0
LINE
  5
F104E4
330
F104E5
100
AcDbEntity
8
Geo
100
AcDbLine
10
-84.1974477958237
20
4.16560358573623
30
0.000000000000000
11
-84.0974477958237
21
4.12712169282567
31
0.000000000000000
  0
LINE
  5
F104E6
330
F104E7
100
AcDbEntity
8
Geo
100
AcDbLine
10
-84.0974477958237
20
4.12712169282567
30
0.000000000000000
11
-83.9974477958237
21
4.08141274875488
31
0.000000000000000
  0
LINE
  5
F104E8
330
F104E9
100
AcDbEntity
8
Geo
100
AcDbLine
10
-83.9974477958237
20
4.08141274875488
30
0.000000000000000
11
-83.8974477958237
21
4.02854446211832
31
0.000000000000000
  0
LINE
  5
F104EA
330
F104EB
100
AcDbEntity
8
Geo
100
AcDbLine
10
-83.8974477958237
20
4.02854446211832
30
0.000000000000000
11
-83.7974477958237
21
3.96859514663454
31
0.000000000000000
  0
LINE
  5
F104EC
330
F104ED
100
AcDbEntity
8
Geo
100
AcDbLine
10
-83.7974477958237
20
3.96859514663454
30
0.000000000000000
11
-83.6974477958237
21
3.90165360514012
31
0.000000000000000
  0
LINE
  5
F104EE
330
F104EF
100
AcDbEntity
8
Geo
100
AcDbLine
10
-83.6974477958237
20
3.90165360514012
30
0.000000000000000
11
-83.5974477958237
21
3.82781899804619
31
0.000000000000000
  0
LINE
  5
F104F0
330
F104F1
100
AcDbEntity
8
Geo
100
AcDbLine
10
-83.5974477958237
20
3.82781899804619
30
0.000000000000000
11
-83.4974477958237
21
3.74720069645226
31
0.000000000000000
  0
LINE
  5
F104F2
330
F104F3
100
AcDbEntity
8
Geo
100
AcDbLine
10
-83.4974477958237
20
3.74720069645226
30
0.000000000000000
11
-83.3974477958237
21
3.65991812013492
31
0.000000000000000
  0
LINE
  5
F104F4
330
F104F5
100
AcDbEntity
8
Geo
100
AcDbLine
10
-83.3974477958237
20
3.65991812013492
30
0.000000000000000
11
-83.2974477958237
21
3.56610056065155
31
0.000000000000000
  0
LINE
  5
F104F6
330
F104F7
100
AcDbEntity
8
Geo
100
AcDbLine
10
-83.2974477958237
20
3.56610056065155
30
0.000000000000000
11
-83.1974477958237
21
3.46588698982087
31
0.000000000000000
  0
LINE
  5
F104F8
330
F104F9
100
AcDbEntity
8
Geo
100
AcDbLine
10
-83.1974477958237
20
3.46588698982087
30
0.000000000000000
11
-83.0974477958237
21
3.35942585386421
31
0.000000000000000
  0
LINE
  5
F104FA
330
F104FB
100
AcDbEntity
8
Geo
100
AcDbLine
10
-83.0974477958237
20
3.35942585386421
30
0.000000000000000
11
-82.9974477958237
21
3.24687485351232
31
0.000000000000000
  0
LINE
  5
F104FC
330
F104FD
100
AcDbEntity
8
Geo
100
AcDbLine
10
-82.9974477958237
20
3.24687485351232
30
0.000000000000000
11
-82.8974477958237
21
3.12840071040350
31
0.000000000000000
  0
LINE
  5
F104FE
330
F104FF
100
AcDbEntity
8
Geo
100
AcDbLine
10
-82.8974477958237
20
3.12840071040350
30
0.000000000000000
11
-82.7974477958237
21
3.00417892011906
31
0.000000000000000
  0
LINE
  5
F10500
330
F10501
100
AcDbEntity
8
Geo
100
AcDbLine
10
-82.7974477958237
20
3.00417892011906
30
0.000000000000000
11
-82.6974477958237
21
2.87439349222201
31
0.000000000000000
  0
LINE
  5
F10502
330
F10503
100
AcDbEntity
8
Geo
100
AcDbLine
10
-82.6974477958237
20
2.87439349222201
30
0.000000000000000
11
-82.5974477958237
21
2.73923667768389
31
0.000000000000000
  0
LINE
  5
F10504
330
F10505
100
AcDbEntity
8
Geo
100
AcDbLine
10
-82.5974477958237
20
2.73923667768389
30
0.000000000000000
11
-82.4974477958237
21
2.59890868410372
31
0.000000000000000
  0
LINE
  5
F10506
330
F10507
100
AcDbEntity
8
Geo
100
AcDbLine
10
-82.4974477958237
20
2.59890868410372
30
0.000000000000000
11
-82.3974477958237
21
2.45361737914074
31
0.000000000000000
  0
LINE
  5
F10508
330
F10509
100
AcDbEntity
8
Geo
100
AcDbLine
10
-82.3974477958237
20
2.45361737914074
30
0.000000000000000
11
-82.2974477958237
21
2.30357798260037
31
0.000000000000000
  0
LINE
  5
F1050A
330
F1050B
100
AcDbEntity
8
Geo
100
AcDbLine
10
-82.2974477958237
20
2.30357798260037
30
0.000000000000000
11
-82.1974477958237
21
2.14901274762938
31
0.000000000000000
  0
LINE
  5
F1050C
330
F1050D
100
AcDbEntity
8
Geo
100
AcDbLine
10
-82.1974477958237
20
2.14901274762938
30
0.000000000000000
11
-82.0974477958237
21
1.99015063149263
31
0.000000000000000
  0
LINE
  5
F1050E
330
F1050F
100
AcDbEntity
8
Geo
100
AcDbLine
10
-82.0974477958237
20
1.99015063149263
30
0.000000000000000
11
-81.9974477958237
21
1.82722695641901
31
0.000000000000000
  0
LINE
  5
F10510
330
F10511
100
AcDbEntity
8
Geo
100
AcDbLine
10
-81.9974477958237
20
1.82722695641901
30
0.000000000000000
11
-81.8974477958237
21
1.66048306101894
31
0.000000000000000
  0
LINE
  5
F10512
330
F10513
100
AcDbEntity
8
Geo
100
AcDbLine
10
-81.8974477958237
20
1.66048306101894
30
0.000000000000000
11
-81.7974477958237
21
1.49016594278983
31
0.000000000000000
  0
LINE
  5
F10514
330
F10515
100
AcDbEntity
8
Geo
100
AcDbLine
10
-81.7974477958237
20
1.49016594278983
30
0.000000000000000
11
-81.6974477958237
21
1.31652789223904
31
0.000000000000000
  0
LINE
  5
F10516
330
F10517
100
AcDbEntity
8
Geo
100
AcDbLine
10
-81.6974477958237
20
1.31652789223904
30
0.000000000000000
11
-81.5974477958237
21
1.13982611916627
31
0.000000000000000
  0
LINE
  5
F10518
330
F10519
100
AcDbEntity
8
Geo
100
AcDbLine
10
-81.5974477958237
20
1.13982611916627
30
0.000000000000000
11
-81.4974477958237
21
0.960322371659123
31
0.000000000000000
  0
LINE
  5
F1051A
330
F1051B
100
AcDbEntity
8
Geo
100
AcDbLine
10
-81.4974477958237
20
0.960322371659123
30
0.000000000000000
11
-81.3974477958237
21
0.778282548365950
31
0.000000000000000
  0
LINE
  5
F1051C
330
F1051D
100
AcDbEntity
8
Geo
100
AcDbLine
10
-81.3974477958237
20
0.778282548365950
30
0.000000000000000
11
-81.2974477958237
21
0.593976304620607
31
0.000000000000000
  0
LINE
  5
F1051E
330
F1051F
100
AcDbEntity
8
Geo
100
AcDbLine
10
-81.2974477958237
20
0.593976304620607
30
0.000000000000000
11
-81.1974477958237
21
0.407676653002371
31
0.000000000000000
  0
LINE
  5
F10520
330
F10521
100
AcDbEntity
8
Geo
100
AcDbLine
10
-81.1974477958237
20
0.407676653002371
30
0.000000000000000
11
-81.0974477958237
21
0.219659558922791
31
0.000000000000000
  0
LINE
  5
F10522
330
F10523
100
AcDbEntity
8
Geo
100
AcDbLine
10
-81.0974477958237
20
0.219659558922791
30
0.000000000000000
11
-80.9974477958237
21
0.0302035318385198
31
0.000000000000000
  0
LINE
  5
F10524
330
F10525
100
AcDbEntity
8
Geo
100
AcDbLine
10
-80.9974477958237
20
0.0302035318385198
30
0.000000000000000
11
-80.8974477958237
21
-0.160410787304361
31
0.000000000000000
  0
LINE
  5
F10526
330
F10527
100
AcDbEntity
8
Geo
100
AcDbLine
10
-80.8974477958237
20
-0.160410787304361
30
0.000000000000000
11
-80.7974477958237
21
-0.351901041783381
31
0.000000000000000
  0
LINE
  5
F10528
330
F10529
100
AcDbEntity
8
Geo
100
AcDbLine
10
-80.7974477958237
20
-0.351901041783381
30
0.000000000000000
11
-80.6974477958237
21
-0.543983577354265
31
0.000000000000000
  0
LINE
  5
F1052A
330
F1052B
100
AcDbEntity
8
Geo
100
AcDbLine
10
-80.6974477958237
20
-0.543983577354265
30
0.000000000000000
11
-80.5974477958237
21
-0.736373862427615
31
0.000000000000000
  0
LINE
  5
F1052C
330
F1052D
100
AcDbEntity
8
Geo
100
AcDbLine
10
-80.5974477958237
20
-0.736373862427615
30
0.000000000000000
11
-80.4974477958237
21
-0.928786909545123
31
0.000000000000000
  0
LINE
  5
F1052E
330
F1052F
100
AcDbEntity
8
Geo
100
AcDbLine
10
-80.4974477958237
20
-0.928786909545123
30
0.000000000000000
11
-80.3974477958237
21
-1.12093769753109
31
0.000000000000000
  0
LINE
  5
F10530
330
F10531
100
AcDbEntity
8
Geo
100
AcDbLine
10
-80.3974477958237
20
-1.12093769753109
30
0.000000000000000
11
-80.2974477958237
21
-1.31254159369392
31
0.000000000000000
  0
LINE
  5
F10532
330
F10533
100
AcDbEntity
8
Geo
100
AcDbLine
10
-80.2974477958237
20
-1.31254159369392
30
0.000000000000000
11
-80.1974477958237
21
-1.50331477545206
31
0.000000000000000
  0
LINE
  5
F10534
330
F10535
100
AcDbEntity
8
Geo
100
AcDbLine
10
-80.1974477958237
20
-1.50331477545206
30
0.000000000000000
11
-80.0974477958237
21
-1.69297465076009
31
0.000000000000000
  0
LINE
  5
F10536
330
F10537
100
AcDbEntity
8
Geo
100
AcDbLine
10
-80.0974477958237
20
-1.69297465076009
30
0.000000000000000
11
-79.9974477958237
21
-1.88124027671183
31
0.000000000000000
  0
LINE
  5
F10538
330
F10539
100
AcDbEntity
8
Geo
100
AcDbLine
10
-79.9974477958237
20
-1.88124027671183
30
0.000000000000000
11
-79.8974477958237
21
-2.06783277570072
31
0.000000000000000
  0
LINE
  5
F1053A
330
F1053B
100
AcDbEntity
8
Geo
100
AcDbLine
10
-79.8974477958237
20
-2.06783277570072
30
0.000000000000000
11
-79.7974477958237
21
-2.25247574852082
31
0.000000000000000
  0
LINE
  5
F1053C
330
F1053D
100
AcDbEntity
8
Geo
100
AcDbLine
10
-79.7974477958237
20
-2.25247574852082
30
0.000000000000000
11
-79.6974477958237
21
-2.43489568379652
31
0.000000000000000
  0
LINE
  5
F1053E
330
F1053F
100
AcDbEntity
8
Geo
100
AcDbLine
10
-79.6974477958237
20
-2.43489568379652
30
0.000000000000000
11
-79.5974477958237
21
-2.61482236313466
31
0.000000000000000
  0
LINE
  5
F10540
330
F10541
100
AcDbEntity
8
Geo
100
AcDbLine
10
-79.5974477958237
20
-2.61482236313466
30
0.000000000000000
11
-79.4974477958237
21
-2.79198926139851
31
0.000000000000000
  0
LINE
  5
F10542
330
F10543
100
AcDbEntity
8
Geo
100
AcDbLine
10
-79.4974477958237
20
-2.79198926139851
30
0.000000000000000
11
-79.3974477958237
21
-2.96613394151124
31
0.000000000000000
  0
LINE
  5
F10544
330
F10545
100
AcDbEntity
8
Geo
100
AcDbLine
10
-79.3974477958237
20
-2.96613394151124
30
0.000000000000000
11
-79.2974477958237
21
-3.13699844320344
31
0.000000000000000
  0
LINE
  5
F10546
330
F10547
100
AcDbEntity
8
Geo
100
AcDbLine
10
-79.2974477958237
20
-3.13699844320344
30
0.000000000000000
11
-79.1974477958237
21
-3.30432966512942
31
0.000000000000000
  0
LINE
  5
F10548
330
F10549
100
AcDbEntity
8
Geo
100
AcDbLine
10
-79.1974477958237
20
-3.30432966512942
30
0.000000000000000
11
-79.0974477958237
21
-3.46787973978587
31
0.000000000000000
  0
LINE
  5
F1054A
330
F1054B
100
AcDbEntity
8
Geo
100
AcDbLine
10
-79.0974477958237
20
-3.46787973978587
30
0.000000000000000
11
-78.9974477958237
21
-3.64628477933886
31
0.000000000000000
  0
LINE
  5
F1054C
330
F1054D
100
AcDbEntity
8
Geo
100
AcDbLine
10
-78.9974477958237
20
-3.64628477933886
30
0.000000000000000
11
-78.8974477958237
21
-3.81600668373492
31
0.000000000000000
  0
LINE
  5
F1054E
330
F1054F
100
AcDbEntity
8
Geo
100
AcDbLine
10
-78.8974477958237
20
-3.81600668373492
30
0.000000000000000
11
-78.7974477958236
21
-3.97705791650463
31
0.000000000000000
  0
LINE
  5
F10550
330
F10551
100
AcDbEntity
8
Geo
100
AcDbLine
10
-78.7974477958236
20
-3.97705791650463
30
0.000000000000000
11
-78.6974477958236
21
-4.12948866503980
31
0.000000000000000
  0
LINE
  5
F10552
330
F10553
100
AcDbEntity
8
Geo
100
AcDbLine
10
-78.6974477958236
20
-4.12948866503980
30
0.000000000000000
11
-78.5974477958237
21
-4.27338375646864
31
0.000000000000000
  0
LINE
  5
F10554
330
F10555
100
AcDbEntity
8
Geo
100
AcDbLine
10
-78.5974477958237
20
-4.27338375646864
30
0.000000000000000
11
-78.4974477958236
21
-4.40885962626690
31
0.000000000000000
  0
LINE
  5
F10556
330
F10557
100
AcDbEntity
8
Geo
100
AcDbLine
10
-78.4974477958236
20
-4.40885962626690
30
0.000000000000000
11
-78.3974477958236
21
-4.53606135557682
31
0.000000000000000
  0
LINE
  5
F10558
330
F10559
100
AcDbEntity
8
Geo
100
AcDbLine
10
-78.3974477958236
20
-4.53606135557682
30
0.000000000000000
11
-78.2974477958236
21
-4.65515979101141
31
0.000000000000000
  0
LINE
  5
F1055A
330
F1055B
100
AcDbEntity
8
Geo
100
AcDbLine
10
-78.2974477958236
20
-4.65515979101141
30
0.000000000000000
11
-78.1974477958236
21
-4.76634875864220
31
0.000000000000000
  0
LINE
  5
F1055C
330
F1055D
100
AcDbEntity
8
Geo
100
AcDbLine
10
-78.1974477958236
20
-4.76634875864220
30
0.000000000000000
11
-78.0974477958236
21
-4.86984238191142
31
0.000000000000000
  0
LINE
  5
F1055E
330
F1055F
100
AcDbEntity
8
Geo
100
AcDbLine
10
-78.0974477958236
20
-4.86984238191142
30
0.000000000000000
11
-77.9974477958236
21
-4.96587251137835
31
0.000000000000000
  0
LINE
  5
F10560
330
F10561
100
AcDbEntity
8
Geo
100
AcDbLine
10
-77.9974477958236
20
-4.96587251137835
30
0.000000000000000
11
-77.8974477958236
21
-5.05468627250825
31
0.000000000000000
  0
LINE
  5
F10562
330
F10563
100
AcDbEntity
8
Geo
100
AcDbLine
10
-77.8974477958236
20
-5.05468627250825
30
0.000000000000000
11
-77.7974477958236
21
-5.13654373614104
31
0.000000000000000
  0
LINE
  5
F10564
330
F10565
100
AcDbEntity
8
Geo
100
AcDbLine
10
-77.7974477958236
20
-5.13654373614104
30
0.000000000000000
11
-77.6974477958236
21
-5.21171571483591
31
0.000000000000000
  0
LINE
  5
F10566
330
F10567
100
AcDbEntity
8
Geo
100
AcDbLine
10
-77.6974477958236
20
-5.21171571483591
30
0.000000000000000
11
-77.5974477958236
21
-5.28048168697532
31
0.000000000000000
  0
LINE
  5
F10568
330
F10569
100
AcDbEntity
8
Geo
100
AcDbLine
10
-77.5974477958236
20
-5.28048168697532
30
0.000000000000000
11
-77.4974477958236
21
-5.34312784932508
31
0.000000000000000
  0
LINE
  5
F1056A
330
F1056B
100
AcDbEntity
8
Geo
100
AcDbLine
10
-77.4974477958236
20
-5.34312784932508
30
0.000000000000000
11
-77.3974477958236
21
-5.39994529768227
31
0.000000000000000
  0
LINE
  5
F1056C
330
F1056D
100
AcDbEntity
8
Geo
100
AcDbLine
10
-77.3974477958236
20
-5.39994529768227
30
0.000000000000000
11
-77.2974477958236
21
-5.45122833429551
31
0.000000000000000
  0
LINE
  5
F1056E
330
F1056F
100
AcDbEntity
8
Geo
100
AcDbLine
10
-77.2974477958236
20
-5.45122833429551
30
0.000000000000000
11
-77.1974477958236
21
-5.49727289990752
31
0.000000000000000
  0
LINE
  5
F10570
330
F10571
100
AcDbEntity
8
Geo
100
AcDbLine
10
-77.1974477958236
20
-5.49727289990752
30
0.000000000000000
11
-77.0974477958236
21
-5.53837512754230
31
0.000000000000000
  0
LINE
  5
F10572
330
F10573
100
AcDbEntity
8
Geo
100
AcDbLine
10
-77.0974477958236
20
-5.53837512754230
30
0.000000000000000
11
-76.9974477958236
21
-5.57483001453282
31
0.000000000000000
  0
LINE
  5
F10574
330
F10575
100
AcDbEntity
8
Geo
100
AcDbLine
10
-76.9974477958236
20
-5.57483001453282
30
0.000000000000000
11
-76.8974477958236
21
-5.60693020875365
31
0.000000000000000
  0
LINE
  5
F10576
330
F10577
100
AcDbEntity
8
Geo
100
AcDbLine
10
-76.8974477958236
20
-5.60693020875365
30
0.000000000000000
11
-76.7974477958236
21
-5.63496490458038
31
0.000000000000000
  0
LINE
  5
F10578
330
F10579
100
AcDbEntity
8
Geo
100
AcDbLine
10
-76.7974477958236
20
-5.63496490458038
30
0.000000000000000
11
-76.6974477958236
21
-5.65921884373722
31
0.000000000000000
  0
LINE
  5
F1057A
330
F1057B
100
AcDbEntity
8
Geo
100
AcDbLine
10
-76.6974477958236
20
-5.65921884373722
30
0.000000000000000
11
-76.5974477958236
21
-5.67997141591007
31
0.000000000000000
  0
LINE
  5
F1057C
330
F1057D
100
AcDbEntity
8
Geo
100
AcDbLine
10
-76.5974477958236
20
-5.67997141591007
30
0.000000000000000
11
-76.4974477958236
21
-5.69749585378747
31
0.000000000000000
  0
LINE
  5
F1057E
330
F1057F
100
AcDbEntity
8
Geo
100
AcDbLine
10
-76.4974477958236
20
-5.69749585378747
30
0.000000000000000
11
-76.3974477958236
21
-5.71205851704133
31
0.000000000000000
  0
LINE
  5
F10580
330
F10581
100
AcDbEntity
8
Geo
100
AcDbLine
10
-76.3974477958236
20
-5.71205851704133
30
0.000000000000000
11
-76.2974477958236
21
-5.72391825966589
31
0.000000000000000
  0
LINE
  5
F10582
330
F10583
100
AcDbEntity
8
Geo
100
AcDbLine
10
-76.2974477958236
20
-5.72391825966589
30
0.000000000000000
11
-76.1974477958236
21
-5.73332587505204
31
0.000000000000000
  0
LINE
  5
F10584
330
F10585
100
AcDbEntity
8
Geo
100
AcDbLine
10
-76.1974477958236
20
-5.73332587505204
30
0.000000000000000
11
-76.0974477958236
21
-5.74052361317979
31
0.000000000000000
  0
LINE
  5
F10586
330
F10587
100
AcDbEntity
8
Geo
100
AcDbLine
10
-76.0974477958236
20
-5.74052361317979
30
0.000000000000000
11
-75.9974477958236
21
-5.74574476435799
31
0.000000000000000
  0
LINE
  5
F10588
330
F10589
100
AcDbEntity
8
Geo
100
AcDbLine
10
-75.9974477958236
20
-5.74574476435799
30
0.000000000000000
11
-75.8974477958236
21
-5.74921330402372
31
0.000000000000000
  0
LINE
  5
F1058A
330
F1058B
100
AcDbEntity
8
Geo
100
AcDbLine
10
-75.8974477958236
20
-5.74921330402372
30
0.000000000000000
11
-75.7974477958236
21
-5.75114359322903
31
0.000000000000000
  0
LINE
  5
F1058C
330
F1058D
100
AcDbEntity
8
Geo
100
AcDbLine
10
-75.7974477958236
20
-5.75114359322903
30
0.000000000000000
11
-75.6974477958236
21
-5.75174013921114
31
0.000000000000000
  0
LINE
  5
F1058E
330
F1058F
100
AcDbEntity
8
Geo
100
AcDbLine
10
-87.9974477958237
20
4.24683176037689
30
0.000000000000000
11
-87.8974477958237
21
4.24772778620077
31
0.000000000000000
  0
LINE
  5
F10590
330
F10591
100
AcDbEntity
8
Geo
100
AcDbLine
10
-87.8974477958237
20
4.24772778620077
30
0.000000000000000
11
-87.7974477958237
21
4.24121810722816
31
0.000000000000000
  0
LINE
  5
F10592
330
F10593
100
AcDbEntity
8
Geo
100
AcDbLine
10
-87.7974477958237
20
4.24121810722816
30
0.000000000000000
11
-87.6974477958237
21
4.22731236623736
31
0.000000000000000
  0
LINE
  5
F10594
330
F10595
100
AcDbEntity
8
Geo
100
AcDbLine
10
-87.6974477958237
20
4.22731236623736
30
0.000000000000000
11
-87.5974477958237
21
4.20603116178291
31
0.000000000000000
  0
LINE
  5
F10596
330
F10597
100
AcDbEntity
8
Geo
100
AcDbLine
10
-87.5974477958237
20
4.20603116178291
30
0.000000000000000
11
-87.4974477958237
21
4.17740601768299
31
0.000000000000000
  0
LINE
  5
F10598
330
F10599
100
AcDbEntity
8
Geo
100
AcDbLine
10
-87.4974477958237
20
4.17740601768299
30
0.000000000000000
11
-87.3974477958237
21
4.14147933632325
31
0.000000000000000
  0
LINE
  5
F1059A
330
F1059B
100
AcDbEntity
8
Geo
100
AcDbLine
10
-87.3974477958237
20
4.14147933632325
30
0.000000000000000
11
-87.2974477958237
21
4.09830433584619
31
0.000000000000000
  0
LINE
  5
F1059C
330
F1059D
100
AcDbEntity
8
Geo
100
AcDbLine
10
-87.2974477958237
20
4.09830433584619
30
0.000000000000000
11
-87.1974477958237
21
4.04794497131919
31
0.000000000000000
  0
LINE
  5
F1059E
330
F1059F
100
AcDbEntity
8
Geo
100
AcDbLine
10
-87.1974477958237
20
4.04794497131919
30
0.000000000000000
11
-87.0974477958237
21
3.99047583999802
31
0.000000000000000
  0
LINE
  5
F105A0
330
F105A1
100
AcDbEntity
8
Geo
100
AcDbLine
10
-87.0974477958237
20
3.99047583999802
30
0.000000000000000
11
-86.9974477958237
21
3.92598207082594
31
0.000000000000000
  0
LINE
  5
F105A2
330
F105A3
100
AcDbEntity
8
Geo
100
AcDbLine
10
-86.9974477958237
20
3.92598207082594
30
0.000000000000000
11
-86.8974477958237
21
3.85455919833240
31
0.000000000000000
  0
LINE
  5
F105A4
330
F105A5
100
AcDbEntity
8
Geo
100
AcDbLine
10
-86.8974477958237
20
3.85455919833240
30
0.000000000000000
11
-86.7974477958237
21
3.77631302111783
31
0.000000000000000
  0
LINE
  5
F105A6
330
F105A7
100
AcDbEntity
8
Geo
100
AcDbLine
10
-86.7974477958237
20
3.77631302111783
30
0.000000000000000
11
-86.6974477958237
21
3.69135944513434
31
0.000000000000000
  0
LINE
  5
F105A8
330
F105A9
100
AcDbEntity
8
Geo
100
AcDbLine
10
-86.6974477958237
20
3.69135944513434
30
0.000000000000000
11
-86.5974477958237
21
3.59982431199437
31
0.000000000000000
  0
LINE
  5
F105AA
330
F105AB
100
AcDbEntity
8
Geo
100
AcDbLine
10
-86.5974477958237
20
3.59982431199437
30
0.000000000000000
11
-86.4974477958237
21
3.50184321256172
31
0.000000000000000
  0
LINE
  5
F105AC
330
F105AD
100
AcDbEntity
8
Geo
100
AcDbLine
10
-86.4974477958237
20
3.50184321256172
30
0.000000000000000
11
-86.3974477958237
21
3.39756128610099
31
0.000000000000000
  0
LINE
  5
F105AE
330
F105AF
100
AcDbEntity
8
Geo
100
AcDbLine
10
-86.3974477958237
20
3.39756128610099
30
0.000000000000000
11
-86.2974477958237
21
3.28713300528297
31
0.000000000000000
  0
LINE
  5
F105B0
330
F105B1
100
AcDbEntity
8
Geo
100
AcDbLine
10
-86.2974477958237
20
3.28713300528297
30
0.000000000000000
11
-86.1974477958237
21
3.17072194736450
31
0.000000000000000
  0
LINE
  5
F105B2
330
F105B3
100
AcDbEntity
8
Geo
100
AcDbLine
10
-86.1974477958237
20
3.17072194736450
30
0.000000000000000
11
-86.0974477958237
21
3.04850055188172
31
0.000000000000000
  0
LINE
  5
F105B4
330
F105B5
100
AcDbEntity
8
Geo
100
AcDbLine
10
-86.0974477958237
20
3.04850055188172
30
0.000000000000000
11
-85.9974477958237
21
2.92064986521561
31
0.000000000000000
  0
LINE
  5
F105B6
330
F105B7
100
AcDbEntity
8
Geo
100
AcDbLine
10
-85.9974477958237
20
2.92064986521561
30
0.000000000000000
11
-85.8974477958237
21
2.78735927240827
31
0.000000000000000
  0
LINE
  5
F105B8
330
F105B9
100
AcDbEntity
8
Geo
100
AcDbLine
10
-85.8974477958237
20
2.78735927240827
30
0.000000000000000
11
-85.7974477958237
21
2.64882621662709
31
0.000000000000000
  0
LINE
  5
F105BA
330
F105BB
100
AcDbEntity
8
Geo
100
AcDbLine
10
-85.7974477958237
20
2.64882621662709
30
0.000000000000000
11
-85.6974477958237
21
2.50525590669249
31
0.000000000000000
  0
LINE
  5
F105BC
330
F105BD
100
AcDbEntity
8
Geo
100
AcDbLine
10
-85.6974477958237
20
2.50525590669249
30
0.000000000000000
11
-85.5974477958237
21
2.35686101310235
31
0.000000000000000
  0
LINE
  5
F105BE
330
F105BF
100
AcDbEntity
8
Geo
100
AcDbLine
10
-85.5974477958237
20
2.35686101310235
30
0.000000000000000
11
-85.4974477958237
21
2.20386135300356
31
0.000000000000000
  0
LINE
  5
F105C0
330
F105C1
100
AcDbEntity
8
Geo
100
AcDbLine
10
-85.4974477958237
20
2.20386135300356
30
0.000000000000000
11
-85.3974477958237
21
2.04648356457711
31
0.000000000000000
  0
LINE
  5
F105C2
330
F105C3
100
AcDbEntity
8
Geo
100
AcDbLine
10
-85.3974477958237
20
2.04648356457711
30
0.000000000000000
11
-85.2974477958237
21
1.88496077131937
31
0.000000000000000
  0
LINE
  5
F105C4
330
F105C5
100
AcDbEntity
8
Geo
100
AcDbLine
10
-85.2974477958237
20
1.88496077131937
30
0.000000000000000
11
-85.1974477958237
21
1.71953223671648
31
0.000000000000000
  0
LINE
  5
F105C6
330
F105C7
100
AcDbEntity
8
Geo
100
AcDbLine
10
-85.1974477958237
20
1.71953223671648
30
0.000000000000000
11
-85.0974477958237
21
1.55044300982375
31
0.000000000000000
  0
LINE
  5
F105C8
330
F105C9
100
AcDbEntity
8
Geo
100
AcDbLine
10
-85.0974477958237
20
1.55044300982375
30
0.000000000000000
11
-84.9974477958237
21
1.37794356227483
31
0.000000000000000
  0
LINE
  5
F105CA
330
F105CB
100
AcDbEntity
8
Geo
100
AcDbLine
10
-84.9974477958237
20
1.37794356227483
30
0.000000000000000
11
-84.8974477958237
21
1.20228941725843
31
0.000000000000000
  0
LINE
  5
F105CC
330
F105CD
100
AcDbEntity
8
Geo
100
AcDbLine
10
-84.8974477958237
20
1.20228941725843
30
0.000000000000000
11
-84.7974477958237
21
1.02374077101215
31
0.000000000000000
  0
LINE
  5
F105CE
330
F105CF
100
AcDbEntity
8
Geo
100
AcDbLine
10
-84.7974477958237
20
1.02374077101215
30
0.000000000000000
11
-84.6974477958237
21
0.842562107394196
31
0.000000000000000
  0
LINE
  5
F105D0
330
F105D1
100
AcDbEntity
8
Geo
100
AcDbLine
10
-84.6974477958237
20
0.842562107394196
30
0.000000000000000
11
-84.5974477958237
21
0.659021806103825
31
0.000000000000000
  0
LINE
  5
F105D2
330
F105D3
100
AcDbEntity
8
Geo
100
AcDbLine
10
-84.5974477958237
20
0.659021806103825
30
0.000000000000000
11
-84.4974477958237
21
0.473391745130825
31
0.000000000000000
  0
LINE
  5
F105D4
330
F105D5
100
AcDbEntity
8
Geo
100
AcDbLine
10
-84.4974477958237
20
0.473391745130825
30
0.000000000000000
11
-84.3974477958237
21
0.285946898023069
31
0.000000000000000
  0
LINE
  5
F105D6
330
F105D7
100
AcDbEntity
8
Geo
100
AcDbLine
10
-84.3974477958237
20
0.285946898023069
30
0.000000000000000
11
-84.2974477958237
21
0.0969649265685721
31
0.000000000000000
  0
LINE
  5
F105D8
330
F105D9
100
AcDbEntity
8
Geo
100
AcDbLine
10
-84.2974477958237
20
0.0969649265685721
30
0.000000000000000
11
-84.1974477958237
21
-0.0932742305045181
31
0.000000000000000
  0
LINE
  5
F105DA
330
F105DB
100
AcDbEntity
8
Geo
100
AcDbLine
10
-84.1974477958237
20
-0.0932742305045181
30
0.000000000000000
11
-84.0974477958237
21
-0.284488772200769
31
0.000000000000000
  0
LINE
  5
F105DC
330
F105DD
100
AcDbEntity
8
Geo
100
AcDbLine
10
-84.0974477958237
20
-0.284488772200769
30
0.000000000000000
11
-83.9974477958237
21
-0.476395452688879
31
0.000000000000000
  0
LINE
  5
F105DE
330
F105DF
100
AcDbEntity
8
Geo
100
AcDbLine
10
-83.9974477958237
20
-0.476395452688879
30
0.000000000000000
11
-83.8974477958237
21
-0.668710000873330
31
0.000000000000000
  0
LINE
  5
F105E0
330
F105E1
100
AcDbEntity
8
Geo
100
AcDbLine
10
-83.8974477958237
20
-0.668710000873330
30
0.000000000000000
11
-83.7974477958237
21
-0.861147541484762
31
0.000000000000000
  0
LINE
  5
F105E2
330
F105E3
100
AcDbEntity
8
Geo
100
AcDbLine
10
-83.7974477958237
20
-0.861147541484762
30
0.000000000000000
11
-83.6974477958237
21
-1.05342301706529
31
0.000000000000000
  0
LINE
  5
F105E4
330
F105E5
100
AcDbEntity
8
Geo
100
AcDbLine
10
-83.6974477958237
20
-1.05342301706529
30
0.000000000000000
11
-83.5974477958237
21
-1.24525161022376
31
0.000000000000000
  0
LINE
  5
F105E6
330
F105E7
100
AcDbEntity
8
Geo
100
AcDbLine
10
-83.5974477958237
20
-1.24525161022376
30
0.000000000000000
11
-83.4974477958237
21
-1.43634916553530
31
0.000000000000000
  0
LINE
  5
F105E8
330
F105E9
100
AcDbEntity
8
Geo
100
AcDbLine
10
-83.4974477958237
20
-1.43634916553530
30
0.000000000000000
11
-83.3974477958237
21
-1.62643261046037
31
0.000000000000000
  0
LINE
  5
F105EA
330
F105EB
100
AcDbEntity
8
Geo
100
AcDbLine
10
-83.3974477958237
20
-1.62643261046037
30
0.000000000000000
11
-83.2974477958237
21
-1.81522037465972
31
0.000000000000000
  0
LINE
  5
F105EC
330
F105ED
100
AcDbEntity
8
Geo
100
AcDbLine
10
-83.2974477958237
20
-1.81522037465972
30
0.000000000000000
11
-83.1974477958237
21
-2.00243280708415
31
0.000000000000000
  0
LINE
  5
F105EE
330
F105EF
100
AcDbEntity
8
Geo
100
AcDbLine
10
-83.1974477958237
20
-2.00243280708415
30
0.000000000000000
11
-83.0974477958237
21
-2.18779259022118
31
0.000000000000000
  0
LINE
  5
F105F0
330
F105F1
100
AcDbEntity
8
Geo
100
AcDbLine
10
-83.0974477958237
20
-2.18779259022118
30
0.000000000000000
11
-82.9974477958237
21
-2.37102515088511
31
0.000000000000000
  0
LINE
  5
F105F2
330
F105F3
100
AcDbEntity
8
Geo
100
AcDbLine
10
-82.9974477958237
20
-2.37102515088511
30
0.000000000000000
11
-82.8974477958237
21
-2.55185906694191
31
0.000000000000000
  0
LINE
  5
F105F4
330
F105F5
100
AcDbEntity
8
Geo
100
AcDbLine
10
-82.8974477958237
20
-2.55185906694191
30
0.000000000000000
11
-82.7974477958237
21
-2.73002646936641
31
0.000000000000000
  0
LINE
  5
F105F6
330
F105F7
100
AcDbEntity
8
Geo
100
AcDbLine
10
-82.7974477958237
20
-2.73002646936641
30
0.000000000000000
11
-82.6974477958237
21
-2.90526343903634
31
0.000000000000000
  0
LINE
  5
F105F8
330
F105F9
100
AcDbEntity
8
Geo
100
AcDbLine
10
-82.6974477958237
20
-2.90526343903634
30
0.000000000000000
11
-82.5974477958237
21
-3.07731039767534
31
0.000000000000000
  0
LINE
  5
F105FA
330
F105FB
100
AcDbEntity
8
Geo
100
AcDbLine
10
-82.5974477958237
20
-3.07731039767534
30
0.000000000000000
11
-82.4974477958237
21
-3.24591249236589
31
0.000000000000000
  0
LINE
  5
F105FC
330
F105FD
100
AcDbEntity
8
Geo
100
AcDbLine
10
-82.4974477958237
20
-3.24591249236589
30
0.000000000000000
11
-82.3974477958237
21
-3.41081997306259
31
0.000000000000000
  0
LINE
  5
F105FE
330
F105FF
100
AcDbEntity
8
Geo
100
AcDbLine
10
-82.3974477958237
20
-3.41081997306259
30
0.000000000000000
11
-82.2974477958237
21
-3.57178856254655
31
0.000000000000000
  0
LINE
  5
F10600
330
F10601
100
AcDbEntity
8
Geo
100
AcDbLine
10
-82.2974477958237
20
-3.57178856254655
30
0.000000000000000
11
-82.1974477958237
21
-3.72857981827287
31
0.000000000000000
  0
LINE
  5
F10602
330
F10603
100
AcDbEntity
8
Geo
100
AcDbLine
10
-82.1974477958237
20
-3.72857981827287
30
0.000000000000000
11
-82.0974477958237
21
-3.88096148557529
31
0.000000000000000
  0
LINE
  5
F10604
330
F10605
100
AcDbEntity
8
Geo
100
AcDbLine
10
-82.0974477958237
20
-3.88096148557529
30
0.000000000000000
11
-81.9974477958237
21
-4.02870784170464
31
0.000000000000000
  0
LINE
  5
F10606
330
F10607
100
AcDbEntity
8
Geo
100
AcDbLine
10
-81.9974477958237
20
-4.02870784170464
30
0.000000000000000
11
-81.8974477958237
21
-4.17160003019168
31
0.000000000000000
  0
LINE
  5
F10608
330
F10609
100
AcDbEntity
8
Geo
100
AcDbLine
10
-81.8974477958237
20
-4.17160003019168
30
0.000000000000000
11
-81.7974477958237
21
-4.30942638503888
31
0.000000000000000
  0
LINE
  5
F1060A
330
F1060B
100
AcDbEntity
8
Geo
100
AcDbLine
10
-81.7974477958237
20
-4.30942638503888
30
0.000000000000000
11
-81.6974477958237
21
-4.44198274426089
31
0.000000000000000
  0
LINE
  5
F1060C
330
F1060D
100
AcDbEntity
8
Geo
100
AcDbLine
10
-81.6974477958237
20
-4.44198274426089
30
0.000000000000000
11
-81.5974477958237
21
-4.56907275230951
31
0.000000000000000
  0
LINE
  5
F1060E
330
F1060F
100
AcDbEntity
8
Geo
100
AcDbLine
10
-81.5974477958237
20
-4.56907275230951
30
0.000000000000000
11
-81.4974477958237
21
-4.69050815093481
31
0.000000000000000
  0
LINE
  5
F10610
330
F10611
100
AcDbEntity
8
Geo
100
AcDbLine
10
-81.4974477958237
20
-4.69050815093481
30
0.000000000000000
11
-81.3974477958237
21
-4.80610905805184
31
0.000000000000000
  0
LINE
  5
F10612
330
F10613
100
AcDbEntity
8
Geo
100
AcDbLine
10
-81.3974477958237
20
-4.80610905805184
30
0.000000000000000
11
-81.2974477958237
21
-4.91570423419971
31
0.000000000000000
  0
LINE
  5
F10614
330
F10615
100
AcDbEntity
8
Geo
100
AcDbLine
10
-81.2974477958237
20
-4.91570423419971
30
0.000000000000000
11
-81.1974477958237
21
-5.01913133619835
31
0.000000000000000
  0
LINE
  5
F10616
330
F10617
100
AcDbEntity
8
Geo
100
AcDbLine
10
-81.1974477958237
20
-5.01913133619835
30
0.000000000000000
11
-81.0974477958237
21
-5.11623715762723
31
0.000000000000000
  0
LINE
  5
F10618
330
F10619
100
AcDbEntity
8
Geo
100
AcDbLine
10
-81.0974477958237
20
-5.11623715762723
30
0.000000000000000
11
-80.9974477958237
21
-5.20687785576984
31
0.000000000000000
  0
LINE
  5
F1061A
330
F1061B
100
AcDbEntity
8
Geo
100
AcDbLine
10
-80.9974477958237
20
-5.20687785576984
30
0.000000000000000
11
-80.8974477958237
21
-5.29091916468769
31
0.000000000000000
  0
LINE
  5
F1061C
330
F1061D
100
AcDbEntity
8
Geo
100
AcDbLine
10
-80.8974477958237
20
-5.29091916468769
30
0.000000000000000
11
-80.7974477958237
21
-5.36823659410824
31
0.000000000000000
  0
LINE
  5
F1061E
330
F1061F
100
AcDbEntity
8
Geo
100
AcDbLine
10
-80.7974477958237
20
-5.36823659410824
30
0.000000000000000
11
-80.6974477958237
21
-5.43871561383218
31
0.000000000000000
  0
LINE
  5
F10620
330
F10621
100
AcDbEntity
8
Geo
100
AcDbLine
10
-80.6974477958237
20
-5.43871561383218
30
0.000000000000000
11
-80.5974477958237
21
-5.50225182338687
31
0.000000000000000
  0
LINE
  5
F10622
330
F10623
100
AcDbEntity
8
Geo
100
AcDbLine
10
-80.5974477958237
20
-5.50225182338687
30
0.000000000000000
11
-80.4974477958237
21
-5.55875110667458
31
0.000000000000000
  0
LINE
  5
F10624
330
F10625
100
AcDbEntity
8
Geo
100
AcDbLine
10
-80.4974477958237
20
-5.55875110667458
30
0.000000000000000
11
-80.3974477958237
21
-5.60812977138654
31
0.000000000000000
  0
LINE
  5
F10626
330
F10627
100
AcDbEntity
8
Geo
100
AcDbLine
10
-80.3974477958237
20
-5.60812977138654
30
0.000000000000000
11
-80.2974477958237
21
-5.65031467297627
31
0.000000000000000
  0
LINE
  5
F10628
330
F10629
100
AcDbEntity
8
Geo
100
AcDbLine
10
-80.2974477958237
20
-5.65031467297627
30
0.000000000000000
11
-80.1974477958237
21
-5.68524332300847
31
0.000000000000000
  0
LINE
  5
F1062A
330
F1062B
100
AcDbEntity
8
Geo
100
AcDbLine
10
-80.1974477958237
20
-5.68524332300847
30
0.000000000000000
11
-80.0974477958237
21
-5.71286398172302
31
0.000000000000000
  0
LINE
  5
F1062C
330
F1062D
100
AcDbEntity
8
Geo
100
AcDbLine
10
-80.0974477958237
20
-5.71286398172302
30
0.000000000000000
11
-79.9974477958237
21
-5.73313573467707
31
0.000000000000000
  0
LINE
  5
F1062E
330
F1062F
100
AcDbEntity
8
Geo
100
AcDbLine
10
-79.9974477958237
20
-5.73313573467707
30
0.000000000000000
11
-79.8974477958237
21
-5.74602855335154
31
0.000000000000000
  0
LINE
  5
F10630
330
F10631
100
AcDbEntity
8
Geo
100
AcDbLine
10
-79.8974477958237
20
-5.74602855335154
30
0.000000000000000
11
-79.7974477958237
21
-5.75152333963227
31
0.000000000000000
  0
LINE
  5
F10632
330
F10633
100
AcDbEntity
8
Geo
100
AcDbLine
10
-88.7974477958237
20
4.24748000854841
30
0.000000000000000
11
-88.6974477958237
21
4.24717539230573
31
0.000000000000000
  0
LINE
  5
F10634
330
F10635
100
AcDbEntity
8
Geo
100
AcDbLine
10
-88.6974477958237
20
4.24717539230573
30
0.000000000000000
11
-88.5974477958237
21
4.23946588952687
31
0.000000000000000
  0
LINE
  5
F10636
330
F10637
100
AcDbEntity
8
Geo
100
AcDbLine
10
-88.5974477958237
20
4.23946588952687
30
0.000000000000000
11
-88.4974477958237
21
4.22436292028743
31
0.000000000000000
  0
LINE
  5
F10638
330
F10639
100
AcDbEntity
8
Geo
100
AcDbLine
10
-88.4974477958237
20
4.22436292028743
30
0.000000000000000
11
-88.3974477958237
21
4.20188885659446
31
0.000000000000000
  0
LINE
  5
F1063A
330
F1063B
100
AcDbEntity
8
Geo
100
AcDbLine
10
-88.3974477958237
20
4.20188885659446
30
0.000000000000000
11
-88.2974477958237
21
4.17207698924688
31
0.000000000000000
  0
LINE
  5
F1063C
330
F1063D
100
AcDbEntity
8
Geo
100
AcDbLine
10
-88.2974477958237
20
4.17207698924688
30
0.000000000000000
11
-88.1974477958237
21
4.13497147852179
31
0.000000000000000
  0
LINE
  5
F1063E
330
F1063F
100
AcDbEntity
8
Geo
100
AcDbLine
10
-88.1974477958237
20
4.13497147852179
30
0.000000000000000
11
-88.0974477958237
21
4.09062728875997
31
0.000000000000000
  0
LINE
  5
F10640
330
F10641
100
AcDbEntity
8
Geo
100
AcDbLine
10
-88.0974477958237
20
4.09062728875997
30
0.000000000000000
11
-87.9974477958237
21
4.03911010694725
31
0.000000000000000
  0
LINE
  5
F10642
330
F10643
100
AcDbEntity
8
Geo
100
AcDbLine
10
-87.9974477958237
20
4.03911010694725
30
0.000000000000000
11
-87.8974477958237
21
3.98049624541250
31
0.000000000000000
  0
LINE
  5
F10644
330
F10645
100
AcDbEntity
8
Geo
100
AcDbLine
10
-87.8974477958237
20
3.98049624541250
30
0.000000000000000
11
-87.7974477958237
21
3.91487252878626
31
0.000000000000000
  0
LINE
  5
F10646
330
F10647
100
AcDbEntity
8
Geo
100
AcDbLine
10
-87.7974477958237
20
3.91487252878626
30
0.000000000000000
11
-87.6974477958237
21
3.84233616538753
31
0.000000000000000
  0
LINE
  5
F10648
330
F10649
100
AcDbEntity
8
Geo
100
AcDbLine
10
-87.6974477958237
20
3.84233616538753
30
0.000000000000000
11
-87.5974477958237
21
3.76299460322926
31
0.000000000000000
  0
LINE
  5
F1064A
330
F1064B
100
AcDbEntity
8
Geo
100
AcDbLine
10
-87.5974477958237
20
3.76299460322926
30
0.000000000000000
11
-87.4974477958237
21
3.67696537085572
31
0.000000000000000
  0
LINE
  5
F1064C
330
F1064D
100
AcDbEntity
8
Geo
100
AcDbLine
10
-87.4974477958237
20
3.67696537085572
30
0.000000000000000
11
-87.3974477958237
21
3.58437590324766
31
0.000000000000000
  0
LINE
  5
F1064E
330
F1064F
100
AcDbEntity
8
Geo
100
AcDbLine
10
-87.3974477958237
20
3.58437590324766
30
0.000000000000000
11
-87.2974477958237
21
3.48536335305305
31
0.000000000000000
  0
LINE
  5
F10650
330
F10651
100
AcDbEntity
8
Geo
100
AcDbLine
10
-87.2974477958237
20
3.48536335305305
30
0.000000000000000
11
-87.1974477958237
21
3.38007438742303
31
0.000000000000000
  0
LINE
  5
F10652
330
F10653
100
AcDbEntity
8
Geo
100
AcDbLine
10
-87.1974477958237
20
3.38007438742303
30
0.000000000000000
11
-87.0974477958237
21
3.26866497075410
31
0.000000000000000
  0
LINE
  5
F10654
330
F10655
100
AcDbEntity
8
Geo
100
AcDbLine
10
-87.0974477958237
20
3.26866497075410
30
0.000000000000000
11
-86.9974477958237
21
3.15130013365826
31
0.000000000000000
  0
LINE
  5
F10656
330
F10657
100
AcDbEntity
8
Geo
100
AcDbLine
10
-86.9974477958237
20
3.15130013365826
30
0.000000000000000
11
-86.8974477958237
21
3.02815372850340
31
0.000000000000000
  0
LINE
  5
F10658
330
F10659
100
AcDbEntity
8
Geo
100
AcDbLine
10
-86.8974477958237
20
3.02815372850340
30
0.000000000000000
11
-86.7974477958237
21
2.89940817188602
31
0.000000000000000
  0
LINE
  5
F1065A
330
F1065B
100
AcDbEntity
8
Geo
100
AcDbLine
10
-86.7974477958237
20
2.89940817188602
30
0.000000000000000
11
-86.6974477958237
21
2.76525417441782
31
0.000000000000000
  0
LINE
  5
F1065C
330
F1065D
100
AcDbEntity
8
Geo
100
AcDbLine
10
-86.6974477958237
20
2.76525417441782
30
0.000000000000000
11
-86.5974477958237
21
2.62589045822631
31
0.000000000000000
  0
LINE
  5
F1065E
330
F1065F
100
AcDbEntity
8
Geo
100
AcDbLine
10
-86.5974477958237
20
2.62589045822631
30
0.000000000000000
11
-86.4974477958237
21
2.48152346258798
31
0.000000000000000
  0
LINE
  5
F10660
330
F10661
100
AcDbEntity
8
Geo
100
AcDbLine
10
-86.4974477958237
20
2.48152346258798
30
0.000000000000000
11
-86.3974477958237
21
2.33236703813014
31
0.000000000000000
  0
LINE
  5
F10662
330
F10663
100
AcDbEntity
8
Geo
100
AcDbLine
10
-86.3974477958237
20
2.33236703813014
30
0.000000000000000
11
-86.2974477958237
21
2.17864213005428
31
0.000000000000000
  0
LINE
  5
F10664
330
F10665
100
AcDbEntity
8
Geo
100
AcDbLine
10
-86.2974477958237
20
2.17864213005428
30
0.000000000000000
11
-86.1974477958237
21
2.02057645085020
31
0.000000000000000
  0
LINE
  5
F10666
330
F10667
100
AcDbEntity
8
Geo
100
AcDbLine
10
-86.1974477958237
20
2.02057645085020
30
0.000000000000000
11
-86.0974477958237
21
1.85840414298590
31
0.000000000000000
  0
LINE
  5
F10668
330
F10669
100
AcDbEntity
8
Geo
100
AcDbLine
10
-86.0974477958237
20
1.85840414298590
30
0.000000000000000
11
-85.9974477958237
21
1.69236543207260
31
0.000000000000000
  0
LINE
  5
F1066A
330
F1066B
100
AcDbEntity
8
Geo
100
AcDbLine
10
-85.9974477958237
20
1.69236543207260
30
0.000000000000000
11
-85.8974477958237
21
1.52270627101891
31
0.000000000000000
  0
LINE
  5
F1066C
330
F1066D
100
AcDbEntity
8
Geo
100
AcDbLine
10
-85.8974477958237
20
1.52270627101891
30
0.000000000000000
11
-85.7974477958237
21
1.34967797570117
31
0.000000000000000
  0
LINE
  5
F1066E
330
F1066F
100
AcDbEntity
8
Geo
100
AcDbLine
10
-85.7974477958237
20
1.34967797570117
30
0.000000000000000
11
-85.6974477958237
21
1.17353685268952
31
0.000000000000000
  0
LINE
  5
F10670
330
F10671
100
AcDbEntity
8
Geo
100
AcDbLine
10
-85.6974477958237
20
1.17353685268952
30
0.000000000000000
11
-85.5974477958237
21
0.994543819581388
31
0.000000000000000
  0
LINE
  5
F10672
330
F10673
100
AcDbEntity
8
Geo
100
AcDbLine
10
-85.5974477958237
20
0.994543819581388
30
0.000000000000000
11
-85.4974477958237
21
0.812964018504627
31
0.000000000000000
  0
LINE
  5
F10674
330
F10675
100
AcDbEntity
8
Geo
100
AcDbLine
10
-85.4974477958237
20
0.812964018504627
30
0.000000000000000
11
-85.3974477958237
21
0.629066423362827
31
0.000000000000000
  0
LINE
  5
F10676
330
F10677
100
AcDbEntity
8
Geo
100
AcDbLine
10
-85.3974477958237
20
0.629066423362827
30
0.000000000000000
11
-85.2974477958237
21
0.443123441404662
31
0.000000000000000
  0
LINE
  5
F10678
330
F10679
100
AcDbEntity
8
Geo
100
AcDbLine
10
-85.2974477958237
20
0.443123441404662
30
0.000000000000000
11
-85.1974477958237
21
0.255410509707419
31
0.000000000000000
  0
LINE
  5
F1067A
330
F1067B
100
AcDbEntity
8
Geo
100
AcDbLine
10
-85.1974477958237
20
0.255410509707419
30
0.000000000000000
11
-85.0974477958237
21
0.0662056871724390
31
0.000000000000000
  0
LINE
  5
F1067C
330
F1067D
100
AcDbEntity
8
Geo
100
AcDbLine
10
-85.0974477958237
20
0.0662056871724390
30
0.000000000000000
11
-84.9974477958237
21
-0.124210757363139
31
0.000000000000000
  0
LINE
  5
F1067E
330
F1067F
100
AcDbEntity
8
Geo
100
AcDbLine
10
-84.9974477958237
20
-0.124210757363139
30
0.000000000000000
11
-84.8974477958237
21
-0.315556760288215
31
0.000000000000000
  0
LINE
  5
F10680
330
F10681
100
AcDbEntity
8
Geo
100
AcDbLine
10
-84.8974477958237
20
-0.315556760288215
30
0.000000000000000
11
-84.7974477958237
21
-0.507548881038153
31
0.000000000000000
  0
LINE
  5
F10682
330
F10683
100
AcDbEntity
8
Geo
100
AcDbLine
10
-84.7974477958237
20
-0.507548881038153
30
0.000000000000000
11
-84.6974477958237
21
-0.699902721954900
31
0.000000000000000
  0
LINE
  5
F10684
330
F10685
100
AcDbEntity
8
Geo
100
AcDbLine
10
-84.6974477958237
20
-0.699902721954900
30
0.000000000000000
11
-84.5974477958237
21
-0.892333349564814
31
0.000000000000000
  0
LINE
  5
F10686
330
F10687
100
AcDbEntity
8
Geo
100
AcDbLine
10
-84.5974477958237
20
-0.892333349564814
30
0.000000000000000
11
-84.4974477958237
21
-1.08455571665025
31
0.000000000000000
  0
LINE
  5
F10688
330
F10689
100
AcDbEntity
8
Geo
100
AcDbLine
10
-84.4974477958237
20
-1.08455571665025
30
0.000000000000000
11
-84.3974477958237
21
-1.27628508448957
31
0.000000000000000
  0
LINE
  5
F1068A
330
F1068B
100
AcDbEntity
8
Geo
100
AcDbLine
10
-84.3974477958237
20
-1.27628508448957
30
0.000000000000000
11
-84.2974477958237
21
-1.46723744464024
31
0.000000000000000
  0
LINE
  5
F1068C
330
F1068D
100
AcDbEntity
8
Geo
100
AcDbLine
10
-84.2974477958237
20
-1.46723744464024
30
0.000000000000000
11
-84.1974477958237
21
-1.65712993964010
31
0.000000000000000
  0
LINE
  5
F1068E
330
F1068F
100
AcDbEntity
8
Geo
100
AcDbLine
10
-84.1974477958237
20
-1.65712993964010
30
0.000000000000000
11
-84.0974477958237
21
-1.84568128200378
31
0.000000000000000
  0
LINE
  5
F10690
330
F10691
100
AcDbEntity
8
Geo
100
AcDbLine
10
-84.0974477958237
20
-1.84568128200378
30
0.000000000000000
11
-83.9974477958237
21
-2.03261217089338
31
0.000000000000000
  0
LINE
  5
F10692
330
F10693
100
AcDbEntity
8
Geo
100
AcDbLine
10
-83.9974477958237
20
-2.03261217089338
30
0.000000000000000
11
-83.8974477958237
21
-2.21764570584648
31
0.000000000000000
  0
LINE
  5
F10694
330
F10695
100
AcDbEntity
8
Geo
100
AcDbLine
10
-83.8974477958237
20
-2.21764570584648
30
0.000000000000000
11
-83.7974477958237
21
-2.40050779694836
31
0.000000000000000
  0
LINE
  5
F10696
330
F10697
100
AcDbEntity
8
Geo
100
AcDbLine
10
-83.7974477958237
20
-2.40050779694836
30
0.000000000000000
11
-83.6974477958237
21
-2.58092757084100
31
0.000000000000000
  0
LINE
  5
F10698
330
F10699
100
AcDbEntity
8
Geo
100
AcDbLine
10
-83.6974477958237
20
-2.58092757084100
30
0.000000000000000
11
-83.5974477958237
21
-2.75863777196747
31
0.000000000000000
  0
LINE
  5
F1069A
330
F1069B
100
AcDbEntity
8
Geo
100
AcDbLine
10
-83.5974477958237
20
-2.75863777196747
30
0.000000000000000
11
-83.4974477958237
21
-2.93337515845712
31
0.000000000000000
  0
LINE
  5
F1069C
330
F1069D
100
AcDbEntity
8
Geo
100
AcDbLine
10
-83.4974477958237
20
-2.93337515845712
30
0.000000000000000
11
-83.3974477958237
21
-3.10488089206545
31
0.000000000000000
  0
LINE
  5
F1069E
330
F1069F
100
AcDbEntity
8
Geo
100
AcDbLine
10
-83.3974477958237
20
-3.10488089206545
30
0.000000000000000
11
-83.2974477958237
21
-3.27290092159082
31
0.000000000000000
  0
LINE
  5
F106A0
330
F106A1
100
AcDbEntity
8
Geo
100
AcDbLine
10
-83.2974477958237
20
-3.27290092159082
30
0.000000000000000
11
-83.1974477958237
21
-3.43718635920015
31
0.000000000000000
  0
LINE
  5
F106A2
330
F106A3
100
AcDbEntity
8
Geo
100
AcDbLine
10
-83.1974477958237
20
-3.43718635920015
30
0.000000000000000
11
-83.0974477958237
21
-3.59749384910609
31
0.000000000000000
  0
LINE
  5
F106A4
330
F106A5
100
AcDbEntity
8
Geo
100
AcDbLine
10
-83.0974477958237
20
-3.59749384910609
30
0.000000000000000
11
-82.9974477958237
21
-3.75358592804961
31
0.000000000000000
  0
LINE
  5
F106A6
330
F106A7
100
AcDbEntity
8
Geo
100
AcDbLine
10
-82.9974477958237
20
-3.75358592804961
30
0.000000000000000
11
-82.8974477958237
21
-3.90523137705403
31
0.000000000000000
  0
LINE
  5
F106A8
330
F106A9
100
AcDbEntity
8
Geo
100
AcDbLine
10
-82.8974477958237
20
-3.90523137705403
30
0.000000000000000
11
-82.7974477958237
21
-4.05220556392933
31
0.000000000000000
  0
LINE
  5
F106AA
330
F106AB
100
AcDbEntity
8
Geo
100
AcDbLine
10
-82.7974477958237
20
-4.05220556392933
30
0.000000000000000
11
-82.6974477958237
21
-4.19429077601948
31
0.000000000000000
  0
LINE
  5
F106AC
330
F106AD
100
AcDbEntity
8
Geo
100
AcDbLine
10
-82.6974477958237
20
-4.19429077601948
30
0.000000000000000
11
-82.5974477958237
21
-4.33127654269994
31
0.000000000000000
  0
LINE
  5
F106AE
330
F106AF
100
AcDbEntity
8
Geo
100
AcDbLine
10
-82.5974477958237
20
-4.33127654269994
30
0.000000000000000
11
-82.4974477958237
21
-4.46295994714745
31
0.000000000000000
  0
LINE
  5
F106B0
330
F106B1
100
AcDbEntity
8
Geo
100
AcDbLine
10
-82.4974477958237
20
-4.46295994714745
30
0.000000000000000
11
-82.3974477958237
21
-4.58914592692048
31
0.000000000000000
  0
LINE
  5
F106B2
330
F106B3
100
AcDbEntity
8
Geo
100
AcDbLine
10
-82.3974477958237
20
-4.58914592692048
30
0.000000000000000
11
-82.2974477958237
21
-4.70964756290491
31
0.000000000000000
  0
LINE
  5
F106B4
330
F106B5
100
AcDbEntity
8
Geo
100
AcDbLine
10
-82.2974477958237
20
-4.70964756290491
30
0.000000000000000
11
-82.1974477958237
21
-4.82428635619708
31
0.000000000000000
  0
LINE
  5
F106B6
330
F106B7
100
AcDbEntity
8
Geo
100
AcDbLine
10
-82.1974477958237
20
-4.82428635619708
30
0.000000000000000
11
-82.0974477958237
21
-4.93289249251394
31
0.000000000000000
  0
LINE
  5
F106B8
330
F106B9
100
AcDbEntity
8
Geo
100
AcDbLine
10
-82.0974477958237
20
-4.93289249251394
30
0.000000000000000
11
-81.9974477958237
21
-5.03530509373874
31
0.000000000000000
  0
LINE
  5
F106BA
330
F106BB
100
AcDbEntity
8
Geo
100
AcDbLine
10
-81.9974477958237
20
-5.03530509373874
30
0.000000000000000
11
-81.8974477958237
21
-5.13137245622952
31
0.000000000000000
  0
LINE
  5
F106BC
330
F106BD
100
AcDbEntity
8
Geo
100
AcDbLine
10
-81.8974477958237
20
-5.13137245622952
30
0.000000000000000
11
-81.7974477958237
21
-5.22095227553753
31
0.000000000000000
  0
LINE
  5
F106BE
330
F106BF
100
AcDbEntity
8
Geo
100
AcDbLine
10
-81.7974477958237
20
-5.22095227553753
30
0.000000000000000
11
-81.6974477958237
21
-5.30391185720259
31
0.000000000000000
  0
LINE
  5
F106C0
330
F106C1
100
AcDbEntity
8
Geo
100
AcDbLine
10
-81.6974477958237
20
-5.30391185720259
30
0.000000000000000
11
-81.5974477958237
21
-5.38012831331323
31
0.000000000000000
  0
LINE
  5
F106C2
330
F106C3
100
AcDbEntity
8
Geo
100
AcDbLine
10
-81.5974477958237
20
-5.38012831331323
30
0.000000000000000
11
-81.4974477958237
21
-5.44948874454036
31
0.000000000000000
  0
LINE
  5
F106C4
330
F106C5
100
AcDbEntity
8
Geo
100
AcDbLine
10
-81.4974477958237
20
-5.44948874454036
30
0.000000000000000
11
-81.3974477958237
21
-5.51189040737489
31
0.000000000000000
  0
LINE
  5
F106C6
330
F106C7
100
AcDbEntity
8
Geo
100
AcDbLine
10
-81.3974477958237
20
-5.51189040737489
30
0.000000000000000
11
-81.2974477958237
21
-5.56724086632155
31
0.000000000000000
  0
LINE
  5
F106C8
330
F106C9
100
AcDbEntity
8
Geo
100
AcDbLine
10
-81.2974477958237
20
-5.56724086632155
30
0.000000000000000
11
-81.1974477958237
21
-5.61545813082346
31
0.000000000000000
  0
LINE
  5
F106CA
330
F106CB
100
AcDbEntity
8
Geo
100
AcDbLine
10
-81.1974477958237
20
-5.61545813082346
30
0.000000000000000
11
-81.0974477958237
21
-5.65647077671462
31
0.000000000000000
  0
LINE
  5
F106CC
330
F106CD
100
AcDbEntity
8
Geo
100
AcDbLine
10
-81.0974477958237
20
-5.65647077671462
30
0.000000000000000
11
-80.9974477958237
21
-5.69021805202045
31
0.000000000000000
  0
LINE
  5
F106CE
330
F106CF
100
AcDbEntity
8
Geo
100
AcDbLine
10
-80.9974477958237
20
-5.69021805202045
30
0.000000000000000
11
-80.8974477958237
21
-5.71664996694956
31
0.000000000000000
  0
LINE
  5
F106D0
330
F106D1
100
AcDbEntity
8
Geo
100
AcDbLine
10
-80.8974477958237
20
-5.71664996694956
30
0.000000000000000
11
-80.7974477958237
21
-5.73572736794359
31
0.000000000000000
  0
LINE
  5
F106D2
330
F106D3
100
AcDbEntity
8
Geo
100
AcDbLine
10
-80.7974477958237
20
-5.73572736794359
30
0.000000000000000
11
-80.6974477958237
21
-5.74742199567532
31
0.000000000000000
  0
LINE
  5
F106D4
330
F106D5
100
AcDbEntity
8
Geo
100
AcDbLine
10
-80.6974477958237
20
-5.74742199567532
30
0.000000000000000
11
-80.5974477958237
21
-5.75171652690916
31
0.000000000000000
  0
LINE
  5
F106D6
330
F106D7
100
AcDbEntity
8
Geo
100
AcDbLine
10
-92.0974477958237
20
4.24582714303966
30
0.000000000000000
11
-91.9974477958237
21
4.24812684037240
31
0.000000000000000
  0
LINE
  5
F106D8
330
F106D9
100
AcDbEntity
8
Geo
100
AcDbLine
10
-91.9974477958237
20
4.24812684037240
30
0.000000000000000
11
-91.8974477958237
21
4.24302024179026
31
0.000000000000000
  0
LINE
  5
F106DA
330
F106DB
100
AcDbEntity
8
Geo
100
AcDbLine
10
-91.8974477958237
20
4.24302024179026
30
0.000000000000000
11
-91.7974477958237
21
4.23051491169054
31
0.000000000000000
  0
LINE
  5
F106DC
330
F106DD
100
AcDbEntity
8
Geo
100
AcDbLine
10
-91.7974477958237
20
4.23051491169054
30
0.000000000000000
11
-91.6974477958236
21
4.21062937420111
31
0.000000000000000
  0
LINE
  5
F106DE
330
F106DF
100
AcDbEntity
8
Geo
100
AcDbLine
10
-91.6974477958236
20
4.21062937420111
30
0.000000000000000
11
-91.5974477958237
21
4.18339308574063
31
0.000000000000000
  0
LINE
  5
F106E0
330
F106E1
100
AcDbEntity
8
Geo
100
AcDbLine
10
-91.5974477958237
20
4.18339308574063
30
0.000000000000000
11
-91.4974477958237
21
4.14884639138485
31
0.000000000000000
  0
LINE
  5
F106E2
330
F106E3
100
AcDbEntity
8
Geo
100
AcDbLine
10
-91.4974477958237
20
4.14884639138485
30
0.000000000000000
11
-91.3974477958237
21
4.10704046510345
31
0.000000000000000
  0
LINE
  5
F106E4
330
F106E5
100
AcDbEntity
8
Geo
100
AcDbLine
10
-91.3974477958237
20
4.10704046510345
30
0.000000000000000
11
-91.2974477958237
21
4.05803723395616
31
0.000000000000000
  0
LINE
  5
F106E6
330
F106E7
100
AcDbEntity
8
Geo
100
AcDbLine
10
-91.2974477958237
20
4.05803723395616
30
0.000000000000000
11
-91.1974477958236
21
4.00190928636025
31
0.000000000000000
  0
LINE
  5
F106E8
330
F106E9
100
AcDbEntity
8
Geo
100
AcDbLine
10
-91.1974477958236
20
4.00190928636025
30
0.000000000000000
11
-91.0974477958237
21
3.93873976456545
31
0.000000000000000
  0
LINE
  5
F106EA
330
F106EB
100
AcDbEntity
8
Geo
100
AcDbLine
10
-91.0974477958237
20
3.93873976456545
30
0.000000000000000
11
-90.9974477958237
21
3.86862224149543
31
0.000000000000000
  0
LINE
  5
F106EC
330
F106ED
100
AcDbEntity
8
Geo
100
AcDbLine
10
-90.9974477958237
20
3.86862224149543
30
0.000000000000000
11
-90.8974477958237
21
3.79166058213834
31
0.000000000000000
  0
LINE
  5
F106EE
330
F106EF
100
AcDbEntity
8
Geo
100
AcDbLine
10
-90.8974477958237
20
3.79166058213834
30
0.000000000000000
11
-90.7974477958237
21
3.70796878969181
31
0.000000000000000
  0
LINE
  5
F106F0
330
F106F1
100
AcDbEntity
8
Geo
100
AcDbLine
10
-90.7974477958237
20
3.70796878969181
30
0.000000000000000
11
-90.6974477958237
21
3.61767083669010
31
0.000000000000000
  0
LINE
  5
F106F2
330
F106F3
100
AcDbEntity
8
Geo
100
AcDbLine
10
-90.6974477958237
20
3.61767083669010
30
0.000000000000000
11
-90.5974477958237
21
3.52090048136382
31
0.000000000000000
  0
LINE
  5
F106F4
330
F106F5
100
AcDbEntity
8
Geo
100
AcDbLine
10
-90.5974477958237
20
3.52090048136382
30
0.000000000000000
11
-90.4974477958237
21
3.41780106950401
31
0.000000000000000
  0
LINE
  5
F106F6
330
F106F7
100
AcDbEntity
8
Geo
100
AcDbLine
10
-90.4974477958237
20
3.41780106950401
30
0.000000000000000
11
-90.3974477958237
21
3.30852532212427
31
0.000000000000000
  0
LINE
  5
F106F8
330
F106F9
100
AcDbEntity
8
Geo
100
AcDbLine
10
-90.3974477958237
20
3.30852532212427
30
0.000000000000000
11
-90.2974477958237
21
3.19323510923527
31
0.000000000000000
  0
LINE
  5
F106FA
330
F106FB
100
AcDbEntity
8
Geo
100
AcDbLine
10
-90.2974477958237
20
3.19323510923527
30
0.000000000000000
11
-90.1974477958237
21
3.07210121006699
31
0.000000000000000
  0
LINE
  5
F106FC
330
F106FD
100
AcDbEntity
8
Geo
100
AcDbLine
10
-90.1974477958237
20
3.07210121006699
30
0.000000000000000
11
-90.0974477958237
21
2.94530306009365
31
0.000000000000000
  0
LINE
  5
F106FE
330
F106FF
100
AcDbEntity
8
Geo
100
AcDbLine
10
-90.0974477958237
20
2.94530306009365
30
0.000000000000000
11
-89.9974477958237
21
2.81302848523623
31
0.000000000000000
  0
LINE
  5
F10700
330
F10701
100
AcDbEntity
8
Geo
100
AcDbLine
10
-89.9974477958237
20
2.81302848523623
30
0.000000000000000
11
-89.8974477958237
21
2.67547342363616
31
0.000000000000000
  0
LINE
  5
F10702
330
F10703
100
AcDbEntity
8
Geo
100
AcDbLine
10
-89.8974477958237
20
2.67547342363616
30
0.000000000000000
11
-89.7974477958237
21
2.53284163541246
31
0.000000000000000
  0
LINE
  5
F10704
330
F10705
100
AcDbEntity
8
Geo
100
AcDbLine
10
-89.7974477958237
20
2.53284163541246
30
0.000000000000000
11
-89.6974477958237
21
2.38534440083212
31
0.000000000000000
  0
LINE
  5
F10706
330
F10707
100
AcDbEntity
8
Geo
100
AcDbLine
10
-89.6974477958237
20
2.38534440083212
30
0.000000000000000
11
-89.5974477958237
21
2.23320020734100
31
0.000000000000000
  0
LINE
  5
F10708
330
F10709
100
AcDbEntity
8
Geo
100
AcDbLine
10
-89.5974477958237
20
2.23320020734100
30
0.000000000000000
11
-89.4974477958237
21
2.07663442591862
31
0.000000000000000
  0
LINE
  5
F1070A
330
F1070B
100
AcDbEntity
8
Geo
100
AcDbLine
10
-89.4974477958237
20
2.07663442591862
30
0.000000000000000
11
-89.3974477958237
21
1.91587897723650
31
0.000000000000000
  0
LINE
  5
F1070C
330
F1070D
100
AcDbEntity
8
Geo
100
AcDbLine
10
-89.3974477958237
20
1.91587897723650
30
0.000000000000000
11
-89.2974477958237
21
1.75117198811435
31
0.000000000000000
  0
LINE
  5
F1070E
330
F1070F
100
AcDbEntity
8
Geo
100
AcDbLine
10
-89.2974477958237
20
1.75117198811435
30
0.000000000000000
11
-89.1974477958237
21
1.58275743878319
31
0.000000000000000
  0
LINE
  5
F10710
330
F10711
100
AcDbEntity
8
Geo
100
AcDbLine
10
-89.1974477958237
20
1.58275743878319
30
0.000000000000000
11
-89.0974477958237
21
1.41088480147773
31
0.000000000000000
  0
LINE
  5
F10712
330
F10713
100
AcDbEntity
8
Geo
100
AcDbLine
10
-89.0974477958237
20
1.41088480147773
30
0.000000000000000
11
-88.9974477958237
21
1.23580867089355
31
0.000000000000000
  0
LINE
  5
F10714
330
F10715
100
AcDbEntity
8
Geo
100
AcDbLine
10
-88.9974477958237
20
1.23580867089355
30
0.000000000000000
11
-88.8974477958237
21
1.05778838705629
31
0.000000000000000
  0
LINE
  5
F10716
330
F10717
100
AcDbEntity
8
Geo
100
AcDbLine
10
-88.8974477958237
20
1.05778838705629
30
0.000000000000000
11
-88.7974477958237
21
0.877087651161670
31
0.000000000000000
  0
LINE
  5
F10718
330
F10719
100
AcDbEntity
8
Geo
100
AcDbLine
10
-88.7974477958237
20
0.877087651161670
30
0.000000000000000
11
-88.6974477958237
21
0.693974134955273
31
0.000000000000000
  0
LINE
  5
F1071A
330
F1071B
100
AcDbEntity
8
Geo
100
AcDbLine
10
-88.6974477958237
20
0.693974134955273
30
0.000000000000000
11
-88.5974477958237
21
0.508719084230748
31
0.000000000000000
  0
LINE
  5
F1071C
330
F1071D
100
AcDbEntity
8
Geo
100
AcDbLine
10
-88.5974477958237
20
0.508719084230748
30
0.000000000000000
11
-88.4974477958237
21
0.321596917033813
31
0.000000000000000
  0
LINE
  5
F1071E
330
F1071F
100
AcDbEntity
8
Geo
100
AcDbLine
10
-88.4974477958237
20
0.321596917033813
30
0.000000000000000
11
-88.3974477958237
21
0.132884817167184
31
0.000000000000000
  0
LINE
  5
F10720
330
F10721
100
AcDbEntity
8
Geo
100
AcDbLine
10
-88.3974477958237
20
0.132884817167184
30
0.000000000000000
11
-88.2974477958237
21
-0.0571376764013867
31
0.000000000000000
  0
LINE
  5
F10722
330
F10723
100
AcDbEntity
8
Geo
100
AcDbLine
10
-88.2974477958237
20
-0.0571376764013867
30
0.000000000000000
11
-88.1974477958237
21
-0.248189083619815
31
0.000000000000000
  0
LINE
  5
F10724
330
F10725
100
AcDbEntity
8
Geo
100
AcDbLine
10
-88.1974477958237
20
-0.248189083619815
30
0.000000000000000
11
-88.0974477958237
21
-0.439986400307672
31
0.000000000000000
  0
LINE
  5
F10726
330
F10727
100
AcDbEntity
8
Geo
100
AcDbLine
10
-88.0974477958237
20
-0.439986400307672
30
0.000000000000000
11
-87.9974477958237
21
-0.632245517369882
31
0.000000000000000
  0
LINE
  5
F10728
330
F10729
100
AcDbEntity
8
Geo
100
AcDbLine
10
-87.9974477958237
20
-0.632245517369882
30
0.000000000000000
11
-87.8974477958237
21
-0.824681641647130
31
0.000000000000000
  0
LINE
  5
F1072A
330
F1072B
100
AcDbEntity
8
Geo
100
AcDbLine
10
-87.8974477958237
20
-0.824681641647130
30
0.000000000000000
11
-87.7974477958237
21
-1.01700971777955
31
0.000000000000000
  0
LINE
  5
F1072C
330
F1072D
100
AcDbEntity
8
Geo
100
AcDbLine
10
-87.7974477958237
20
-1.01700971777955
30
0.000000000000000
11
-87.6974477958237
21
-1.20894485045885
31
0.000000000000000
  0
LINE
  5
F1072E
330
F1072F
100
AcDbEntity
8
Geo
100
AcDbLine
10
-87.6974477958237
20
-1.20894485045885
30
0.000000000000000
11
-87.5974477958237
21
-1.40020272644332
31
0.000000000000000
  0
LINE
  5
F10730
330
F10731
100
AcDbEntity
8
Geo
100
AcDbLine
10
-87.5974477958237
20
-1.40020272644332
30
0.000000000000000
11
-87.4974477958237
21
-1.59050003571064
31
0.000000000000000
  0
LINE
  5
F10732
330
F10733
100
AcDbEntity
8
Geo
100
AcDbLine
10
-87.4974477958237
20
-1.59050003571064
30
0.000000000000000
11
-87.3974477958237
21
-1.77955489112462
31
0.000000000000000
  0
LINE
  5
F10734
330
F10735
100
AcDbEntity
8
Geo
100
AcDbLine
10
-87.3974477958237
20
-1.77955489112462
30
0.000000000000000
11
-87.2974477958237
21
-1.96708724599419
31
0.000000000000000
  0
LINE
  5
F10736
330
F10737
100
AcDbEntity
8
Geo
100
AcDbLine
10
-87.2974477958237
20
-1.96708724599419
30
0.000000000000000
11
-87.1974477958237
21
-2.15281930890623
31
0.000000000000000
  0
LINE
  5
F10738
330
F10739
100
AcDbEntity
8
Geo
100
AcDbLine
10
-87.1974477958237
20
-2.15281930890623
30
0.000000000000000
11
-87.0974477958237
21
-2.33647595521753
31
0.000000000000000
  0
LINE
  5
F1073A
330
F1073B
100
AcDbEntity
8
Geo
100
AcDbLine
10
-87.0974477958237
20
-2.33647595521753
30
0.000000000000000
11
-86.9974477958237
21
-2.51778513459657
31
0.000000000000000
  0
LINE
  5
F1073C
330
F1073D
100
AcDbEntity
8
Geo
100
AcDbLine
10
-86.9974477958237
20
-2.51778513459657
30
0.000000000000000
11
-86.8974477958237
21
-2.69647827401131
31
0.000000000000000
  0
LINE
  5
F1073E
330
F1073F
100
AcDbEntity
8
Geo
100
AcDbLine
10
-86.8974477958237
20
-2.69647827401131
30
0.000000000000000
11
-86.7974477958237
21
-2.87229067556600
31
0.000000000000000
  0
LINE
  5
F10740
330
F10741
100
AcDbEntity
8
Geo
100
AcDbLine
10
-86.7974477958237
20
-2.87229067556600
30
0.000000000000000
11
-86.6974477958237
21
-3.04496190859786
31
0.000000000000000
  0
LINE
  5
F10742
330
F10743
100
AcDbEntity
8
Geo
100
AcDbLine
10
-86.6974477958237
20
-3.04496190859786
30
0.000000000000000
11
-86.5974477958237
21
-3.21423619545257
31
0.000000000000000
  0
LINE
  5
F10744
330
F10745
100
AcDbEntity
8
Geo
100
AcDbLine
10
-86.5974477958237
20
-3.21423619545257
30
0.000000000000000
11
-86.4974477958237
21
-3.37986279036744
31
0.000000000000000
  0
LINE
  5
F10746
330
F10747
100
AcDbEntity
8
Geo
100
AcDbLine
10
-86.4974477958237
20
-3.37986279036744
30
0.000000000000000
11
-86.3974477958237
21
-3.54159635090070
31
0.000000000000000
  0
LINE
  5
F10748
330
F10749
100
AcDbEntity
8
Geo
100
AcDbLine
10
-86.3974477958237
20
-3.54159635090070
30
0.000000000000000
11
-86.2974477958237
21
-3.69919730135690
31
0.000000000000000
  0
LINE
  5
F1074A
330
F1074B
100
AcDbEntity
8
Geo
100
AcDbLine
10
-86.2974477958237
20
-3.69919730135690
30
0.000000000000000
11
-86.1974477958237
21
-3.85243218767012
31
0.000000000000000
  0
LINE
  5
F1074C
330
F1074D
100
AcDbEntity
8
Geo
100
AcDbLine
10
-86.1974477958237
20
-3.85243218767012
30
0.000000000000000
11
-86.0974477958237
21
-4.00107402321909
31
0.000000000000000
  0
LINE
  5
F1074E
330
F1074F
100
AcDbEntity
8
Geo
100
AcDbLine
10
-86.0974477958237
20
-4.00107402321909
30
0.000000000000000
11
-85.9974477958237
21
-4.14490262506214
31
0.000000000000000
  0
LINE
  5
F10750
330
F10751
100
AcDbEntity
8
Geo
100
AcDbLine
10
-85.9974477958237
20
-4.14490262506214
30
0.000000000000000
11
-85.8974477958237
21
-4.28370494009396
31
0.000000000000000
  0
LINE
  5
F10752
330
F10753
100
AcDbEntity
8
Geo
100
AcDbLine
10
-85.8974477958237
20
-4.28370494009396
30
0.000000000000000
11
-85.7974477958237
21
-4.41727536064077
31
0.000000000000000
  0
LINE
  5
F10754
330
F10755
100
AcDbEntity
8
Geo
100
AcDbLine
10
-85.7974477958237
20
-4.41727536064077
30
0.000000000000000
11
-85.6974477958237
21
-4.54541602902675
31
0.000000000000000
  0
LINE
  5
F10756
330
F10757
100
AcDbEntity
8
Geo
100
AcDbLine
10
-85.6974477958237
20
-4.54541602902675
30
0.000000000000000
11
-85.5974477958237
21
-4.66793713066028
31
0.000000000000000
  0
LINE
  5
F10758
330
F10759
100
AcDbEntity
8
Geo
100
AcDbLine
10
-85.5974477958237
20
-4.66793713066028
30
0.000000000000000
11
-85.4974477958237
21
-4.78465717520610
31
0.000000000000000
  0
LINE
  5
F1075A
330
F1075B
100
AcDbEntity
8
Geo
100
AcDbLine
10
-85.4974477958237
20
-4.78465717520610
30
0.000000000000000
11
-85.3974477958237
21
-4.89540326542659
31
0.000000000000000
  0
LINE
  5
F1075C
330
F1075D
100
AcDbEntity
8
Geo
100
AcDbLine
10
-85.3974477958237
20
-4.89540326542659
30
0.000000000000000
11
-85.2974477958237
21
-5.00001135329431
31
0.000000000000000
  0
LINE
  5
F1075E
330
F1075F
100
AcDbEntity
8
Geo
100
AcDbLine
10
-85.2974477958237
20
-5.00001135329431
30
0.000000000000000
11
-85.1974477958237
21
-5.09832648299601
31
0.000000000000000
  0
LINE
  5
F10760
330
F10761
100
AcDbEntity
8
Geo
100
AcDbLine
10
-85.1974477958237
20
-5.09832648299601
30
0.000000000000000
11
-85.0974477958237
21
-5.19020302046855
31
0.000000000000000
  0
LINE
  5
F10762
330
F10763
100
AcDbEntity
8
Geo
100
AcDbLine
10
-85.0974477958237
20
-5.19020302046855
30
0.000000000000000
11
-84.9974477958237
21
-5.27550486912637
31
0.000000000000000
  0
LINE
  5
F10764
330
F10765
100
AcDbEntity
8
Geo
100
AcDbLine
10
-84.9974477958237
20
-5.27550486912637
30
0.000000000000000
11
-84.8974477958237
21
-5.35410567146120
31
0.000000000000000
  0
LINE
  5
F10766
330
F10767
100
AcDbEntity
8
Geo
100
AcDbLine
10
-84.8974477958237
20
-5.35410567146120
30
0.000000000000000
11
-84.7974477958237
21
-5.42588899621524
31
0.000000000000000
  0
LINE
  5
F10768
330
F10769
100
AcDbEntity
8
Geo
100
AcDbLine
10
-84.7974477958237
20
-5.42588899621524
30
0.000000000000000
11
-84.6974477958237
21
-5.49074851085063
31
0.000000000000000
  0
LINE
  5
F1076A
330
F1076B
100
AcDbEntity
8
Geo
100
AcDbLine
10
-84.6974477958237
20
-5.49074851085063
30
0.000000000000000
11
-84.5974477958237
21
-5.54858813905970
31
0.000000000000000
  0
LINE
  5
F1076C
330
F1076D
100
AcDbEntity
8
Geo
100
AcDbLine
10
-84.5974477958237
20
-5.54858813905970
30
0.000000000000000
11
-84.4974477958237
21
-5.59932220308264
31
0.000000000000000
  0
LINE
  5
F1076E
330
F1076F
100
AcDbEntity
8
Geo
100
AcDbLine
10
-84.4974477958237
20
-5.59932220308264
30
0.000000000000000
11
-84.3974477958237
21
-5.64287555062188
31
0.000000000000000
  0
LINE
  5
F10770
330
F10771
100
AcDbEntity
8
Geo
100
AcDbLine
10
-84.3974477958237
20
-5.64287555062188
30
0.000000000000000
11
-84.2974477958237
21
-5.67918366616504
31
0.000000000000000
  0
LINE
  5
F10772
330
F10773
100
AcDbEntity
8
Geo
100
AcDbLine
10
-84.2974477958237
20
-5.67918366616504
30
0.000000000000000
11
-84.1974477958237
21
-5.70819276655170
31
0.000000000000000
  0
LINE
  5
F10774
330
F10775
100
AcDbEntity
8
Geo
100
AcDbLine
10
-84.1974477958237
20
-5.70819276655170
30
0.000000000000000
11
-84.0974477958237
21
-5.72985988064233
31
0.000000000000000
  0
LINE
  5
F10776
330
F10777
100
AcDbEntity
8
Geo
100
AcDbLine
10
-84.0974477958237
20
-5.72985988064233
30
0.000000000000000
11
-83.9974477958237
21
-5.74415291297133
31
0.000000000000000
  0
LINE
  5
F10778
330
F10779
100
AcDbEntity
8
Geo
100
AcDbLine
10
-83.9974477958237
20
-5.74415291297133
30
0.000000000000000
11
-83.8974477958237
21
-5.75105069129005
31
0.000000000000000
  0
LINE
  5
F1077A
330
F1077B
100
AcDbEntity
8
Geo
100
AcDbLine
10
-96.0974477958237
20
3.73957745190552
30
0.000000000000000
11
-95.9974477958237
21
4.03413397043306
31
0.000000000000000
  0
LINE
  5
F1077C
330
F1077D
100
AcDbEntity
8
Geo
100
AcDbLine
10
-96.0974477958237
20
-0.800980526861747
30
0.000000000000000
11
-95.9974477958237
21
-0.985316425159170
31
0.000000000000000
  0
LINE
  5
F1077E
330
F1077F
100
AcDbEntity
8
Geo
100
AcDbLine
10
-95.9974477958237
20
4.03413397043306
30
0.000000000000000
11
-95.8974477958237
21
4.12130503037654
31
0.000000000000000
  0
LINE
  5
F10780
330
F10781
100
AcDbEntity
8
Geo
100
AcDbLine
10
-95.9974477958237
20
-0.985316425159170
30
0.000000000000000
11
-95.8974477958237
21
-1.17699673010828
31
0.000000000000000
  0
LINE
  5
F10782
330
F10783
100
AcDbEntity
8
Geo
100
AcDbLine
10
-95.8974477958237
20
4.12130503037654
30
0.000000000000000
11
-95.7974477958237
21
4.15920133734800
31
0.000000000000000
  0
LINE
  5
F10784
330
F10785
100
AcDbEntity
8
Geo
100
AcDbLine
10
-95.8974477958237
20
-1.17699673010828
30
0.000000000000000
11
-95.7974477958237
21
-1.37091111732365
31
0.000000000000000
  0
LINE
  5
F10786
330
F10787
100
AcDbEntity
8
Geo
100
AcDbLine
10
-95.7974477958237
20
4.15920133734800
30
0.000000000000000
11
-95.6974477958236
21
4.16300415605282
31
0.000000000000000
  0
LINE
  5
F10788
330
F10789
100
AcDbEntity
8
Geo
100
AcDbLine
10
-95.7974477958237
20
-1.37091111732365
30
0.000000000000000
11
-95.6974477958236
21
-1.56428021860973
31
0.000000000000000
  0
LINE
  5
F1078A
330
F1078B
100
AcDbEntity
8
Geo
100
AcDbLine
10
-95.6974477958236
20
4.16300415605282
30
0.000000000000000
11
-95.5974477958237
21
4.13801264658181
31
0.000000000000000
  0
LINE
  5
F1078C
330
F1078D
100
AcDbEntity
8
Geo
100
AcDbLine
10
-95.6974477958236
20
-1.56428021860973
30
0.000000000000000
11
-95.5974477958237
21
-1.75473246470354
31
0.000000000000000
  0
LINE
  5
F1078E
330
F1078F
100
AcDbEntity
8
Geo
100
AcDbLine
10
-95.5974477958237
20
4.13801264658181
30
0.000000000000000
11
-95.4974477958237
21
4.09579539345685
31
0.000000000000000
  0
LINE
  5
F10790
330
F10791
100
AcDbEntity
8
Geo
100
AcDbLine
10
-95.5974477958237
20
-1.75473246470354
30
0.000000000000000
11
-95.4974477958237
21
-1.94214980427937
31
0.000000000000000
  0
LINE
  5
F10792
330
F10793
100
AcDbEntity
8
Geo
100
AcDbLine
10
-95.4974477958237
20
4.09579539345685
30
0.000000000000000
11
-95.3974477958237
21
4.04639749277479
31
0.000000000000000
  0
LINE
  5
F10794
330
F10795
100
AcDbEntity
8
Geo
100
AcDbLine
10
-95.4974477958237
20
-1.94214980427937
30
0.000000000000000
11
-95.3974477958237
21
-2.12780379169496
31
0.000000000000000
  0
LINE
  5
F10796
330
F10797
100
AcDbEntity
8
Geo
100
AcDbLine
10
-95.3974477958237
20
4.04639749277479
30
0.000000000000000
11
-95.2974477958237
21
3.98989211757633
31
0.000000000000000
  0
LINE
  5
F10798
330
F10799
100
AcDbEntity
8
Geo
100
AcDbLine
10
-95.3974477958237
20
-2.12780379169496
30
0.000000000000000
11
-95.2974477958237
21
-2.31141941796021
31
0.000000000000000
  0
LINE
  5
F1079A
330
F1079B
100
AcDbEntity
8
Geo
100
AcDbLine
10
-95.2974477958237
20
3.98989211757633
30
0.000000000000000
11
-95.1974477958236
21
3.92636296919417
31
0.000000000000000
  0
LINE
  5
F1079C
330
F1079D
100
AcDbEntity
8
Geo
100
AcDbLine
10
-95.2974477958237
20
-2.31141941796021
30
0.000000000000000
11
-95.1974477958236
21
-2.49272469350656
31
0.000000000000000
  0
LINE
  5
F1079E
330
F1079F
100
AcDbEntity
8
Geo
100
AcDbLine
10
-95.1974477958236
20
3.92636296919417
30
0.000000000000000
11
-95.0974477958237
21
3.85590415326633
31
0.000000000000000
  0
LINE
  5
F107A0
330
F107A1
100
AcDbEntity
8
Geo
100
AcDbLine
10
-95.1974477958236
20
-2.49272469350656
30
0.000000000000000
11
-95.0974477958237
21
-2.67145105108469
31
0.000000000000000
  0
LINE
  5
F107A2
330
F107A3
100
AcDbEntity
8
Geo
100
AcDbLine
10
-95.0974477958237
20
3.85590415326633
30
0.000000000000000
11
-94.9974477958237
21
3.77862004033762
31
0.000000000000000
  0
LINE
  5
F107A4
330
F107A5
100
AcDbEntity
8
Geo
100
AcDbLine
10
-95.0974477958237
20
-2.67145105108469
30
0.000000000000000
11
-94.9974477958237
21
-2.84733374359286
31
0.000000000000000
  0
LINE
  5
F107A6
330
F107A7
100
AcDbEntity
8
Geo
100
AcDbLine
10
-94.9974477958237
20
3.77862004033762
30
0.000000000000000
11
-94.8974477958237
21
3.69462511125566
31
0.000000000000000
  0
LINE
  5
F107A8
330
F107A9
100
AcDbEntity
8
Geo
100
AcDbLine
10
-94.9974477958237
20
-2.84733374359286
30
0.000000000000000
11
-94.8974477958237
21
-3.02011223624636
31
0.000000000000000
  0
LINE
  5
F107AA
330
F107AB
100
AcDbEntity
8
Geo
100
AcDbLine
10
-94.8974477958237
20
3.69462511125566
30
0.000000000000000
11
-94.7974477958237
21
3.60404378759060
31
0.000000000000000
  0
LINE
  5
F107AC
330
F107AD
100
AcDbEntity
8
Geo
100
AcDbLine
10
-94.8974477958237
20
-3.02011223624636
30
0.000000000000000
11
-94.7974477958237
21
-3.18953059250738
31
0.000000000000000
  0
LINE
  5
F107AE
330
F107AF
100
AcDbEntity
8
Geo
100
AcDbLine
10
-94.7974477958237
20
3.60404378759060
30
0.000000000000000
11
-94.6974477958236
21
3.50701024732960
31
0.000000000000000
  0
LINE
  5
F107B0
330
F107B1
100
AcDbEntity
8
Geo
100
AcDbLine
10
-94.7974477958237
20
-3.18953059250738
30
0.000000000000000
11
-94.6974477958236
21
-3.35533785320340
31
0.000000000000000
  0
LINE
  5
F107B2
330
F107B3
100
AcDbEntity
8
Geo
100
AcDbLine
10
-94.6974477958236
20
3.50701024732960
30
0.000000000000000
11
-94.5974477958237
21
3.40366822611920
31
0.000000000000000
  0
LINE
  5
F107B4
330
F107B5
100
AcDbEntity
8
Geo
100
AcDbLine
10
-94.6974477958236
20
-3.35533785320340
30
0.000000000000000
11
-94.5974477958237
21
-3.51728840827268
31
0.000000000000000
  0
LINE
  5
F107B6
330
F107B7
100
AcDbEntity
8
Geo
100
AcDbLine
10
-94.5974477958237
20
3.40366822611920
30
0.000000000000000
11
-94.4974477958237
21
3.29417080434985
31
0.000000000000000
  0
LINE
  5
F107B8
330
F107B9
100
AcDbEntity
8
Geo
100
AcDbLine
10
-94.5974477958237
20
-3.51728840827268
30
0.000000000000000
11
-94.4974477958237
21
-3.67514236058609
31
0.000000000000000
  0
LINE
  5
F107BA
330
F107BB
100
AcDbEntity
8
Geo
100
AcDbLine
10
-94.4974477958237
20
3.29417080434985
30
0.000000000000000
11
-94.3974477958237
21
3.17868018039821
31
0.000000000000000
  0
LINE
  5
F107BC
330
F107BD
100
AcDbEntity
8
Geo
100
AcDbLine
10
-94.4974477958237
20
-3.67514236058609
30
0.000000000000000
11
-94.3974477958237
21
-3.82866588130641
31
0.000000000000000
  0
LINE
  5
F107BE
330
F107BF
100
AcDbEntity
8
Geo
100
AcDbLine
10
-94.3974477958237
20
3.17868018039821
30
0.000000000000000
11
-94.2974477958237
21
3.05736743036288
31
0.000000000000000
  0
LINE
  5
F107C0
330
F107C1
100
AcDbEntity
8
Geo
100
AcDbLine
10
-94.3974477958237
20
-3.82866588130641
30
0.000000000000000
11
-94.2974477958237
21
-3.97763155625861
31
0.000000000000000
  0
LINE
  5
F107C2
330
F107C3
100
AcDbEntity
8
Geo
100
AcDbLine
10
-94.2974477958237
20
3.05736743036288
30
0.000000000000000
11
-94.1974477958236
21
2.93041225464962
31
0.000000000000000
  0
LINE
  5
F107C4
330
F107C5
100
AcDbEntity
8
Geo
100
AcDbLine
10
-94.2974477958237
20
-3.97763155625861
30
0.000000000000000
11
-94.1974477958236
21
-4.12181872279819
31
0.000000000000000
  0
LINE
  5
F107C6
330
F107C7
100
AcDbEntity
8
Geo
100
AcDbLine
10
-94.1974477958236
20
2.93041225464962
30
0.000000000000000
11
-94.0974477958237
21
2.79800271178140
31
0.000000000000000
  0
LINE
  5
F107C8
330
F107C9
100
AcDbEntity
8
Geo
100
AcDbLine
10
-94.1974477958236
20
-4.12181872279819
30
0.000000000000000
11
-94.0974477958237
21
-4.26101379667845
31
0.000000000000000
  0
LINE
  5
F107CA
330
F107CB
100
AcDbEntity
8
Geo
100
AcDbLine
10
-94.0974477958237
20
2.79800271178140
30
0.000000000000000
11
-93.9974477958237
21
2.66033493982759
31
0.000000000000000
  0
LINE
  5
F107CC
330
F107CD
100
AcDbEntity
8
Geo
100
AcDbLine
10
-94.0974477958237
20
-4.26101379667845
30
0.000000000000000
11
-93.9974477958237
21
-4.39501058843248
31
0.000000000000000
  0
LINE
  5
F107CE
330
F107CF
100
AcDbEntity
8
Geo
100
AcDbLine
10
-93.9974477958237
20
2.66033493982759
30
0.000000000000000
11
-93.8974477958237
21
2.51761286586488
31
0.000000000000000
  0
LINE
  5
F107D0
330
F107D1
100
AcDbEntity
8
Geo
100
AcDbLine
10
-93.9974477958237
20
-4.39501058843248
30
0.000000000000000
11
-93.8974477958237
21
-4.52361060880139
31
0.000000000000000
  0
LINE
  5
F107D2
330
F107D3
100
AcDbEntity
8
Geo
100
AcDbLine
10
-93.8974477958237
20
2.51761286586488
30
0.000000000000000
11
-93.7974477958237
21
2.37004790390043
31
0.000000000000000
  0
LINE
  5
F107D4
330
F107D5
100
AcDbEntity
8
Geo
100
AcDbLine
10
-93.8974477958237
20
-4.52361060880139
30
0.000000000000000
11
-93.7974477958237
21
-4.64662336275613
31
0.000000000000000
  0
LINE
  5
F107D6
330
F107D7
100
AcDbEntity
8
Geo
100
AcDbLine
10
-93.7974477958237
20
2.37004790390043
30
0.000000000000000
11
-93.6974477958236
21
2.21785864170455
31
0.000000000000000
  0
LINE
  5
F107D8
330
F107D9
100
AcDbEntity
8
Geo
100
AcDbLine
10
-93.7974477958237
20
-4.64662336275613
30
0.000000000000000
11
-93.6974477958236
21
-4.76386663167753
31
0.000000000000000
  0
LINE
  5
F107DA
330
F107DB
100
AcDbEntity
8
Geo
100
AcDbLine
10
-93.6974477958236
20
2.21785864170455
30
0.000000000000000
11
-93.5974477958237
21
2.06127051701699
31
0.000000000000000
  0
LINE
  5
F107DC
330
F107DD
100
AcDbEntity
8
Geo
100
AcDbLine
10
-93.6974477958236
20
-4.76386663167753
30
0.000000000000000
11
-93.5974477958237
21
-4.87516674327645
31
0.000000000000000
  0
LINE
  5
F107DE
330
F107DF
100
AcDbEntity
8
Geo
100
AcDbLine
10
-93.5974477958237
20
2.06127051701699
30
0.000000000000000
11
-93.4974477958237
21
1.90051548360630
31
0.000000000000000
  0
LINE
  5
F107E0
330
F107E1
100
AcDbEntity
8
Geo
100
AcDbLine
10
-93.5974477958237
20
-4.87516674327645
30
0.000000000000000
11
-93.4974477958237
21
-4.98035882885435
31
0.000000000000000
  0
LINE
  5
F107E2
330
F107E3
100
AcDbEntity
8
Geo
100
AcDbLine
10
-93.4974477958237
20
1.90051548360630
30
0.000000000000000
11
-93.3974477958237
21
1.73583166767706
31
0.000000000000000
  0
LINE
  5
F107E4
330
F107E5
100
AcDbEntity
8
Geo
100
AcDbLine
10
-93.4974477958237
20
-4.98035882885435
30
0.000000000000000
11
-93.3974477958237
21
-5.07928706752302
31
0.000000000000000
  0
LINE
  5
F107E6
330
F107E7
100
AcDbEntity
8
Geo
100
AcDbLine
10
-93.3974477958237
20
1.73583166767706
30
0.000000000000000
11
-93.2974477958237
21
1.56746301513386
31
0.000000000000000
  0
LINE
  5
F107E8
330
F107E9
100
AcDbEntity
8
Geo
100
AcDbLine
10
-93.3974477958237
20
-5.07928706752302
30
0.000000000000000
11
-93.2974477958237
21
-5.17180491702184
31
0.000000000000000
  0
LINE
  5
F107EA
330
F107EB
100
AcDbEntity
8
Geo
100
AcDbLine
10
-93.2974477958237
20
1.56746301513386
30
0.000000000000000
11
-93.1974477958236
21
1.39565893022458
31
0.000000000000000
  0
LINE
  5
F107EC
330
F107ED
100
AcDbEntity
8
Geo
100
AcDbLine
10
-93.2974477958237
20
-5.17180491702184
30
0.000000000000000
11
-93.1974477958236
21
-5.25777533079067
31
0.000000000000000
  0
LINE
  5
F107EE
330
F107EF
100
AcDbEntity
8
Geo
100
AcDbLine
10
-93.1974477958236
20
1.39565893022458
30
0.000000000000000
11
-93.0974477958237
21
1.22067390609822
31
0.000000000000000
  0
LINE
  5
F107F0
330
F107F1
100
AcDbEntity
8
Geo
100
AcDbLine
10
-93.1974477958236
20
-5.25777533079067
30
0.000000000000000
11
-93.0974477958237
21
-5.33707096097667
31
0.000000000000000
  0
LINE
  5
F107F2
330
F107F3
100
AcDbEntity
8
Geo
100
AcDbLine
10
-93.0974477958237
20
1.22067390609822
30
0.000000000000000
11
-92.9974477958237
21
1.04276714782455
31
0.000000000000000
  0
LINE
  5
F107F4
330
F107F5
100
AcDbEntity
8
Geo
100
AcDbLine
10
-93.0974477958237
20
-5.33707096097667
30
0.000000000000000
11
-92.9974477958237
21
-5.40957434707453
31
0.000000000000000
  0
LINE
  5
F107F6
330
F107F7
100
AcDbEntity
8
Geo
100
AcDbLine
10
-92.9974477958237
20
1.04276714782455
30
0.000000000000000
11
-92.8974477958237
21
0.862202188434045
31
0.000000000000000
  0
LINE
  5
F107F8
330
F107F9
100
AcDbEntity
8
Geo
100
AcDbLine
10
-92.9974477958237
20
-5.40957434707453
30
0.000000000000000
11
-92.8974477958237
21
-5.47517808992054
31
0.000000000000000
  0
LINE
  5
F107FA
330
F107FB
100
AcDbEntity
8
Geo
100
AcDbLine
10
-92.8974477958237
20
0.862202188434045
30
0.000000000000000
11
-92.7974477958237
21
0.679246498546731
31
0.000000000000000
  0
LINE
  5
F107FC
330
F107FD
100
AcDbEntity
8
Geo
100
AcDbLine
10
-92.8974477958237
20
-5.47517808992054
30
0.000000000000000
11
-92.7974477958237
21
-5.53378501078282
31
0.000000000000000
  0
LINE
  5
F107FE
330
F107FF
100
AcDbEntity
8
Geo
100
AcDbLine
10
-92.7974477958237
20
0.679246498546731
30
0.000000000000000
11
-92.6974477958236
21
0.494171090168359
31
0.000000000000000
  0
LINE
  5
F10800
330
F10801
100
AcDbEntity
8
Geo
100
AcDbLine
10
-92.7974477958237
20
-5.53378501078282
30
0.000000000000000
11
-92.6974477958236
21
-5.58530829531204
31
0.000000000000000
  0
LINE
  5
F10802
330
F10803
100
AcDbEntity
8
Geo
100
AcDbLine
10
-92.6974477958236
20
0.494171090168359
30
0.000000000000000
11
-92.5974477958237
21
0.307250115240692
31
0.000000000000000
  0
LINE
  5
F10804
330
F10805
100
AcDbEntity
8
Geo
100
AcDbLine
10
-92.6974477958236
20
-5.58530829531204
30
0.000000000000000
11
-92.5974477958237
21
-5.62967162213939
31
0.000000000000000
  0
LINE
  5
F10806
330
F10807
100
AcDbEntity
8
Geo
100
AcDbLine
10
-92.5974477958237
20
0.307250115240692
30
0.000000000000000
11
-92.4974477958236
21
0.118760459540625
31
0.000000000000000
  0
LINE
  5
F10808
330
F10809
100
AcDbEntity
8
Geo
100
AcDbLine
10
-92.5974477958237
20
-5.62967162213939
30
0.000000000000000
11
-92.4974477958236
21
-5.66680927593133
31
0.000000000000000
  0
LINE
  5
F1080A
330
F1080B
100
AcDbEntity
8
Geo
100
AcDbLine
10
-92.4974477958236
20
0.118760459540625
30
0.000000000000000
11
-92.3974477958237
21
-0.0710186674703296
31
0.000000000000000
  0
LINE
  5
F1080C
330
F1080D
100
AcDbEntity
8
Geo
100
AcDbLine
10
-92.4974477958236
20
-5.66680927593133
30
0.000000000000000
11
-92.3974477958237
21
-5.69666624473360
31
0.000000000000000
  0
LINE
  5
F1080E
330
F1080F
100
AcDbEntity
8
Geo
100
AcDbLine
10
-92.3974477958237
20
-0.0710186674703296
30
0.000000000000000
11
-92.2974477958237
21
-0.261806146238622
31
0.000000000000000
  0
LINE
  5
F10810
330
F10811
100
AcDbEntity
8
Geo
100
AcDbLine
10
-92.3974477958237
20
-5.69666624473360
30
0.000000000000000
11
-92.2974477958237
21
-5.71919830146037
31
0.000000000000000
  0
LINE
  5
F10812
330
F10813
100
AcDbEntity
8
Geo
100
AcDbLine
10
-92.2974477958237
20
-0.261806146238622
30
0.000000000000000
11
-92.1974477958236
21
-0.453319363540665
31
0.000000000000000
  0
LINE
  5
F10814
330
F10815
100
AcDbEntity
8
Geo
100
AcDbLine
10
-92.2974477958237
20
-5.71919830146037
30
0.000000000000000
11
-92.1974477958236
21
-5.73437206940775
31
0.000000000000000
  0
LINE
  5
F10816
330
F10817
100
AcDbEntity
8
Geo
100
AcDbLine
10
-92.1974477958236
20
-0.453319363540665
30
0.000000000000000
11
-92.0974477958237
21
-0.645274631117401
31
0.000000000000000
  0
LINE
  5
F10818
330
F10819
100
AcDbEntity
8
Geo
100
AcDbLine
10
-92.1974477958236
20
-5.73437206940775
30
0.000000000000000
11
-92.0974477958237
21
-5.74216507169463
31
0.000000000000000
  0
LINE
  5
F1081A
330
F1081B
100
AcDbEntity
8
Geo
100
AcDbLine
10
-92.0974477958237
20
-0.645274631117401
30
0.000000000000000
11
-91.9974477958237
21
-0.837387605901326
31
0.000000000000000
  0
LINE
  5
F1081C
330
F1081D
100
AcDbEntity
8
Geo
100
AcDbLine
10
-91.9974477958237
20
-0.837387605901326
30
0.000000000000000
11
-91.8974477958237
21
-1.02937371121347
31
0.000000000000000
  0
LINE
  5
F1081E
330
F1081F
100
AcDbEntity
8
Geo
100
AcDbLine
10
-91.9974477958237
20
4.23908548613545
30
0.000000000000000
11
-91.8974477958237
21
4.23209327602896
31
0.000000000000000
  0
LINE
  5
F10820
330
F10821
100
AcDbEntity
8
Geo
100
AcDbLine
10
-91.8974477958237
20
-1.02937371121347
30
0.000000000000000
11
-91.7974477958237
21
-1.22094855830644
31
0.000000000000000
  0
LINE
  5
F10822
330
F10823
100
AcDbEntity
8
Geo
100
AcDbLine
10
-91.8974477958237
20
4.23209327602896
30
0.000000000000000
11
-91.7974477958237
21
4.21771852050389
31
0.000000000000000
  0
LINE
  5
F10824
330
F10825
100
AcDbEntity
8
Geo
100
AcDbLine
10
-91.7974477958237
20
-1.22094855830644
30
0.000000000000000
11
-91.6974477958236
21
-1.41182836762905
31
0.000000000000000
  0
LINE
  5
F10826
330
F10827
100
AcDbEntity
8
Geo
100
AcDbLine
10
-91.7974477958237
20
4.21771852050389
30
0.000000000000000
11
-91.6974477958236
21
4.19598251286533
31
0.000000000000000
  0
LINE
  5
F10828
330
F10829
100
AcDbEntity
8
Geo
100
AcDbLine
10
-91.6974477958236
20
-1.41182836762905
30
0.000000000000000
11
-91.5974477958237
21
-1.60173038918860
31
0.000000000000000
  0
LINE
  5
F1082A
330
F1082B
100
AcDbEntity
8
Geo
100
AcDbLine
10
-91.6974477958236
20
4.19598251286533
30
0.000000000000000
11
-91.5974477958237
21
4.16691745063081
31
0.000000000000000
  0
LINE
  5
F1082C
330
F1082D
100
AcDbEntity
8
Geo
100
AcDbLine
10
-91.5974477958237
20
-1.60173038918860
30
0.000000000000000
11
-91.4974477958237
21
-1.79037332138801
31
0.000000000000000
  0
LINE
  5
F1082E
330
F1082F
100
AcDbEntity
8
Geo
100
AcDbLine
10
-91.5974477958237
20
4.16691745063081
30
0.000000000000000
11
-91.4974477958237
21
4.13056638783606
31
0.000000000000000
  0
LINE
  5
F10830
330
F10831
100
AcDbEntity
8
Geo
100
AcDbLine
10
-91.4974477958237
20
-1.79037332138801
30
0.000000000000000
11
-91.3974477958237
21
-1.97747772771751
31
0.000000000000000
  0
LINE
  5
F10832
330
F10833
100
AcDbEntity
8
Geo
100
AcDbLine
10
-91.4974477958237
20
4.13056638783606
30
0.000000000000000
11
-91.3974477958237
21
4.08698317125921
31
0.000000000000000
  0
LINE
  5
F10834
330
F10835
100
AcDbEntity
8
Geo
100
AcDbLine
10
-91.3974477958237
20
-1.97747772771751
30
0.000000000000000
11
-91.2974477958237
21
-2.16276645068353
31
0.000000000000000
  0
LINE
  5
F10836
330
F10837
100
AcDbEntity
8
Geo
100
AcDbLine
10
-91.3974477958237
20
4.08698317125921
30
0.000000000000000
11
-91.2974477958237
21
4.03623236065759
31
0.000000000000000
  0
LINE
  5
F10838
330
F10839
100
AcDbEntity
8
Geo
100
AcDbLine
10
-91.2974477958237
20
-2.16276645068353
30
0.000000000000000
11
-91.1974477958236
21
-2.34596502236170
31
0.000000000000000
  0
LINE
  5
F1083A
330
F1083B
100
AcDbEntity
8
Geo
100
AcDbLine
10
-91.2974477958237
20
4.03623236065759
30
0.000000000000000
11
-91.1974477958236
21
3.97838913313546
31
0.000000000000000
  0
LINE
  5
F1083C
330
F1083D
100
AcDbEntity
8
Geo
100
AcDbLine
10
-91.1974477958236
20
-2.34596502236170
30
0.000000000000000
11
-91.0974477958237
21
-2.52680207096583
31
0.000000000000000
  0
LINE
  5
F1083E
330
F1083F
100
AcDbEntity
8
Geo
100
AcDbLine
10
-91.1974477958236
20
3.97838913313546
30
0.000000000000000
11
-91.0974477958237
21
3.91353917178428
31
0.000000000000000
  0
LINE
  5
F10840
330
F10841
100
AcDbEntity
8
Geo
100
AcDbLine
10
-91.0974477958237
20
-2.52680207096583
30
0.000000000000000
11
-90.9974477958237
21
-2.70500972283050
31
0.000000000000000
  0
LINE
  5
F10842
330
F10843
100
AcDbEntity
8
Geo
100
AcDbLine
10
-91.0974477958237
20
3.91353917178428
30
0.000000000000000
11
-90.9974477958237
21
3.84177853876046
31
0.000000000000000
  0
LINE
  5
F10844
330
F10845
100
AcDbEntity
8
Geo
100
AcDbLine
10
-90.9974477958237
20
-2.70500972283050
30
0.000000000000000
11
-90.8974477958237
21
-2.88032399921202
31
0.000000000000000
  0
LINE
  5
F10846
330
F10847
100
AcDbEntity
8
Geo
100
AcDbLine
10
-90.9974477958237
20
3.84177853876046
30
0.000000000000000
11
-90.8974477958237
21
3.76321353298865
31
0.000000000000000
  0
LINE
  5
F10848
330
F10849
100
AcDbEntity
8
Geo
100
AcDbLine
10
-90.8974477958237
20
-2.88032399921202
30
0.000000000000000
11
-90.7974477958237
21
-3.05248520731968
31
0.000000000000000
  0
LINE
  5
F1084A
330
F1084B
100
AcDbEntity
8
Geo
100
AcDbLine
10
-90.8974477958237
20
3.76321353298865
30
0.000000000000000
11
-90.7974477958237
21
3.67796053270122
31
0.000000000000000
  0
LINE
  5
F1084C
330
F1084D
100
AcDbEntity
8
Geo
100
AcDbLine
10
-90.7974477958237
20
-3.05248520731968
30
0.000000000000000
11
-90.6974477958237
21
-3.22123832499841
31
0.000000000000000
  0
LINE
  5
F1084E
330
F1084F
100
AcDbEntity
8
Geo
100
AcDbLine
10
-90.7974477958237
20
3.67796053270122
30
0.000000000000000
11
-90.6974477958237
21
3.58614582304743
31
0.000000000000000
  0
LINE
  5
F10850
330
F10851
100
AcDbEntity
8
Geo
100
AcDbLine
10
-90.6974477958237
20
-3.22123832499841
30
0.000000000000000
11
-90.5974477958237
21
-3.38633337849266
31
0.000000000000000
  0
LINE
  5
F10852
330
F10853
100
AcDbEntity
8
Geo
100
AcDbLine
10
-90.6974477958237
20
3.58614582304743
30
0.000000000000000
11
-90.5974477958237
21
3.48790540902738
31
0.000000000000000
  0
LINE
  5
F10854
330
F10855
100
AcDbEntity
8
Geo
100
AcDbLine
10
-90.5974477958237
20
-3.38633337849266
30
0.000000000000000
11
-90.4974477958237
21
-3.54752581273221
31
0.000000000000000
  0
LINE
  5
F10856
330
F10857
100
AcDbEntity
8
Geo
100
AcDbLine
10
-90.5974477958237
20
3.48790540902738
30
0.000000000000000
11
-90.4974477958237
21
3.38338481402799
31
0.000000000000000
  0
LINE
  5
F10858
330
F10859
100
AcDbEntity
8
Geo
100
AcDbLine
10
-90.4974477958237
20
-3.54752581273221
30
0.000000000000000
11
-90.3974477958237
21
-3.70457685359126
31
0.000000000000000
  0
LINE
  5
F1085A
330
F1085B
100
AcDbEntity
8
Geo
100
AcDbLine
10
-90.4974477958237
20
3.38338481402799
30
0.000000000000000
11
-90.3974477958237
21
3.27273886425941
31
0.000000000000000
  0
LINE
  5
F1085C
330
F1085D
100
AcDbEntity
8
Geo
100
AcDbLine
10
-90.3974477958237
20
-3.70457685359126
30
0.000000000000000
11
-90.2974477958237
21
-3.85725386158418
31
0.000000000000000
  0
LINE
  5
F1085E
330
F1085F
100
AcDbEntity
8
Geo
100
AcDbLine
10
-90.3974477958237
20
3.27273886425941
30
0.000000000000000
11
-90.2974477958237
21
3.15613145941122
31
0.000000000000000
  0
LINE
  5
F10860
330
F10861
100
AcDbEntity
8
Geo
100
AcDbLine
10
-90.2974477958237
20
-3.85725386158418
30
0.000000000000000
11
-90.1974477958237
21
-4.00533067647406
31
0.000000000000000
  0
LINE
  5
F10862
330
F10863
100
AcDbEntity
8
Geo
100
AcDbLine
10
-90.2974477958237
20
3.15613145941122
30
0.000000000000000
11
-90.1974477958237
21
3.03373532986797
31
0.000000000000000
  0
LINE
  5
F10864
330
F10865
100
AcDbEntity
8
Geo
100
AcDbLine
10
-90.1974477958237
20
-4.00533067647406
30
0.000000000000000
11
-90.0974477958237
21
-4.14858795228356
31
0.000000000000000
  0
LINE
  5
F10866
330
F10867
100
AcDbEntity
8
Geo
100
AcDbLine
10
-90.1974477958237
20
3.03373532986797
30
0.000000000000000
11
-90.0974477958237
21
2.90573178084397
31
0.000000000000000
  0
LINE
  5
F10868
330
F10869
100
AcDbEntity
8
Geo
100
AcDbLine
10
-90.0974477958237
20
-4.14858795228356
30
0.000000000000000
11
-89.9974477958237
21
-4.28681348221180
31
0.000000000000000
  0
LINE
  5
F1086A
330
F1086B
100
AcDbEntity
8
Geo
100
AcDbLine
10
-90.0974477958237
20
2.90573178084397
30
0.000000000000000
11
-89.9974477958237
21
2.77231042381611
31
0.000000000000000
  0
LINE
  5
F1086C
330
F1086D
100
AcDbEntity
8
Geo
100
AcDbLine
10
-89.9974477958237
20
-4.28681348221180
30
0.000000000000000
11
-89.8974477958237
21
-4.41980251297598
31
0.000000000000000
  0
LINE
  5
F1086E
330
F1086F
100
AcDbEntity
8
Geo
100
AcDbLine
10
-89.9974477958237
20
2.77231042381611
30
0.000000000000000
11
-89.8974477958237
21
2.63366889565262
31
0.000000000000000
  0
LINE
  5
F10870
330
F10871
100
AcDbEntity
8
Geo
100
AcDbLine
10
-89.8974477958237
20
-4.41980251297598
30
0.000000000000000
11
-89.7974477958237
21
-4.54735804811212
31
0.000000000000000
  0
LINE
  5
F10872
330
F10873
100
AcDbEntity
8
Geo
100
AcDbLine
10
-89.8974477958237
20
2.63366889565262
30
0.000000000000000
11
-89.7974477958237
21
2.49001256585393
31
0.000000000000000
  0
LINE
  5
F10874
330
F10875
100
AcDbEntity
8
Geo
100
AcDbLine
10
-89.7974477958237
20
-4.54735804811212
30
0.000000000000000
11
-89.6974477958237
21
-4.66929113978569
31
0.000000000000000
  0
LINE
  5
F10876
330
F10877
100
AcDbEntity
8
Geo
100
AcDbLine
10
-89.7974477958237
20
2.49001256585393
30
0.000000000000000
11
-89.6974477958237
21
2.34155423233902
31
0.000000000000000
  0
LINE
  5
F10878
330
F10879
100
AcDbEntity
8
Geo
100
AcDbLine
10
-89.6974477958237
20
-4.66929113978569
30
0.000000000000000
11
-89.5974477958237
21
-4.78542116867972
31
0.000000000000000
  0
LINE
  5
F1087A
330
F1087B
100
AcDbEntity
8
Geo
100
AcDbLine
10
-89.6974477958237
20
2.34155423233902
30
0.000000000000000
11
-89.5974477958237
21
2.18851380622823
31
0.000000000000000
  0
LINE
  5
F1087C
330
F1087D
100
AcDbEntity
8
Geo
100
AcDbLine
10
-89.5974477958237
20
-4.78542116867972
30
0.000000000000000
11
-89.4974477958237
21
-4.89557611154599
31
0.000000000000000
  0
LINE
  5
F1087E
330
F1087F
100
AcDbEntity
8
Geo
100
AcDbLine
10
-89.5974477958237
20
2.18851380622823
30
0.000000000000000
11
-89.4974477958237
21
2.03111798608923
31
0.000000000000000
  0
LINE
  5
F10880
330
F10881
100
AcDbEntity
8
Geo
100
AcDbLine
10
-89.4974477958237
20
-4.89557611154599
30
0.000000000000000
11
-89.3974477958237
21
-4.99959279602275
31
0.000000000000000
  0
LINE
  5
F10882
330
F10883
100
AcDbEntity
8
Geo
100
AcDbLine
10
-89.4974477958237
20
2.03111798608923
30
0.000000000000000
11
-89.3974477958237
21
1.86959992212869
31
0.000000000000000
  0
LINE
  5
F10884
330
F10885
100
AcDbEntity
8
Geo
100
AcDbLine
10
-89.3974477958237
20
-4.99959279602275
30
0.000000000000000
11
-89.2974477958237
21
-5.09731714234180
31
0.000000000000000
  0
LINE
  5
F10886
330
F10887
100
AcDbEntity
8
Geo
100
AcDbLine
10
-89.3974477958237
20
1.86959992212869
30
0.000000000000000
11
-89.2974477958237
21
1.70419887082727
31
0.000000000000000
  0
LINE
  5
F10888
330
F10889
100
AcDbEntity
8
Geo
100
AcDbLine
10
-89.2974477958237
20
-5.09731714234180
30
0.000000000000000
11
-89.1974477958237
21
-5.18860439156658
31
0.000000000000000
  0
LINE
  5
F1088A
330
F1088B
100
AcDbEntity
8
Geo
100
AcDbLine
10
-89.2974477958237
20
1.70419887082727
30
0.000000000000000
11
-89.1974477958237
21
1.53515984052932
31
0.000000000000000
  0
LINE
  5
F1088C
330
F1088D
100
AcDbEntity
8
Geo
100
AcDbLine
10
-89.1974477958237
20
-5.18860439156658
30
0.000000000000000
11
-89.0974477958237
21
-5.27331932002338
31
0.000000000000000
  0
LINE
  5
F1088E
330
F1088F
100
AcDbEntity
8
Geo
100
AcDbLine
10
-89.1974477958237
20
1.53515984052932
30
0.000000000000000
11
-89.0974477958237
21
1.36273322851232
31
0.000000000000000
  0
LINE
  5
F10890
330
F10891
100
AcDbEntity
8
Geo
100
AcDbLine
10
-89.0974477958237
20
-5.27331932002338
30
0.000000000000000
11
-88.9974477958237
21
-5.35133643960800
31
0.000000000000000
  0
LINE
  5
F10892
330
F10893
100
AcDbEntity
8
Geo
100
AcDbLine
10
-89.0974477958237
20
1.36273322851232
30
0.000000000000000
11
-88.9974477958237
21
1.18717445007382
31
0.000000000000000
  0
LINE
  5
F10894
330
F10895
100
AcDbEntity
8
Geo
100
AcDbLine
10
-88.9974477958237
20
-5.35133643960800
30
0.000000000000000
11
-88.8974477958237
21
-5.42254018367107
31
0.000000000000000
  0
LINE
  5
F10896
330
F10897
100
AcDbEntity
8
Geo
100
AcDbLine
10
-88.9974477958237
20
1.18717445007382
30
0.000000000000000
11
-88.8974477958237
21
1.00874356018504
31
0.000000000000000
  0
LINE
  5
F10898
330
F10899
100
AcDbEntity
8
Geo
100
AcDbLine
10
-88.8974477958237
20
-5.42254018367107
30
0.000000000000000
11
-88.7974477958237
21
-5.48682507820680
31
0.000000000000000
  0
LINE
  5
F1089A
330
F1089B
100
AcDbEntity
8
Geo
100
AcDbLine
10
-88.8974477958237
20
1.00874356018504
30
0.000000000000000
11
-88.7974477958237
21
0.827704868271880
31
0.000000000000000
  0
LINE
  5
F1089C
330
F1089D
100
AcDbEntity
8
Geo
100
AcDbLine
10
-88.7974477958237
20
-5.48682507820680
30
0.000000000000000
11
-88.6974477958237
21
-5.54409589809145
31
0.000000000000000
  0
LINE
  5
F1089E
330
F1089F
100
AcDbEntity
8
Geo
100
AcDbLine
10
-88.7974477958237
20
0.827704868271880
30
0.000000000000000
11
-88.6974477958237
21
0.644326546693677
31
0.000000000000000
  0
LINE
  5
F108A0
330
F108A1
100
AcDbEntity
8
Geo
100
AcDbLine
10
-88.6974477958237
20
-5.54409589809145
30
0.000000000000000
11
-88.5974477958237
21
-5.59426780814020
31
0.000000000000000
  0
LINE
  5
F108A2
330
F108A3
100
AcDbEntity
8
Geo
100
AcDbLine
10
-88.6974477958237
20
0.644326546693677
30
0.000000000000000
11
-88.5974477958237
21
0.458880233499911
31
0.000000000000000
  0
LINE
  5
F108A4
330
F108A5
100
AcDbEntity
8
Geo
100
AcDbLine
10
-88.5974477958237
20
-5.59426780814020
30
0.000000000000000
11
-88.4974477958237
21
-5.63726648877334
31
0.000000000000000
  0
LINE
  5
F108A6
330
F108A7
100
AcDbEntity
8
Geo
100
AcDbLine
10
-88.5974477958237
20
0.458880233499911
30
0.000000000000000
11
-88.4974477958237
21
0.271640630053130
31
0.000000000000000
  0
LINE
  5
F108A8
330
F108A9
100
AcDbEntity
8
Geo
100
AcDbLine
10
-88.4974477958237
20
-5.63726648877334
30
0.000000000000000
11
-88.3974477958237
21
-5.67302824610583
31
0.000000000000000
  0
LINE
  5
F108AA
330
F108AB
100
AcDbEntity
8
Geo
100
AcDbLine
10
-88.4974477958237
20
0.271640630053130
30
0.000000000000000
11
-88.3974477958237
21
0.0828850941141976
31
0.000000000000000
  0
LINE
  5
F108AC
330
F108AD
100
AcDbEntity
8
Geo
100
AcDbLine
10
-88.3974477958237
20
-5.67302824610583
30
0.000000000000000
11
-88.2974477958237
21
-5.70150010629689
31
0.000000000000000
  0
LINE
  5
F108AE
330
F108AF
100
AcDbEntity
8
Geo
100
AcDbLine
10
-88.3974477958237
20
0.0828850941141976
30
0.000000000000000
11
-88.2974477958237
21
-0.107106771007339
31
0.000000000000000
  0
LINE
  5
F108B0
330
F108B1
100
AcDbEntity
8
Geo
100
AcDbLine
10
-88.2974477958237
20
-5.70150010629689
30
0.000000000000000
11
-88.1974477958237
21
-5.72263989402012
31
0.000000000000000
  0
LINE
  5
F108B2
330
F108B3
100
AcDbEntity
8
Geo
100
AcDbLine
10
-88.2974477958237
20
-0.107106771007339
30
0.000000000000000
11
-88.1974477958237
21
-0.298053530629272
31
0.000000000000000
  0
LINE
  5
F108B4
330
F108B5
100
AcDbEntity
8
Geo
100
AcDbLine
10
-88.1974477958237
20
-5.72263989402012
30
0.000000000000000
11
-88.0974477958237
21
-5.73641629493774
31
0.000000000000000
  0
LINE
  5
F108B6
330
F108B7
100
AcDbEntity
8
Geo
100
AcDbLine
10
-88.1974477958237
20
-0.298053530629272
30
0.000000000000000
11
-88.0974477958237
21
-0.489672335585510
31
0.000000000000000
  0
LINE
  5
F108B8
330
F108B9
100
AcDbEntity
8
Geo
100
AcDbLine
10
-88.0974477958237
20
-5.73641629493774
30
0.000000000000000
11
-87.9974477958237
21
-5.74280890208648
31
0.000000000000000
  0
LINE
  5
F108BA
330
F108BB
100
AcDbEntity
8
Geo
100
AcDbLine
10
-88.0974477958237
20
-0.489672335585510
30
0.000000000000000
11
-87.9974477958237
21
-0.681679341210152
31
0.000000000000000
  0
LINE
  5
F108BC
330
F108BD
100
AcDbEntity
8
Geo
100
AcDbLine
10
-87.9974477958237
20
-0.681679341210152
30
0.000000000000000
11
-87.8974477958237
21
-0.873790127796202
31
0.000000000000000
  0
LINE
  5
F108BE
330
F108BF
100
AcDbEntity
8
Geo
100
AcDbLine
10
-87.8974477958237
20
4.23832796768409
30
0.000000000000000
11
-87.7974477958237
21
4.22993553084542
31
0.000000000000000
  0
LINE
  5
F108C0
330
F108C1
100
AcDbEntity
8
Geo
100
AcDbLine
10
-87.8974477958237
20
-0.873790127796202
30
0.000000000000000
11
-87.7974477958237
21
-1.06572012190606
31
0.000000000000000
  0
LINE
  5
F108C2
330
F108C3
100
AcDbEntity
8
Geo
100
AcDbLine
10
-87.7974477958237
20
4.22993553084542
30
0.000000000000000
11
-87.6974477958237
21
4.21416374485306
31
0.000000000000000
  0
LINE
  5
F108C4
330
F108C5
100
AcDbEntity
8
Geo
100
AcDbLine
10
-87.7974477958237
20
-1.06572012190606
30
0.000000000000000
11
-87.6974477958237
21
-1.25718501790976
31
0.000000000000000
  0
LINE
  5
F108C6
330
F108C7
100
AcDbEntity
8
Geo
100
AcDbLine
10
-87.6974477958237
20
4.21416374485306
30
0.000000000000000
11
-87.5974477958237
21
4.19103597243139
31
0.000000000000000
  0
LINE
  5
F108C8
330
F108C9
100
AcDbEntity
8
Geo
100
AcDbLine
10
-87.6974477958237
20
-1.25718501790976
30
0.000000000000000
11
-87.5974477958237
21
-1.44790119912654
31
0.000000000000000
  0
LINE
  5
F108CA
330
F108CB
100
AcDbEntity
8
Geo
100
AcDbLine
10
-87.5974477958237
20
4.19103597243139
30
0.000000000000000
11
-87.4974477958237
21
4.16058647271712
31
0.000000000000000
  0
LINE
  5
F108CC
330
F108CD
100
AcDbEntity
8
Geo
100
AcDbLine
10
-87.5974477958237
20
-1.44790119912654
30
0.000000000000000
11
-87.4974477958237
21
-1.63758615794576
31
0.000000000000000
  0
LINE
  5
F108CE
330
F108CF
100
AcDbEntity
8
Geo
100
AcDbLine
10
-87.4974477958237
20
4.16058647271712
30
0.000000000000000
11
-87.3974477958237
21
4.12286035051130
31
0.000000000000000
  0
LINE
  5
F108D0
330
F108D1
100
AcDbEntity
8
Geo
100
AcDbLine
10
-87.4974477958237
20
-1.63758615794576
30
0.000000000000000
11
-87.3974477958237
21
-1.82595891430509
31
0.000000000000000
  0
LINE
  5
F108D2
330
F108D3
100
AcDbEntity
8
Geo
100
AcDbLine
10
-87.3974477958237
20
4.12286035051130
30
0.000000000000000
11
-87.2974477958237
21
4.07791348946561
31
0.000000000000000
  0
LINE
  5
F108D4
330
F108D5
100
AcDbEntity
8
Geo
100
AcDbLine
10
-87.3974477958237
20
-1.82595891430509
30
0.000000000000000
11
-87.2974477958237
21
-2.01274043190584
31
0.000000000000000
  0
LINE
  5
F108D6
330
F108D7
100
AcDbEntity
8
Geo
100
AcDbLine
10
-87.2974477958237
20
4.07791348946561
30
0.000000000000000
11
-87.1974477958237
21
4.02581246930201
31
0.000000000000000
  0
LINE
  5
F108D8
330
F108D9
100
AcDbEntity
8
Geo
100
AcDbLine
10
-87.2974477958237
20
-2.01274043190584
30
0.000000000000000
11
-87.1974477958237
21
-2.19765403154906
31
0.000000000000000
  0
LINE
  5
F108DA
330
F108DB
100
AcDbEntity
8
Geo
100
AcDbLine
10
-87.1974477958237
20
4.02581246930201
30
0.000000000000000
11
-87.0974477958237
21
3.96663446718830
31
0.000000000000000
  0
LINE
  5
F108DC
330
F108DD
100
AcDbEntity
8
Geo
100
AcDbLine
10
-87.1974477958237
20
-2.19765403154906
30
0.000000000000000
11
-87.0974477958237
21
-2.38042580098003
31
0.000000000000000
  0
LINE
  5
F108DE
330
F108DF
100
AcDbEntity
8
Geo
100
AcDbLine
10
-87.0974477958237
20
3.96663446718830
30
0.000000000000000
11
-86.9974477958237
21
3.90046714341565
31
0.000000000000000
  0
LINE
  5
F108E0
330
F108E1
100
AcDbEntity
8
Geo
100
AcDbLine
10
-87.0974477958237
20
-2.38042580098003
30
0.000000000000000
11
-86.9974477958237
21
-2.56078500063412
31
0.000000000000000
  0
LINE
  5
F108E2
330
F108E3
100
AcDbEntity
8
Geo
100
AcDbLine
10
-86.9974477958237
20
3.90046714341565
30
0.000000000000000
11
-86.8974477958237
21
3.82740851154757
31
0.000000000000000
  0
LINE
  5
F108E4
330
F108E5
100
AcDbEntity
8
Geo
100
AcDbLine
10
-86.9974477958237
20
-2.56078500063412
30
0.000000000000000
11
-86.8974477958237
21
-2.73846446468291
31
0.000000000000000
  0
LINE
  5
F108E6
330
F108E7
100
AcDbEntity
8
Geo
100
AcDbLine
10
-86.8974477958237
20
3.82740851154757
30
0.000000000000000
11
-86.7974477958237
21
3.74756679323256
31
0.000000000000000
  0
LINE
  5
F108E8
330
F108E9
100
AcDbEntity
8
Geo
100
AcDbLine
10
-86.8974477958237
20
-2.73846446468291
30
0.000000000000000
11
-86.7974477958237
21
-2.91320099678655
31
0.000000000000000
  0
LINE
  5
F108EA
330
F108EB
100
AcDbEntity
8
Geo
100
AcDbLine
10
-86.7974477958237
20
3.74756679323256
30
0.000000000000000
11
-86.6974477958237
21
3.66106025789551
31
0.000000000000000
  0
LINE
  5
F108EC
330
F108ED
100
AcDbEntity
8
Geo
100
AcDbLine
10
-86.7974477958237
20
-2.91320099678655
30
0.000000000000000
11
-86.6974477958237
21
-3.08473575996614
31
0.000000000000000
  0
LINE
  5
F108EE
330
F108EF
100
AcDbEntity
8
Geo
100
AcDbLine
10
-86.6974477958237
20
3.66106025789551
30
0.000000000000000
11
-86.5974477958237
21
3.56801704754536
31
0.000000000000000
  0
LINE
  5
F108F0
330
F108F1
100
AcDbEntity
8
Geo
100
AcDbLine
10
-86.6974477958237
20
-3.08473575996614
30
0.000000000000000
11
-86.5974477958237
21
-3.25281466001858
31
0.000000000000000
  0
LINE
  5
F108F2
330
F108F3
100
AcDbEntity
8
Geo
100
AcDbLine
10
-86.5974477958237
20
3.56801704754536
30
0.000000000000000
11
-86.4974477958237
21
3.46857498695857
31
0.000000000000000
  0
LINE
  5
F108F4
330
F108F5
100
AcDbEntity
8
Geo
100
AcDbLine
10
-86.5974477958237
20
-3.25281466001858
30
0.000000000000000
11
-86.4974477958237
21
-3.41718872190595
31
0.000000000000000
  0
LINE
  5
F108F6
330
F108F7
100
AcDbEntity
8
Geo
100
AcDbLine
10
-86.4974477958237
20
3.46857498695857
30
0.000000000000000
11
-86.3974477958237
21
3.36288137951942
31
0.000000000000000
  0
LINE
  5
F108F8
330
F108F9
100
AcDbEntity
8
Geo
100
AcDbLine
10
-86.4974477958237
20
-3.41718872190595
30
0.000000000000000
11
-86.3974477958237
21
-3.57761445856189
31
0.000000000000000
  0
LINE
  5
F108FA
330
F108FB
100
AcDbEntity
8
Geo
100
AcDbLine
10
-86.3974477958237
20
3.36288137951942
30
0.000000000000000
11
-86.2974477958237
21
3.25109278901975
31
0.000000000000000
  0
LINE
  5
F108FC
330
F108FD
100
AcDbEntity
8
Geo
100
AcDbLine
10
-86.3974477958237
20
-3.57761445856189
30
0.000000000000000
11
-86.2974477958237
21
-3.73385423156863
31
0.000000000000000
  0
LINE
  5
F108FE
330
F108FF
100
AcDbEntity
8
Geo
100
AcDbLine
10
-86.2974477958237
20
3.25109278901975
30
0.000000000000000
11
-86.1974477958237
21
3.13337480774123
31
0.000000000000000
  0
LINE
  5
F10900
330
F10901
100
AcDbEntity
8
Geo
100
AcDbLine
10
-86.2974477958237
20
-3.73385423156863
30
0.000000000000000
11
-86.1974477958237
21
-3.88567660317047
31
0.000000000000000
  0
LINE
  5
F10902
330
F10903
100
AcDbEntity
8
Geo
100
AcDbLine
10
-86.1974477958237
20
3.13337480774123
30
0.000000000000000
11
-86.0974477958237
21
3.00990181116372
31
0.000000000000000
  0
LINE
  5
F10904
330
F10905
100
AcDbEntity
8
Geo
100
AcDbLine
10
-86.1974477958237
20
-3.88567660317047
30
0.000000000000000
11
-86.0974477958237
21
-4.03285667910220
31
0.000000000000000
  0
LINE
  5
F10906
330
F10907
100
AcDbEntity
8
Geo
100
AcDbLine
10
-86.0974477958237
20
3.00990181116372
30
0.000000000000000
11
-85.9974477958237
21
2.88085669966314
31
0.000000000000000
  0
LINE
  5
F10908
330
F10909
100
AcDbEntity
8
Geo
100
AcDbLine
10
-86.0974477958237
20
-4.03285667910220
30
0.000000000000000
11
-85.9974477958237
21
-4.17517644172463
31
0.000000000000000
  0
LINE
  5
F1090A
330
F1090B
100
AcDbEntity
8
Geo
100
AcDbLine
10
-85.9974477958237
20
2.88085669966314
30
0.000000000000000
11
-85.8974477958237
21
2.74643062758142
31
0.000000000000000
  0
LINE
  5
F1090C
330
F1090D
100
AcDbEntity
8
Geo
100
AcDbLine
10
-85.9974477958237
20
-4.17517644172463
30
0.000000000000000
11
-85.8974477958237
21
-4.31242507297383
31
0.000000000000000
  0
LINE
  5
F1090E
330
F1090F
100
AcDbEntity
8
Geo
100
AcDbLine
10
-85.8974477958237
20
2.74643062758142
30
0.000000000000000
11
-85.7974477958237
21
2.60682272006979
31
0.000000000000000
  0
LINE
  5
F10910
330
F10911
100
AcDbEntity
8
Geo
100
AcDbLine
10
-85.8974477958237
20
-4.31242507297383
30
0.000000000000000
11
-85.7974477958237
21
-4.44439926664564
31
0.000000000000000
  0
LINE
  5
F10912
330
F10913
100
AcDbEntity
8
Geo
100
AcDbLine
10
-85.7974477958237
20
2.60682272006979
30
0.000000000000000
11
-85.6974477958237
21
2.46223977812503
31
0.000000000000000
  0
LINE
  5
F10914
330
F10915
100
AcDbEntity
8
Geo
100
AcDbLine
10
-85.7974477958237
20
-4.44439926664564
30
0.000000000000000
11
-85.6974477958237
21
-4.57090352955285
31
0.000000000000000
  0
LINE
  5
F10916
330
F10917
100
AcDbEntity
8
Geo
100
AcDbLine
10
-85.6974477958237
20
2.46223977812503
30
0.000000000000000
11
-85.5974477958237
21
2.31289597225540
31
0.000000000000000
  0
LINE
  5
F10918
330
F10919
100
AcDbEntity
8
Geo
100
AcDbLine
10
-85.6974477958237
20
-4.57090352955285
30
0.000000000000000
11
-85.5974477958237
21
-4.69175047110900
31
0.000000000000000
  0
LINE
  5
F1091A
330
F1091B
100
AcDbEntity
8
Geo
100
AcDbLine
10
-85.5974477958237
20
2.31289597225540
30
0.000000000000000
11
-85.4974477958237
21
2.15901252523020
31
0.000000000000000
  0
LINE
  5
F1091C
330
F1091D
100
AcDbEntity
8
Geo
100
AcDbLine
10
-85.5974477958237
20
-4.69175047110900
30
0.000000000000000
11
-85.4974477958237
21
-4.80676108090975
31
0.000000000000000
  0
LINE
  5
F1091E
330
F1091F
100
AcDbEntity
8
Geo
100
AcDbLine
10
-85.4974477958237
20
2.15901252523020
30
0.000000000000000
11
-85.3974477958237
21
2.00081738438276
31
0.000000000000000
  0
LINE
  5
F10920
330
F10921
100
AcDbEntity
8
Geo
100
AcDbLine
10
-85.4974477958237
20
-4.80676108090975
30
0.000000000000000
11
-85.3974477958237
21
-4.91576499390079
31
0.000000000000000
  0
LINE
  5
F10922
330
F10923
100
AcDbEntity
8
Geo
100
AcDbLine
10
-85.3974477958237
20
2.00081738438276
30
0.000000000000000
11
-85.2974477958237
21
1.83854488395243
31
0.000000000000000
  0
LINE
  5
F10924
330
F10925
100
AcDbEntity
8
Geo
100
AcDbLine
10
-85.3974477958237
20
-4.91576499390079
30
0.000000000000000
11
-85.2974477958237
21
-5.01860074273935
31
0.000000000000000
  0
LINE
  5
F10926
330
F10927
100
AcDbEntity
8
Geo
100
AcDbLine
10
-85.2974477958237
20
1.83854488395243
30
0.000000000000000
11
-85.1974477958237
21
1.67243539796553
31
0.000000000000000
  0
LINE
  5
F10928
330
F10929
100
AcDbEntity
8
Geo
100
AcDbLine
10
-85.2974477958237
20
-5.01860074273935
30
0.000000000000000
11
-85.1974477958237
21
-5.11511599697549
31
0.000000000000000
  0
LINE
  5
F1092A
330
F1092B
100
AcDbEntity
8
Geo
100
AcDbLine
10
-85.1974477958237
20
1.67243539796553
30
0.000000000000000
11
-85.0974477958237
21
1.50273498416970
31
0.000000000000000
  0
LINE
  5
F1092C
330
F1092D
100
AcDbEntity
8
Geo
100
AcDbLine
10
-85.1974477958237
20
-5.11511599697549
30
0.000000000000000
11
-85.0974477958237
21
-5.20516778869906
31
0.000000000000000
  0
LINE
  5
F1092E
330
F1092F
100
AcDbEntity
8
Geo
100
AcDbLine
10
-85.0974477958237
20
1.50273498416970
30
0.000000000000000
11
-84.9974477958237
21
1.32969501954890
31
0.000000000000000
  0
LINE
  5
F10930
330
F10931
100
AcDbEntity
8
Geo
100
AcDbLine
10
-85.0974477958237
20
-5.20516778869906
30
0.000000000000000
11
-84.9974477958237
21
-5.28862272431781
31
0.000000000000000
  0
LINE
  5
F10932
330
F10933
100
AcDbEntity
8
Geo
100
AcDbLine
10
-84.9974477958237
20
1.32969501954890
30
0.000000000000000
11
-84.8974477958237
21
1.15357182795898
31
0.000000000000000
  0
LINE
  5
F10934
330
F10935
100
AcDbEntity
8
Geo
100
AcDbLine
10
-84.9974477958237
20
-5.28862272431781
30
0.000000000000000
11
-84.8974477958237
21
-5.36535718215314
31
0.000000000000000
  0
LINE
  5
F10936
330
F10937
100
AcDbEntity
8
Geo
100
AcDbLine
10
-84.8974477958237
20
1.15357182795898
30
0.000000000000000
11
-84.7974477958237
21
0.974626300435611
31
0.000000000000000
  0
LINE
  5
F10938
330
F10939
100
AcDbEntity
8
Geo
100
AcDbLine
10
-84.8974477958237
20
-5.36535718215314
30
0.000000000000000
11
-84.7974477958237
21
-5.43525749556074
31
0.000000000000000
  0
LINE
  5
F1093A
330
F1093B
100
AcDbEntity
8
Geo
100
AcDbLine
10
-84.7974477958237
20
0.974626300435611
30
0.000000000000000
11
-84.6974477958237
21
0.793123508736655
31
0.000000000000000
  0
LINE
  5
F1093C
330
F1093D
100
AcDbEntity
8
Geo
100
AcDbLine
10
-84.7974477958237
20
-5.43525749556074
30
0.000000000000000
11
-84.6974477958237
21
-5.49822012130482
31
0.000000000000000
  0
LINE
  5
F1093E
330
F1093F
100
AcDbEntity
8
Geo
100
AcDbLine
10
-84.6974477958237
20
0.793123508736655
30
0.000000000000000
11
-84.5974477958237
21
0.609332312691843
31
0.000000000000000
  0
LINE
  5
F10940
330
F10941
100
AcDbEntity
8
Geo
100
AcDbLine
10
-84.6974477958237
20
-5.49822012130482
30
0.000000000000000
11
-84.5974477958237
21
-5.55415179293652
31
0.000000000000000
  0
LINE
  5
F10942
330
F10943
100
AcDbEntity
8
Geo
100
AcDbLine
10
-84.5974477958237
20
0.609332312691843
30
0.000000000000000
11
-84.4974477958237
21
0.423524961941009
31
0.000000000000000
  0
LINE
  5
F10944
330
F10945
100
AcDbEntity
8
Geo
100
AcDbLine
10
-84.5974477958237
20
-5.55415179293652
30
0.000000000000000
11
-84.4974477958237
21
-5.60296965894945
31
0.000000000000000
  0
LINE
  5
F10946
330
F10947
100
AcDbEntity
8
Geo
100
AcDbLine
10
-84.4974477958237
20
0.423524961941009
30
0.000000000000000
11
-84.3974477958237
21
0.235976692651123
31
0.000000000000000
  0
LINE
  5
F10948
330
F10949
100
AcDbEntity
8
Geo
100
AcDbLine
10
-84.4974477958237
20
-5.60296965894945
30
0.000000000000000
11
-84.3974477958237
21
-5.64460140550743
31
0.000000000000000
  0
LINE
  5
F1094A
330
F1094B
100
AcDbEntity
8
Geo
100
AcDbLine
10
-84.3974477958237
20
0.235976692651123
30
0.000000000000000
11
-84.2974477958237
21
0.0469653198093342
31
0.000000000000000
  0
LINE
  5
F1094C
330
F1094D
100
AcDbEntity
8
Geo
100
AcDbLine
10
-84.3974477958237
20
-5.64460140550743
30
0.000000000000000
11
-84.2974477958237
21
-5.67898536356292
31
0.000000000000000
  0
LINE
  5
F1094E
330
F1094F
100
AcDbEntity
8
Geo
100
AcDbLine
10
-84.2974477958237
20
0.0469653198093342
30
0.000000000000000
11
-84.1974477958237
21
-0.143229174303977
31
0.000000000000000
  0
LINE
  5
F10950
330
F10951
100
AcDbEntity
8
Geo
100
AcDbLine
10
-84.2974477958237
20
-5.67898536356292
30
0.000000000000000
11
-84.1974477958237
21
-5.70607060020729
31
0.000000000000000
  0
LINE
  5
F10952
330
F10953
100
AcDbEntity
8
Geo
100
AcDbLine
10
-84.1974477958237
20
-0.143229174303977
30
0.000000000000000
11
-84.0974477958237
21
-0.334325054852556
31
0.000000000000000
  0
LINE
  5
F10954
330
F10955
100
AcDbEntity
8
Geo
100
AcDbLine
10
-84.1974477958237
20
-5.70607060020729
30
0.000000000000000
11
-84.0974477958237
21
-5.72581699411763
31
0.000000000000000
  0
LINE
  5
F10956
330
F10957
100
AcDbEntity
8
Geo
100
AcDbLine
10
-84.0974477958237
20
-0.334325054852556
30
0.000000000000000
11
-83.9974477958237
21
-0.526039251777695
31
0.000000000000000
  0
LINE
  5
F10958
330
F10959
100
AcDbEntity
8
Geo
100
AcDbLine
10
-84.0974477958237
20
-5.72581699411763
30
0.000000000000000
11
-83.9974477958237
21
-5.73819529498846
31
0.000000000000000
  0
LINE
  5
F1095A
330
F1095B
100
AcDbEntity
8
Geo
100
AcDbLine
10
-83.9974477958237
20
-0.526039251777695
30
0.000000000000000
11
-83.8974477958237
21
-0.718087779109503
31
0.000000000000000
  0
LINE
  5
F1095C
330
F1095D
100
AcDbEntity
8
Geo
100
AcDbLine
10
-83.9974477958237
20
-5.73819529498846
30
0.000000000000000
11
-83.8974477958237
21
-5.74318716686015
31
0.000000000000000
  0
LINE
  5
F1095E
330
F1095F
100
AcDbEntity
8
Geo
100
AcDbLine
10
-83.8974477958237
20
-0.718087779109503
30
0.000000000000000
11
-83.7974477958237
21
-0.910186155634932
31
0.000000000000000
  0
LINE
  5
F10960
330
F10961
100
AcDbEntity
8
Geo
100
AcDbLine
10
-83.7974477958237
20
4.23730493685763
30
0.000000000000000
11
-83.6974477958237
21
4.22751271983294
31
0.000000000000000
  0
LINE
  5
F10962
330
F10963
100
AcDbEntity
8
Geo
100
AcDbLine
10
-83.7974477958237
20
-0.910186155634932
30
0.000000000000000
11
-83.6974477958237
21
-1.10204982629939
31
0.000000000000000
  0
LINE
  5
F10964
330
F10965
100
AcDbEntity
8
Geo
100
AcDbLine
10
-83.6974477958237
20
4.22751271983294
30
0.000000000000000
11
-83.5974477958237
21
4.21034474256111
31
0.000000000000000
  0
LINE
  5
F10966
330
F10967
100
AcDbEntity
8
Geo
100
AcDbLine
10
-83.6974477958237
20
-1.10204982629939
30
0.000000000000000
11
-83.5974477958237
21
-1.29339458371776
31
0.000000000000000
  0
LINE
  5
F10968
330
F10969
100
AcDbEntity
8
Geo
100
AcDbLine
10
-83.5974477958237
20
4.21034474256111
30
0.000000000000000
11
-83.4974477958237
21
4.18582643594269
31
0.000000000000000
  0
LINE
  5
F1096A
330
F1096B
100
AcDbEntity
8
Geo
100
AcDbLine
10
-83.5974477958237
20
-1.29339458371776
30
0.000000000000000
11
-83.4974477958237
21
-1.48393698917036
31
0.000000000000000
  0
LINE
  5
F1096C
330
F1096D
100
AcDbEntity
8
Geo
100
AcDbLine
10
-83.4974477958237
20
4.18582643594269
30
0.000000000000000
11
-83.3974477958237
21
4.15399411891073
31
0.000000000000000
  0
LINE
  5
F1096E
330
F1096F
100
AcDbEntity
8
Geo
100
AcDbLine
10
-83.4974477958237
20
-1.48393698917036
30
0.000000000000000
11
-83.3974477958237
21
-1.67339479246038
31
0.000000000000000
  0
LINE
  5
F10970
330
F10971
100
AcDbEntity
8
Geo
100
AcDbLine
10
-83.3974477958237
20
4.15399411891073
30
0.000000000000000
11
-83.2974477958237
21
4.11489494463162
31
0.000000000000000
  0
LINE
  5
F10972
330
F10973
100
AcDbEntity
8
Geo
100
AcDbLine
10
-83.3974477958237
20
-1.67339479246038
30
0.000000000000000
11
-83.2974477958237
21
-1.86148735001062
31
0.000000000000000
  0
LINE
  5
F10974
330
F10975
100
AcDbEntity
8
Geo
100
AcDbLine
10
-83.2974477958237
20
4.11489494463162
30
0.000000000000000
11
-83.1974477958237
21
4.06858683065716
31
0.000000000000000
  0
LINE
  5
F10976
330
F10977
100
AcDbEntity
8
Geo
100
AcDbLine
10
-83.2974477958237
20
-1.86148735001062
30
0.000000000000000
11
-83.1974477958237
21
-2.04793604058051
31
0.000000000000000
  0
LINE
  5
F10978
330
F10979
100
AcDbEntity
8
Geo
100
AcDbLine
10
-83.1974477958237
20
4.06858683065716
30
0.000000000000000
11
-83.0974477958237
21
4.01513837313135
31
0.000000000000000
  0
LINE
  5
F1097A
330
F1097B
100
AcDbEntity
8
Geo
100
AcDbLine
10
-83.1974477958237
20
-2.04793604058051
30
0.000000000000000
11
-83.0974477958237
21
-2.23246467798732
31
0.000000000000000
  0
LINE
  5
F1097C
330
F1097D
100
AcDbEntity
8
Geo
100
AcDbLine
10
-83.0974477958237
20
4.01513837313135
30
0.000000000000000
11
-82.9974477958237
21
3.95462874517904
31
0.000000000000000
  0
LINE
  5
F1097E
330
F1097F
100
AcDbEntity
8
Geo
100
AcDbLine
10
-83.0974477958237
20
-2.23246467798732
30
0.000000000000000
11
-82.9974477958237
21
-2.41479992022033
31
0.000000000000000
  0
LINE
  5
F10980
330
F10981
100
AcDbEntity
8
Geo
100
AcDbLine
10
-82.9974477958237
20
3.95462874517904
30
0.000000000000000
11
-82.8974477958237
21
3.88714757962691
31
0.000000000000000
  0
LINE
  5
F10982
330
F10983
100
AcDbEntity
8
Geo
100
AcDbLine
10
-82.9974477958237
20
-2.41479992022033
30
0.000000000000000
11
-82.8974477958237
21
-2.59467167434205
31
0.000000000000000
  0
LINE
  5
F10984
330
F10985
100
AcDbEntity
8
Geo
100
AcDbLine
10
-82.8974477958237
20
3.88714757962691
30
0.000000000000000
11
-82.7974477958237
21
3.81279483623042
31
0.000000000000000
  0
LINE
  5
F10986
330
F10987
100
AcDbEntity
8
Geo
100
AcDbLine
10
-82.8974477958237
20
-2.59467167434205
30
0.000000000000000
11
-82.7974477958237
21
-2.77181349657644
31
0.000000000000000
  0
LINE
  5
F10988
330
F10989
100
AcDbEntity
8
Geo
100
AcDbLine
10
-82.7974477958237
20
3.81279483623042
30
0.000000000000000
11
-82.6974477958237
21
3.73168065360367
31
0.000000000000000
  0
LINE
  5
F1098A
330
F1098B
100
AcDbEntity
8
Geo
100
AcDbLine
10
-82.7974477958237
20
-2.77181349657644
30
0.000000000000000
11
-82.6974477958237
21
-2.94596298699170
31
0.000000000000000
  0
LINE
  5
F1098C
330
F1098D
100
AcDbEntity
8
Geo
100
AcDbLine
10
-82.6974477958237
20
3.73168065360367
30
0.000000000000000
11
-82.5974477958237
21
3.64392518607113
31
0.000000000000000
  0
LINE
  5
F1098E
330
F1098F
100
AcDbEntity
8
Geo
100
AcDbLine
10
-82.6974477958237
20
-2.94596298699170
30
0.000000000000000
11
-82.5974477958237
21
-3.11686217819296
31
0.000000000000000
  0
LINE
  5
F10990
330
F10991
100
AcDbEntity
8
Geo
100
AcDbLine
10
-82.5974477958237
20
3.64392518607113
30
0.000000000000000
11
-82.4974477958237
21
3.54965842568326
31
0.000000000000000
  0
LINE
  5
F10992
330
F10993
100
AcDbEntity
8
Geo
100
AcDbLine
10
-82.5974477958237
20
-3.11686217819296
30
0.000000000000000
11
-82.4974477958237
21
-3.28425791744900
31
0.000000000000000
  0
LINE
  5
F10994
330
F10995
100
AcDbEntity
8
Geo
100
AcDbLine
10
-82.4974477958237
20
3.54965842568326
30
0.000000000000000
11
-82.3974477958237
21
3.44902000965945
31
0.000000000000000
  0
LINE
  5
F10996
330
F10997
100
AcDbEntity
8
Geo
100
AcDbLine
10
-82.4974477958237
20
-3.28425791744900
30
0.000000000000000
11
-82.3974477958237
21
-3.44790224168702
31
0.000000000000000
  0
LINE
  5
F10998
330
F10999
100
AcDbEntity
8
Geo
100
AcDbLine
10
-82.3974477958237
20
3.44902000965945
30
0.000000000000000
11
-82.2974477958237
21
3.34215901354362
31
0.000000000000000
  0
LINE
  5
F1099A
330
F1099B
100
AcDbEntity
8
Geo
100
AcDbLine
10
-82.3974477958237
20
-3.44790224168702
30
0.000000000000000
11
-82.2974477958237
21
-3.60755274480001
31
0.000000000000000
  0
LINE
  5
F1099C
330
F1099D
100
AcDbEntity
8
Geo
100
AcDbLine
10
-82.2974477958237
20
3.34215901354362
30
0.000000000000000
11
-82.1974477958237
21
3.22923373037880
31
0.000000000000000
  0
LINE
  5
F1099E
330
F1099F
100
AcDbEntity
8
Geo
100
AcDbLine
10
-82.2974477958237
20
-3.60755274480001
30
0.000000000000000
11
-82.1974477958237
21
-3.76297293672257
31
0.000000000000000
  0
LINE
  5
F109A0
330
F109A1
100
AcDbEntity
8
Geo
100
AcDbLine
10
-82.1974477958237
20
3.22923373037880
30
0.000000000000000
11
-82.0974477958237
21
3.11041143622790
31
0.000000000000000
  0
LINE
  5
F109A2
330
F109A3
100
AcDbEntity
8
Geo
100
AcDbLine
10
-82.1974477958237
20
-3.76297293672257
30
0.000000000000000
11
-82.0974477958237
21
-3.91393259374330
31
0.000000000000000
  0
LINE
  5
F109A4
330
F109A5
100
AcDbEntity
8
Geo
100
AcDbLine
10
-82.0974477958237
20
3.11041143622790
30
0.000000000000000
11
-81.9974477958237
21
2.98586814238789
31
0.000000000000000
  0
LINE
  5
F109A6
330
F109A7
100
AcDbEntity
8
Geo
100
AcDbLine
10
-82.0974477958237
20
-3.91393259374330
30
0.000000000000000
11
-81.9974477958237
21
-4.06020809953488
31
0.000000000000000
  0
LINE
  5
F109A8
330
F109A9
100
AcDbEntity
8
Geo
100
AcDbLine
10
-81.9974477958237
20
2.98586814238789
30
0.000000000000000
11
-81.8974477958237
21
2.85578833466453
31
0.000000000000000
  0
LINE
  5
F109AA
330
F109AB
100
AcDbEntity
8
Geo
100
AcDbLine
10
-81.9974477958237
20
-4.06020809953488
30
0.000000000000000
11
-81.8974477958237
21
-4.20158277639659
31
0.000000000000000
  0
LINE
  5
F109AC
330
F109AD
100
AcDbEntity
8
Geo
100
AcDbLine
10
-81.8974477958237
20
2.85578833466453
30
0.000000000000000
11
-81.7974477958237
21
2.72036470009378
31
0.000000000000000
  0
LINE
  5
F109AE
330
F109AF
100
AcDbEntity
8
Geo
100
AcDbLine
10
-81.8974477958237
20
-4.20158277639659
30
0.000000000000000
11
-81.7974477958237
21
-4.33784720621872
31
0.000000000000000
  0
LINE
  5
F109B0
330
F109B1
100
AcDbEntity
8
Geo
100
AcDbLine
10
-81.7974477958237
20
2.72036470009378
30
0.000000000000000
11
-81.6974477958237
21
2.57979784151481
31
0.000000000000000
  0
LINE
  5
F109B2
330
F109B3
100
AcDbEntity
8
Geo
100
AcDbLine
10
-81.7974477958237
20
-4.33784720621872
30
0.000000000000000
11
-81.6974477958237
21
-4.46879954069329
31
0.000000000000000
  0
LINE
  5
F109B4
330
F109B5
100
AcDbEntity
8
Geo
100
AcDbLine
10
-81.6974477958237
20
2.57979784151481
30
0.000000000000000
11
-81.5974477958237
21
2.43429598041725
31
0.000000000000000
  0
LINE
  5
F109B6
330
F109B7
100
AcDbEntity
8
Geo
100
AcDbLine
10
-81.6974477958237
20
-4.46879954069329
30
0.000000000000000
11
-81.5974477958237
21
-4.59424580031167
31
0.000000000000000
  0
LINE
  5
F109B8
330
F109B9
100
AcDbEntity
8
Geo
100
AcDbLine
10
-81.5974477958237
20
2.43429598041725
30
0.000000000000000
11
-81.4974477958237
21
2.28407464850300
31
0.000000000000000
  0
LINE
  5
F109BA
330
F109BB
100
AcDbEntity
8
Geo
100
AcDbLine
10
-81.5974477958237
20
-4.59424580031167
30
0.000000000000000
11
-81.4974477958237
21
-4.71400016170619
31
0.000000000000000
  0
LINE
  5
F109BC
330
F109BD
100
AcDbEntity
8
Geo
100
AcDbLine
10
-81.4974477958237
20
2.28407464850300
30
0.000000000000000
11
-81.3974477958237
21
2.12935636841946
31
0.000000000000000
  0
LINE
  5
F109BE
330
F109BF
100
AcDbEntity
8
Geo
100
AcDbLine
10
-81.4974477958237
20
-4.71400016170619
30
0.000000000000000
11
-81.3974477958237
21
-4.82788523290998
31
0.000000000000000
  0
LINE
  5
F109C0
330
F109C1
100
AcDbEntity
8
Geo
100
AcDbLine
10
-81.3974477958237
20
2.12935636841946
30
0.000000000000000
11
-81.2974477958237
21
1.97037032413700
31
0.000000000000000
  0
LINE
  5
F109C2
330
F109C3
100
AcDbEntity
8
Geo
100
AcDbLine
10
-81.3974477958237
20
-4.82788523290998
30
0.000000000000000
11
-81.2974477958237
21
-4.93573231612745
31
0.000000000000000
  0
LINE
  5
F109C4
330
F109C5
100
AcDbEntity
8
Geo
100
AcDbLine
10
-81.2974477958237
20
1.97037032413700
30
0.000000000000000
11
-81.1974477958237
21
1.80735202145911
31
0.000000000000000
  0
LINE
  5
F109C6
330
F109C7
100
AcDbEntity
8
Geo
100
AcDbLine
10
-81.2974477958237
20
-4.93573231612745
30
0.000000000000000
11
-81.1974477958237
21
-5.03738165762614
31
0.000000000000000
  0
LINE
  5
F109C8
330
F109C9
100
AcDbEntity
8
Geo
100
AcDbLine
10
-81.1974477958237
20
1.80735202145911
30
0.000000000000000
11
-81.0974477958237
21
1.64054293916792
31
0.000000000000000
  0
LINE
  5
F109CA
330
F109CB
100
AcDbEntity
8
Geo
100
AcDbLine
10
-81.1974477958237
20
-5.03738165762614
30
0.000000000000000
11
-81.0974477958237
21
-5.13268268437965
31
0.000000000000000
  0
LINE
  5
F109CC
330
F109CD
100
AcDbEntity
8
Geo
100
AcDbLine
10
-81.0974477958237
20
1.64054293916792
30
0.000000000000000
11
-80.9974477958237
21
1.47019017132211
31
0.000000000000000
  0
LINE
  5
F109CE
330
F109CF
100
AcDbEntity
8
Geo
100
AcDbLine
10
-81.0974477958237
20
-5.13268268437965
30
0.000000000000000
11
-80.9974477958237
21
-5.22149422711128
31
0.000000000000000
  0
LINE
  5
F109D0
330
F109D1
100
AcDbEntity
8
Geo
100
AcDbLine
10
-80.9974477958237
20
1.47019017132211
30
0.000000000000000
11
-80.8974477958237
21
1.29654606123675
31
0.000000000000000
  0
LINE
  5
F109D2
330
F109D3
100
AcDbEntity
8
Geo
100
AcDbLine
10
-80.9974477958237
20
-5.22149422711128
30
0.000000000000000
11
-80.8974477958237
21
-5.30368472940785
31
0.000000000000000
  0
LINE
  5
F109D4
330
F109D5
100
AcDbEntity
8
Geo
100
AcDbLine
10
-80.8974477958237
20
1.29654606123675
30
0.000000000000000
11
-80.7974477958237
21
1.11986782768754
31
0.000000000000000
  0
LINE
  5
F109D6
330
F109D7
100
AcDbEntity
8
Geo
100
AcDbLine
10
-80.8974477958237
20
-5.30368472940785
30
0.000000000000000
11
-80.7974477958237
21
-5.37913244259409
31
0.000000000000000
  0
LINE
  5
F109D8
330
F109D9
100
AcDbEntity
8
Geo
100
AcDbLine
10
-80.7974477958237
20
1.11986782768754
30
0.000000000000000
11
-80.6974477958237
21
0.940417183893012
31
0.000000000000000
  0
LINE
  5
F109DA
330
F109DB
100
AcDbEntity
8
Geo
100
AcDbLine
10
-80.7974477958237
20
-5.37913244259409
30
0.000000000000000
11
-80.6974477958237
21
-5.44772560607871
31
0.000000000000000
  0
LINE
  5
F109DC
330
F109DD
100
AcDbEntity
8
Geo
100
AcDbLine
10
-80.6974477958237
20
0.940417183893012
30
0.000000000000000
11
-80.5974477958237
21
0.758459949839058
31
0.000000000000000
  0
LINE
  5
F109DE
330
F109DF
100
AcDbEntity
8
Geo
100
AcDbLine
10
-80.6974477958237
20
-5.44772560607871
30
0.000000000000000
11
-80.5974477958237
21
-5.50936261290524
31
0.000000000000000
  0
LINE
  5
F109E0
330
F109E1
100
AcDbEntity
8
Geo
100
AcDbLine
10
-80.5974477958237
20
0.758459949839058
30
0.000000000000000
11
-80.4974477958237
21
0.574265658520213
31
0.000000000000000
  0
LINE
  5
F109E2
330
F109E3
100
AcDbEntity
8
Geo
100
AcDbLine
10
-80.5974477958237
20
-5.50936261290524
30
0.000000000000000
11
-80.4974477958237
21
-5.56395216026230
31
0.000000000000000
  0
LINE
  5
F109E4
330
F109E5
100
AcDbEntity
8
Geo
100
AcDbLine
10
-80.4974477958237
20
0.574265658520213
30
0.000000000000000
11
-80.3974477958237
21
0.388107156680781
31
0.000000000000000
  0
LINE
  5
F109E6
330
F109E7
100
AcDbEntity
8
Geo
100
AcDbLine
10
-80.4974477958237
20
-5.56395216026230
30
0.000000000000000
11
-80.3974477958237
21
-5.61141338473026
31
0.000000000000000
  0
LINE
  5
F109E8
330
F109E9
100
AcDbEntity
8
Geo
100
AcDbLine
10
-80.3974477958237
20
0.388107156680781
30
0.000000000000000
11
-80.2974477958237
21
0.200260200647346
31
0.000000000000000
  0
LINE
  5
F109EA
330
F109EB
100
AcDbEntity
8
Geo
100
AcDbLine
10
-80.3974477958237
20
-5.61141338473026
30
0.000000000000000
11
-80.2974477958237
21
-5.65167598206416
31
0.000000000000000
  0
LINE
  5
F109EC
330
F109ED
100
AcDbEntity
8
Geo
100
AcDbLine
10
-80.2974477958237
20
0.200260200647346
30
0.000000000000000
11
-80.1974477958237
21
0.0110030478513093
31
0.000000000000000
  0
LINE
  5
F109EE
330
F109EF
100
AcDbEntity
8
Geo
100
AcDbLine
10
-80.2974477958237
20
-5.65167598206416
30
0.000000000000000
11
-80.1974477958237
21
-5.68468031133529
31
0.000000000000000
  0
LINE
  5
F109F0
330
F109F1
100
AcDbEntity
8
Geo
100
AcDbLine
10
-80.1974477958237
20
0.0110030478513093
30
0.000000000000000
11
-80.0974477958237
21
-0.179383955353449
31
0.000000000000000
  0
LINE
  5
F109F2
330
F109F3
100
AcDbEntity
8
Geo
100
AcDbLine
10
-80.1974477958237
20
-5.68468031133529
30
0.000000000000000
11
-80.0974477958237
21
-5.71037748327718
31
0.000000000000000
  0
LINE
  5
F109F4
330
F109F5
100
AcDbEntity
8
Geo
100
AcDbLine
10
-80.0974477958237
20
-0.179383955353449
30
0.000000000000000
11
-79.9974477958237
21
-0.370618788967229
31
0.000000000000000
  0
LINE
  5
F109F6
330
F109F7
100
AcDbEntity
8
Geo
100
AcDbLine
10
-80.0974477958237
20
-5.71037748327718
30
0.000000000000000
11
-79.9974477958237
21
-5.72872943270522
31
0.000000000000000
  0
LINE
  5
F109F8
330
F109F9
100
AcDbEntity
8
Geo
100
AcDbLine
10
-79.9974477958237
20
-0.370618788967229
30
0.000000000000000
11
-79.8974477958237
21
-0.562418177100345
31
0.000000000000000
  0
LINE
  5
F109FA
330
F109FB
100
AcDbEntity
8
Geo
100
AcDbLine
10
-79.9974477958237
20
-5.72872943270522
30
0.000000000000000
11
-79.8974477958237
21
-5.73970897490258
31
0.000000000000000
  0
LINE
  5
F109FC
330
F109FD
100
AcDbEntity
8
Geo
100
AcDbLine
10
-79.8974477958237
20
-0.562418177100345
30
0.000000000000000
11
-79.7974477958237
21
-0.754498007589289
31
0.000000000000000
  0
LINE
  5
F109FE
330
F109FF
100
AcDbEntity
8
Geo
100
AcDbLine
10
-79.7974477958237
20
4.23981956746658
30
0.000000000000000
11
-79.6974477958237
21
4.23601644808964
31
0.000000000000000
  0
LINE
  5
F10A00
330
F10A01
100
AcDbEntity
8
Geo
100
AcDbLine
10
-79.7974477958237
20
-0.754498007589289
30
0.000000000000000
11
-79.6974477958237
21
-0.946573752851688
31
0.000000000000000
  0
LINE
  5
F10A02
330
F10A03
100
AcDbEntity
8
Geo
100
AcDbLine
10
-79.6974477958237
20
4.23601644808964
30
0.000000000000000
11
-79.5974477958237
21
4.22482497190486
31
0.000000000000000
  0
LINE
  5
F10A04
330
F10A05
100
AcDbEntity
8
Geo
100
AcDbLine
10
-79.6974477958237
20
-0.946573752851688
30
0.000000000000000
11
-79.5974477958237
21
-1.13836089135661
31
0.000000000000000
  0
LINE
  5
F10A06
330
F10A07
100
AcDbEntity
8
Geo
100
AcDbLine
10
-79.5974477958237
20
4.22482497190486
30
0.000000000000000
11
-79.4974477958237
21
4.20626171683016
31
0.000000000000000
  0
LINE
  5
F10A08
330
F10A09
100
AcDbEntity
8
Geo
100
AcDbLine
10
-79.5974477958237
20
-1.13836089135661
30
0.000000000000000
11
-79.4974477958237
21
-1.32957532908591
31
0.000000000000000
  0
LINE
  5
F10A0A
330
F10A0B
100
AcDbEntity
8
Geo
100
AcDbLine
10
-79.4974477958237
20
4.20626171683016
30
0.000000000000000
11
-79.3974477958237
21
4.18035418058912
31
0.000000000000000
  0
LINE
  5
F10A0C
330
F10A0D
100
AcDbEntity
8
Geo
100
AcDbLine
10
-79.4974477958237
20
-1.32957532908591
30
0.000000000000000
11
-79.3974477958237
21
-1.51993382036230
31
0.000000000000000
  0
LINE
  5
F10A0E
330
F10A0F
100
AcDbEntity
8
Geo
100
AcDbLine
10
-79.3974477958237
20
4.18035418058912
30
0.000000000000000
11
-79.2974477958237
21
4.14714073997870
31
0.000000000000000
  0
LINE
  5
F10A10
330
F10A11
100
AcDbEntity
8
Geo
100
AcDbLine
10
-79.3974477958237
20
-1.51993382036230
30
0.000000000000000
11
-79.2974477958237
21
-1.70915438742074
31
0.000000000000000
  0
LINE
  5
F10A12
330
F10A13
100
AcDbEntity
8
Geo
100
AcDbLine
10
-79.2974477958237
20
4.14714073997870
30
0.000000000000000
11
-79.1974477958237
21
4.10667059402169
31
0.000000000000000
  0
LINE
  5
F10A14
330
F10A15
100
AcDbEntity
8
Geo
100
AcDbLine
10
-79.2974477958237
20
-1.70915438742074
30
0.000000000000000
11
-79.1974477958237
21
-1.89695673810176
31
0.000000000000000
  0
LINE
  5
F10A16
330
F10A17
100
AcDbEntity
8
Geo
100
AcDbLine
10
-79.1974477958237
20
4.10667059402169
30
0.000000000000000
11
-79.0974477958237
21
4.05900369108830
31
0.000000000000000
  0
LINE
  5
F10A18
330
F10A19
100
AcDbEntity
8
Geo
100
AcDbLine
10
-79.1974477958237
20
-1.89695673810176
30
0.000000000000000
11
-79.0974477958237
21
-2.08306268104781
31
0.000000000000000
  0
LINE
  5
F10A1A
330
F10A1B
100
AcDbEntity
8
Geo
100
AcDbLine
10
-96.0974477958237
20
-0.751740139211137
30
0.000000000000000
11
-96.0974477958237
21
-0.751740139211137
31
0.000000000000000
  0
LINE
  5
F10A1C
330
F10A1D
100
AcDbEntity
8
Geo
100
AcDbLine
10
-96.0974477958237
20
-0.751740139211137
30
0.000000000000000
11
-96.0974477958237
21
-0.751740139211137
31
0.000000000000000
  0
LINE
  5
F10A1E
330
F10A1F
100
AcDbEntity
8
Geo
100
AcDbLine
10
-97.0974477958237
20
-0.751740139211137
30
0.000000000000000
11
-96.7974477958237
21
-0.751740139211137
31
0.000000000000000
  0
LINE
  5
F10A20
330
F10A21
100
AcDbEntity
8
Geo
100
AcDbLine
10
-96.6699477958237
20
-0.751740139211137
30
0.000000000000000
11
-96.5849477958237
21
-0.751740139211137
31
0.000000000000000
  0
LINE
  5
F10A22
330
F10A23
100
AcDbEntity
8
Geo
100
AcDbLine
10
-96.3724477958237
20
-0.751740139211137
30
0.000000000000000
11
-95.9474477958236
21
-0.751740139211137
31
0.000000000000000
  0
LINE
  5
F10A24
330
F10A25
100
AcDbEntity
8
Geo
100
AcDbLine
10
-95.8199477958237
20
-0.751740139211137
30
0.000000000000000
11
-95.7349477958237
21
-0.751740139211137
31
0.000000000000000
  0
LINE
  5
F10A26
330
F10A27
100
AcDbEntity
8
Geo
100
AcDbLine
10
-95.5224477958237
20
-0.751740139211137
30
0.000000000000000
11
-95.0974477958237
21
-0.751740139211137
31
0.000000000000000
  0
LINE
  5
F10A28
330
F10A29
100
AcDbEntity
8
Geo
100
AcDbLine
10
-26.0974477958237
20
3.24825986078886
30
0.000000000000000
11
-26.0974477958237
21
-0.751740139211137
31
0.000000000000000
  0
LINE
  5
F10A2A
330
F10A2B
100
AcDbEntity
8
Geo
100
AcDbLine
10
-95.9406091052602
20
-0.751740139211137
30
0.000000000000000
11
-96.0971432093332
21
-5.23429039085989
31
0.000000000000000
  0
ARC
  5
F10A2C
330
F10A2D
100
AcDbEntity
8
Geo
100
AcDbCircle
10
-95.5974477958237
20
-5.25174013921114
30
0.000000000000000
 40
0.500000000000000
100
AcDbArc
 50
178.000000000000
 51
270.000000000000
  0
LINE
  5
F10A2E
330
F10A2F
100
AcDbEntity
8
Geo
100
AcDbLine
10
-95.5974477958237
20
-5.75174013921114
30
0.000000000000000
11
-74.0974477958237
21
-5.75174013921114
31
0.000000000000000
  0
LINE
  5
F10A30
330
F10A31
100
AcDbEntity
8
Geo
100
AcDbLine
10
-74.0974477958237
20
-5.75174013921114
30
0.000000000000000
11
-74.0974477958237
21
-5.45174013921114
31
0.000000000000000
  0
LINE
  5
F10A32
330
F10A33
100
AcDbEntity
8
Geo
100
AcDbLine
10
-74.0974477958237
20
-5.45174013921114
30
0.000000000000000
11
-66.0974477958237
21
-5.45174013921114
31
0.000000000000000
  0
LINE
  5
F10A34
330
F10A35
100
AcDbEntity
8
Geo
100
AcDbLine
10
-66.0974477958237
20
-5.45174013921114
30
0.000000000000000
11
-66.0974477958237
21
-5.75174013921114
31
0.000000000000000
  0
LINE
  5
F10A36
330
F10A37
100
AcDbEntity
8
Geo
100
AcDbLine
10
-66.0974477958237
20
-5.75174013921114
30
0.000000000000000
11
-27.0974477958237
21
-5.75174013921114
31
0.000000000000000
  0
LINE
  5
F10A38
330
F10A39
100
AcDbEntity
8
Geo
100
AcDbLine
10
-27.0974477958237
20
-5.75174013921114
30
0.000000000000000
11
-26.0974477958237
21
-4.75174013921114
31
0.000000000000000
  0
LINE
  5
F10A3A
330
F10A3B
100
AcDbEntity
8
Geo
100
AcDbLine
10
-95.5974477958237
20
4.24825986078886
30
0.000000000000000
11
-95.5974477958237
21
-5.75174013921114
31
0.000000000000000
  0
LINE
  5
F10A3C
330
F10A3D
100
AcDbEntity
8
Geo
100
AcDbLine
10
-95.5974477958237
20
4.24825986078886
30
0.000000000000000
11
-95.5974477958237
21
-5.75174013921114
31
0.000000000000000
  0
LINE
  5
F10A3E
330
F10A3F
100
AcDbEntity
8
Geo
100
AcDbLine
10
-74.0974477958237
20
4.24825986078886
30
0.000000000000000
11
-74.0974477958237
21
-5.75174013921114
31
0.000000000000000
  0
LINE
  5
F10A40
330
F10A41
100
AcDbEntity
8
Geo
100
AcDbLine
10
-74.0974477958237
20
3.94825986078886
30
0.000000000000000
11
-74.0974477958237
21
-5.45174013921114
31
0.000000000000000
  0
LINE
  5
F10A42
330
F10A43
100
AcDbEntity
8
Geo
100
AcDbLine
10
-66.0974477958237
20
3.94825986078886
30
0.000000000000000
11
-66.0974477958237
21
-5.45174013921114
31
0.000000000000000
  0
LINE
  5
F10A44
330
F10A45
100
AcDbEntity
8
Geo
100
AcDbLine
10
-66.0974477958237
20
3.94825986078886
30
0.000000000000000
11
-66.0974477958237
21
-5.45174013921114
31
0.000000000000000
  0
LINE
  5
F10A46
330
F10A47
100
AcDbEntity
8
Geo
100
AcDbLine
10
-27.0974477958237
20
4.24825986078886
30
0.000000000000000
11
-27.0974477958237
21
-5.75174013921114
31
0.000000000000000
  0
LINE
  5
F10A48
330
F10A49
100
AcDbEntity
8
Geo
100
AcDbLine
10
-26.0974477958237
20
3.24825986078886
30
0.000000000000000
11
-26.0974477958237
21
-4.75174013921114
31
0.000000000000000
  0
LWPOLYLINE
  5
F10A4A
330
F10A4B
100
AcDbEntity
8
Rahmen
100
AcDbPolyline
90
   4
70
   1
43
   0.0
 10
-125.554794657213
 20
102.947763502622
 10
134.436920725246
 20
102.947763502622
 10
134.436920725246
 20
-102.898459986900
 10
-125.554794657213
 20
-102.898459986900
  0
TEXT
  5
F10A4C
330
F10A4D
 100
AcDbEntity
8
Text
100
AcDbText
10
-124.621251693541
20
-102.398459986900
30
0.000000000000000
40
1.00000000000000
1
ISBESketcher
100
AcDbText
  0
LWPOLYLINE
  5
F10A4E
330
F10A4F
100
AcDbEntity
8
Rahmen
100
AcDbPolyline
90
   4
70
   1
43
   0.0
 10
94.4501637813248
 20
-99.9422406019413
 10
134.436920725246
 20
-99.9422406019413
 10
134.436920725246
 20
-102.898459986900
 10
94.4501637813248
 20
-102.898459986900
  0
TEXT
  5
F10A50
330
F10A51
 100
AcDbEntity
8
Text
100
AcDbText
10
95.5000000000000
20
-102.027952469726
30
0.000000000000000
40
0.750000000000000
1
Created by:
100
AcDbText
  0
TEXT
  5
F10A52
330
F10A53
 100
AcDbEntity
8
Text
100
AcDbText
10
120.555118825685
20
-102.027952469726
30
0.000000000000000
40
0.750000000000000
1
nsarkol
100
AcDbText
  0
LWPOLYLINE
  5
F10A54
330
F10A55
100
AcDbEntity
8
Rahmen
100
AcDbPolyline
90
   4
70
   1
43
   0.0
 10
54.4634068374039
 20
-99.9422406019413
 10
94.4501637813248
 20
-99.9422406019413
 10
94.4501637813248
 20
-102.898459986900
 10
54.4634068374039
 20
-102.898459986900
  0
TEXT
  5
F10A56
330
F10A57
 100
AcDbEntity
8
Text
100
AcDbText
10
55.5000000000000
20
-102.027952469726
30
0.000000000000000
40
0.750000000000000
1
Created for:
100
AcDbText
  0
TEXT
  5
F10A58
330
F10A59
 100
AcDbEntity
8
Text
100
AcDbText
10
0.000000000000000
20
0.250000000000000
30
0.000000000000000
40
0.750000000000000
1

100
AcDbText
  0
LWPOLYLINE
  5
F10A5A
330
F10A5B
100
AcDbEntity
8
Rahmen
100
AcDbPolyline
90
   4
70
   1
43
   0.0
 10
121.056138245957
 20
-96.9860212169822
 10
134.436920725246
 20
-96.9860212169822
 10
134.436920725246
 20
-99.9422406019413
 10
121.056138245957
 20
-99.9422406019413
  0
TEXT
  5
F10A5C
330
F10A5D
 100
AcDbEntity
8
Text
100
AcDbText
10
122.166666666667
20
-99.0279524697261
30
0.000000000000000
40
0.750000000000000
1
Pages
100
AcDbText
  0
TEXT
  5
F10A5E
330
F10A5F
 100
AcDbEntity
8
Text
100
AcDbText
10
0.000000000000000
20
0.250000000000000
30
0.000000000000000
40
0.750000000000000
1

100
AcDbText
  0
LWPOLYLINE
  5
F10A60
330
F10A61
100
AcDbEntity
8
Rahmen
100
AcDbPolyline
90
   4
70
   1
43
   0.0
 10
121.056138245957
 20
-93.8742113380779
 10
134.436920725246
 20
-93.8742113380779
 10
134.436920725246
 20
-96.9860212169822
 10
121.056138245957
 20
-96.9860212169822
  0
TEXT
  5
F10A62
330
F10A63
 100
AcDbEntity
8
Text
100
AcDbText
10
122.166666666667
20
-96.0279524697261
30
0.000000000000000
40
0.750000000000000
1
Page
100
AcDbText
  0
TEXT
  5
F10A64
330
F10A65
 100
AcDbEntity
8
Text
100
AcDbText
10
0.000000000000000
20
0.250000000000000
30
0.000000000000000
40
0.750000000000000
1

100
AcDbText
  0
LWPOLYLINE
  5
F10A66
330
F10A67
100
AcDbEntity
8
Rahmen
100
AcDbPolyline
90
   4
70
   1
43
   0.0
 10
54.4634068374039
 20
-93.8742113380779
 10
121.056138245957
 20
-93.8742113380779
 10
121.056138245957
 20
-99.9422406019413
 10
54.4634068374039
 20
-99.9422406019413
  0
TEXT
  5
F10A68
330
F10A69
 100
AcDbEntity
8
Text
100
AcDbText
10
55.5000000000000
20
-96.0279524697261
30
0.000000000000000
40
0.750000000000000
1
Date:
100
AcDbText
  0
TEXT
  5
F10A6A
330
F10A6B
 100
AcDbEntity
8
Text
100
AcDbText
10
84.9549091953468
20
-99.0279524697261
30
0.000000000000000
40
0.750000000000000
1
05.07.2016
100
AcDbText
  0
LWPOLYLINE
  5
F10A6C
330
F10A6D
100
AcDbEntity
8
Rahmen
100
AcDbPolyline
90
   4
70
   1
43
   0.0
 10
54.4634068374039
 20
-87.9617725681596
 10
134.436920725246
 20
-87.9617725681596
 10
134.436920725246
 20
-93.8742113380779
 10
54.4634068374039
 20
-93.8742113380779
  0
TEXT
  5
F10A6E
330
F10A6F
 100
AcDbEntity
8
Text
100
AcDbText
10
0.000000000000000
20
0.500000000000000
30
0.000000000000000
40
1.50000000000000
1

100
AcDbText
  0
TEXT
  5
F10A70
330
F10A71
 100
AcDbEntity
8
Text
100
AcDbText
10
65.6379633731622
20
-92.6561145697901
30
0.000000000000000
40
2.50000000000000
1
VHVTR 4 100 070 10 03 050 L
100
AcDbText
  0
LWPOLYLINE
  5
F10A72
330
F10A73
100
AcDbEntity
8
Rahmen
100
AcDbPolyline
90
   4
70
   1
43
   0.0
 10
94.4501637813248
 20
-82.0493337982413
 10
134.436920725246
 20
-82.0493337982413
 10
134.436920725246
 20
-87.9617725681596
 10
94.4501637813248
 20
-87.9617725681596
  0
TEXT
  5
F10A74
330
F10A75
 100
AcDbEntity
8
Text
100
AcDbText
10
95.5000000000000
20
-84.0279524697261
30
0.000000000000000
40
0.750000000000000
1
Work piece material:
100
AcDbText
  0
TEXT
  5
F10A76
330
F10A77
 100
AcDbEntity
8
Text
100
AcDbText
10
0.000000000000000
20
0.250000000000000
30
0.000000000000000
40
0.750000000000000
1

100
AcDbText
  0
LWPOLYLINE
  5
F10A78
330
F10A79
100
AcDbEntity
8
Rahmen
100
AcDbPolyline
90
   4
70
   1
43
   0.0
 10
54.4634068374039
 20
-82.0493337982413
 10
94.4501637813248
 20
-82.0493337982413
 10
94.4501637813248
 20
-87.9617725681596
 10
54.4634068374039
 20
-87.9617725681596
  0
TEXT
  5
F10A7A
330
F10A7B
 100
AcDbEntity
8
Text
100
AcDbText
10
55.5000000000000
20
-84.0279524697261
30
0.000000000000000
40
0.750000000000000
1
Tool material:
100
AcDbText
  0
TEXT
  5
F10A7C
330
F10A7D
 100
AcDbEntity
8
Text
100
AcDbText
10
0.000000000000000
20
0.250000000000000
30
0.000000000000000
40
0.750000000000000
1

100
AcDbText
  0
LWPOLYLINE
  5
F10A7E
330
F10A7F
100
AcDbEntity
8
Rahmen
100
AcDbPolyline
90
   4
70
   1
43
   0.0
 10
94.4501637813248
 20
-79.0931144132822
 10
134.436920725246
 20
-79.0931144132822
 10
134.436920725246
 20
-82.0493337982413
 10
94.4501637813248
 20
-82.0493337982413
  0
TEXT
  5
F10A80
330
F10A81
 100
AcDbEntity
8
Text
100
AcDbText
10
0.000000000000000
20
0.500000000000000
30
0.000000000000000
40
1.50000000000000
1

100
AcDbText
  0
TEXT
  5
F10A82
330
F10A83
 100
AcDbEntity
8
Text
100
AcDbText
10
0.000000000000000
20
0.250000000000000
30
0.000000000000000
40
0.750000000000000
1

100
AcDbText
  0
LWPOLYLINE
  5
F10A84
330
F10A85
100
AcDbEntity
8
Rahmen
100
AcDbPolyline
90
   4
70
   1
43
   0.0
 10
54.4634068374039
 20
-79.0931144132822
 10
94.4501637813248
 20
-79.0931144132822
 10
94.4501637813248
 20
-82.0493337982413
 10
54.4634068374039
 20
-82.0493337982413
  0
TEXT
  5
F10A86
330
F10A87
 100
AcDbEntity
8
Text
100
AcDbText
10
55.5000000000000
20
-81.0279524697261
30
0.000000000000000
40
0.750000000000000
1
Scale:
100
AcDbText
  0
TEXT
  5
F10A88
330
F10A89
 100
AcDbEntity
8
Text
100
AcDbText
10
81.3330712954109
20
-81.0279524697261
30
0.000000000000000
40
0.750000000000000
1
3 : 1
100
AcDbText
0
VIEWPORT
5
294
102
{ACAD_XDICTIONARY
360
58A
102
}
330
25D
100
AcDbEntity
67
1
8
0
60
1
100
AcDbViewport
10
0.0
20
0.0
30
0.0
40
10.0
41
10.0
68
-1
69
1
12
0.0
22
0.0
13
0.0
23
0.0
14
1.0
24
1.0
15
0.0
25
0.0
16
0.0
26
0.0
36
1.0
17
0.0
27
0.0
37
0.0
42
0.0
43
0.0
44
0.0
45
10.0
50
0.0
51
0.0000000000007958
72
100
90
32800
1

281
0
71
0
74
0
110
0.0
120
0.0
130
0.0
111
1.0
121
0.0
131
0.0
112
0.0
122
1.0
132
0.0
79
0
146
0.0
1001
VD_INVISIBLE_NOT_FOR_READ
1000
VD_INVISIBLE_NOT_FOR_READ
0
VIEWPORT
5
295
102
{ACAD_XDICTIONARY
360
58C
102
}
330
25D
100
AcDbEntity
67
1
8
0
60
1
100
AcDbViewport
10
0.0
20
0.0
30
0.0
40
10.0
41
10.0
68
0
69
2
12
0.0
22
0.0
13
0.0
23
0.0
14
1.0
24
1.0
15
0.0
25
0.0
16
0.0
26
0.0
36
1.0
17
0.0
27
0.0
37
0.0
42
0.0
43
0.0
44
0.0
45
10.0
50
0.0
51
0.0000000000007958
72
100
90
163872
1

281
0
71
0
74
0
110
0.0
120
0.0
130
0.0
111
1.0
121
0.0
131
0.0
112
0.0
122
1.0
132
0.0
79
0
146
0.0
1001
VD_INVISIBLE_NOT_FOR_READ
1000
VD_INVISIBLE_NOT_FOR_READ
0
ENDSEC
0
SECTION
2
OBJECTS
0
DICTIONARY
5
13
330
0
100
AcDbDictionary
281
1
3
ACAD_COLOR
350
FA7
3
ACAD_GROUP
350
14
3
ACAD_LAYOUT
350
FCF
3
ACAD_MATERIAL
350
F7A
3
ACAD_MLEADERSTYLE
350
FCD
3
ACAD_MLINESTYLE
350
16
3
ACAD_PLOTSETTINGS
350
17
3
ACAD_PLOTSTYLENAME
350
18
3
ACAD_SCALELIST
350
FAB
3
ACAD_TABLESTYLE
350
FA8
3
ACAD_VISUALSTYLE
350
F93
3
ACDB_RECOMPOSE_DATA
350
107E
3
AcDbVariableDictionary
350
FF0
3
DWGPROPS
350
107F
0
DICTIONARY
5
F10019
330
F10018
100
AcDbDictionary
280
1
281
1
3
ACAD_MTEXT_2008_RT
360
F1001A
0
DICTIONARY
5
F1001E
330
F1001D
100
AcDbDictionary
280
1
281
1
3
ACAD_MTEXT_2008_RT
360
F1001F
0
DICTIONARY
5
F10028
330
F10027
100
AcDbDictionary
280
1
281
1
3
ACAD_MTEXT_2008_RT
360
F10029
0
DICTIONARY
5
F1002D
330
F1002C
100
AcDbDictionary
280
1
281
1
3
ACAD_MTEXT_2008_RT
360
F1002E
0
DICTIONARY
5
F10005
330
F10004
100
AcDbDictionary
280
1
281
1
3
ACAD_MTEXT_2008_RT
360
F10006
0
DICTIONARY
5
F1000F
330
F1000E
100
AcDbDictionary
280
1
281
1
3
ACAD_MTEXT_2008_RT
360
F10010
0
DICTIONARY
5
F1000A
330
F10009
100
AcDbDictionary
280
1
281
1
3
ACAD_MTEXT_2008_RT
360
F1000B
0
DICTIONARY
5
F10014
330
F10013
100
AcDbDictionary
280
1
281
1
3
ACAD_MTEXT_2008_RT
360
F10015
0
DICTIONARY
5
F10023
330
F10022
100
AcDbDictionary
280
1
281
1
3
ACAD_MTEXT_2008_RT
360
F10024
0
DICTIONARY
5
FA7
102
{ACAD_REACTORS
330
13
102
}
330
13
100
AcDbDictionary
281
1
0
DICTIONARY
5
14
330
13
100
AcDbDictionary
281
1
0
DICTIONARY
5
FCF
102
{ACAD_REACTORS
330
13
102
}
330
13
100
AcDbDictionary
281
1
3
Layout1
350
FD1
3
Model
350
FD0
0
DICTIONARY
5
F7A
102
{ACAD_REACTORS
330
13
102
}
330
13
100
AcDbDictionary
281
1
3
ByBlock
350
F83
3
ByLayer
350
F7B
3
Global
350
F8B
0
DICTIONARY
5
FCD
102
{ACAD_REACTORS
330
13
102
}
330
13
100
AcDbDictionary
281
1
3
Standard
350
FCE
0
DICTIONARY
5
16
330
13
100
AcDbDictionary
281
1
3
Standard
350
FAA
0
DICTIONARY
5
17
102
{ACAD_REACTORS
330
13
102
}
330
13
100
AcDbDictionary
281
1
0
ACDBDICTIONARYWDFLT
5
18
102
{ACAD_REACTORS
330
13
102
}
330
13
100
AcDbDictionary
281
1
3
Normal
350
19
100
AcDbDictionaryWithDefault
340
19
0
DICTIONARY
5
FAB
102
{ACAD_REACTORS
330
13
102
}
330
13
100
AcDbDictionary
281
1
3
A0
350
FAC
3
A1
350
FAD
3
A2
350
FAE
3
A3
350
FAF
3
A4
350
FB0
3
A5
350
FB1
3
A6
350
FB2
3
A7
350
FB3
3
A8
350
FB4
3
A9
350
FB5
3
B0
350
FB6
3
B1
350
FB7
3
B2
350
FB8
3
B3
350
FB9
3
B4
350
FBA
3
B5
350
FBB
3
B6
350
FBC
3
B7
350
FBD
3
B8
350
FBE
3
B9
350
FBF
3
C0
350
FC0
3
C1
350
FC1
3
C2
350
FC2
3
C3
350
FC3
3
C4
350
FC4
3
C5
350
FC5
3
C6
350
FC6
3
C7
350
FC7
3
C8
350
FC8
3
C9
350
FC9
3
D0
350
FCA
3
D1
350
FCB
3
D2
350
FCC
0
DICTIONARY
5
FA8
102
{ACAD_REACTORS
330
13
102
}
330
13
100
AcDbDictionary
281
1
3
Standard
350
FA9
0
DICTIONARY
5
F93
102
{ACAD_REACTORS
330
13
102
}
330
13
100
AcDbDictionary
281
1
3
2dWireframe
350
F99
3
3D Hidden
350
F9B
3
3dWireframe
350
F9A
3
Basic
350
F98
3
Brighten
350
F9F
3
ColorChange
350
FA3
3
Conceptual
350
F9C
3
Dim
350
F9E
3
EdgeColorOff
350
FA6
3
Facepattern
350
FA2
3
Flat
350
F94
3
FlatWithEdges
350
F95
3
Gouraud
350
F96
3
GouraudWithEdges
350
F97
3
JitterOff
350
FA4
3
Linepattern
350
FA1
3
OverhangOff
350
FA5
3
Realistic
350
F9D
3
Thicken
350
FA0
0
XRECORD
5
107E
102
{ACAD_REACTORS
330
13
102
}
330
13
100
AcDbXrecord
280
1
90
1
330
FA9
330
F10018
330
F1001D
330
F10027
330
F1002C
330
F10004
330
F1000E
330
F10009
330
F10013
330
F10022
0
XRECORD
5
F1001A
102
{ACAD_REACTORS
330
F10019
102
}
330
F10019
100
AcDbXrecord
280
1
40
48458.0
1
30
0
XRECORD
5
F1001F
102
{ACAD_REACTORS
330
F1001E
102
}
330
F1001E
100
AcDbXrecord
280
1
40
48458.0
1
40
0
XRECORD
5
F10029
102
{ACAD_REACTORS
330
F10028
102
}
330
F10028
100
AcDbXrecord
280
1
40
48458.0
1
22
0
XRECORD
5
F1002E
102
{ACAD_REACTORS
330
F1002D
102
}
330
F1002D
100
AcDbXrecord
280
1
40
48458.0
1
70
0
XRECORD
5
F10006
102
{ACAD_REACTORS
330
F10005
102
}
330
F10005
100
AcDbXrecord
280
1
40
48458.0
1
2°
0
XRECORD
5
F10010
102
{ACAD_REACTORS
330
F1000F
102
}
330
F1000F
100
AcDbXrecord
280
1
40
48458.0
1
R0.5
0
XRECORD
5
F1000B
102
{ACAD_REACTORS
330
F1000A
102
}
330
F1000A
100
AcDbXrecord
280
1
40
48458.0
1
10
0
XRECORD
5
F10015
102
{ACAD_REACTORS
330
F10014
102
}
330
F10014
100
AcDbXrecord
280
1
40
48458.0
1
9.4
0
LAYOUT
5
FD1
102
{ACAD_XDICTIONARY
360
10A9
102
}
102
{ACAD_REACTORS
330
FCF
102
}
330
FCF
100
AcDbPlotSettings
1

2
Microsoft XPS Document Writer
4

6

40
0.0
41
0.0
42
0.0
43
0.0
44
0.0
45
0.0
46
0.0
47
0.0
48
0.0
49
0.0
140
0.0
141
0.0
142
1.0
143
1.0
70
688
72
0
73
0
74
5
7

75
16
147
1.0
148
0.0
149
0.0
100
AcDbLayout
1
Layout1
70
1
71
1
10
0.0
20
0.0
11
12.0
21
9.0
12
0.0
22
0.0
32
0.0
14
1.000000000000000E+20
24
1.000000000000000E+20
34
1.000000000000000E+20
15
-1.000000000000000E+20
25
-1.000000000000000E+20
35
-1.000000000000000E+20
146
0.0
13
0.0
23
0.0
33
0.0
16
1.0
26
0.0
36
0.0
17
0.0
27
1.0
37
0.0
76
0
330
25D
0
LAYOUT
5
FD0
102
{ACAD_XDICTIONARY
360
10A7
102
}
102
{ACAD_REACTORS
330
FCF
102
}
330
FCF
100
AcDbPlotSettings
1

2
Microsoft XPS Document Writer
4

6

40
0.0
41
0.0
42
0.0
43
0.0
44
0.0
45
0.0
46
0.0
47
0.0
48
0.0
49
0.0
140
0.0
141
0.0
142
1.0
143
1.0
70
1712
72
0
73
0
74
0
7

75
0
147
1.0
148
0.0
149
0.0
100
AcDbLayout
1
Model
70
1
71
0
10
0.0
20
0.0
11
12.0
21
9.0
12
0.0
22
0.0
32
0.0
14
0.0
24
0.0
34
0.0
15
0.0
25
0.0
35
0.0
146
0.0
13
0.0
23
0.0
33
0.0
16
1.0
26
0.0
36
0.0
17
0.0
27
1.0
37
0.0
76
0
330
261
331
26B
0
MATERIAL
5
F83
102
{ACAD_XDICTIONARY
360
F84
102
}
102
{ACAD_REACTORS
330
F7A
102
}
330
F7A
100
AcDbMaterial
1
ByBlock
72
0
43
0.0208333333333333
43
0.0
43
0.0
43
0.0
43
0.0
43
0.0208333333333333
43
0.0
43
0.0
43
0.0
43
0.0
43
1.0
43
0.0
43
0.0
43
0.0
43
0.0
43
1.0
77
0
47
0.0208333333333333
47
0.0
47
0.0
47
0.0
47
0.0
47
0.0208333333333333
47
0.0
47
0.0
47
0.0
47
0.0
47
1.0
47
0.0
47
0.0
47
0.0
47
0.0
47
1.0
171
0
49
0.0208333333333333
49
0.0
49
0.0
49
0.0
49
0.0
49
0.0208333333333333
49
0.0
49
0.0
49
0.0
49
0.0
49
1.0
49
0.0
49
0.0
49
0.0
49
0.0
49
1.0
175
0
142
0.0208333333333333
142
0.0
142
0.0
142
0.0
142
0.0
142
0.0208333333333333
142
0.0
142
0.0
142
0.0
142
0.0
142
1.0
142
0.0
142
0.0
142
0.0
142
0.0
142
1.0
179
0
144
0.0208333333333333
144
0.0
144
0.0
144
0.0
144
0.0
144
0.0208333333333333
144
0.0
144
0.0
144
0.0
144
0.0
144
1.0
144
0.0
144
0.0
144
0.0
144
0.0
144
1.0
147
0.0208333333333333
147
0.0
147
0.0
147
0.0
147
0.0
147
0.0208333333333333
147
0.0
147
0.0
147
0.0
147
0.0
147
1.0
147
0.0
147
0.0
147
0.0
147
0.0
147
1.0
0
MATERIAL
5
F7B
102
{ACAD_XDICTIONARY
360
F7C
102
}
102
{ACAD_REACTORS
330
F7A
102
}
330
F7A
100
AcDbMaterial
1
ByLayer
72
0
43
0.0208333333333333
43
0.0
43
0.0
43
0.0
43
0.0
43
0.0208333333333333
43
0.0
43
0.0
43
0.0
43
0.0
43
1.0
43
0.0
43
0.0
43
0.0
43
0.0
43
1.0
77
0
47
0.0208333333333333
47
0.0
47
0.0
47
0.0
47
0.0
47
0.0208333333333333
47
0.0
47
0.0
47
0.0
47
0.0
47
1.0
47
0.0
47
0.0
47
0.0
47
0.0
47
1.0
171
0
49
0.0208333333333333
49
0.0
49
0.0
49
0.0
49
0.0
49
0.0208333333333333
49
0.0
49
0.0
49
0.0
49
0.0
49
1.0
49
0.0
49
0.0
49
0.0
49
0.0
49
1.0
175
0
142
0.0208333333333333
142
0.0
142
0.0
142
0.0
142
0.0
142
0.0208333333333333
142
0.0
142
0.0
142
0.0
142
0.0
142
1.0
142
0.0
142
0.0
142
0.0
142
0.0
142
1.0
179
0
144
0.0208333333333333
144
0.0
144
0.0
144
0.0
144
0.0
144
0.0208333333333333
144
0.0
144
0.0
144
0.0
144
0.0
144
1.0
144
0.0
144
0.0
144
0.0
144
0.0
144
1.0
147
0.0208333333333333
147
0.0
147
0.0
147
0.0
147
0.0
147
0.0208333333333333
147
0.0
147
0.0
147
0.0
147
0.0
147
1.0
147
0.0
147
0.0
147
0.0
147
0.0
147
1.0
0
MATERIAL
5
F8B
102
{ACAD_XDICTIONARY
360
F8C
102
}
102
{ACAD_REACTORS
330
F7A
102
}
330
F7A
100
AcDbMaterial
1
Global
72
0
43
0.0208333333333333
43
0.0
43
0.0
43
0.0
43
0.0
43
0.0208333333333333
43
0.0
43
0.0
43
0.0
43
0.0
43
1.0
43
0.0
43
0.0
43
0.0
43
0.0
43
1.0
77
0
47
0.0208333333333333
47
0.0
47
0.0
47
0.0
47
0.0
47
0.0208333333333333
47
0.0
47
0.0
47
0.0
47
0.0
47
1.0
47
0.0
47
0.0
47
0.0
47
0.0
47
1.0
171
0
49
0.0208333333333333
49
0.0
49
0.0
49
0.0
49
0.0
49
0.0208333333333333
49
0.0
49
0.0
49
0.0
49
0.0
49
1.0
49
0.0
49
0.0
49
0.0
49
0.0
49
1.0
175
0
142
0.0208333333333333
142
0.0
142
0.0
142
0.0
142
0.0
142
0.0208333333333333
142
0.0
142
0.0
142
0.0
142
0.0
142
1.0
142
0.0
142
0.0
142
0.0
142
0.0
142
1.0
179
0
144
0.0208333333333333
144
0.0
144
0.0
144
0.0
144
0.0
144
0.0208333333333333
144
0.0
144
0.0
144
0.0
144
0.0
144
1.0
144
0.0
144
0.0
144
0.0
144
0.0
144
1.0
147
0.0208333333333333
147
0.0
147
0.0
147
0.0
147
0.0
147
0.0208333333333333
147
0.0
147
0.0
147
0.0
147
0.0
147
1.0
147
0.0
147
0.0
147
0.0
147
0.0
147
1.0
0
MLEADERSTYLE
5
FCE
102
{ACAD_REACTORS
330
FCD
102
}
330
FCD
100
AcDbMLeaderStyle
170
2
171
1
172
0
90
2
40
0.0
41
0.0
173
1
91
-1056964608
340
256
92
-2
290
1
42
0.09
291
1
43
0.36
3
Standard
44
0.18
300

342
253
174
1
178
6
175
1
176
0
93
-1056964608
45
0.18
292
0
297
0
46
0.18
94
-1056964608
47
1.0
49
1.0
140
1.0
293
1
141
0.0
294
1
177
0
142
1.0
295
0
296
0
143
0.125
1001
ACAD_MLEADERVER
1070
2
0
MLINESTYLE
5
FAA
102
{ACAD_REACTORS
330
16
102
}
330
16
100
AcDbMlineStyle
2
STANDARD
70
0
3

62
256
51
90.0
52
90.0
71
2
49
0.5
62
256
6
BYLAYER
49
-0.5
62
256
6
BYLAYER
0
ACDBPLACEHOLDER
5
19
102
{ACAD_REACTORS
330
18
102
}
330
18
0
SCALE
5
FAC
102
{ACAD_REACTORS
330
FAB
102
}
330
FAB
100
AcDbScale
70
0
300
1:1
140
1.0
141
1.0
290
1
0
SCALE
5
FAD
102
{ACAD_REACTORS
330
FAB
102
}
330
FAB
100
AcDbScale
70
0
300
1:2
140
1.0
141
2.0
290
0
0
SCALE
5
FAE
102
{ACAD_REACTORS
330
FAB
102
}
330
FAB
100
AcDbScale
70
0
300
1:4
140
1.0
141
4.0
290
0
0
SCALE
5
FAF
102
{ACAD_REACTORS
330
FAB
102
}
330
FAB
100
AcDbScale
70
0
300
1:5
140
1.0
141
5.0
290
0
0
SCALE
5
FB0
102
{ACAD_REACTORS
330
FAB
102
}
330
FAB
100
AcDbScale
70
0
300
1:8
140
1.0
141
8.0
290
0
0
SCALE
5
FB1
102
{ACAD_REACTORS
330
FAB
102
}
330
FAB
100
AcDbScale
70
0
300
1:10
140
1.0
141
10.0
290
0
0
SCALE
5
FB2
102
{ACAD_REACTORS
330
FAB
102
}
330
FAB
100
AcDbScale
70
0
300
1:16
140
1.0
141
16.0
290
0
0
SCALE
5
FB3
102
{ACAD_REACTORS
330
FAB
102
}
330
FAB
100
AcDbScale
70
0
300
1:20
140
1.0
141
20.0
290
0
0
SCALE
5
FB4
102
{ACAD_REACTORS
330
FAB
102
}
330
FAB
100
AcDbScale
70
0
300
1:30
140
1.0
141
30.0
290
0
0
SCALE
5
FB5
102
{ACAD_REACTORS
330
FAB
102
}
330
FAB
100
AcDbScale
70
0
300
1:40
140
1.0
141
40.0
290
0
0
SCALE
5
FB6
102
{ACAD_REACTORS
330
FAB
102
}
330
FAB
100
AcDbScale
70
0
300
1:50
140
1.0
141
50.0
290
0
0
SCALE
5
FB7
102
{ACAD_REACTORS
330
FAB
102
}
330
FAB
100
AcDbScale
70
0
300
1:100
140
1.0
141
100.0
290
0
0
SCALE
5
FB8
102
{ACAD_REACTORS
330
FAB
102
}
330
FAB
100
AcDbScale
70
0
300
2:1
140
2.0
141
1.0
290
0
0
SCALE
5
FB9
102
{ACAD_REACTORS
330
FAB
102
}
330
FAB
100
AcDbScale
70
0
300
4:1
140
4.0
141
1.0
290
0
0
SCALE
5
FBA
102
{ACAD_REACTORS
330
FAB
102
}
330
FAB
100
AcDbScale
70
0
300
8:1
140
8.0
141
1.0
290
0
0
SCALE
5
FBB
102
{ACAD_REACTORS
330
FAB
102
}
330
FAB
100
AcDbScale
70
0
300
10:1
140
10.0
141
1.0
290
0
0
SCALE
5
FBC
102
{ACAD_REACTORS
330
FAB
102
}
330
FAB
100
AcDbScale
70
0
300
100:1
140
100.0
141
1.0
290
0
0
SCALE
5
FBD
102
{ACAD_REACTORS
330
FAB
102
}
330
FAB
100
AcDbScale
70
0
300
1/128" = 1'-0"
140
0.0078125
141
12.0
290
0
0
SCALE
5
FBE
102
{ACAD_REACTORS
330
FAB
102
}
330
FAB
100
AcDbScale
70
0
300
1/64" = 1'-0"
140
0.015625
141
12.0
290
0
0
SCALE
5
FBF
102
{ACAD_REACTORS
330
FAB
102
}
330
FAB
100
AcDbScale
70
0
300
1/32" = 1'-0"
140
0.03125
141
12.0
290
0
0
SCALE
5
FC0
102
{ACAD_REACTORS
330
FAB
102
}
330
FAB
100
AcDbScale
70
0
300
1/16" = 1'-0"
140
0.0625
141
12.0
290
0
0
SCALE
5
FC1
102
{ACAD_REACTORS
330
FAB
102
}
330
FAB
100
AcDbScale
70
0
300
3/32" = 1'-0"
140
0.09375
141
12.0
290
0
0
SCALE
5
FC2
102
{ACAD_REACTORS
330
FAB
102
}
330
FAB
100
AcDbScale
70
0
300
1/8" = 1'-0"
140
0.125
141
12.0
290
0
0
SCALE
5
FC3
102
{ACAD_REACTORS
330
FAB
102
}
330
FAB
100
AcDbScale
70
0
300
3/16" = 1'-0"
140
0.1875
141
12.0
290
0
0
SCALE
5
FC4
102
{ACAD_REACTORS
330
FAB
102
}
330
FAB
100
AcDbScale
70
0
300
1/4" = 1'-0"
140
0.25
141
12.0
290
0
0
SCALE
5
FC5
102
{ACAD_REACTORS
330
FAB
102
}
330
FAB
100
AcDbScale
70
0
300
3/8" = 1'-0"
140
0.375
141
12.0
290
0
0
SCALE
5
FC6
102
{ACAD_REACTORS
330
FAB
102
}
330
FAB
100
AcDbScale
70
0
300
1/2" = 1'-0"
140
0.5
141
12.0
290
0
0
SCALE
5
FC7
102
{ACAD_REACTORS
330
FAB
102
}
330
FAB
100
AcDbScale
70
0
300
3/4" = 1'-0"
140
0.75
141
12.0
290
0
0
SCALE
5
FC8
102
{ACAD_REACTORS
330
FAB
102
}
330
FAB
100
AcDbScale
70
0
300
1" = 1'-0"
140
1.0
141
12.0
290
0
0
SCALE
5
FC9
102
{ACAD_REACTORS
330
FAB
102
}
330
FAB
100
AcDbScale
70
0
300
1-1/2" = 1'-0"
140
1.5
141
12.0
290
0
0
SCALE
5
FCA
102
{ACAD_REACTORS
330
FAB
102
}
330
FAB
100
AcDbScale
70
0
300
3" = 1'-0"
140
3.0
141
12.0
290
0
0
SCALE
5
FCB
102
{ACAD_REACTORS
330
FAB
102
}
330
FAB
100
AcDbScale
70
0
300
6" = 1'-0"
140
6.0
141
12.0
290
0
0
SCALE
5
FCC
102
{ACAD_REACTORS
330
FAB
102
}
330
FAB
100
AcDbScale
70
0
300
1'-0" = 1'-0"
140
12.0
141
12.0
290
0
0
TABLESTYLE
5
FA9
102
{ACAD_XDICTIONARY
360
FF8
102
}
102
{ACAD_REACTORS
330
FA8
102
}
330
FA8
100
AcDbTableStyle
3
Standard
70
0
71
0
40
0.06
41
0.06
280
0
281
0
7
Standard
140
0.18
170
2
62
0
63
7
283
0
274
-2
284
1
64
0
275
-2
285
1
65
0
276
-2
286
1
66
0
277
-2
287
1
67
0
278
-2
288
1
68
0
279
-2
289
1
69
0
7
Standard
140
0.25
170
5
62
0
63
7
283
0
274
-2
284
1
64
0
275
-2
285
1
65
0
276
-2
286
1
66
0
277
-2
287
1
67
0
278
-2
288
1
68
0
279
-2
289
1
69
0
7
Standard
140
0.18
170
5
62
0
63
7
283
0
274
-2
284
1
64
0
275
-2
285
1
65
0
276
-2
286
1
66
0
277
-2
287
1
67
0
278
-2
288
1
68
0
279
-2
289
1
69
0
0
VISUALSTYLE
5
F99
102
{ACAD_XDICTIONARY
360
108A
102
}
102
{ACAD_REACTORS
330
F93
102
}
330
F93
100
AcDbVisualStyle
2

70
4
71
0
72
2
73
0
90
0
40
-0.6
41
-30.0
62
5
63
7
74
1
91
4
64
7
65
257
75
1
175
1
42
1.0
92
0
66
257
43
1.0
76
1
77
6
78
2
67
7
79
5
170
0
171
0
290
0
174
0
93
1
44
0.0
173
0
291
0
45
0.0
1001
ACAD
1000
AcDbSavedByObjectVersion
1070
0
0
VISUALSTYLE
5
F9B
102
{ACAD_XDICTIONARY
360
108E
102
}
102
{ACAD_REACTORS
330
F93
102
}
330
F93
100
AcDbVisualStyle
2

70
6
71
1
72
2
73
2
90
0
40
-0.6
41
-30.0
62
5
63
7
74
2
91
2
64
7
65
257
75
2
175
1
42
179.0
92
0
66
257
43
1.0
76
1
77
6
78
2
67
7
79
3
170
0
171
0
290
0
174
0
93
1
44
0.0
173
0
291
0
45
0.0
1001
ACAD
1000
AcDbSavedByObjectVersion
1070
0
0
VISUALSTYLE
5
F9A
102
{ACAD_XDICTIONARY
360
108C
102
}
102
{ACAD_REACTORS
330
F93
102
}
330
F93
100
AcDbVisualStyle
2

70
5
71
0
72
2
73
0
90
0
40
-0.6
41
-30.0
62
5
63
7
74
1
91
4
64
7
65
257
75
1
175
1
42
1.0
92
0
66
257
43
1.0
76
1
77
6
78
2
67
7
79
5
170
0
171
0
290
0
174
0
93
1
44
0.0
173
0
291
0
45
0.0
1001
ACAD
1000
AcDbSavedByObjectVersion
1070
0
0
VISUALSTYLE
5
F98
102
{ACAD_XDICTIONARY
360
1088
102
}
102
{ACAD_REACTORS
330
F93
102
}
330
F93
100
AcDbVisualStyle
2

70
7
71
1
72
0
73
1
90
0
40
-0.6
41
-30.0
62
5
63
7
74
0
91
4
64
7
65
257
75
1
175
1
42
1.0
92
8
66
7
43
1.0
76
1
77
6
78
2
67
7
79
5
170
0
171
0
290
0
174
0
93
1
44
0.0
173
0
291
1
45
0.0
1001
ACAD
1000
AcDbSavedByObjectVersion
1070
0
0
VISUALSTYLE
5
F9F
102
{ACAD_XDICTIONARY
360
1096
102
}
102
{ACAD_REACTORS
330
F93
102
}
330
F93
100
AcDbVisualStyle
2

70
12
71
2
72
2
73
0
90
0
40
-0.6
41
-30.0
62
5
63
7
74
1
91
4
64
7
65
257
75
1
175
1
42
1.0
92
8
66
7
43
1.0
76
1
77
6
78
2
67
7
79
5
170
0
171
0
290
0
174
0
93
1
44
50.0
173
0
291
1
45
0.0
1001
ACAD
1000
AcDbSavedByObjectVersion
1070
0
0
VISUALSTYLE
5
FA3
102
{ACAD_XDICTIONARY
360
109E
102
}
102
{ACAD_REACTORS
330
F93
102
}
330
F93
100
AcDbVisualStyle
2

70
16
71
2
72
2
73
3
90
0
40
-0.6
41
-30.0
62
5
63
8
74
1
91
4
64
7
65
257
75
1
175
1
42
1.0
92
8
66
8
43
1.0
76
1
77
6
78
2
67
7
79
5
170
0
171
0
290
0
174
0
93
1
44
0.0
173
0
291
1
45
0.0
1001
ACAD
1000
AcDbSavedByObjectVersion
1070
0
0
VISUALSTYLE
5
F9C
102
{ACAD_XDICTIONARY
360
1090
102
}
102
{ACAD_REACTORS
330
F93
102
}
330
F93
100
AcDbVisualStyle
2

70
9
71
3
72
2
73
0
90
0
40
-0.6
41
-30.0
62
5
63
7
74
2
91
2
64
7
65
257
75
1
175
1
42
179.0
92
8
66
7
43
1.0
76
1
77
6
78
2
67
7
79
3
170
0
171
0
290
0
174
0
93
1
44
0.0
173
0
291
0
45
0.0
1001
ACAD
1000
AcDbSavedByObjectVersion
1070
0
0
VISUALSTYLE
5
F9E
102
{ACAD_XDICTIONARY
360
1094
102
}
102
{ACAD_REACTORS
330
F93
102
}
330
F93
100
AcDbVisualStyle
2

70
11
71
2
72
2
73
0
90
0
40
-0.6
41
-30.0
62
5
63
7
74
1
91
4
64
7
65
257
75
1
175
1
42
1.0
92
8
66
7
43
1.0
76
1
77
6
78
2
67
7
79
5
170
0
171
0
290
0
174
0
93
1
44
-50.0
173
0
291
1
45
0.0
1001
ACAD
1000
AcDbSavedByObjectVersion
1070
0
0
VISUALSTYLE
5
FA6
102
{ACAD_XDICTIONARY
360
10A4
102
}
102
{ACAD_REACTORS
330
F93
102
}
330
F93
100
AcDbVisualStyle
2

70
22
71
2
72
2
73
0
90
0
40
-0.6
41
-30.0
62
5
63
7
74
1
91
4
64
7
65
257
75
1
175
1
42
1.0
92
8
66
7
43
1.0
76
1
77
6
78
2
67
7
79
5
170
0
171
0
290
0
174
0
93
1
44
0.0
173
0
291
1
45
0.0
1001
ACAD
1000
AcDbSavedByObjectVersion
1070
0
0
VISUALSTYLE
5
FA2
102
{ACAD_XDICTIONARY
360
109C
102
}
102
{ACAD_REACTORS
330
F93
102
}
330
F93
100
AcDbVisualStyle
2

70
15
71
2
72
2
73
0
90
0
40
-0.6
41
-30.0
62
5
63
7
74
1
91
4
64
7
65
257
75
1
175
1
42
1.0
92
8
66
7
43
1.0
76
1
77
6
78
2
67
7
79
5
170
0
171
0
290
0
174
0
93
1
44
0.0
173
0
291
1
45
0.0
1001
ACAD
1000
AcDbSavedByObjectVersion
1070
0
0
VISUALSTYLE
5
F94
102
{ACAD_XDICTIONARY
360
1080
102
}
102
{ACAD_REACTORS
330
F93
102
}
330
F93
100
AcDbVisualStyle
2

70
0
71
2
72
1
73
1
90
2
40
-0.6
41
30.0
62
5
63
7
74
0
91
4
64
7
65
257
75
1
175
1
42
1.0
92
8
66
7
43
1.0
76
1
77
6
78
2
67
7
79
5
170
0
171
0
290
0
174
0
93
13
44
0.0
173
0
291
1
45
0.0
1001
ACAD
1000
AcDbSavedByObjectVersion
1070
0
0
VISUALSTYLE
5
F95
102
{ACAD_XDICTIONARY
360
1082
102
}
102
{ACAD_REACTORS
330
F93
102
}
330
F93
100
AcDbVisualStyle
2

70
1
71
2
72
1
73
1
90
2
40
-0.6
41
30.0
62
5
63
7
74
1
91
4
64
7
65
257
75
1
175
1
42
1.0
92
0
66
257
43
1.0
76
1
77
6
78
2
67
7
79
5
170
0
171
0
290
0
174
0
93
13
44
0.0
173
0
291
1
45
0.0
1001
ACAD
1000
AcDbSavedByObjectVersion
1070
0
0
VISUALSTYLE
5
F96
102
{ACAD_XDICTIONARY
360
1084
102
}
102
{ACAD_REACTORS
330
F93
102
}
330
F93
100
AcDbVisualStyle
2

70
2
71
2
72
2
73
1
90
2
40
-0.6
41
30.0
62
5
63
7
74
0
91
4
64
7
65
257
75
1
175
1
42
1.0
92
0
66
7
43
1.0
76
1
77
6
78
2
67
7
79
5
170
0
171
0
290
0
174
0
93
13
44
0.0
173
0
291
1
45
0.0
1001
ACAD
1000
AcDbSavedByObjectVersion
1070
0
0
VISUALSTYLE
5
F97
102
{ACAD_XDICTIONARY
360
1086
102
}
102
{ACAD_REACTORS
330
F93
102
}
330
F93
100
AcDbVisualStyle
2

70
3
71
2
72
2
73
1
90
2
40
-0.6
41
30.0
62
5
63
7
74
1
91
4
64
7
65
257
75
1
175
1
42
1.0
92
0
66
257
43
1.0
76
1
77
6
78
2
67
7
79
5
170
0
171
0
290
0
174
0
93
13
44
0.0
173
0
291
1
45
0.0
1001
ACAD
1000
AcDbSavedByObjectVersion
1070
0
0
VISUALSTYLE
5
FA4
102
{ACAD_XDICTIONARY
360
10A0
102
}
102
{ACAD_REACTORS
330
F93
102
}
330
F93
100
AcDbVisualStyle
2

70
20
71
2
72
2
73
0
90
0
40
-0.6
41
-30.0
62
5
63
7
74
1
91
4
64
7
65
257
75
1
175
1
42
1.0
92
10
66
7
43
1.0
76
1
77
6
78
2
67
7
79
5
170
0
171
0
290
0
174
0
93
1
44
0.0
173
0
291
1
45
0.0
1001
ACAD
1000
AcDbSavedByObjectVersion
1070
0
0
VISUALSTYLE
5
FA1
102
{ACAD_XDICTIONARY
360
109A
102
}
102
{ACAD_REACTORS
330
F93
102
}
330
F93
100
AcDbVisualStyle
2

70
14
71
2
72
2
73
0
90
0
40
-0.6
41
-30.0
62
5
63
7
74
1
91
4
64
7
65
257
75
7
175
7
42
1.0
92
8
66
7
43
1.0
76
1
77
6
78
2
67
7
79
5
170
0
171
0
290
0
174
0
93
1
44
0.0
173
0
291
1
45
0.0
1001
ACAD
1000
AcDbSavedByObjectVersion
1070
0
0
VISUALSTYLE
5
FA5
102
{ACAD_XDICTIONARY
360
10A2
102
}
102
{ACAD_REACTORS
330
F93
102
}
330
F93
100
AcDbVisualStyle
2

70
21
71
2
72
2
73
0
90
0
40
-0.6
41
-30.0
62
5
63
7
74
1
91
4
64
7
65
257
75
1
175
1
42
1.0
92
9
66
7
43
1.0
76
1
77
6
78
2
67
7
79
5
170
0
171
0
290
0
174
0
93
1
44
0.0
173
0
291
1
45
0.0
1001
ACAD
1000
AcDbSavedByObjectVersion
1070
0
0
VISUALSTYLE
5
F9D
102
{ACAD_XDICTIONARY
360
1092
102
}
102
{ACAD_REACTORS
330
F93
102
}
330
F93
100
AcDbVisualStyle
2

70
8
71
2
72
2
73
0
90
0
40
-0.6
41
-30.0
62
5
63
7
74
1
91
0
64
7
65
257
75
1
175
1
42
1.0
92
8
66
8
43
1.0
76
1
77
6
78
2
67
7
79
5
170
0
171
0
290
0
174
0
93
13
44
0.0
173
0
291
0
45
0.0
1001
ACAD
1000
AcDbSavedByObjectVersion
1070
0
0
VISUALSTYLE
5
FA0
102
{ACAD_XDICTIONARY
360
1098
102
}
102
{ACAD_REACTORS
330
F93
102
}
330
F93
100
AcDbVisualStyle
2

70
13
71
2
72
2
73
0
90
0
40
-0.6
41
-30.0
62
5
63
7
74
1
91
4
64
7
65
257
75
1
175
1
42
1.0
92
12
66
7
43
1.0
76
1
77
6
78
2
67
7
79
5
170
0
171
0
290
0
174
0
93
1
44
0.0
173
0
291
1
45
0.0
1001
ACAD
1000
AcDbSavedByObjectVersion
1070
0
0
DICTIONARYVAR
5
FF3
102
{ACAD_REACTORS
330
FF0
102
}
330
FF0
100
DictionaryVariables
280
0
1
1:1
0
DICTIONARYVAR
5
FF2
102
{ACAD_REACTORS
330
FF0
102
}
330
FF0
100
DictionaryVariables
280
0
1
STANDARD
0
DICTIONARYVAR
5
FF1
102
{ACAD_REACTORS
330
FF0
102
}
330
FF0
100
DictionaryVariables
280
0
1
STANDARD
0
DICTIONARYVAR
5
FF6
102
{ACAD_REACTORS
330
FF0
102
}
330
FF0
100
DictionaryVariables
280
0
1
1
0
DICTIONARYVAR
5
FF5
102
{ACAD_REACTORS
330
FF0
102
}
330
FF0
100
DictionaryVariables
280
0
1
0
0
DICTIONARYVAR
5
FF4
102
{ACAD_REACTORS
330
FF0
102
}
330
FF0
100
DictionaryVariables
280
0
1
127
0
DICTIONARYVAR
5
1078
102
{ACAD_REACTORS
330
FF0
102
}
330
FF0
100
DictionaryVariables
280
0
1
2
0
DICTIONARY
5
10A9
330
FD1
100
AcDbDictionary
280
1
281
1
3
ACAD_XREC_ROUNDTRIP
360
10AA
0
DICTIONARY
5
10A7
330
FD0
100
AcDbDictionary
280
1
281
1
3
ACAD_XREC_ROUNDTRIP
360
10A8
0
DICTIONARY
5
F84
330
F83
100
AcDbDictionary
280
1
281
1
3
ACAD_XREC_ROUNDTRIP
360
FFF
3
BUMPTILE
360
F86
3
DIFFUSETILE
360
F85
3
OPACITYTILE
360
F89
3
REFLECTIONTILE
360
F88
3
REFRACTIONTILE
360
F8A
3
SPECULARTILE
360
F87
0
DICTIONARY
5
F7C
330
F7B
100
AcDbDictionary
280
1
281
1
3
ACAD_XREC_ROUNDTRIP
360
FFE
3
BUMPTILE
360
F7E
3
DIFFUSETILE
360
F7D
3
OPACITYTILE
360
F81
3
REFLECTIONTILE
360
F80
3
REFRACTIONTILE
360
F82
3
SPECULARTILE
360
F7F
0
DICTIONARY
5
F8C
330
F8B
100
AcDbDictionary
280
1
281
1
3
ACAD_XREC_ROUNDTRIP
360
1000
3
BUMPTILE
360
F8E
3
DIFFUSETILE
360
F8D
3
OPACITYTILE
360
F91
3
REFLECTIONTILE
360
F90
3
REFRACTIONTILE
360
F92
3
SPECULARTILE
360
F8F
0
DICTIONARY
5
FF8
330
FA9
100
AcDbDictionary
280
1
281
1
3
ACAD_ROUNDTRIP_2008_TABLESTYLE_CELLSTYLEMAP
360
1079
3
ACAD_XREC_ROUNDTRIP
360
10A6
0
DICTIONARY
5
108A
330
F99
100
AcDbDictionary
280
1
281
1
3
ACAD_XREC_ROUNDTRIP
360
108B
0
DICTIONARY
5
108E
330
F9B
100
AcDbDictionary
280
1
281
1
3
ACAD_XREC_ROUNDTRIP
360
108F
0
DICTIONARY
5
108C
330
F9A
100
AcDbDictionary
280
1
281
1
3
ACAD_XREC_ROUNDTRIP
360
108D
0
DICTIONARY
5
1088
330
F98
100
AcDbDictionary
280
1
281
1
3
ACAD_XREC_ROUNDTRIP
360
1089
0
DICTIONARY
5
1096
330
F9F
100
AcDbDictionary
280
1
281
1
3
ACAD_XREC_ROUNDTRIP
360
1097
0
DICTIONARY
5
109E
330
FA3
100
AcDbDictionary
280
1
281
1
3
ACAD_XREC_ROUNDTRIP
360
109F
0
DICTIONARY
5
1090
330
F9C
100
AcDbDictionary
280
1
281
1
3
ACAD_XREC_ROUNDTRIP
360
1091
0
DICTIONARY
5
1094
330
F9E
100
AcDbDictionary
280
1
281
1
3
ACAD_XREC_ROUNDTRIP
360
1095
0
DICTIONARY
5
10A4
330
FA6
100
AcDbDictionary
280
1
281
1
3
ACAD_XREC_ROUNDTRIP
360
10A5
0
DICTIONARY
5
109C
330
FA2
100
AcDbDictionary
280
1
281
1
3
ACAD_XREC_ROUNDTRIP
360
109D
0
DICTIONARY
5
1080
330
F94
100
AcDbDictionary
280
1
281
1
3
ACAD_XREC_ROUNDTRIP
360
1081
0
DICTIONARY
5
1082
330
F95
100
AcDbDictionary
280
1
281
1
3
ACAD_XREC_ROUNDTRIP
360
1083
0
DICTIONARY
5
1084
330
F96
100
AcDbDictionary
280
1
281
1
3
ACAD_XREC_ROUNDTRIP
360
1085
0
DICTIONARY
5
1086
330
F97
100
AcDbDictionary
280
1
281
1
3
ACAD_XREC_ROUNDTRIP
360
1087
0
DICTIONARY
5
10A0
330
FA4
100
AcDbDictionary
280
1
281
1
3
ACAD_XREC_ROUNDTRIP
360
10A1
0
DICTIONARY
5
109A
330
FA1
100
AcDbDictionary
280
1
281
1
3
ACAD_XREC_ROUNDTRIP
360
109B
0
DICTIONARY
5
10A2
330
FA5
100
AcDbDictionary
280
1
281
1
3
ACAD_XREC_ROUNDTRIP
360
10A3
0
DICTIONARY
5
1092
330
F9D
100
AcDbDictionary
280
1
281
1
3
ACAD_XREC_ROUNDTRIP
360
1093
0
DICTIONARY
5
1098
330
FA0
100
AcDbDictionary
280
1
281
1
3
ACAD_XREC_ROUNDTRIP
360
1099
0
XRECORD
5
10AA
102
{ACAD_REACTORS
330
10A9
102
}
330
10A9
100
AcDbXrecord
280
1
102
SHADEPLOT
70
0
102
SHADEPLOTRESLEVEL
70
2
102
SHADEPLOTCUSTOMDPI
70
300
0
XRECORD
5
10A8
102
{ACAD_REACTORS
330
10A7
102
}
330
10A7
100
AcDbXrecord
280
1
102
SHADEPLOT
70
0
102
SHADEPLOTRESLEVEL
70
2
102
SHADEPLOTCUSTOMDPI
70
300
0
XRECORD
5
FFF
102
{ACAD_REACTORS
330
F84
102
}
330
F84
100
AcDbXrecord
280
1
102
MATERIAL
148
0.0
149
0.0
149
0.0
93
0
94
127
282
0
72
0
77
0
171
0
175
0
179
0
273
0
0
XRECORD
5
F86
102
{ACAD_REACTORS
330
F84
102
}
330
F84
100
AcDbXrecord
280
1
270
1
271
1
0
XRECORD
5
F85
102
{ACAD_REACTORS
330
F84
102
}
330
F84
100
AcDbXrecord
280
1
270
1
271
1
0
XRECORD
5
F89
102
{ACAD_REACTORS
330
F84
102
}
330
F84
100
AcDbXrecord
280
1
270
1
271
1
0
XRECORD
5
F88
102
{ACAD_REACTORS
330
F84
102
}
330
F84
100
AcDbXrecord
280
1
270
1
271
1
0
XRECORD
5
F8A
102
{ACAD_REACTORS
330
F84
102
}
330
F84
100
AcDbXrecord
280
1
270
1
271
1
0
XRECORD
5
F87
102
{ACAD_REACTORS
330
F84
102
}
330
F84
100
AcDbXrecord
280
1
270
1
271
1
0
XRECORD
5
FFE
102
{ACAD_REACTORS
330
F7C
102
}
330
F7C
100
AcDbXrecord
280
1
102
MATERIAL
148
0.0
149
0.0
149
0.0
93
0
94
127
282
0
72
0
77
0
171
0
175
0
179
0
273
0
0
XRECORD
5
F7E
102
{ACAD_REACTORS
330
F7C
102
}
330
F7C
100
AcDbXrecord
280
1
270
1
271
1
0
XRECORD
5
F7D
102
{ACAD_REACTORS
330
F7C
102
}
330
F7C
100
AcDbXrecord
280
1
270
1
271
1
0
XRECORD
5
F81
102
{ACAD_REACTORS
330
F7C
102
}
330
F7C
100
AcDbXrecord
280
1
270
1
271
1
0
XRECORD
5
F80
102
{ACAD_REACTORS
330
F7C
102
}
330
F7C
100
AcDbXrecord
280
1
270
1
271
1
0
XRECORD
5
F82
102
{ACAD_REACTORS
330
F7C
102
}
330
F7C
100
AcDbXrecord
280
1
270
1
271
1
0
XRECORD
5
F7F
102
{ACAD_REACTORS
330
F7C
102
}
330
F7C
100
AcDbXrecord
280
1
270
1
271
1
0
XRECORD
5
1000
102
{ACAD_REACTORS
330
F8C
102
}
330
F8C
100
AcDbXrecord
280
1
102
MATERIAL
148
0.0
149
0.0
149
0.0
93
0
94
127
282
0
72
0
77
0
171
0
175
0
179
0
273
0
0
XRECORD
5
F8E
102
{ACAD_REACTORS
330
F8C
102
}
330
F8C
100
AcDbXrecord
280
1
270
1
271
1
0
XRECORD
5
F8D
102
{ACAD_REACTORS
330
F8C
102
}
330
F8C
100
AcDbXrecord
280
1
270
1
271
1
0
XRECORD
5
F91
102
{ACAD_REACTORS
330
F8C
102
}
330
F8C
100
AcDbXrecord
280
1
270
1
271
1
0
XRECORD
5
F90
102
{ACAD_REACTORS
330
F8C
102
}
330
F8C
100
AcDbXrecord
280
1
270
1
271
1
0
XRECORD
5
F92
102
{ACAD_REACTORS
330
F8C
102
}
330
F8C
100
AcDbXrecord
280
1
270
1
271
1
0
XRECORD
5
F8F
102
{ACAD_REACTORS
330
F8C
102
}
330
F8C
100
AcDbXrecord
280
1
270
1
271
1
0
CELLSTYLEMAP
5
1079
102
{ACAD_REACTORS
330
FF8
102
}
330
FF8
100
AcDbCellStyleMap
90
3
300
CELLSTYLE
1
TABLEFORMAT_BEGIN
90
5
170
1
91
0
92
32768
62
257
93
1
300
CONTENTFORMAT
1
CONTENTFORMAT_BEGIN
90
0
91
0
92
512
93
0
300

40
0.0
140
1.0
94
5
62
0
340
253
144
0.25
309
CONTENTFORMAT_END
171
1
301
MARGIN
1
CELLMARGIN_BEGIN
40
0.06
40
0.06
40
0.06
40
0.06
40
0.18
40
0.18
309
CELLMARGIN_END
94
6
95
1
302
GRIDFORMAT
1
GRIDFORMAT_BEGIN
90
0
91
1
62
0
92
-2
340
0
93
0
40
0.045
309
GRIDFORMAT_END
95
2
302
GRIDFORMAT
1
GRIDFORMAT_BEGIN
90
0
91
1
62
0
92
-2
340
0
93
0
40
0.045
309
GRIDFORMAT_END
95
4
302
GRIDFORMAT
1
GRIDFORMAT_BEGIN
90
0
91
1
62
0
92
-2
340
0
93
0
40
0.045
309
GRIDFORMAT_END
95
8
302
GRIDFORMAT
1
GRIDFORMAT_BEGIN
90
0
91
1
62
0
92
-2
340
0
93
0
40
0.045
309
GRIDFORMAT_END
95
16
302
GRIDFORMAT
1
GRIDFORMAT_BEGIN
90
0
91
1
62
0
92
-2
340
0
93
0
40
0.045
309
GRIDFORMAT_END
95
32
302
GRIDFORMAT
1
GRIDFORMAT_BEGIN
90
0
91
1
62
0
92
-2
340
0
93
0
40
0.045
309
GRIDFORMAT_END
309
TABLEFORMAT_END
1
CELLSTYLE_BEGIN
90
1
91
1
300
_TITLE
309
CELLSTYLE_END
300
CELLSTYLE
1
TABLEFORMAT_BEGIN
90
5
170
1
91
0
92
0
62
257
93
1
300
CONTENTFORMAT
1
CONTENTFORMAT_BEGIN
90
0
91
0
92
512
93
0
300

40
0.0
140
1.0
94
5
62
0
340
253
144
0.18
309
CONTENTFORMAT_END
171
1
301
MARGIN
1
CELLMARGIN_BEGIN
40
0.06
40
0.06
40
0.06
40
0.06
40
0.18
40
0.18
309
CELLMARGIN_END
94
6
95
1
302
GRIDFORMAT
1
GRIDFORMAT_BEGIN
90
0
91
1
62
0
92
-2
340
0
93
0
40
0.045
309
GRIDFORMAT_END
95
2
302
GRIDFORMAT
1
GRIDFORMAT_BEGIN
90
0
91
1
62
0
92
-2
340
0
93
0
40
0.045
309
GRIDFORMAT_END
95
4
302
GRIDFORMAT
1
GRIDFORMAT_BEGIN
90
0
91
1
62
0
92
-2
340
0
93
0
40
0.045
309
GRIDFORMAT_END
95
8
302
GRIDFORMAT
1
GRIDFORMAT_BEGIN
90
0
91
1
62
0
92
-2
340
0
93
0
40
0.045
309
GRIDFORMAT_END
95
16
302
GRIDFORMAT
1
GRIDFORMAT_BEGIN
90
0
91
1
62
0
92
-2
340
0
93
0
40
0.045
309
GRIDFORMAT_END
95
32
302
GRIDFORMAT
1
GRIDFORMAT_BEGIN
90
0
91
1
62
0
92
-2
340
0
93
0
40
0.045
309
GRIDFORMAT_END
309
TABLEFORMAT_END
1
CELLSTYLE_BEGIN
90
2
91
1
300
_HEADER
309
CELLSTYLE_END
300
CELLSTYLE
1
TABLEFORMAT_BEGIN
90
5
170
1
91
0
92
0
62
257
93
1
300
CONTENTFORMAT
1
CONTENTFORMAT_BEGIN
90
0
91
0
92
512
93
0
300

40
0.0
140
1.0
94
2
62
0
340
253
144
0.18
309
CONTENTFORMAT_END
171
1
301
MARGIN
1
CELLMARGIN_BEGIN
40
0.06
40
0.06
40
0.06
40
0.06
40
0.18
40
0.18
309
CELLMARGIN_END
94
6
95
1
302
GRIDFORMAT
1
GRIDFORMAT_BEGIN
90
0
91
1
62
0
92
-2
340
0
93
0
40
0.045
309
GRIDFORMAT_END
95
2
302
GRIDFORMAT
1
GRIDFORMAT_BEGIN
90
0
91
1
62
0
92
-2
340
0
93
0
40
0.045
309
GRIDFORMAT_END
95
4
302
GRIDFORMAT
1
GRIDFORMAT_BEGIN
90
0
91
1
62
0
92
-2
340
0
93
0
40
0.045
309
GRIDFORMAT_END
95
8
302
GRIDFORMAT
1
GRIDFORMAT_BEGIN
90
0
91
1
62
0
92
-2
340
0
93
0
40
0.045
309
GRIDFORMAT_END
95
16
302
GRIDFORMAT
1
GRIDFORMAT_BEGIN
90
0
91
1
62
0
92
-2
340
0
93
0
40
0.045
309
GRIDFORMAT_END
95
32
302
GRIDFORMAT
1
GRIDFORMAT_BEGIN
90
0
91
1
62
0
92
-2
340
0
93
0
40
0.045
309
GRIDFORMAT_END
309
TABLEFORMAT_END
1
CELLSTYLE_BEGIN
90
3
91
2
300
_DATA
309
CELLSTYLE_END
0
XRECORD
5
10A6
102
{ACAD_REACTORS
330
FF8
102
}
330
FF8
100
AcDbXrecord
280
1
102
ACAD_ROUNDTRIP_PRE2007_TABLESTYLE
90
512
91
0
1

92
512
93
0
2

94
512
95
0
3

0
XRECORD
5
108B
102
{ACAD_REACTORS
330
108A
102
}
330
108A
100
AcDbXrecord
280
1
102
RTVSPropertyOp0
70
1
102
RTVSPropertyOp1
70
1
102
RTVSPropertyOp2
70
1
102
RTVSPropertyOp3
70
1
102
RTVSPropertyOp4
70
1
102
RTVSPropertyOp5
70
1
102
RTVSPropertyOp6
70
1
102
RTVSPropertyOp7
70
1
102
RTVSPropertyOp8
70
1
102
RTVSPropertyOp9
70
1
102
RTVSPropertyOp10
70
1
102
RTVSPropertyOp11
70
1
102
RTVSPropertyOp12
70
1
102
RTVSPropertyOp13
70
1
102
RTVSPropertyOp14
70
1
102
RTVSPropertyOp15
70
1
102
RTVSPropertyOp16
70
1
102
RTVSPropertyOp17
70
1
102
RTVSPropertyOp18
70
1
102
RTVSPropertyOp19
70
1
102
RTVSPropertyOp20
70
1
102
RTVSPropertyOp21
70
1
102
RTVSPropertyOp22
70
1
102
RTVSPropertyOp23
70
1
102
RTVSPropertyOp24
70
1
102
RTVSPropertyOp25
70
1
102
RTVSPropertyOp26
70
1
102
RTVSPropertyOp27
70
1
0
XRECORD
5
108F
102
{ACAD_REACTORS
330
108E
102
}
330
108E
100
AcDbXrecord
280
1
102
RTVSPropertyOp0
70
1
102
RTVSPropertyOp1
70
1
102
RTVSPropertyOp2
70
1
102
RTVSPropertyOp3
70
1
102
RTVSPropertyOp4
70
1
102
RTVSPropertyOp5
70
1
102
RTVSPropertyOp6
70
1
102
RTVSPropertyOp7
70
1
102
RTVSPropertyOp8
70
1
102
RTVSPropertyOp9
70
1
102
RTVSPropertyOp10
70
1
102
RTVSPropertyOp11
70
1
102
RTVSPropertyOp12
70
1
102
RTVSPropertyOp13
70
1
102
RTVSPropertyOp14
70
1
102
RTVSPropertyOp15
70
1
102
RTVSPropertyOp16
70
1
102
RTVSPropertyOp17
70
1
102
RTVSPropertyOp18
70
1
102
RTVSPropertyOp19
70
1
102
RTVSPropertyOp20
70
1
102
RTVSPropertyOp21
70
1
102
RTVSPropertyOp22
70
1
102
RTVSPropertyOp23
70
1
102
RTVSPropertyOp24
70
1
102
RTVSPropertyOp25
70
1
102
RTVSPropertyOp26
70
1
102
RTVSPropertyOp27
70
1
0
XRECORD
5
108D
102
{ACAD_REACTORS
330
108C
102
}
330
108C
100
AcDbXrecord
280
1
102
RTVSPropertyOp0
70
1
102
RTVSPropertyOp1
70
1
102
RTVSPropertyOp2
70
1
102
RTVSPropertyOp3
70
1
102
RTVSPropertyOp4
70
1
102
RTVSPropertyOp5
70
1
102
RTVSPropertyOp6
70
1
102
RTVSPropertyOp7
70
1
102
RTVSPropertyOp8
70
1
102
RTVSPropertyOp9
70
1
102
RTVSPropertyOp10
70
1
102
RTVSPropertyOp11
70
1
102
RTVSPropertyOp12
70
1
102
RTVSPropertyOp13
70
1
102
RTVSPropertyOp14
70
1
102
RTVSPropertyOp15
70
1
102
RTVSPropertyOp16
70
1
102
RTVSPropertyOp17
70
1
102
RTVSPropertyOp18
70
1
102
RTVSPropertyOp19
70
1
102
RTVSPropertyOp20
70
1
102
RTVSPropertyOp21
70
1
102
RTVSPropertyOp22
70
1
102
RTVSPropertyOp23
70
1
102
RTVSPropertyOp24
70
1
102
RTVSPropertyOp25
70
1
102
RTVSPropertyOp26
70
1
102
RTVSPropertyOp27
70
1
0
XRECORD
5
1089
102
{ACAD_REACTORS
330
1088
102
}
330
1088
100
AcDbXrecord
280
1
102
RTVSPropertyOp0
70
1
102
RTVSPropertyOp1
70
1
102
RTVSPropertyOp2
70
1
102
RTVSPropertyOp3
70
1
102
RTVSPropertyOp4
70
1
102
RTVSPropertyOp5
70
1
102
RTVSPropertyOp6
70
1
102
RTVSPropertyOp7
70
1
102
RTVSPropertyOp8
70
1
102
RTVSPropertyOp9
70
1
102
RTVSPropertyOp10
70
1
102
RTVSPropertyOp11
70
1
102
RTVSPropertyOp12
70
1
102
RTVSPropertyOp13
70
1
102
RTVSPropertyOp14
70
1
102
RTVSPropertyOp15
70
1
102
RTVSPropertyOp16
70
1
102
RTVSPropertyOp17
70
1
102
RTVSPropertyOp18
70
1
102
RTVSPropertyOp19
70
1
102
RTVSPropertyOp20
70
1
102
RTVSPropertyOp21
70
1
102
RTVSPropertyOp22
70
1
102
RTVSPropertyOp23
70
1
102
RTVSPropertyOp24
70
1
102
RTVSPropertyOp25
70
1
102
RTVSPropertyOp26
70
1
102
RTVSPropertyOp27
70
1
0
XRECORD
5
1097
102
{ACAD_REACTORS
330
1096
102
}
330
1096
100
AcDbXrecord
280
1
102
RTVSPropertyOp0
70
1
102
RTVSPropertyOp1
70
1
102
RTVSPropertyOp2
70
1
102
RTVSPropertyOp3
70
1
102
RTVSPropertyOp4
70
1
102
RTVSPropertyOp5
70
1
102
RTVSPropertyOp6
70
1
102
RTVSPropertyOp7
70
1
102
RTVSPropertyOp8
70
1
102
RTVSPropertyOp9
70
1
102
RTVSPropertyOp10
70
1
102
RTVSPropertyOp11
70
1
102
RTVSPropertyOp12
70
1
102
RTVSPropertyOp13
70
1
102
RTVSPropertyOp14
70
1
102
RTVSPropertyOp15
70
1
102
RTVSPropertyOp16
70
1
102
RTVSPropertyOp17
70
1
102
RTVSPropertyOp18
70
1
102
RTVSPropertyOp19
70
1
102
RTVSPropertyOp20
70
1
102
RTVSPropertyOp21
70
1
102
RTVSPropertyOp22
70
1
102
RTVSPropertyOp23
70
1
102
RTVSPropertyOp24
70
1
102
RTVSPropertyOp25
70
1
102
RTVSPropertyOp26
70
1
102
RTVSPropertyOp27
70
1
0
XRECORD
5
109F
102
{ACAD_REACTORS
330
109E
102
}
330
109E
100
AcDbXrecord
280
1
102
RTVSPropertyOp0
70
1
102
RTVSPropertyOp1
70
1
102
RTVSPropertyOp2
70
1
102
RTVSPropertyOp3
70
1
102
RTVSPropertyOp4
70
1
102
RTVSPropertyOp5
70
1
102
RTVSPropertyOp6
70
1
102
RTVSPropertyOp7
70
1
102
RTVSPropertyOp8
70
1
102
RTVSPropertyOp9
70
1
102
RTVSPropertyOp10
70
1
102
RTVSPropertyOp11
70
1
102
RTVSPropertyOp12
70
1
102
RTVSPropertyOp13
70
1
102
RTVSPropertyOp14
70
1
102
RTVSPropertyOp15
70
1
102
RTVSPropertyOp16
70
1
102
RTVSPropertyOp17
70
1
102
RTVSPropertyOp18
70
1
102
RTVSPropertyOp19
70
1
102
RTVSPropertyOp20
70
1
102
RTVSPropertyOp21
70
1
102
RTVSPropertyOp22
70
1
102
RTVSPropertyOp23
70
1
102
RTVSPropertyOp24
70
1
102
RTVSPropertyOp25
70
1
102
RTVSPropertyOp26
70
1
102
RTVSPropertyOp27
70
1
0
XRECORD
5
1091
102
{ACAD_REACTORS
330
1090
102
}
330
1090
100
AcDbXrecord
280
1
102
RTVSPropertyOp0
70
1
102
RTVSPropertyOp1
70
1
102
RTVSPropertyOp2
70
1
102
RTVSPropertyOp3
70
1
102
RTVSPropertyOp4
70
1
102
RTVSPropertyOp5
70
1
102
RTVSPropertyOp6
70
1
102
RTVSPropertyOp7
70
1
102
RTVSPropertyOp8
70
1
102
RTVSPropertyOp9
70
1
102
RTVSPropertyOp10
70
1
102
RTVSPropertyOp11
70
1
102
RTVSPropertyOp12
70
1
102
RTVSPropertyOp13
70
1
102
RTVSPropertyOp14
70
1
102
RTVSPropertyOp15
70
1
102
RTVSPropertyOp16
70
1
102
RTVSPropertyOp17
70
1
102
RTVSPropertyOp18
70
1
102
RTVSPropertyOp19
70
1
102
RTVSPropertyOp20
70
1
102
RTVSPropertyOp21
70
1
102
RTVSPropertyOp22
70
1
102
RTVSPropertyOp23
70
1
102
RTVSPropertyOp24
70
1
102
RTVSPropertyOp25
70
1
102
RTVSPropertyOp26
70
1
102
RTVSPropertyOp27
70
1
0
XRECORD
5
1095
102
{ACAD_REACTORS
330
1094
102
}
330
1094
100
AcDbXrecord
280
1
102
RTVSPropertyOp0
70
1
102
RTVSPropertyOp1
70
1
102
RTVSPropertyOp2
70
1
102
RTVSPropertyOp3
70
1
102
RTVSPropertyOp4
70
1
102
RTVSPropertyOp5
70
1
102
RTVSPropertyOp6
70
1
102
RTVSPropertyOp7
70
1
102
RTVSPropertyOp8
70
1
102
RTVSPropertyOp9
70
1
102
RTVSPropertyOp10
70
1
102
RTVSPropertyOp11
70
1
102
RTVSPropertyOp12
70
1
102
RTVSPropertyOp13
70
1
102
RTVSPropertyOp14
70
1
102
RTVSPropertyOp15
70
1
102
RTVSPropertyOp16
70
1
102
RTVSPropertyOp17
70
1
102
RTVSPropertyOp18
70
1
102
RTVSPropertyOp19
70
1
102
RTVSPropertyOp20
70
1
102
RTVSPropertyOp21
70
1
102
RTVSPropertyOp22
70
1
102
RTVSPropertyOp23
70
1
102
RTVSPropertyOp24
70
1
102
RTVSPropertyOp25
70
1
102
RTVSPropertyOp26
70
1
102
RTVSPropertyOp27
70
1
0
XRECORD
5
10A5
102
{ACAD_REACTORS
330
10A4
102
}
330
10A4
100
AcDbXrecord
280
1
102
RTVSPropertyOp0
70
0
102
RTVSPropertyOp1
70
0
102
RTVSPropertyOp2
70
0
102
RTVSPropertyOp3
70
0
102
RTVSPropertyOp4
70
0
102
RTVSPropertyOp5
70
0
102
RTVSPropertyOp6
70
0
102
RTVSPropertyOp7
70
0
102
RTVSPropertyOp8
70
0
102
RTVSPropertyOp9
70
0
102
RTVSPropertyOp10
70
0
102
RTVSPropertyOp11
70
0
102
RTVSPropertyOp12
70
0
102
RTVSPropertyOp13
70
0
102
RTVSPropertyOp14
70
2
102
RTVSPropertyOp15
70
0
102
RTVSPropertyOp16
70
0
102
RTVSPropertyOp17
70
0
102
RTVSPropertyOp18
70
0
102
RTVSPropertyOp19
70
0
102
RTVSPropertyOp20
70
0
102
RTVSPropertyOp21
70
0
102
RTVSPropertyOp22
70
0
102
RTVSPropertyOp23
70
0
102
RTVSPropertyOp24
70
0
102
RTVSPropertyOp25
70
0
102
RTVSPropertyOp26
70
0
102
RTVSPropertyOp27
70
0
0
XRECORD
5
109D
102
{ACAD_REACTORS
330
109C
102
}
330
109C
100
AcDbXrecord
280
1
102
RTVSPropertyOp0
70
1
102
RTVSPropertyOp1
70
1
102
RTVSPropertyOp2
70
1
102
RTVSPropertyOp3
70
1
102
RTVSPropertyOp4
70
1
102
RTVSPropertyOp5
70
1
102
RTVSPropertyOp6
70
1
102
RTVSPropertyOp7
70
1
102
RTVSPropertyOp8
70
1
102
RTVSPropertyOp9
70
1
102
RTVSPropertyOp10
70
1
102
RTVSPropertyOp11
70
1
102
RTVSPropertyOp12
70
1
102
RTVSPropertyOp13
70
1
102
RTVSPropertyOp14
70
1
102
RTVSPropertyOp15
70
1
102
RTVSPropertyOp16
70
1
102
RTVSPropertyOp17
70
1
102
RTVSPropertyOp18
70
1
102
RTVSPropertyOp19
70
1
102
RTVSPropertyOp20
70
1
102
RTVSPropertyOp21
70
1
102
RTVSPropertyOp22
70
1
102
RTVSPropertyOp23
70
1
102
RTVSPropertyOp24
70
1
102
RTVSPropertyOp25
70
1
102
RTVSPropertyOp26
70
1
102
RTVSPropertyOp27
70
1
0
XRECORD
5
1081
102
{ACAD_REACTORS
330
1080
102
}
330
1080
100
AcDbXrecord
280
1
102
RTVSPropertyOp0
70
1
102
RTVSPropertyOp1
70
1
102
RTVSPropertyOp2
70
1
102
RTVSPropertyOp3
70
1
102
RTVSPropertyOp4
70
1
102
RTVSPropertyOp5
70
1
102
RTVSPropertyOp6
70
1
102
RTVSPropertyOp7
70
1
102
RTVSPropertyOp8
70
1
102
RTVSPropertyOp9
70
1
102
RTVSPropertyOp10
70
1
102
RTVSPropertyOp11
70
1
102
RTVSPropertyOp12
70
1
102
RTVSPropertyOp13
70
1
102
RTVSPropertyOp14
70
1
102
RTVSPropertyOp15
70
1
102
RTVSPropertyOp16
70
1
102
RTVSPropertyOp17
70
1
102
RTVSPropertyOp18
70
1
102
RTVSPropertyOp19
70
1
102
RTVSPropertyOp20
70
1
102
RTVSPropertyOp21
70
1
102
RTVSPropertyOp22
70
1
102
RTVSPropertyOp23
70
1
102
RTVSPropertyOp24
70
1
102
RTVSPropertyOp25
70
1
102
RTVSPropertyOp26
70
1
102
RTVSPropertyOp27
70
1
0
XRECORD
5
1083
102
{ACAD_REACTORS
330
1082
102
}
330
1082
100
AcDbXrecord
280
1
102
RTVSPropertyOp0
70
1
102
RTVSPropertyOp1
70
1
102
RTVSPropertyOp2
70
1
102
RTVSPropertyOp3
70
1
102
RTVSPropertyOp4
70
1
102
RTVSPropertyOp5
70
1
102
RTVSPropertyOp6
70
1
102
RTVSPropertyOp7
70
1
102
RTVSPropertyOp8
70
1
102
RTVSPropertyOp9
70
1
102
RTVSPropertyOp10
70
1
102
RTVSPropertyOp11
70
1
102
RTVSPropertyOp12
70
1
102
RTVSPropertyOp13
70
1
102
RTVSPropertyOp14
70
1
102
RTVSPropertyOp15
70
1
102
RTVSPropertyOp16
70
1
102
RTVSPropertyOp17
70
1
102
RTVSPropertyOp18
70
1
102
RTVSPropertyOp19
70
1
102
RTVSPropertyOp20
70
1
102
RTVSPropertyOp21
70
1
102
RTVSPropertyOp22
70
1
102
RTVSPropertyOp23
70
1
102
RTVSPropertyOp24
70
1
102
RTVSPropertyOp25
70
1
102
RTVSPropertyOp26
70
1
102
RTVSPropertyOp27
70
1
0
XRECORD
5
1085
102
{ACAD_REACTORS
330
1084
102
}
330
1084
100
AcDbXrecord
280
1
102
RTVSPropertyOp0
70
1
102
RTVSPropertyOp1
70
1
102
RTVSPropertyOp2
70
1
102
RTVSPropertyOp3
70
1
102
RTVSPropertyOp4
70
1
102
RTVSPropertyOp5
70
1
102
RTVSPropertyOp6
70
1
102
RTVSPropertyOp7
70
1
102
RTVSPropertyOp8
70
1
102
RTVSPropertyOp9
70
1
102
RTVSPropertyOp10
70
1
102
RTVSPropertyOp11
70
1
102
RTVSPropertyOp12
70
1
102
RTVSPropertyOp13
70
1
102
RTVSPropertyOp14
70
1
102
RTVSPropertyOp15
70
1
102
RTVSPropertyOp16
70
1
102
RTVSPropertyOp17
70
1
102
RTVSPropertyOp18
70
1
102
RTVSPropertyOp19
70
1
102
RTVSPropertyOp20
70
1
102
RTVSPropertyOp21
70
1
102
RTVSPropertyOp22
70
1
102
RTVSPropertyOp23
70
1
102
RTVSPropertyOp24
70
1
102
RTVSPropertyOp25
70
1
102
RTVSPropertyOp26
70
1
102
RTVSPropertyOp27
70
1
0
XRECORD
5
1087
102
{ACAD_REACTORS
330
1086
102
}
330
1086
100
AcDbXrecord
280
1
102
RTVSPropertyOp0
70
1
102
RTVSPropertyOp1
70
1
102
RTVSPropertyOp2
70
1
102
RTVSPropertyOp3
70
1
102
RTVSPropertyOp4
70
1
102
RTVSPropertyOp5
70
1
102
RTVSPropertyOp6
70
1
102
RTVSPropertyOp7
70
1
102
RTVSPropertyOp8
70
1
102
RTVSPropertyOp9
70
1
102
RTVSPropertyOp10
70
1
102
RTVSPropertyOp11
70
1
102
RTVSPropertyOp12
70
1
102
RTVSPropertyOp13
70
1
102
RTVSPropertyOp14
70
1
102
RTVSPropertyOp15
70
1
102
RTVSPropertyOp16
70
1
102
RTVSPropertyOp17
70
1
102
RTVSPropertyOp18
70
1
102
RTVSPropertyOp19
70
1
102
RTVSPropertyOp20
70
1
102
RTVSPropertyOp21
70
1
102
RTVSPropertyOp22
70
1
102
RTVSPropertyOp23
70
1
102
RTVSPropertyOp24
70
1
102
RTVSPropertyOp25
70
1
102
RTVSPropertyOp26
70
1
102
RTVSPropertyOp27
70
1
0
XRECORD
5
10A1
102
{ACAD_REACTORS
330
10A0
102
}
330
10A0
100
AcDbXrecord
280
1
102
RTVSPropertyOp0
70
0
102
RTVSPropertyOp1
70
0
102
RTVSPropertyOp2
70
0
102
RTVSPropertyOp3
70
0
102
RTVSPropertyOp4
70
0
102
RTVSPropertyOp5
70
0
102
RTVSPropertyOp6
70
0
102
RTVSPropertyOp7
70
0
102
RTVSPropertyOp8
70
0
102
RTVSPropertyOp9
70
0
102
RTVSPropertyOp10
70
0
102
RTVSPropertyOp11
70
0
102
RTVSPropertyOp12
70
0
102
RTVSPropertyOp13
70
0
102
RTVSPropertyOp14
70
2
102
RTVSPropertyOp15
70
0
102
RTVSPropertyOp16
70
0
102
RTVSPropertyOp17
70
0
102
RTVSPropertyOp18
70
0
102
RTVSPropertyOp19
70
0
102
RTVSPropertyOp20
70
0
102
RTVSPropertyOp21
70
0
102
RTVSPropertyOp22
70
0
102
RTVSPropertyOp23
70
0
102
RTVSPropertyOp24
70
0
102
RTVSPropertyOp25
70
0
102
RTVSPropertyOp26
70
0
102
RTVSPropertyOp27
70
0
0
XRECORD
5
109B
102
{ACAD_REACTORS
330
109A
102
}
330
109A
100
AcDbXrecord
280
1
102
RTVSPropertyOp0
70
1
102
RTVSPropertyOp1
70
1
102
RTVSPropertyOp2
70
1
102
RTVSPropertyOp3
70
1
102
RTVSPropertyOp4
70
1
102
RTVSPropertyOp5
70
1
102
RTVSPropertyOp6
70
1
102
RTVSPropertyOp7
70
1
102
RTVSPropertyOp8
70
1
102
RTVSPropertyOp9
70
1
102
RTVSPropertyOp10
70
1
102
RTVSPropertyOp11
70
1
102
RTVSPropertyOp12
70
1
102
RTVSPropertyOp13
70
1
102
RTVSPropertyOp14
70
1
102
RTVSPropertyOp15
70
1
102
RTVSPropertyOp16
70
1
102
RTVSPropertyOp17
70
1
102
RTVSPropertyOp18
70
1
102
RTVSPropertyOp19
70
1
102
RTVSPropertyOp20
70
1
102
RTVSPropertyOp21
70
1
102
RTVSPropertyOp22
70
1
102
RTVSPropertyOp23
70
1
102
RTVSPropertyOp24
70
1
102
RTVSPropertyOp25
70
1
102
RTVSPropertyOp26
70
1
102
RTVSPropertyOp27
70
1
0
XRECORD
5
10A3
102
{ACAD_REACTORS
330
10A2
102
}
330
10A2
100
AcDbXrecord
280
1
102
RTVSPropertyOp0
70
0
102
RTVSPropertyOp1
70
0
102
RTVSPropertyOp2
70
0
102
RTVSPropertyOp3
70
0
102
RTVSPropertyOp4
70
0
102
RTVSPropertyOp5
70
0
102
RTVSPropertyOp6
70
0
102
RTVSPropertyOp7
70
0
102
RTVSPropertyOp8
70
0
102
RTVSPropertyOp9
70
0
102
RTVSPropertyOp10
70
0
102
RTVSPropertyOp11
70
0
102
RTVSPropertyOp12
70
0
102
RTVSPropertyOp13
70
0
102
RTVSPropertyOp14
70
2
102
RTVSPropertyOp15
70
0
102
RTVSPropertyOp16
70
0
102
RTVSPropertyOp17
70
0
102
RTVSPropertyOp18
70
0
102
RTVSPropertyOp19
70
0
102
RTVSPropertyOp20
70
0
102
RTVSPropertyOp21
70
0
102
RTVSPropertyOp22
70
0
102
RTVSPropertyOp23
70
0
102
RTVSPropertyOp24
70
0
102
RTVSPropertyOp25
70
0
102
RTVSPropertyOp26
70
0
102
RTVSPropertyOp27
70
0
0
XRECORD
5
1093
102
{ACAD_REACTORS
330
1092
102
}
330
1092
100
AcDbXrecord
280
1
102
RTVSPropertyOp0
70
1
102
RTVSPropertyOp1
70
1
102
RTVSPropertyOp2
70
1
102
RTVSPropertyOp3
70
1
102
RTVSPropertyOp4
70
1
102
RTVSPropertyOp5
70
1
102
RTVSPropertyOp6
70
1
102
RTVSPropertyOp7
70
1
102
RTVSPropertyOp8
70
1
102
RTVSPropertyOp9
70
1
102
RTVSPropertyOp10
70
1
102
RTVSPropertyOp11
70
1
102
RTVSPropertyOp12
70
1
102
RTVSPropertyOp13
70
1
102
RTVSPropertyOp14
70
1
102
RTVSPropertyOp15
70
1
102
RTVSPropertyOp16
70
1
102
RTVSPropertyOp17
70
1
102
RTVSPropertyOp18
70
1
102
RTVSPropertyOp19
70
1
102
RTVSPropertyOp20
70
1
102
RTVSPropertyOp21
70
1
102
RTVSPropertyOp22
70
1
102
RTVSPropertyOp23
70
1
102
RTVSPropertyOp24
70
1
102
RTVSPropertyOp25
70
1
102
RTVSPropertyOp26
70
1
102
RTVSPropertyOp27
70
1
0
XRECORD
5
1099
102
{ACAD_REACTORS
330
1098
102
}
330
1098
100
AcDbXrecord
280
1
102
RTVSPropertyOp0
70
1
102
RTVSPropertyOp1
70
1
102
RTVSPropertyOp2
70
1
102
RTVSPropertyOp3
70
1
102
RTVSPropertyOp4
70
1
102
RTVSPropertyOp5
70
1
102
RTVSPropertyOp6
70
1
102
RTVSPropertyOp7
70
1
102
RTVSPropertyOp8
70
1
102
RTVSPropertyOp9
70
1
102
RTVSPropertyOp10
70
1
102
RTVSPropertyOp11
70
1
102
RTVSPropertyOp12
70
1
102
RTVSPropertyOp13
70
1
102
RTVSPropertyOp14
70
1
102
RTVSPropertyOp15
70
1
102
RTVSPropertyOp16
70
1
102
RTVSPropertyOp17
70
1
102
RTVSPropertyOp18
70
1
102
RTVSPropertyOp19
70
1
102
RTVSPropertyOp20
70
1
102
RTVSPropertyOp21
70
1
102
RTVSPropertyOp22
70
1
102
RTVSPropertyOp23
70
1
102
RTVSPropertyOp24
70
1
102
RTVSPropertyOp25
70
1
102
RTVSPropertyOp26
70
1
102
RTVSPropertyOp27
70
1
0
ENDSEC
0
EOF
