0
SECTION
2
HEADER
9
$ACADVER
1
AC1015
9
$ACADMAINTVER
70
20
9
$DWGCODEPAGE
3
ANSI_1252
9
$INSBASE
10
0.0
20
0.0
30
0.0
9
$EXTMIN
10
-150.000000000000
20
-105.000000000000
30
0.0
9
$EXTMAX
10
150.000000000000
20
105.000000000000
30
0.0
9
$LIMMIN
10
0.0
20
0.0
9
$LIMMAX
10
12.0
20
9.0
9
$ORTHOMODE
70
0
9
$REGENMODE
70
1
9
$FILLMODE
70
1
9
$QTEXTMODE
70
0
9
$MIRRTEXT
70
1
9
$LTSCALE
40
1.0
9
$ATTMODE
70
1
9
$TEXTSIZE
40
0.2
9
$TRACEWID
40
0.05
9
$TEXTSTYLE
7
Standard
9
$CLAYER
8
0
9
$CELTYPE
6
ByLayer
9
$CECOLOR
62
256
9
$CELTSCALE
40
1.0
9
$DISPSILH
70
0
9
$DIMSCALE
40
1.0
9
$DIMASZ
40
2.5
9
$DIMEXO
40
0.625
9
$DIMDLI
40
0.38
9
$DIMRND
40
0.0
9
$DIMDLE
40
0.0
9
$DIMEXE
40
1.25
9
$DIMTP
40
0.0
9
$DIMTM
40
0.000000001
9
$DIMTXT
40
2.5
9
$DIMCEN
40
0.09
9
$DIMTSZ
40
0.0
9
$DIMTOL
70
1
9
$DIMLIM
70
0
9
$DIMTIH
70
0
9
$DIMTOH
70
0
9
$DIMSE1
70
0
9
$DIMSE2
70
0
9
$DIMTAD
70
1
9
$DIMZIN
70
0
9
$DIMBLK
1
VDDIM_DEFAULT
9
$DIMASO
70
1
9
$DIMSHO
70
1
9
$DIMPOST
1

9
$DIMAPOST
1

9
$DIMALT
70
0
9
$DIMALTD
70
2
9
$DIMALTF
40
25.4
9
$DIMLFAC
40
1.00000000000000
9
$DIMTOFL
70
0
9
$DIMTVP
40
0.0
9
$DIMTIX
70
0
9
$DIMSOXD
70
0
9
$DIMSAH
70
0
9
$DIMBLK1
1

9
$DIMBLK2
1

9
$DIMSTYLE
2
BEM-ISBE
9
$DIMCLRD
70
0
9
$DIMCLRE
70
0
9
$DIMCLRT
70
0
9
$DIMTFAC
40
0.5
9
$DIMGAP
40
0.625
9
$DIMJUST
70
0
9
$DIMSD1
70
0
9
$DIMSD2
70
0
9
$DIMTOLJ
70
1
9
$DIMTZIN
70
0
9
$DIMALTZ
70
0
9
$DIMALTTZ
70
0
9
$DIMUPT
70
0
9
$DIMDEC
70
3
9
$DIMTDEC
70
3
9
$DIMALTU
70
2
9
$DIMALTTD
70
2
9
$DIMTXSTY
7
Standard
9
$DIMAUNIT
70
0
9
$DIMADEC
70
3
9
$DIMALTRND
40
0.0
9
$DIMAZIN
70
0
9
$DIMDSEP
70
46
9
$DIMATFIT
70
3
9
$DIMFRAC
70
0
9
$DIMLDRBLK
1

9
$DIMLUNIT
70
2
9
$DIMLWD
70
-2
9
$DIMLWE
70
-2
9
$DIMTMOVE
70
0
9
$LUNITS
70
2
9
$LUPREC
70
4
9
$SKETCHINC
40
0.1
9
$FILLETRAD
40
0.5
9
$AUNITS
70
0
9
$AUPREC
70
0
9
$MENU
1
.
9
$ELEVATION
40
0.0
9
$PELEVATION
40
0.0
9
$THICKNESS
40
0.0
9
$LIMCHECK
70
0
9
$CHAMFERA
40
0.5
9
$CHAMFERB
40
0.5
9
$CHAMFERC
40
1.0
9
$CHAMFERD
40
0.0
9
$SKPOLY
70
0
9
$TDCREATE
40
0.0
9
$TDUCREATE
40
0.0
9
$TDUPDATE
40
0.0
9
$TDUUPDATE
40
0.0
9
$TDINDWG
40
0.0
9
$TDUSRTIMER
40
0.0
9
$USRTIMER
70
1
9
$ANGBASE
50
0.0
9
$ANGDIR
70
0
9
$PDMODE
70
0
9
$PDSIZE
40
0.0
9
$PLINEWID
40
0.0
9
$SPLFRAME
70
0
9
$SPLINETYPE
70
6
9
$SPLINESEGS
70
8
9
$HANDSEED
5
10AB
9
$SURFTAB1
70
6
9
$SURFTAB2
70
6
9
$SURFTYPE
70
6
9
$SURFU
70
6
9
$SURFV
70
6
9
$UCSBASE
2

9
$UCSNAME
2

9
$UCSORG
10
0.0
20
0.0
30
0.0
9
$UCSXDIR
10
1.0
20
0.0
30
0.0
9
$UCSYDIR
10
0.0
20
1.0
30
0.0
9
$UCSORTHOREF
2

9
$UCSORTHOVIEW
70
0
9
$UCSORGTOP
10
0.0
20
0.0
30
0.0
9
$UCSORGBOTTOM
10
0.0
20
0.0
30
0.0
9
$UCSORGLEFT
10
0.0
20
0.0
30
0.0
9
$UCSORGRIGHT
10
0.0
20
0.0
30
0.0
9
$UCSORGFRONT
10
0.0
20
0.0
30
0.0
9
$UCSORGBACK
10
0.0
20
0.0
30
0.0
9
$PUCSBASE
2

9
$PUCSNAME
2

9
$PUCSORG
10
0.0
20
0.0
30
0.0
9
$PUCSXDIR
10
1.0
20
0.0
30
0.0
9
$PUCSYDIR
10
0.0
20
1.0
30
0.0
9
$PUCSORTHOREF
2

9
$PUCSORTHOVIEW
70
0
9
$PUCSORGTOP
10
0.0
20
0.0
30
0.0
9
$PUCSORGBOTTOM
10
0.0
20
0.0
30
0.0
9
$PUCSORGLEFT
10
0.0
20
0.0
30
0.0
9
$PUCSORGRIGHT
10
0.0
20
0.0
30
0.0
9
$PUCSORGFRONT
10
0.0
20
0.0
30
0.0
9
$PUCSORGBACK
10
0.0
20
0.0
30
0.0
9
$USERI1
70
0
9
$USERI2
70
0
9
$USERI3
70
0
9
$USERI4
70
0
9
$USERI5
70
0
9
$USERR1
40
0.0
9
$USERR2
40
0.0
9
$USERR3
40
0.0
9
$USERR4
40
0.0
9
$USERR5
40
0.0
9
$WORLDVIEW
70
1
9
$SHADEDGE
70
3
9
$SHADEDIF
70
70
9
$TILEMODE
70
1
9
$MAXACTVP
70
64
9
$PINSBASE
10
0.0
20
0.0
30
0.0
9
$PLIMCHECK
70
0
9
$PEXTMIN
10
1.000000000000000E+20
20
1.000000000000000E+20
30
1.000000000000000E+20
9
$PEXTMAX
10
-1.000000000000000E+20
20
-1.000000000000000E+20
30
-1.000000000000000E+20
9
$PLIMMIN
10
0.0
20
0.0
9
$PLIMMAX
10
12.0
20
9.0
9
$UNITMODE
70
0
9
$VISRETAIN
70
1
9
$PLINEGEN
70
0
9
$PSLTSCALE
70
1
9
$TREEDEPTH
70
3020
9
$CMLSTYLE
2
Standard
9
$CMLJUST
70
0
9
$CMLSCALE
40
1.0
9
$PROXYGRAPHICS
70
1
9
$MEASUREMENT
70
0
9
$CELWEIGHT
370
-1
9
$ENDCAPS
280
0
9
$JOINSTYLE
280
0
9
$LWDISPLAY
290
0
9
$INSUNITS
70
4
9
$HYPERLINKBASE
1

9
$STYLESHEET
1

9
$XEDIT
290
1
9
$CEPSNTYPE
380
0
9
$PSTYLEMODE
290
0
9
$FINGERPRINTGUID
2
{FAEB1C30-E019-11D5-929B-00C0DF256EC4}
9
$VERSIONGUID
2
{04C5C4E4-4947-4D90-8812-D401569E61F7}
9
$EXTNAMES
290
1
9
$PSVPSCALE
40
0.0
9
$OLESTARTUP
290
0
0
ENDSEC
0
SECTION
2
TABLES
0
TABLE
2
VPORT
5
24A
330
0
100
AcDbSymbolTable
70
1
0
VPORT
5
26B
330
24A
100
AcDbSymbolTableRecord
100
AcDbViewportTableRecord
2
*Active
70
0
10
0.0
20
0.0
11
1.0
21
1.0
12
0.000000000000000
22
0.000000000000000
13
0.0
23
0.0
14
10.0
24
10.0
15
10.0
25
10.0
16
0.0
26
0.0
36
1.0
17
0.0
27
0.0
37
0.0
40
210.000000000000
41
1.42857142857143
42
1.0
43
0.0
44
0.0
50
0.0
51
0.0000000000007958
71
0
72
100
73
1
74
3
75
0
76
0
77
0
78
1
281
0
65
1
110
0.0
120
0.0
130
0.0
111
1.0
121
0.0
131
0.0
112
0.0
122
1.0
132
0.0
79
0
146
0.0
0
ENDTAB
0
TABLE
2
LTYPE
5
247
330
0
100
AcDbSymbolTable
70
25
0
LTYPE
5
256
330
247
100
AcDbSymbolTableRecord
100
AcDbLinetypeTableRecord
2
ByBlock
70
0
3

72
65
73
0
40
0.0
0
LTYPE
5
257
330
247
100
AcDbSymbolTableRecord
100
AcDbLinetypeTableRecord
2
ByLayer
70
0
3

72
65
73
0
40
0.0
0
LTYPE
5
258
330
247
100
AcDbSymbolTableRecord
100
AcDbLinetypeTableRecord
2
Continuous
70
0
3
Solid line
72
65
73
0
40
0.0
0
LTYPE
5
273
330
247
100
AcDbSymbolTableRecord
100
AcDbLinetypeTableRecord
2
CENTER
70
0
3
Center ____ _ ____ _ ____ _ ____ _ ____ _ ____
72
65
73
4
40
2.0
49
1.25
74
0
49
-0.25
74
0
49
0.25
74
0
49
-0.25
74
0
0
LTYPE
5
274
330
247
100
AcDbSymbolTableRecord
100
AcDbLinetypeTableRecord
2
DASHDOT
70
0
3
Dashdot __ . __ . __ . __ . __ . __ . __ . __
72
65
73
4
40
1.0
49
0.5
74
0
49
-0.25
74
0
49
0.0
74
0
49
-0.25
74
0
0
LTYPE
5
275
330
247
100
AcDbSymbolTableRecord
100
AcDbLinetypeTableRecord
2
DASHED
70
0
3
Dashed __ __ __ __ __ __ __ __ __ __ __ __ __ _
72
65
73
2
40
0.75
49
0.5
74
0
49
-0.25
74
0
0
LTYPE
5
276
330
247
100
AcDbSymbolTableRecord
100
AcDbLinetypeTableRecord
2
HIDDEN
70
0
3
Hidden __ __ __ __ __ __ __ __ __ __ __ __ __ __
72
65
73
2
40
0.375
49
0.25
74
0
49
-0.125
74
0
0
LTYPE
5
277
330
247
100
AcDbSymbolTableRecord
100
AcDbLinetypeTableRecord
2
HIDDEN2
70
0
3
Hidden2 _ _ _ _ _ _ _ _ _ _ _ _ _ _ _ _ _
72
65
73
2
40
0.1875
49
0.125
74
0
49
-0.0625
74
0
0
LTYPE
5
278
330
247
100
AcDbSymbolTableRecord
100
AcDbLinetypeTableRecord
2
BORDER
70
0
3
Border __ __ . __ __ . __ __ . __ __ . __ __ .
72
65
73
6
40
1.75
49
0.5
74
0
49
-0.25
74
0
49
0.5
74
0
49
-0.25
74
0
49
0.0
74
0
49
-0.25
74
0
0
LTYPE
5
279
330
247
100
AcDbSymbolTableRecord
100
AcDbLinetypeTableRecord
2
BORDER2
70
0
3
Border2 __.__.__.__.__.__.__.__.__.__.__.
72
65
73
6
40
0.875
49
0.25
74
0
49
-0.125
74
0
49
0.25
74
0
49
-0.125
74
0
49
0.0
74
0
49
-0.125
74
0
0
LTYPE
5
27A
330
247
100
AcDbSymbolTableRecord
100
AcDbLinetypeTableRecord
2
BORDERX2
70
0
3
Borderx2  ____  ____  .  ____  ____  .  ___
72
65
73
6
40
3.5
49
1.0
74
0
49
-0.5
74
0
49
1.0
74
0
49
-0.5
74
0
49
0.0
74
0
49
-0.5
74
0
0
LTYPE
5
27B
330
247
100
AcDbSymbolTableRecord
100
AcDbLinetypeTableRecord
2
CENTER2
70
0
3
Center2  ___ _ ___ _ ___ _ ___ _ ___ _ ___
72
65
73
4
40
1.125
49
0.75
74
0
49
-0.125
74
0
49
0.125
74
0
49
-0.125
74
0
0
LTYPE
5
27C
330
247
100
AcDbSymbolTableRecord
100
AcDbLinetypeTableRecord
2
CENTERX2
70
0
3
Centerx2  ________  __  ________  __  _____
72
65
73
4
40
4.0
49
2.5
74
0
49
-0.5
74
0
49
0.5
74
0
49
-0.5
74
0
0
LTYPE
5
27D
330
247
100
AcDbSymbolTableRecord
100
AcDbLinetypeTableRecord
2
DASHDOT2
70
0
3
Dashdot2  _._._._._._._._._._._._._._._.
72
65
73
4
40
0.5
49
0.25
74
0
49
-0.125
74
0
49
0.0
74
0
49
-0.125
74
0
0
LTYPE
5
27E
330
247
100
AcDbSymbolTableRecord
100
AcDbLinetypeTableRecord
2
DASHDOTX2
70
0
3
Dashdotx2 ____  .  ____  .  ____  .  ___
72
65
73
4
40
2.0
49
1.0
74
0
49
-0.5
74
0
49
0.0
74
0
49
-0.5
74
0
0
LTYPE
5
27F
330
247
100
AcDbSymbolTableRecord
100
AcDbLinetypeTableRecord
2
DASHED2
70
0
3
Dashed2 _ _ _ _ _ _ _ _ _ _ _ _ _ _ _ _ _
72
65
73
2
40
0.375
49
0.25
74
0
49
-0.125
74
0
0
LTYPE
5
280
330
247
100
AcDbSymbolTableRecord
100
AcDbLinetypeTableRecord
2
DASHEDX2
70
0
3
Dashedx2 ____  ____  ____  ____  ____  ___
72
65
73
2
40
1.5
49
1.0
74
0
49
-0.5
74
0
0
LTYPE
5
281
330
247
100
AcDbSymbolTableRecord
100
AcDbLinetypeTableRecord
2
DIVIDE
70
0
3
Divide ____ . . ____ . . ____ . . ____ . . ____
72
65
73
6
40
1.25
49
0.5
74
0
49
-0.25
74
0
49
0.0
74
0
49
-0.25
74
0
49
0.0
74
0
49
-0.25
74
0
0
LTYPE
5
282
330
247
100
AcDbSymbolTableRecord
100
AcDbLinetypeTableRecord
2
DIVIDE2
70
0
3
Divide2 __..__..__..__..__..__..__..__.._
72
65
73
6
40
0.625
49
0.25
74
0
49
-0.125
74
0
49
0.0
74
0
49
-0.125
74
0
49
0.0
74
0
49
-0.125
74
0
0
LTYPE
5
283
330
247
100
AcDbSymbolTableRecord
100
AcDbLinetypeTableRecord
2
DIVIDEX2
70
0
3
Dividex2 ________  .  .  ________  .  .  _
72
65
73
6
40
2.5
49
1.0
74
0
49
-0.5
74
0
49
0.0
74
0
49
-0.5
74
0
49
0.0
74
0
49
-0.5
74
0
0
LTYPE
5
284
330
247
100
AcDbSymbolTableRecord
100
AcDbLinetypeTableRecord
2
DOT
70
0
3
Dot . . . . . . . . . . . . . . . . . . . . . . . .
72
65
73
2
40
0.25
49
0.0
74
0
49
-0.25
74
0
0
LTYPE
5
285
330
247
100
AcDbSymbolTableRecord
100
AcDbLinetypeTableRecord
2
DOT2
70
0
3
Dot2 ........................................
72
65
73
2
40
0.125
49
0.0
74
0
49
-0.125
74
0
0
LTYPE
5
286
330
247
100
AcDbSymbolTableRecord
100
AcDbLinetypeTableRecord
2
DOTX2
70
0
3
Dotx2 .  .  .  .  .  .  .  .  .  .  .  .  .  .
72
65
73
2
40
0.5
49
0.0
74
0
49
-0.5
74
0
0
LTYPE
5
287
330
247
100
AcDbSymbolTableRecord
100
AcDbLinetypeTableRecord
2
HIDDENX2
70
0
3
Hiddenx2 ____ ____ ____ ____ ____ ____ ____
72
65
73
2
40
0.75
49
0.5
74
0
49
-0.25
74
0
0
LTYPE
5
288
330
247
100
AcDbSymbolTableRecord
100
AcDbLinetypeTableRecord
2
PHANTOM
70
0
3
Phantom ______  __  __  ______  __  __  ______
72
65
73
6
40
2.5
49
1.25
74
0
49
-0.25
74
0
49
0.25
74
0
49
-0.25
74
0
49
0.25
74
0
49
-0.25
74
0
0
LTYPE
5
289
330
247
100
AcDbSymbolTableRecord
100
AcDbLinetypeTableRecord
2
PHANTOM2
70
0
3
Phantom2 ___ _ _ ___ _ _ ___ _ _ ___ _ _
72
65
73
6
40
1.25
49
0.625
74
0
49
-0.125
74
0
49
0.125
74
0
49
-0.125
74
0
49
0.125
74
0
49
-0.125
74
0
0
LTYPE
5
28A
330
247
100
AcDbSymbolTableRecord
100
AcDbLinetypeTableRecord
2
PHANTOMX2
70
0
3
Phantomx2 ____________    ____    ____   _
72
65
73
6
40
5.0
49
2.5
74
0
49
-0.5
74
0
49
0.5
74
0
49
-0.5
74
0
49
0.5
74
0
49
-0.5
74
0
0
ENDTAB
0
TABLE
2
LAYER
5
244
330
0
100
AcDbSymbolTable
70
6
0
LAYER
5
252
330
244
100
AcDbSymbolTableRecord
100
AcDbLayerTableRecord
2
0
70
0
62
7
6
Continuous
370
0
390
251
0
LAYER
5
23F
330
244
100
AcDbSymbolTableRecord
100
AcDbLayerTableRecord
2
Bemassung
70
0
 62
   7
6
Continuous
370
0
390
251
0
LAYER
5
240
330
244
100
AcDbSymbolTableRecord
100
AcDbLayerTableRecord
2
Rahmen
70
0
 62
   7
6
Continuous
370
0
390
251
0
LAYER
5
241
330
244
100
AcDbSymbolTableRecord
100
AcDbLayerTableRecord
2
Geo
70
0
 62
   7
6
Continuous
370
0
390
251
0
LAYER
5
33A
330
244
100
AcDbSymbolTableRecord
100
AcDbLayerTableRecord
2
Defpoints
70
0
62
7
6
Continuous
290
0
370
-3
390
251
0
LAYER
5
57E
330
244
100
AcDbSymbolTableRecord
100
AcDbLayerTableRecord
2
Text
70
0
 62
   7
6
Continuous
370
0
390
251
1001
AcAecLayerStandard
1000

1000

0
ENDTAB
0
TABLE
2
STYLE
5
245
330
0
100
AcDbSymbolTable
70
2
0
STYLE
5
253
330
245
100
AcDbSymbolTableRecord
100
AcDbTextStyleTableRecord
2
Standard
70
0
40
0.0
41
1.0
50
0.0
71
0
42
0.2
3
Arial
4

1001
ACAD
1000
Arial
1071
0
0
STYLE
5
132
330
245
100
AcDbSymbolTableRecord
100
AcDbTextStyleTableRecord
2
Beschriftung
70
0
40
0.0
41
1.0
50
0.0
71
0
42
0.2
3
Arial
4

1001
ACAD
1000
Arial
1071
0
1001
AcadAnnotative
1000
AnnotativeData
1070
1
1070
1
0
ENDTAB
0
TABLE
2
VIEW
5
248
330
0
100
AcDbSymbolTable
70
0
0
ENDTAB
0
TABLE
2
UCS
5
249
330
0
100
AcDbSymbolTable
70
0
0
ENDTAB
0
TABLE
2
APPID
5
24B
330
0
100
AcDbSymbolTable
70
13
0
APPID
5
254
330
24B
100
AcDbSymbolTableRecord
100
AcDbRegAppTableRecord
2
ACAD
70
0
0
APPID
5
26C
330
24B
100
AcDbSymbolTableRecord
100
AcDbRegAppTableRecord
2
VD_INVISIBLE_NOT_FOR_READ
70
0
0
APPID
5
26D
330
24B
100
AcDbSymbolTableRecord
100
AcDbRegAppTableRecord
2
VD_TEMPHATCH
70
0
0
APPID
5
26E
330
24B
100
AcDbSymbolTableRecord
100
AcDbRegAppTableRecord
2
VDEXTRAPARAM
70
0
0
APPID
5
26F
330
24B
100
AcDbSymbolTableRecord
100
AcDbRegAppTableRecord
2
PE_URL
70
0
0
APPID
5
270
330
24B
100
AcDbSymbolTableRecord
100
AcDbRegAppTableRecord
2
VD_UNKNOWN
70
0
0
APPID
5
28F
330
24B
100
AcDbSymbolTableRecord
100
AcDbRegAppTableRecord
2
AcadAnnotative
70
0
0
APPID
5
290
330
24B
100
AcDbSymbolTableRecord
100
AcDbRegAppTableRecord
2
ACAD_DSTYLE_DIMJAG
70
0
0
APPID
5
291
330
24B
100
AcDbSymbolTableRecord
100
AcDbRegAppTableRecord
2
ACAD_DSTYLE_DIMTALN
70
0
0
APPID
5
293
330
24B
100
AcDbSymbolTableRecord
100
AcDbRegAppTableRecord
2
ACAD_PSEXT
70
0
0
APPID
5
42A
330
24B
100
AcDbSymbolTableRecord
100
AcDbRegAppTableRecord
2
ACAD_MLEADERVER
70
0
0
APPID
5
532
330
24B
100
AcDbSymbolTableRecord
100
AcDbRegAppTableRecord
2
ACAD_EXEMPT_FROM_CAD_STANDARDS
70
0
0
APPID
5
57F
330
24B
100
AcDbSymbolTableRecord
100
AcDbRegAppTableRecord
2
AcAecLayerStandard
70
0
0
ENDTAB
0
TABLE
2
DIMSTYLE
5
24C
330
0
100
AcDbSymbolTable
70
3
100
AcDbDimStyleTable
71
2
340
27
340
269
0
DIMSTYLE
105
269
330
24C
100
AcDbSymbolTableRecord
100
AcDbDimStyleTableRecord
2
Standard
70
0
172
1
174
1
288
1
340
253
342
23C
0
DIMSTYLE
105
137
330
24C
100
AcDbSymbolTableRecord
100
AcDbDimStyleTableRecord
2
Beschriftung
70
0
41
2.5
42
0.625
44
1.25
73
0
74
0
77
1
140
2.5
147
0.625
172
1
174
1
271
2
288
1
340
253
342
23C
1001
AcadAnnotative
1000
AnnotativeData
1070
1
1070
1
1001
ACAD_DSTYLE_DIMJAG
1070
388
1040
1.5
1001
ACAD_DSTYLE_DIMTALN
1070
392
1070
0
0
DIMSTYLE
105
27
102
{ACAD_REACTORS
330
F10008
330
F10012
330
F10021
330
F1002B
330
F10030
330
F10003
330
F1001C
330
F1000D
330
F10017
330
F10026
102
}
330
24C
100
AcDbSymbolTableRecord
100
AcDbDimStyleTableRecord
2
BEM-ISBE
70
0
41
2.5
42
0.625
44
1.25
48
0.000000001
71
1
73
0
74
0
77
1
140
2.5
144
1.00000000000000
146
0.5
147
0.625
171
 3
172
 1
179
 3
271
 3
272
 3
274
 3
340
253
342
23C
1001
ACAD_DSTYLE_DIMJAG
1070
388
1040
1.5
1001
ACAD_DSTYLE_DIMTALN
1070
392
1070
1
0
ENDTAB
0
TABLE
2
BLOCK_RECORD
5
243
330
0
100
AcDbSymbolTable
70
5
0
BLOCK_RECORD
5
261
330
243
100
AcDbSymbolTableRecord
100
AcDbBlockTableRecord
2
*Model_Space
340
FD0
0
BLOCK_RECORD
5
25D
330
243
100
AcDbSymbolTableRecord
100
AcDbBlockTableRecord
2
*Paper_Space
340
FD1
0
BLOCK_RECORD
5
265
330
243
100
AcDbSymbolTableRecord
100
AcDbBlockTableRecord
2
*Paper_Space0
340
0
0
BLOCK_RECORD
5
23C
330
243
100
AcDbSymbolTableRecord
100
AcDbBlockTableRecord
2
VDDIM_DEFAULT
340
0
102
{BLKREFS
102
}
0
BLOCK_RECORD
5
23E
330
243
100
AcDbSymbolTableRecord
100
AcDbBlockTableRecord
2
VDDIM_NONE
340
0
0
BLOCK_RECORD
5
F10007
330
243
100
AcDbSymbolTableRecord
100
AcDbBlockTableRecord
2
*D4
340
0
0
BLOCK_RECORD
5
F10011
330
243
100
AcDbSymbolTableRecord
100
AcDbBlockTableRecord
2
*D6
340
0
0
BLOCK_RECORD
5
F10020
330
243
100
AcDbSymbolTableRecord
100
AcDbBlockTableRecord
2
*D9
340
0
0
BLOCK_RECORD
5
F1002A
330
243
100
AcDbSymbolTableRecord
100
AcDbBlockTableRecord
2
*D11
340
0
0
BLOCK_RECORD
5
F1002F
330
243
100
AcDbSymbolTableRecord
100
AcDbBlockTableRecord
2
*D12
340
0
0
BLOCK_RECORD
5
F10002
330
243
100
AcDbSymbolTableRecord
100
AcDbBlockTableRecord
2
*D3
340
0
0
BLOCK_RECORD
5
F1001B
330
243
100
AcDbSymbolTableRecord
100
AcDbBlockTableRecord
2
*D8
340
0
0
BLOCK_RECORD
5
F1000C
330
243
100
AcDbSymbolTableRecord
100
AcDbBlockTableRecord
2
*D5
340
0
0
BLOCK_RECORD
5
F10016
330
243
100
AcDbSymbolTableRecord
100
AcDbBlockTableRecord
2
*D7
340
0
0
BLOCK_RECORD
5
F10025
330
243
100
AcDbSymbolTableRecord
100
AcDbBlockTableRecord
2
*D10
340
0
0
ENDTAB
0
ENDSEC
0
SECTION
2
BLOCKS
0
BLOCK
5
262
330
261
100
AcDbEntity
8
0
100
AcDbBlockBegin
2
*Model_Space
70
0
10
0.0
20
0.0
30
0.0
3
*Model_Space
1

0
ENDBLK
5
263
330
261
100
AcDbEntity
8
0
100
AcDbBlockEnd
0
BLOCK
5
25E
330
25D
100
AcDbEntity
67
1
8
0
100
AcDbBlockBegin
2
*Paper_Space
70
0
10
0.0
20
0.0
30
0.0
3
*Paper_Space
1

0
ENDBLK
5
25F
330
25D
100
AcDbEntity
67
1
8
0
100
AcDbBlockEnd
0
BLOCK
5
266
330
265
100
AcDbEntity
8
0
100
AcDbBlockBegin
2
*Paper_Space0
70
0
10
0.0
20
0.0
30
0.0
3
*Paper_Space0
1

0
VIEWPORT
5
296
102
{ACAD_XDICTIONARY
360
58E
102
}
330
265
100
AcDbEntity
8
0
60
1
100
AcDbViewport
10
0.0
20
0.0
30
0.0
40
10.0
41
10.0
69
0
12
0.0
22
0.0
13
0.0
23
0.0
14
1.0
24
1.0
15
0.0
25
0.0
16
0.0
26
0.0
36
1.0
17
0.0
27
0.0
37
0.0
42
0.0
43
0.0
44
0.0
45
10.0
50
0.0
51
0.0000000000007958
72
100
90
163872
1

281
0
71
0
74
0
110
0.0
120
0.0
130
0.0
111
1.0
121
0.0
131
0.0
112
0.0
122
1.0
132
0.0
79
0
146
0.0
1001
VD_INVISIBLE_NOT_FOR_READ
1000
VD_INVISIBLE_NOT_FOR_READ
0
VIEWPORT
5
297
102
{ACAD_XDICTIONARY
360
590
102
}
330
265
100
AcDbEntity
8
0
60
1
100
AcDbViewport
10
0.0
20
0.0
30
0.0
40
10.0
41
10.0
69
0
12
0.0
22
0.0
13
0.0
23
0.0
14
1.0
24
1.0
15
0.0
25
0.0
16
0.0
26
0.0
36
1.0
17
0.0
27
0.0
37
0.0
42
0.0
43
0.0
44
0.0
45
10.0
50
0.0
51
0.0000000000007958
72
100
90
163872
1

281
0
71
0
74
0
110
0.0
120
0.0
130
0.0
111
1.0
121
0.0
131
0.0
112
0.0
122
1.0
132
0.0
79
0
146
0.0
1001
VD_INVISIBLE_NOT_FOR_READ
1000
VD_INVISIBLE_NOT_FOR_READ
0
ENDBLK
5
267
330
265
100
AcDbEntity
8
0
100
AcDbBlockEnd
0
BLOCK
5
28B
330
23C
100
AcDbEntity
8
0
100
AcDbBlockBegin
2
VDDIM_DEFAULT
70
0
10
0.0
20
0.0
30
0.0
3
VDDIM_DEFAULT
1

0
LWPOLYLINE
5
23D
330
23C
100
AcDbEntity
8
0
6
Continuous
62
0
100
AcDbPolyline
90
4
70
0
43
0.0
10
0.0
20
0.0
10
-1.0
20
-0.1665
10
-1.0
20
0.1665
10
0.0
20
0.0
1001
VDEXTRAPARAM
1071
1
1071
0
1071
0
1040
1.0
1000

1000

1040
0.0
1040
0.0
0
HATCH
5
292
330
23C
100
AcDbEntity
8
0
6
Continuous
62
0
100
AcDbHatch
10
0.0
20
0.0
30
0.0
210
0.0
220
0.0
230
1.0
2
SOLID
70
1
71
0
91
1
92
2
72
0
73
1
93
3
10
0.0
20
0.0
10
-1.0
20
-0.1665
10
-1.0
20
0.1665
97
0
75
0
76
1
98
1
10
0.0
20
0.0
1001
VDEXTRAPARAM
1071
1
1071
0
1071
0
1040
1.0
1000

1000

1040
0.0
1040
0.0
1001
VD_TEMPHATCH
1000
VD_TEMPHATCH
0
ENDBLK
5
28C
330
23C
100
AcDbEntity
8
0
100
AcDbBlockEnd
0
BLOCK
5
28D
330
23E
100
AcDbEntity
8
0
100
AcDbBlockBegin
2
VDDIM_NONE
70
0
10
0.0
20
0.0
30
0.0
3
VDDIM_NONE
1

0
ENDBLK
5
28E
330
23E
100
AcDbEntity
8
0
100
AcDbBlockEnd
  0
BLOCK
  5
F10034
330
F10007
100
AcDbEntity
  8
0
100
AcDbBlockBegin
  2
*D4
 70
     1
 10
0.0
 20
0.0
 30
0.0
  3
*D4
  1

  0
LINE
  5
F10035
330
F10007
100
AcDbEntity
  8
Bemassung
 62
     0
370
    -2
100
AcDbLine
10
-93.0638297872341
20
-13.1914893617021
30
0.000000000000000
11
-93.0638297872341
21
26.8085106382979
31
0.000000000000000
  0
LINE
  5
F10036
330
F10007
100
AcDbEntity
  8
Bemassung
 62
     0
370
    -2
100
AcDbLine
10
-92.9638297872341
20
-0.691489361702125
30
0.000000000000000
11
-92.9638297872341
21
6.80851063829788
31
0.000000000000000
  0
LINE
  5
F10037
330
F10007
100
AcDbEntity
  8
Bemassung
 62
     0
370
    -2
100
AcDbLine
10
-99.5659528147277
20
4.80851063829788
30
0.000000000000000
11
-92.7767815793350
21
4.80851063829788
31
0.000000000000000
  0
INSERT
  5
F10038
330
F10007
100
AcDbEntity
  8
Bemassung
 62
     0
370
    -2
100
AcDbBlockReference
  2
VDDIM_DEFAULT
10
-93.0638297872341
20
4.80851063829788
30
0.000000000000000
 41
2.50000000000000
 42
2.50000000000000
 43
2.50000000000000
  0
INSERT
  5
F10039
330
F10007
100
AcDbEntity
  8
Bemassung
 62
     0
370
    -2
100
AcDbBlockReference
  2
VDDIM_DEFAULT
10
-92.9638297872341
20
4.80851063829788
30
0.000000000000000
 41
2.50000000000000
 42
2.50000000000000
 43
2.50000000000000
 50
180.000000000000
  0
MTEXT
  5
F1003A
330
F10007
100
AcDbEntity
  8
Bemassung
 62
     0
100
AcDbMText
10
-92.9638297872341
20
5.47517730496454
30
0.000000000000000
 40
2.50000000000000
 41
0.0
 71
     8
 72
     1
  1
0.1 x 45°
 11
1.00000000000000
 21
0.000000000000000
 31
0.0
 73
     1
 44
1.0
1001
ACAD
1000
MTEXTBEGIN
1070
73
1070
1
1070
44
1040
1.0
1070
74
1070
0
1000
MTEXTEND
  0
POINT
  5
F1003B
330
F10007
100
AcDbEntity
  8
Bemassung
 62
     0
100
AcDbPoint
10
-93.0638297872341
20
-13.1914893617021
30
0.000000000000000
  0
POINT
  5
F1003C
330
F10007
100
AcDbEntity
  8
Bemassung
 62
     0
100
AcDbPoint
10
-92.9638297872341
20
-0.691489361702125
30
0.000000000000000
  0
ENDBLK
  5
F1003D
330
F10007
100
AcDbEntity
  8
0
100
AcDbBlockEnd
  0
BLOCK
  5
F1003E
330
F10011
100
AcDbEntity
  8
0
100
AcDbBlockBegin
  2
*D6
 70
     1
 10
0.0
 20
0.0
 30
0.0
  3
*D6
  1

  0
LINE
  5
F1003F
330
F10011
100
AcDbEntity
  8
Bemassung
 62
     0
370
    -2
100
AcDbLine
10
-93.0638297872341
20
-13.1914893617021
30
0.000000000000000
11
-93.0638297872341
21
26.8085106382979
31
0.000000000000000
  0
LINE
  5
F10040
330
F10011
100
AcDbEntity
  8
Bemassung
 62
     0
370
    -2
100
AcDbLine
10
-73.0638297872341
20
-0.691489361702125
30
0.000000000000000
11
-73.0638297872341
21
16.8085106382979
31
0.000000000000000
  0
LINE
  5
F10041
330
F10011
100
AcDbEntity
  8
Bemassung
 62
     0
370
    -2
100
AcDbLine
10
-93.0638297872341
20
14.8085106382979
30
0.000000000000000
11
-62.1659568864240
21
14.8085106382979
31
0.000000000000000
  0
INSERT
  5
F10042
330
F10011
100
AcDbEntity
  8
Bemassung
 62
     0
370
    -2
100
AcDbBlockReference
  2
VDDIM_DEFAULT
10
-93.0638297872341
20
14.8085106382979
30
0.000000000000000
 41
2.50000000000000
 42
2.50000000000000
 43
2.50000000000000
 50
180.000000000000
  0
INSERT
  5
F10043
330
F10011
100
AcDbEntity
  8
Bemassung
 62
     0
370
    -2
100
AcDbBlockReference
  2
VDDIM_DEFAULT
10
-73.0638297872341
20
14.8085106382979
30
0.000000000000000
 41
2.50000000000000
 42
2.50000000000000
 43
2.50000000000000
  0
MTEXT
  5
F10044
330
F10011
100
AcDbEntity
  8
Bemassung
 62
     0
100
AcDbMText
10
-83.0638297872341
20
15.4751773049645
30
0.000000000000000
 40
2.50000000000000
 41
0.0
 71
     8
 72
     1
  1
20
 11
1.00000000000000
 21
0.000000000000000
 31
0.0
 73
     1
 44
1.0
1001
ACAD
1000
MTEXTBEGIN
1070
73
1070
1
1070
44
1040
1.0
1070
74
1070
0
1000
MTEXTEND
  0
POINT
  5
F10045
330
F10011
100
AcDbEntity
  8
Bemassung
 62
     0
100
AcDbPoint
10
-93.0638297872341
20
-13.1914893617021
30
0.000000000000000
  0
POINT
  5
F10046
330
F10011
100
AcDbEntity
  8
Bemassung
 62
     0
100
AcDbPoint
10
-73.0638297872341
20
-0.691489361702125
30
0.000000000000000
  0
ENDBLK
  5
F10047
330
F10011
100
AcDbEntity
  8
0
100
AcDbBlockEnd
  0
BLOCK
  5
F10048
330
F10020
100
AcDbEntity
  8
0
100
AcDbBlockBegin
  2
*D9
 70
     1
 10
0.0
 20
0.0
 30
0.0
  3
*D9
  1

  0
LINE
  5
F10049
330
F10020
100
AcDbEntity
  8
Bemassung
 62
     0
370
    -2
100
AcDbLine
10
-71.1978043834496
20
-0.191489361702125
30
0.000000000000000
11
-71.1978043834496
21
21.8085106382979
31
0.000000000000000
  0
LINE
  5
F1004A
330
F10020
100
AcDbEntity
  8
Bemassung
 62
     0
370
    -2
100
AcDbLine
10
-31.0638297872340
20
-1.19148936170212
30
0.000000000000000
11
-31.0638297872340
21
26.8085106382979
31
0.000000000000000
  0
LINE
  5
F1004B
330
F10020
100
AcDbEntity
  8
Bemassung
 62
     0
370
    -2
100
AcDbLine
10
-71.1978043834496
20
19.8085106382979
30
0.000000000000000
11
35.2646057548258
21
19.8085106382979
31
0.000000000000000
  0
INSERT
  5
F1004C
330
F10020
100
AcDbEntity
  8
Bemassung
 62
     0
370
    -2
100
AcDbBlockReference
  2
VDDIM_DEFAULT
10
-71.1978043834496
20
19.8085106382979
30
0.000000000000000
 41
2.50000000000000
 42
2.50000000000000
 43
2.50000000000000
 50
180.000000000000
  0
INSERT
  5
F1004D
330
F10020
100
AcDbEntity
  8
Bemassung
 62
     0
370
    -2
100
AcDbBlockReference
  2
VDDIM_DEFAULT
10
-31.0638297872340
20
19.8085106382979
30
0.000000000000000
 41
2.50000000000000
 42
2.50000000000000
 43
2.50000000000000
  0
MTEXT
  5
F1004E
330
F10020
100
AcDbEntity
  8
Bemassung
 62
     0
100
AcDbMText
10
-51.1308170853418
20
20.4751773049645
30
0.000000000000000
 40
2.50000000000000
 41
0.0
 71
     8
 72
     1
  1
40.134
 11
1.00000000000000
 21
0.000000000000000
 31
0.0
 73
     1
 44
1.0
1001
ACAD
1000
MTEXTBEGIN
1070
73
1070
1
1070
44
1040
1.0
1070
74
1070
0
1000
MTEXTEND
  0
POINT
  5
F1004F
330
F10020
100
AcDbEntity
  8
Bemassung
 62
     0
100
AcDbPoint
10
-71.1978043834496
20
-0.191489361702125
30
0.000000000000000
  0
POINT
  5
F10050
330
F10020
100
AcDbEntity
  8
Bemassung
 62
     0
100
AcDbPoint
10
-31.0638297872340
20
-1.19148936170212
30
0.000000000000000
  0
ENDBLK
  5
F10051
330
F10020
100
AcDbEntity
  8
0
100
AcDbBlockEnd
  0
BLOCK
  5
F10052
330
F1002A
100
AcDbEntity
  8
0
100
AcDbBlockBegin
  2
*D11
 70
     1
 10
0.0
 20
0.0
 30
0.0
  3
*D11
  1

  0
LINE
  5
F10053
330
F1002A
100
AcDbEntity
  8
Bemassung
 62
     0
370
    -2
100
AcDbLine
10
-77.0638297872341
20
-5.69148936170212
30
0.000000000000000
11
-77.0638297872341
21
-13.1914893617021
31
0.000000000000000
  0
LINE
  5
F10054
330
F1002A
100
AcDbEntity
  8
Bemassung
 62
     0
370
    -2
100
AcDbLine
10
-93.0638297872341
20
-13.1914893617021
30
0.000000000000000
11
-93.0638297872341
21
26.8085106382979
31
0.000000000000000
  0
LINE
  5
F10055
330
F1002A
100
AcDbEntity
  8
Bemassung
 62
     0
370
    -2
100
AcDbLine
10
-68.1213702508036
20
-11.1914893617021
30
0.000000000000000
11
-93.0638297872341
21
-11.1914893617021
31
0.000000000000000
  0
INSERT
  5
F10056
330
F1002A
100
AcDbEntity
  8
Bemassung
 62
     0
370
    -2
100
AcDbBlockReference
  2
VDDIM_DEFAULT
10
-77.0638297872341
20
-11.1914893617021
30
0.000000000000000
 41
2.50000000000000
 42
2.50000000000000
 43
2.50000000000000
  0
INSERT
  5
F10057
330
F1002A
100
AcDbEntity
  8
Bemassung
 62
     0
370
    -2
100
AcDbBlockReference
  2
VDDIM_DEFAULT
10
-93.0638297872341
20
-11.1914893617021
30
0.000000000000000
 41
2.50000000000000
 42
2.50000000000000
 43
2.50000000000000
 50
180.000000000000
  0
MTEXT
  5
F10058
330
F1002A
100
AcDbEntity
  8
Bemassung
 62
     0
100
AcDbMText
10
-85.0638297872341
20
-10.5248226950355
30
0.000000000000000
 40
2.50000000000000
 41
0.0
 71
     8
 72
     1
  1
16
 11
1.00000000000000
 21
0.000000000000000
 31
0.0
 73
     1
 44
1.0
1001
ACAD
1000
MTEXTBEGIN
1070
73
1070
1
1070
44
1040
1.0
1070
74
1070
0
1000
MTEXTEND
  0
POINT
  5
F10059
330
F1002A
100
AcDbEntity
  8
Bemassung
 62
     0
100
AcDbPoint
10
-77.0638297872341
20
-5.69148936170212
30
0.000000000000000
  0
POINT
  5
F1005A
330
F1002A
100
AcDbEntity
  8
Bemassung
 62
     0
100
AcDbPoint
10
-93.0638297872341
20
-13.1914893617021
30
0.000000000000000
  0
ENDBLK
  5
F1005B
330
F1002A
100
AcDbEntity
  8
0
100
AcDbBlockEnd
  0
BLOCK
  5
F1005C
330
F1002F
100
AcDbEntity
  8
0
100
AcDbBlockBegin
  2
*D12
 70
     1
 10
0.0
 20
0.0
 30
0.0
  3
*D12
  1

  0
LINE
  5
F1005D
330
F1002F
100
AcDbEntity
  8
Bemassung
 62
     0
370
    -2
100
AcDbLine
10
-31.0638297872340
20
-1.19148936170212
30
0.000000000000000
11
-31.0638297872340
21
26.8085106382979
31
0.000000000000000
  0
LINE
  5
F1005E
330
F1002F
100
AcDbEntity
  8
Bemassung
 62
     0
370
    -2
100
AcDbLine
10
-93.0638297872341
20
-13.1914893617021
30
0.000000000000000
11
-93.0638297872341
21
26.8085106382979
31
0.000000000000000
  0
LINE
  5
F1005F
330
F1002F
100
AcDbEntity
  8
Bemassung
 62
     0
370
    -2
100
AcDbLine
10
0.842316508711889
20
24.8085106382979
30
0.000000000000000
11
-93.0638297872341
21
24.8085106382979
31
0.000000000000000
  0
INSERT
  5
F10060
330
F1002F
100
AcDbEntity
  8
Bemassung
 62
     0
370
    -2
100
AcDbBlockReference
  2
VDDIM_DEFAULT
10
-31.0638297872340
20
24.8085106382979
30
0.000000000000000
 41
2.50000000000000
 42
2.50000000000000
 43
2.50000000000000
  0
INSERT
  5
F10061
330
F1002F
100
AcDbEntity
  8
Bemassung
 62
     0
370
    -2
100
AcDbBlockReference
  2
VDDIM_DEFAULT
10
-93.0638297872341
20
24.8085106382979
30
0.000000000000000
 41
2.50000000000000
 42
2.50000000000000
 43
2.50000000000000
 50
180.000000000000
  0
MTEXT
  5
F10062
330
F1002F
100
AcDbEntity
  8
Bemassung
 62
     0
100
AcDbMText
10
-62.0638297872340
20
25.4751773049645
30
0.000000000000000
 40
2.50000000000000
 41
0.0
 71
     8
 72
     1
  1
62
 11
1.00000000000000
 21
0.000000000000000
 31
0.0
 73
     1
 44
1.0
1001
ACAD
1000
MTEXTBEGIN
1070
73
1070
1
1070
44
1040
1.0
1070
74
1070
0
1000
MTEXTEND
  0
POINT
  5
F10063
330
F1002F
100
AcDbEntity
  8
Bemassung
 62
     0
100
AcDbPoint
10
-31.0638297872340
20
-1.19148936170212
30
0.000000000000000
  0
POINT
  5
F10064
330
F1002F
100
AcDbEntity
  8
Bemassung
 62
     0
100
AcDbPoint
10
-93.0638297872341
20
-13.1914893617021
30
0.000000000000000
  0
ENDBLK
  5
F10065
330
F1002F
100
AcDbEntity
  8
0
100
AcDbBlockEnd
  0
BLOCK
  5
F10066
330
F10002
100
AcDbEntity
  8
0
100
AcDbBlockBegin
  2
*D3
 70
     1
 10
0.0
 20
0.0
 30
0.0
  3
*D3
  1

 0
ARC
  5
F10067
330
F10002
100
AcDbEntity
  8
Bemassung
 62
     0
370
   -2
100
AcDbCircle
10
-93.0638297872341
20
-0.791489361702125
30
0.000000000000000
 40
5.00000000000000
100
AcDbArc
 50
90.0000000000000
 51
96.4510646238873
  0
LINE
  5
F10068
330
F10002
100
AcDbEntity
  8
Bemassung
 62
     0
370
    -2
100
AcDbLine
10
-93.0638297872341
20
-0.791489361702125
30
0.000000000000000
11
-93.0638297872341
21
6.20851063829788
31
0.000000000000000
  0
LINE
  5
F10069
330
F10002
100
AcDbEntity
  8
Bemassung
 62
     0
370
    -2
100
AcDbLine
10
-93.0638297872341
20
-0.791489361702125
30
0.000000000000000
11
-93.3081262641516
21
6.20424642743154
31
0.000000000000000
  0
INSERT
  5
F1006A
330
F10002
100
AcDbEntity
  8
Bemassung
 62
     0
370
    -2
100
AcDbBlockReference
  2
VDDIM_DEFAULT
10
-93.0638297872341
20
4.20851063829788
30
0.000000000000000
 41
2.50000000000000
 42
2.50000000000000
 43
2.50000000000000
 50
179.427032655143
  0
INSERT
  5
F1006B
330
F10002
100
AcDbEntity
  8
Bemassung
 62
     0
370
    -2
100
AcDbBlockReference
  2
VDDIM_DEFAULT
10
-93.2383272707466
20
4.20546477339335
30
0.000000000000000
 41
2.50000000000000
 42
2.50000000000000
 43
2.50000000000000
 50
2.57296734485695
  0
MTEXT
  5
F1006C
330
F10002
100
AcDbEntity
  8
Bemassung
 62
     0
100
AcDbMText
10
-93.1510918194205
20
4.20774911407983
30
0.000000000000000
 40
2.50000000000000
 41
0.0
 71
     8
 72
     1
  1
2°
 11
0.999716673744136
 21
0.0238027779462890
 31
0.0
 73
     1
 44
1.0
1001
ACAD
1000
MTEXTBEGIN
1070
73
1070
1
1070
44
1040
1.0
1070
74
1070
0
1000
MTEXTEND
  0
POINT
  5
F1006D
330
F10002
100
AcDbEntity
  8
Bemassung
 62
     0
100
AcDbPoint
10
-93.0638297872341
20
-0.791489361702125
30
0.000000000000000
  0
POINT
  5
F1006E
330
F10002
100
AcDbEntity
  8
Bemassung
 62
     0
100
AcDbPoint
10
-93.0638297872341
20
4.20851063829788
30
0.000000000000000
  0
POINT
  5
F1006F
330
F10002
100
AcDbEntity
  8
Bemassung
 62
     0
100
AcDbPoint
10
-93.2383272707466
20
4.20546477339335
30
0.000000000000000
  0
POINT
  5
F10070
330
F10002
100
AcDbEntity
  8
Bemassung
 62
     0
100
AcDbPoint
10
-93.1510918194205
20
4.20774911407983
30
0.000000000000000
  0
ENDBLK
  5
F10071
330
F10002
100
AcDbEntity
  8
0
100
AcDbBlockEnd
  0
BLOCK
  5
F10072
330
F1001B
100
AcDbEntity
  8
0
100
AcDbBlockBegin
  2
*D8
 70
     1
 10
0.0
 20
0.0
 30
0.0
  3
*D8
  1

 0
ARC
  5
F10073
330
F1001B
100
AcDbEntity
  8
Bemassung
 62
     0
370
   -2
100
AcDbCircle
10
-71.1978043834496
20
-0.191489361702125
30
0.000000000000000
 40
14.6059850576126
100
AcDbArc
 50
0.000000000000000
 51
15.3761573536839
  0
LINE
  5
F10074
330
F1001B
100
AcDbEntity
  8
Bemassung
 62
     0
370
    -2
100
AcDbLine
10
-71.1978043834496
20
-0.191489361702125
30
0.000000000000000
11
-54.5918193258370
21
-0.191489361702125
31
0.000000000000000
  0
LINE
  5
F10075
330
F1001B
100
AcDbEntity
  8
Bemassung
 62
     0
370
    -2
100
AcDbLine
10
-71.1978043834496
20
-0.191489361702125
30
0.000000000000000
11
-55.1576545453313
21
4.10645583389589
31
0.000000000000000
  0
INSERT
  5
F10076
330
F1001B
100
AcDbEntity
  8
Bemassung
 62
     0
370
    -2
100
AcDbBlockReference
  2
VDDIM_DEFAULT
10
-56.5918193258370
20
-0.191489361702125
30
0.000000000000000
 41
2.50000000000000
 42
2.50000000000000
 43
2.50000000000000
 50
89.8038615978560
  0
INSERT
  5
F10077
330
F1001B
100
AcDbEntity
  8
Bemassung
 62
     0
370
    -2
100
AcDbBlockReference
  2
VDDIM_DEFAULT
10
-57.0895061979094
20
3.58881774369085
30
0.000000000000000
 41
2.50000000000000
 42
2.50000000000000
 43
2.50000000000000
 50
285.196138402144
  0
MTEXT
  5
F10078
330
F1001B
100
AcDbEntity
  8
Bemassung
 62
     0
100
AcDbMText
10
-58.6306289827556
20
7.25168885404643
30
0.000000000000000
 40
2.50000000000000
 41
0.0
 71
     8
 72
     1
  1
15°
 11
0.508452993732654
 21
-0.861089747450463
 31
0.0
 73
     1
 44
1.0
1001
ACAD
1000
MTEXTBEGIN
1070
73
1070
1
1070
44
1040
1.0
1070
74
1070
0
1000
MTEXTEND
  0
POINT
  5
F10079
330
F1001B
100
AcDbEntity
  8
Bemassung
 62
     0
100
AcDbPoint
10
-71.1978043834496
20
-0.191489361702125
30
0.000000000000000
  0
POINT
  5
F1007A
330
F1001B
100
AcDbEntity
  8
Bemassung
 62
     0
100
AcDbPoint
10
-56.5918193258370
20
-0.191489361702125
30
0.000000000000000
  0
POINT
  5
F1007B
330
F1001B
100
AcDbEntity
  8
Bemassung
 62
     0
100
AcDbPoint
10
-57.0895061979094
20
3.58881774369085
30
0.000000000000000
  0
POINT
  5
F1007C
330
F1001B
100
AcDbEntity
  8
Bemassung
 62
     0
100
AcDbPoint
10
-56.7167755527770
20
1.71497425149102
30
0.000000000000000
  0
ENDBLK
  5
F1007D
330
F1001B
100
AcDbEntity
  8
0
100
AcDbBlockEnd
  0
BLOCK
  5
F1007E
330
F1000C
100
AcDbEntity
  8
0
100
AcDbBlockBegin
  2
*D5
 70
     1
 10
0.0
 20
0.0
 30
0.0
  3
*D5
  1

  0
LINE
  5
F1007F
330
F1000C
100
AcDbEntity
  8
Bemassung
 62
     0
370
    -2
100
AcDbLine
10
-92.9638297872341
20
-5.69148936170212
30
0.000000000000000
11
-105.063829787234
21
-5.69148936170212
31
0.000000000000000
  0
LINE
  5
F10080
330
F1000C
100
AcDbEntity
  8
Bemassung
 62
     0
370
    -2
100
AcDbLine
10
-92.9638297872341
20
-0.691489361702125
30
0.000000000000000
11
-105.063829787234
21
-0.691489361702125
31
0.000000000000000
  0
LINE
  5
F10081
330
F1000C
100
AcDbEntity
  8
Bemassung
 62
     0
370
    -2
100
AcDbLine
10
-103.063829787234
20
-5.69148936170212
30
0.000000000000000
11
-103.063829787234
21
-0.691489361702125
31
0.000000000000000
  0
INSERT
  5
F10082
330
F1000C
100
AcDbEntity
  8
Bemassung
 62
     0
370
    -2
100
AcDbBlockReference
  2
VDDIM_DEFAULT
10
-103.063829787234
20
-5.69148936170212
30
0.000000000000000
 41
2.50000000000000
 42
2.50000000000000
 43
2.50000000000000
 50
270.000000000000
  0
INSERT
  5
F10083
330
F1000C
100
AcDbEntity
  8
Bemassung
 62
     0
370
    -2
100
AcDbBlockReference
  2
VDDIM_DEFAULT
10
-103.063829787234
20
-0.691489361702125
30
0.000000000000000
 41
2.50000000000000
 42
2.50000000000000
 43
2.50000000000000
 50
90.0000000000000
  0
MTEXT
  5
F10084
330
F1000C
100
AcDbEntity
  8
Bemassung
 62
     0
100
AcDbMText
10
-102.397163120567
20
-3.19148936170212
30
0.000000000000000
 40
2.50000000000000
 41
0.0
 71
     8
 72
     1
  1
5
 11
6.12323399573677e-017
 21
1.00000000000000
 31
0.0
 73
     1
 44
1.0
1001
ACAD
1000
MTEXTBEGIN
1070
73
1070
1
1070
44
1040
1.0
1070
74
1070
0
1000
MTEXTEND
  0
POINT
  5
F10085
330
F1000C
100
AcDbEntity
  8
Bemassung
 62
     0
100
AcDbPoint
10
-92.9638297872341
20
-5.69148936170212
30
0.000000000000000
  0
POINT
  5
F10086
330
F1000C
100
AcDbEntity
  8
Bemassung
 62
     0
100
AcDbPoint
10
-92.9638297872341
20
-0.691489361702125
30
0.000000000000000
  0
ENDBLK
  5
F10087
330
F1000C
100
AcDbEntity
  8
0
100
AcDbBlockEnd
  0
BLOCK
  5
F10088
330
F10016
100
AcDbEntity
  8
0
100
AcDbBlockBegin
  2
*D7
 70
     1
 10
0.0
 20
0.0
 30
0.0
  3
*D7
  1

  0
LINE
  5
F10089
330
F10016
100
AcDbEntity
  8
Bemassung
 62
     0
370
    -2
100
AcDbLine
10
-74.0925484951239
20
-6.19148936170212
30
0.000000000000000
11
-71.1978043834496
21
-6.19148936170212
31
0.000000000000000
  0
LINE
  5
F1008A
330
F10016
100
AcDbEntity
  8
Bemassung
 62
     0
370
    -2
100
AcDbLine
10
-74.0925484951239
20
-0.191489361702125
30
0.000000000000000
11
-71.1978043834496
21
-0.191489361702125
31
0.000000000000000
  0
LINE
  5
F1008B
330
F10016
100
AcDbEntity
  8
Bemassung
 62
     0
370
    -2
100
AcDbLine
10
-73.5925484951239
20
-25.1116672678212
30
0.000000000000000
11
-73.5925484951239
21
-0.191489361702125
31
0.000000000000000
  0
INSERT
  5
F1008C
330
F10016
100
AcDbEntity
  8
Bemassung
 62
     0
370
    -2
100
AcDbBlockReference
  2
VDDIM_DEFAULT
10
-73.5925484951239
20
-6.19148936170212
30
0.000000000000000
 41
2.50000000000000
 42
2.50000000000000
 43
2.50000000000000
 50
270.000000000000
  0
INSERT
  5
F1008D
330
F10016
100
AcDbEntity
  8
Bemassung
 62
     0
370
    -2
100
AcDbBlockReference
  2
VDDIM_DEFAULT
10
-73.5925484951239
20
-0.191489361702125
30
0.000000000000000
 41
2.50000000000000
 42
2.50000000000000
 43
2.50000000000000
 50
90.0000000000000
  0
MTEXT
  5
F1008E
330
F10016
100
AcDbEntity
  8
Bemassung
 62
     0
100
AcDbMText
10
-72.9258818284573
20
-9.68453592306983
30
0.000000000000000
 40
2.50000000000000
 41
0.0
 71
     8
 72
     1
  1
6
 11
6.12323399573677e-017
 21
1.00000000000000
 31
0.0
 73
     1
 44
1.0
1001
ACAD
1000
MTEXTBEGIN
1070
73
1070
1
1070
44
1040
1.0
1070
74
1070
0
1000
MTEXTEND
  0
POINT
  5
F1008F
330
F10016
100
AcDbEntity
  8
Bemassung
 62
     0
100
AcDbPoint
10
-74.0925484951239
20
-6.19148936170212
30
0.000000000000000
  0
POINT
  5
F10090
330
F10016
100
AcDbEntity
  8
Bemassung
 62
     0
100
AcDbPoint
10
-74.0925484951239
20
-0.191489361702125
30
0.000000000000000
  0
ENDBLK
  5
F10091
330
F10016
100
AcDbEntity
  8
0
100
AcDbBlockEnd
  0
BLOCK
  5
F10092
330
F10025
100
AcDbEntity
  8
0
100
AcDbBlockBegin
  2
*D10
 70
     1
 10
0.0
 20
0.0
 30
0.0
  3
*D10
  1

  0
LINE
  5
F10093
330
F10025
100
AcDbEntity
  8
Bemassung
 62
     0
370
    -2
100
AcDbLine
10
-32.0638297872340
20
-6.19148936170212
30
0.000000000000000
11
-19.0638297872340
21
-6.19148936170212
31
0.000000000000000
  0
LINE
  5
F10094
330
F10025
100
AcDbEntity
  8
Bemassung
 62
     0
370
    -2
100
AcDbLine
10
-32.0638297872340
20
-0.191489361702125
30
0.000000000000000
11
-19.0638297872340
21
-0.191489361702125
31
0.000000000000000
  0
LINE
  5
F10095
330
F10025
100
AcDbEntity
  8
Bemassung
 62
     0
370
    -2
100
AcDbLine
10
-21.0638297872340
20
-6.19148936170212
30
0.000000000000000
11
-21.0638297872340
21
-0.191489361702125
31
0.000000000000000
  0
INSERT
  5
F10096
330
F10025
100
AcDbEntity
  8
Bemassung
 62
     0
370
    -2
100
AcDbBlockReference
  2
VDDIM_DEFAULT
10
-21.0638297872340
20
-6.19148936170212
30
0.000000000000000
 41
2.50000000000000
 42
2.50000000000000
 43
2.50000000000000
 50
270.000000000000
  0
INSERT
  5
F10097
330
F10025
100
AcDbEntity
  8
Bemassung
 62
     0
370
    -2
100
AcDbBlockReference
  2
VDDIM_DEFAULT
10
-21.0638297872340
20
-0.191489361702125
30
0.000000000000000
 41
2.50000000000000
 42
2.50000000000000
 43
2.50000000000000
 50
90.0000000000000
  0
MTEXT
  5
F10098
330
F10025
100
AcDbEntity
  8
Bemassung
 62
     0
100
AcDbMText
10
-20.3971631205674
20
-3.19148936170212
30
0.000000000000000
 40
2.50000000000000
 41
0.0
 71
     8
 72
     1
  1
6h6
 11
6.12323399573677e-017
 21
1.00000000000000
 31
0.0
 73
     1
 44
1.0
  0
POINT
  5
F10099
330
F10025
100
AcDbEntity
  8
Bemassung
 62
     0
100
AcDbPoint
10
-32.0638297872340
20
-6.19148936170212
30
0.000000000000000
  0
POINT
  5
F1009A
330
F10025
100
AcDbEntity
  8
Bemassung
 62
     0
100
AcDbPoint
10
-32.0638297872340
20
-0.191489361702125
30
0.000000000000000
  0
ENDBLK
  5
F1009B
330
F10025
100
AcDbEntity
  8
0
100
AcDbBlockEnd
0
ENDSEC
0
SECTION
2
ENTITIES
  0
DIMENSION
  5
F10008
330
261
100
AcDbEntity
  8
Bemassung
100
AcDbDimension
  2
*D4
10
-92.9638297872341
20
4.80851063829788
30
0.000000000000000
11
-92.9638297872341
21
5.47517730496454
31
0.000000000000000
 70
32
 1
0.1 x 45°
 71
     8
  3
BEM-ISBE
100
AcDbAlignedDimension
13
-93.0638297872341
23
-13.1914893617021
33
0.000000000000000
14
-92.9638297872341
24
-0.691489361702125
34
0.000000000000000
100
AcDbRotatedDimension
1001
ACAD
1000
DSTYLE
1002
{
1070
284
1070
8
1070
78
1070
8
1070
144
1040
1.00000000000000
1070
147
1040
0.625
1070
 72
1070
 0
1070
 71
1070
 0
1002
}
  0
DIMENSION
  5
F10012
330
261
100
AcDbEntity
  8
Bemassung
100
AcDbDimension
  2
*D6
10
-73.0638297872341
20
14.8085106382979
30
0.000000000000000
11
-83.0638297872341
21
15.4751773049645
31
0.000000000000000
 70
32
 1
20
 71
     8
  3
BEM-ISBE
100
AcDbAlignedDimension
13
-93.0638297872341
23
-13.1914893617021
33
0.000000000000000
14
-73.0638297872341
24
-0.691489361702125
34
0.000000000000000
100
AcDbRotatedDimension
1001
ACAD
1000
DSTYLE
1002
{
1070
284
1070
8
1070
78
1070
8
1070
144
1040
1.00000000000000
1070
147
1040
0.625
1070
 72
1070
 0
1070
 71
1070
 0
1002
}
  0
DIMENSION
  5
F10021
330
261
100
AcDbEntity
  8
Bemassung
100
AcDbDimension
  2
*D9
10
-31.0638297872340
20
19.8085106382979
30
0.000000000000000
11
-51.1308170853418
21
20.4751773049645
31
0.000000000000000
 70
32
 1
40.134
 71
     8
  3
BEM-ISBE
100
AcDbAlignedDimension
13
-71.1978043834496
23
-0.191489361702125
33
0.000000000000000
14
-31.0638297872340
24
-1.19148936170212
34
0.000000000000000
100
AcDbRotatedDimension
1001
ACAD
1000
DSTYLE
1002
{
1070
284
1070
8
1070
78
1070
8
1070
144
1040
1.00000000000000
1070
147
1040
0.625
1070
 72
1070
 0
1070
 71
1070
 0
1002
}
  0
DIMENSION
  5
F1002B
330
261
100
AcDbEntity
  8
Bemassung
100
AcDbDimension
  2
*D11
10
-93.0638297872341
20
-11.1914893617021
30
0.000000000000000
11
-85.0638297872341
21
-10.5248226950355
31
0.000000000000000
 70
32
 1
16
 71
     8
  3
BEM-ISBE
100
AcDbAlignedDimension
13
-77.0638297872341
23
-5.69148936170212
33
0.000000000000000
14
-93.0638297872341
24
-13.1914893617021
34
0.000000000000000
100
AcDbRotatedDimension
1001
ACAD
1000
DSTYLE
1002
{
1070
284
1070
8
1070
78
1070
8
1070
144
1040
1.00000000000000
1070
147
1040
0.625
1070
 72
1070
 0
1070
 71
1070
 0
1002
}
  0
DIMENSION
  5
F10030
330
261
100
AcDbEntity
  8
Bemassung
100
AcDbDimension
  2
*D12
10
-93.0638297872341
20
24.8085106382979
30
0.000000000000000
11
-62.0638297872340
21
25.4751773049645
31
0.000000000000000
 70
32
 1
62
 71
     8
  3
BEM-ISBE
100
AcDbAlignedDimension
13
-31.0638297872340
23
-1.19148936170212
33
0.000000000000000
14
-93.0638297872341
24
-13.1914893617021
34
0.000000000000000
100
AcDbRotatedDimension
1001
ACAD
1000
DSTYLE
1002
{
1070
284
1070
8
1070
78
1070
8
1070
144
1040
1.00000000000000
1070
147
1040
0.625
1070
 72
1070
 0
1070
 71
1070
 0
1002
}
  0
DIMENSION
  5
F10003
330
261
100
AcDbEntity
  8
Bemassung
100
AcDbDimension
  2
*D3
10
-93.0638297872341
20
-0.791489361702125
30
0.000000000000000
11
-93.1510918194205
21
4.20774911407983
31
0.000000000000000
 70
34
 1
2°
 71
     8
  3
BEM-ISBE
100
AcDb2LineAngularDimension
13
-93.0638297872341
23
-0.791489361702125
33
0.000000000000000
14
-93.6256026838354
24
4.17685152964623
34
0.000000000000000
15
-93.0638297872341
25
4.20851063829788
35
0.000000000000000
16
-93.1510918194205
26
4.20774911407983
36
0.000000000000000
1001
ACAD
1000
DSTYLE
1002
{
1070
284
1070
8
1070
79
1070
2
1070
147
1040
0.625
1070
 72
1070
 0
1070
 71
1070
 0
1002
}
  0
DIMENSION
  5
F1001C
330
261
100
AcDbEntity
  8
Bemassung
100
AcDbDimension
  2
*D8
10
-71.1978043834496
20
-0.191489361702125
30
0.000000000000000
11
-58.6306289827556
21
7.25168885404643
31
0.000000000000000
 70
34
 1
15°
 71
     8
  3
BEM-ISBE
100
AcDb2LineAngularDimension
13
-71.1978043834496
23
-0.191489361702125
33
0.000000000000000
14
-57.1146284769247
24
3.68135918801918
34
0.000000000000000
15
-56.5918193258370
25
-0.191489361702125
35
0.000000000000000
16
-56.7167755527770
26
1.71497425149102
36
0.000000000000000
1001
ACAD
1000
DSTYLE
1002
{
1070
284
1070
8
1070
79
1070
2
1070
147
1040
0.625
1070
 72
1070
 0
1070
 71
1070
 0
1002
}
  0
DIMENSION
  5
F1000D
330
261
100
AcDbEntity
  8
Bemassung
100
AcDbDimension
  2
*D5
10
-103.063829787234
20
-0.691489361702125
30
0.000000000000000
11
-102.397163120567
21
-3.19148936170212
31
0.000000000000000
 70
32
 1
5
 71
     8
  3
BEM-ISBE
100
AcDbAlignedDimension
13
-92.9638297872341
23
-5.69148936170212
33
0.000000000000000
14
-92.9638297872341
24
-0.691489361702125
34
0.000000000000000
50
90.0000000000000
100
AcDbRotatedDimension
1001
ACAD
1000
DSTYLE
1002
{
1070
284
1070
8
1070
78
1070
8
1070
144
1040
1.00000000000000
1070
147
1040
0.625
1070
 72
1070
 0
1070
 71
1070
 0
1002
}
  0
DIMENSION
  5
F10017
330
261
100
AcDbEntity
  8
Bemassung
100
AcDbDimension
  2
*D7
10
-73.5925484951239
20
-0.191489361702125
30
0.000000000000000
11
-72.9258818284573
21
-9.68453592306983
31
0.000000000000000
 70
32
 1
6
 71
     8
  3
BEM-ISBE
100
AcDbAlignedDimension
13
-74.0925484951239
23
-6.19148936170212
33
0.000000000000000
14
-74.0925484951239
24
-0.191489361702125
34
0.000000000000000
50
90.0000000000000
100
AcDbRotatedDimension
1001
ACAD
1000
DSTYLE
1002
{
1070
284
1070
8
1070
78
1070
8
1070
144
1040
1.00000000000000
1070
147
1040
0.625
1070
 72
1070
 0
1070
 71
1070
 0
1002
}
  0
DIMENSION
  5
F10026
330
261
100
AcDbEntity
  8
Bemassung
100
AcDbDimension
  2
*D10
10
-21.0638297872340
20
-0.191489361702125
30
0.000000000000000
11
-20.3971631205674
21
-3.19148936170212
31
0.000000000000000
 70
32
 1
6h6
 71
     8
  3
BEM-ISBE
100
AcDbAlignedDimension
13
-32.0638297872340
23
-6.19148936170212
33
0.000000000000000
14
-32.0638297872340
24
-0.191489361702125
34
0.000000000000000
50
90.0000000000000
100
AcDbRotatedDimension
1001
ACAD
1000
DSTYLE
1002
{
1070
284
1070
8
1070
78
1070
8
1070
144
1040
1.00000000000000
1070
147
1040
0.625
1070
 72
1070
 0
1070
 71
1070
 0
1002
}
  0
LINE
  5
F1009C
330
F1009D
100
AcDbEntity
8
Geo
100
AcDbLine
10
-92.9800199404539
20
-3.19148936170212
30
0.000000000000000
11
-93.0638297872341
21
-0.791489361702125
31
0.000000000000000
  0
LINE
  5
F1009E
330
F1009F
100
AcDbEntity
8
Geo
100
AcDbLine
10
-93.0638297872341
20
-0.791489361702125
30
0.000000000000000
11
-92.9638297872341
21
-0.691489361702125
31
0.000000000000000
  0
LINE
  5
F100A0
330
F100A1
100
AcDbEntity
8
Geo
100
AcDbLine
10
-92.9638297872341
20
-0.691489361702125
30
0.000000000000000
11
-77.0638297872341
21
-0.691489361702125
31
0.000000000000000
  0
LINE
  5
F100A2
330
F100A3
100
AcDbEntity
8
Geo
100
AcDbLine
10
-77.0638297872341
20
-0.691489361702125
30
0.000000000000000
11
-73.0638297872341
21
-0.691489361702125
31
0.000000000000000
  0
LINE
  5
F100A4
330
F100A5
100
AcDbEntity
8
Geo
100
AcDbLine
10
-73.0638297872341
20
-0.691489361702125
30
0.000000000000000
11
-71.1978043834496
21
-0.191489361702125
31
0.000000000000000
  0
LINE
  5
F100A6
330
F100A7
100
AcDbEntity
8
Geo
100
AcDbLine
10
-71.1978043834496
20
-0.191489361702125
30
0.000000000000000
11
-32.0638297872340
21
-0.191489361702125
31
0.000000000000000
  0
LINE
  5
F100A8
330
F100A9
100
AcDbEntity
8
Geo
100
AcDbLine
10
-32.0638297872340
20
-0.191489361702125
30
0.000000000000000
11
-31.0638297872340
21
-1.19148936170212
31
0.000000000000000
  0
LINE
  5
F100AA
330
F100AB
100
AcDbEntity
8
Geo
100
AcDbLine
10
-89.8638297872341
20
-0.692267854109911
30
0.000000000000000
11
-89.7638297872341
21
-0.691718303777000
31
0.000000000000000
  0
LINE
  5
F100AC
330
F100AD
100
AcDbEntity
8
Geo
100
AcDbLine
10
-89.7638297872341
20
-0.691718303777000
30
0.000000000000000
11
-89.6638297872341
21
-0.694871660791430
31
0.000000000000000
  0
LINE
  5
F100AE
330
F100AF
100
AcDbEntity
8
Geo
100
AcDbLine
10
-89.6638297872341
20
-0.694871660791430
30
0.000000000000000
11
-89.5638297872341
21
-0.701723254089894
31
0.000000000000000
  0
LINE
  5
F100B0
330
F100B1
100
AcDbEntity
8
Geo
100
AcDbLine
10
-89.5638297872341
20
-0.701723254089894
30
0.000000000000000
11
-89.4638297872341
21
-0.712262934416890
31
0.000000000000000
  0
LINE
  5
F100B2
330
F100B3
100
AcDbEntity
8
Geo
100
AcDbLine
10
-89.4638297872341
20
-0.712262934416890
30
0.000000000000000
11
-89.3638297872341
21
-0.726475089358795
31
0.000000000000000
  0
LINE
  5
F100B4
330
F100B5
100
AcDbEntity
8
Geo
100
AcDbLine
10
-89.3638297872341
20
-0.726475089358795
30
0.000000000000000
11
-89.2638297872341
21
-0.744338666470509
31
0.000000000000000
  0
LINE
  5
F100B6
330
F100B7
100
AcDbEntity
8
Geo
100
AcDbLine
10
-89.2638297872341
20
-0.744338666470509
30
0.000000000000000
11
-89.1638297872341
21
-0.765827204460417
31
0.000000000000000
  0
LINE
  5
F100B8
330
F100B9
100
AcDbEntity
8
Geo
100
AcDbLine
10
-89.1638297872341
20
-0.765827204460417
30
0.000000000000000
11
-89.0638297872341
21
-0.790908872387460
31
0.000000000000000
  0
LINE
  5
F100BA
330
F100BB
100
AcDbEntity
8
Geo
100
AcDbLine
10
-89.0638297872341
20
-0.790908872387460
30
0.000000000000000
11
-88.9638297872341
21
-0.819546516812263
31
0.000000000000000
  0
LINE
  5
F100BC
330
F100BD
100
AcDbEntity
8
Geo
100
AcDbLine
10
-88.9638297872341
20
-0.819546516812263
30
0.000000000000000
11
-88.8638297872341
21
-0.851697716832474
31
0.000000000000000
  0
LINE
  5
F100BE
330
F100BF
100
AcDbEntity
8
Geo
100
AcDbLine
10
-88.8638297872341
20
-0.851697716832474
30
0.000000000000000
11
-88.7638297872341
21
-0.887314846920785
31
0.000000000000000
  0
LINE
  5
F100C0
330
F100C1
100
AcDbEntity
8
Geo
100
AcDbLine
10
-88.7638297872341
20
-0.887314846920785
30
0.000000000000000
11
-88.6638297872341
21
-0.926345147472562
31
0.000000000000000
  0
LINE
  5
F100C2
330
F100C3
100
AcDbEntity
8
Geo
100
AcDbLine
10
-88.6638297872341
20
-0.926345147472562
30
0.000000000000000
11
-88.5638297872341
21
-0.968730802958568
31
0.000000000000000
  0
LINE
  5
F100C4
330
F100C5
100
AcDbEntity
8
Geo
100
AcDbLine
10
-88.5638297872341
20
-0.968730802958568
30
0.000000000000000
11
-88.4638297872341
21
-1.01440902756703
31
0.000000000000000
  0
LINE
  5
F100C6
330
F100C7
100
AcDbEntity
8
Geo
100
AcDbLine
10
-88.4638297872341
20
-1.01440902756703
30
0.000000000000000
11
-88.3638297872341
21
-1.06331215820817
31
0.000000000000000
  0
LINE
  5
F100C8
330
F100C9
100
AcDbEntity
8
Geo
100
AcDbLine
10
-88.3638297872341
20
-1.06331215820817
30
0.000000000000000
11
-88.2638297872341
21
-1.11536775474345
31
0.000000000000000
  0
LINE
  5
F100CA
330
F100CB
100
AcDbEntity
8
Geo
100
AcDbLine
10
-88.2638297872341
20
-1.11536775474345
30
0.000000000000000
11
-88.1638297872341
21
-1.17049870729103
31
0.000000000000000
  0
LINE
  5
F100CC
330
F100CD
100
AcDbEntity
8
Geo
100
AcDbLine
10
-88.1638297872341
20
-1.17049870729103
30
0.000000000000000
11
-88.0638297872341
21
-1.22862335044856
31
0.000000000000000
  0
LINE
  5
F100CE
330
F100CF
100
AcDbEntity
8
Geo
100
AcDbLine
10
-88.0638297872341
20
-1.22862335044856
30
0.000000000000000
11
-87.9638297872341
21
-1.28965558426399
31
0.000000000000000
  0
LINE
  5
F100D0
330
F100D1
100
AcDbEntity
8
Geo
100
AcDbLine
10
-87.9638297872341
20
-1.28965558426399
30
0.000000000000000
11
-87.8638297872341
21
-1.35350500177532
31
0.000000000000000
  0
LINE
  5
F100D2
330
F100D3
100
AcDbEntity
8
Geo
100
AcDbLine
10
-87.8638297872341
20
-1.35350500177532
30
0.000000000000000
11
-87.7638297872341
21
-1.42007702293034
31
0.000000000000000
  0
LINE
  5
F100D4
330
F100D5
100
AcDbEntity
8
Geo
100
AcDbLine
10
-87.7638297872341
20
-1.42007702293034
30
0.000000000000000
11
-87.6638297872341
21
-1.48927303468786
31
0.000000000000000
  0
LINE
  5
F100D6
330
F100D7
100
AcDbEntity
8
Geo
100
AcDbLine
10
-87.6638297872341
20
-1.48927303468786
30
0.000000000000000
11
-87.5638297872341
21
-1.56099053709312
31
0.000000000000000
  0
LINE
  5
F100D8
330
F100D9
100
AcDbEntity
8
Geo
100
AcDbLine
10
-87.5638297872341
20
-1.56099053709312
30
0.000000000000000
11
-87.4638297872341
21
-1.63512329511083
31
0.000000000000000
  0
LINE
  5
F100DA
330
F100DB
100
AcDbEntity
8
Geo
100
AcDbLine
10
-87.4638297872341
20
-1.63512329511083
30
0.000000000000000
11
-87.3638297872341
21
-1.71156149599094
31
0.000000000000000
  0
LINE
  5
F100DC
330
F100DD
100
AcDbEntity
8
Geo
100
AcDbLine
10
-87.3638297872341
20
-1.71156149599094
30
0.000000000000000
11
-87.2638297872341
21
-1.79019191193414
31
0.000000000000000
  0
LINE
  5
F100DE
330
F100DF
100
AcDbEntity
8
Geo
100
AcDbLine
10
-87.2638297872341
20
-1.79019191193414
30
0.000000000000000
11
-87.1638297872341
21
-1.87089806781605
31
0.000000000000000
  0
LINE
  5
F100E0
330
F100E1
100
AcDbEntity
8
Geo
100
AcDbLine
10
-87.1638297872341
20
-1.87089806781605
30
0.000000000000000
11
-87.0638297872341
21
-1.95356041372162
31
0.000000000000000
  0
LINE
  5
F100E2
330
F100E3
100
AcDbEntity
8
Geo
100
AcDbLine
10
-87.0638297872341
20
-1.95356041372162
30
0.000000000000000
11
-86.9638297872341
21
-2.03805650203429
31
0.000000000000000
  0
LINE
  5
F100E4
330
F100E5
100
AcDbEntity
8
Geo
100
AcDbLine
10
-86.9638297872341
20
-2.03805650203429
30
0.000000000000000
11
-86.8638297872341
21
-2.12426116881746
31
0.000000000000000
  0
LINE
  5
F100E6
330
F100E7
100
AcDbEntity
8
Geo
100
AcDbLine
10
-86.8638297872341
20
-2.12426116881746
30
0.000000000000000
11
-86.7638297872341
21
-2.21204671921962
31
0.000000000000000
  0
LINE
  5
F100E8
330
F100E9
100
AcDbEntity
8
Geo
100
AcDbLine
10
-86.7638297872341
20
-2.21204671921962
30
0.000000000000000
11
-86.6638297872341
21
-2.30128311662862
31
0.000000000000000
  0
LINE
  5
F100EA
330
F100EB
100
AcDbEntity
8
Geo
100
AcDbLine
10
-86.6638297872341
20
-2.30128311662862
30
0.000000000000000
11
-86.5638297872341
21
-2.39183817529464
31
0.000000000000000
  0
LINE
  5
F100EC
330
F100ED
100
AcDbEntity
8
Geo
100
AcDbLine
10
-86.5638297872341
20
-2.39183817529464
30
0.000000000000000
11
-86.4638297872341
21
-2.48357775613683
31
0.000000000000000
  0
LINE
  5
F100EE
330
F100EF
100
AcDbEntity
8
Geo
100
AcDbLine
10
-86.4638297872341
20
-2.48357775613683
30
0.000000000000000
11
-86.3638297872341
21
-2.57636596544329
31
0.000000000000000
  0
LINE
  5
F100F0
330
F100F1
100
AcDbEntity
8
Geo
100
AcDbLine
10
-86.3638297872341
20
-2.57636596544329
30
0.000000000000000
11
-86.2638297872341
21
-2.67006535617028
31
0.000000000000000
  0
LINE
  5
F100F2
330
F100F3
100
AcDbEntity
8
Geo
100
AcDbLine
10
-86.2638297872341
20
-2.67006535617028
30
0.000000000000000
11
-86.1638297872341
21
-2.76453713154226
31
0.000000000000000
  0
LINE
  5
F100F4
330
F100F5
100
AcDbEntity
8
Geo
100
AcDbLine
10
-86.1638297872341
20
-2.76453713154226
30
0.000000000000000
11
-86.0638297872341
21
-2.85964135065145
31
0.000000000000000
  0
LINE
  5
F100F6
330
F100F7
100
AcDbEntity
8
Geo
100
AcDbLine
10
-86.0638297872341
20
-2.85964135065145
30
0.000000000000000
11
-85.9638297872341
21
-2.95523713575202
31
0.000000000000000
  0
LINE
  5
F100F8
330
F100F9
100
AcDbEntity
8
Geo
100
AcDbLine
10
-85.9638297872341
20
-2.95523713575202
30
0.000000000000000
11
-85.8638297872341
21
-3.05118288094215
31
0.000000000000000
  0
LINE
  5
F100FA
330
F100FB
100
AcDbEntity
8
Geo
100
AcDbLine
10
-85.8638297872341
20
-3.05118288094215
30
0.000000000000000
11
-85.7638297872341
21
-3.14733646192461
31
0.000000000000000
  0
LINE
  5
F100FC
330
F100FD
100
AcDbEntity
8
Geo
100
AcDbLine
10
-85.7638297872341
20
-3.14733646192461
30
0.000000000000000
11
-85.6638297872341
21
-3.24355544653532
31
0.000000000000000
  0
LINE
  5
F100FE
330
F100FF
100
AcDbEntity
8
Geo
100
AcDbLine
10
-85.6638297872341
20
-3.24355544653532
30
0.000000000000000
11
-85.5638297872341
21
-3.33969730572791
31
0.000000000000000
  0
LINE
  5
F10100
330
F10101
100
AcDbEntity
8
Geo
100
AcDbLine
10
-85.5638297872341
20
-3.33969730572791
30
0.000000000000000
11
-85.4638297872341
21
-3.43561962470175
31
0.000000000000000
  0
LINE
  5
F10102
330
F10103
100
AcDbEntity
8
Geo
100
AcDbLine
10
-85.4638297872341
20
-3.43561962470175
30
0.000000000000000
11
-85.3638297872341
21
-3.53118031386085
31
0.000000000000000
  0
LINE
  5
F10104
330
F10105
100
AcDbEntity
8
Geo
100
AcDbLine
10
-85.3638297872341
20
-3.53118031386085
30
0.000000000000000
11
-85.2638297872341
21
-3.62623781929095
31
0.000000000000000
  0
LINE
  5
F10106
330
F10107
100
AcDbEntity
8
Geo
100
AcDbLine
10
-85.2638297872341
20
-3.62623781929095
30
0.000000000000000
11
-85.1638297872341
21
-3.72065133244314
31
0.000000000000000
  0
LINE
  5
F10108
330
F10109
100
AcDbEntity
8
Geo
100
AcDbLine
10
-85.1638297872341
20
-3.72065133244314
30
0.000000000000000
11
-85.0638297872341
21
-3.81428099871335
31
0.000000000000000
  0
LINE
  5
F1010A
330
F1010B
100
AcDbEntity
8
Geo
100
AcDbLine
10
-85.0638297872341
20
-3.81428099871335
30
0.000000000000000
11
-84.9638297872341
21
-3.90698812460883
31
0.000000000000000
  0
LINE
  5
F1010C
330
F1010D
100
AcDbEntity
8
Geo
100
AcDbLine
10
-84.9638297872341
20
-3.90698812460883
30
0.000000000000000
11
-84.8638297872341
21
-3.99863538319455
31
0.000000000000000
  0
LINE
  5
F1010E
330
F1010F
100
AcDbEntity
8
Geo
100
AcDbLine
10
-84.8638297872341
20
-3.99863538319455
30
0.000000000000000
11
-84.7638297872341
21
-4.08908701751544
31
0.000000000000000
  0
LINE
  5
F10110
330
F10111
100
AcDbEntity
8
Geo
100
AcDbLine
10
-84.7638297872341
20
-4.08908701751544
30
0.000000000000000
11
-84.6638297872341
21
-4.17820904169299
31
0.000000000000000
  0
LINE
  5
F10112
330
F10113
100
AcDbEntity
8
Geo
100
AcDbLine
10
-84.6638297872341
20
-4.17820904169299
30
0.000000000000000
11
-84.5638297872341
21
-4.26586943939829
31
0.000000000000000
  0
LINE
  5
F10114
330
F10115
100
AcDbEntity
8
Geo
100
AcDbLine
10
-84.5638297872341
20
-4.26586943939829
30
0.000000000000000
11
-84.4638297872341
21
-4.35193835940770
31
0.000000000000000
  0
LINE
  5
F10116
330
F10117
100
AcDbEntity
8
Geo
100
AcDbLine
10
-84.4638297872341
20
-4.35193835940770
30
0.000000000000000
11
-84.3638297872341
21
-4.43628830795122
31
0.000000000000000
  0
LINE
  5
F10118
330
F10119
100
AcDbEntity
8
Geo
100
AcDbLine
10
-84.3638297872341
20
-4.43628830795122
30
0.000000000000000
11
-84.2638297872341
21
-4.51879433756889
31
0.000000000000000
  0
LINE
  5
F1011A
330
F1011B
100
AcDbEntity
8
Geo
100
AcDbLine
10
-84.2638297872341
20
-4.51879433756889
30
0.000000000000000
11
-84.1638297872341
21
-4.59933423219522
31
0.000000000000000
  0
LINE
  5
F1011C
330
F1011D
100
AcDbEntity
8
Geo
100
AcDbLine
10
-84.1638297872341
20
-4.59933423219522
30
0.000000000000000
11
-84.0638297872341
21
-4.67778868819775
31
0.000000000000000
  0
LINE
  5
F1011E
330
F1011F
100
AcDbEntity
8
Geo
100
AcDbLine
10
-84.0638297872341
20
-4.67778868819775
30
0.000000000000000
11
-83.9638297872341
21
-4.75404149110130
31
0.000000000000000
  0
LINE
  5
F10120
330
F10121
100
AcDbEntity
8
Geo
100
AcDbLine
10
-83.9638297872341
20
-4.75404149110130
30
0.000000000000000
11
-83.8638297872341
21
-4.82797968773633
31
0.000000000000000
  0
LINE
  5
F10122
330
F10123
100
AcDbEntity
8
Geo
100
AcDbLine
10
-83.8638297872341
20
-4.82797968773633
30
0.000000000000000
11
-83.7638297872341
21
-4.89949375355628
31
0.000000000000000
  0
LINE
  5
F10124
330
F10125
100
AcDbEntity
8
Geo
100
AcDbLine
10
-83.7638297872341
20
-4.89949375355628
30
0.000000000000000
11
-83.6638297872341
21
-4.96847775487620
31
0.000000000000000
  0
LINE
  5
F10126
330
F10127
100
AcDbEntity
8
Geo
100
AcDbLine
10
-83.6638297872341
20
-4.96847775487620
30
0.000000000000000
11
-83.5638297872341
21
-5.03482950579209
31
0.000000000000000
  0
LINE
  5
F10128
330
F10129
100
AcDbEntity
8
Geo
100
AcDbLine
10
-83.5638297872341
20
-5.03482950579209
30
0.000000000000000
11
-83.4638297872341
21
-5.09845071954875
31
0.000000000000000
  0
LINE
  5
F1012A
330
F1012B
100
AcDbEntity
8
Geo
100
AcDbLine
10
-83.4638297872341
20
-5.09845071954875
30
0.000000000000000
11
-83.3638297872341
21
-5.15924715413188
31
0.000000000000000
  0
LINE
  5
F1012C
330
F1012D
100
AcDbEntity
8
Geo
100
AcDbLine
10
-83.3638297872341
20
-5.15924715413188
30
0.000000000000000
11
-83.2638297872341
21
-5.21712875186853
31
0.000000000000000
  0
LINE
  5
F1012E
330
F1012F
100
AcDbEntity
8
Geo
100
AcDbLine
10
-83.2638297872341
20
-5.21712875186853
30
0.000000000000000
11
-83.1638297872341
21
-5.27200977282951
31
0.000000000000000
  0
LINE
  5
F10130
330
F10131
100
AcDbEntity
8
Geo
100
AcDbLine
10
-83.1638297872341
20
-5.27200977282951
30
0.000000000000000
11
-83.0638297872341
21
-5.32380892183577
31
0.000000000000000
  0
LINE
  5
F10132
330
F10133
100
AcDbEntity
8
Geo
100
AcDbLine
10
-83.0638297872341
20
-5.32380892183577
30
0.000000000000000
11
-82.9638297872341
21
-5.37244946888083
31
0.000000000000000
  0
LINE
  5
F10134
330
F10135
100
AcDbEntity
8
Geo
100
AcDbLine
10
-82.9638297872341
20
-5.37244946888083
30
0.000000000000000
11
-82.8638297872341
21
-5.41785936279087
31
0.000000000000000
  0
LINE
  5
F10136
330
F10137
100
AcDbEntity
8
Geo
100
AcDbLine
10
-82.8638297872341
20
-5.41785936279087
30
0.000000000000000
11
-82.7638297872341
21
-5.45997133795400
31
0.000000000000000
  0
LINE
  5
F10138
330
F10139
100
AcDbEntity
8
Geo
100
AcDbLine
10
-82.7638297872341
20
-5.45997133795400
30
0.000000000000000
11
-82.6638297872341
21
-5.49872301396071
31
0.000000000000000
  0
LINE
  5
F1013A
330
F1013B
100
AcDbEntity
8
Geo
100
AcDbLine
10
-82.6638297872341
20
-5.49872301396071
30
0.000000000000000
11
-82.5638297872341
21
-5.53405698800792
31
0.000000000000000
  0
LINE
  5
F1013C
330
F1013D
100
AcDbEntity
8
Geo
100
AcDbLine
10
-82.5638297872341
20
-5.53405698800792
30
0.000000000000000
11
-82.4638297872341
21
-5.56592091992964
31
0.000000000000000
  0
LINE
  5
F1013E
330
F1013F
100
AcDbEntity
8
Geo
100
AcDbLine
10
-82.4638297872341
20
-5.56592091992964
30
0.000000000000000
11
-82.3638297872341
21
-5.59426760972839
31
0.000000000000000
  0
LINE
  5
F10140
330
F10141
100
AcDbEntity
8
Geo
100
AcDbLine
10
-82.3638297872341
20
-5.59426760972839
30
0.000000000000000
11
-82.2638297872341
21
-5.61905506749249
31
0.000000000000000
  0
LINE
  5
F10142
330
F10143
100
AcDbEntity
8
Geo
100
AcDbLine
10
-82.2638297872341
20
-5.61905506749249
30
0.000000000000000
11
-82.1638297872341
21
-5.64024657559568
31
0.000000000000000
  0
LINE
  5
F10144
330
F10145
100
AcDbEntity
8
Geo
100
AcDbLine
10
-82.1638297872341
20
-5.64024657559568
30
0.000000000000000
11
-82.0638297872341
21
-5.65781074308685
31
0.000000000000000
  0
LINE
  5
F10146
330
F10147
100
AcDbEntity
8
Geo
100
AcDbLine
10
-82.0638297872341
20
-5.65781074308685
30
0.000000000000000
11
-81.9638297872341
21
-5.67314555689258
31
0.000000000000000
  0
LINE
  5
F10148
330
F10149
100
AcDbEntity
8
Geo
100
AcDbLine
10
-81.9638297872341
20
-5.67314555689258
30
0.000000000000000
11
-81.8638297872341
21
-5.68370433473946
31
0.000000000000000
  0
LINE
  5
F1014A
330
F1014B
100
AcDbEntity
8
Geo
100
AcDbLine
10
-81.8638297872341
20
-5.68370433473946
30
0.000000000000000
11
-81.7638297872341
21
-5.68973191490274
31
0.000000000000000
  0
LINE
  5
F1014C
330
F1014D
100
AcDbEntity
8
Geo
100
AcDbLine
10
-81.7638297872341
20
-5.68973191490274
30
0.000000000000000
11
-81.6638297872341
21
-5.69148936170212
31
0.000000000000000
  0
LINE
  5
F1014E
330
F1014F
100
AcDbEntity
8
Geo
100
AcDbLine
10
-93.0638297872341
20
-0.791489361702125
30
0.000000000000000
11
-92.9638297872341
21
-0.693340984941581
31
0.000000000000000
  0
LINE
  5
F10150
330
F10151
100
AcDbEntity
8
Geo
100
AcDbLine
10
-92.9638297872341
20
-0.693340984941581
30
0.000000000000000
11
-92.8638297872341
21
-0.698893111853053
31
0.000000000000000
  0
LINE
  5
F10152
330
F10153
100
AcDbEntity
8
Geo
100
AcDbLine
10
-92.8638297872341
20
-0.698893111853053
30
0.000000000000000
11
-92.7638297872341
21
-0.708137518078766
31
0.000000000000000
  0
LINE
  5
F10154
330
F10155
100
AcDbEntity
8
Geo
100
AcDbLine
10
-92.7638297872341
20
-0.708137518078766
30
0.000000000000000
11
-92.6638297872341
21
-0.721060509892799
31
0.000000000000000
  0
LINE
  5
F10156
330
F10157
100
AcDbEntity
8
Geo
100
AcDbLine
10
-92.6638297872341
20
-0.721060509892799
30
0.000000000000000
11
-92.5638297872341
21
-0.737642944485579
31
0.000000000000000
  0
LINE
  5
F10158
330
F10159
100
AcDbEntity
8
Geo
100
AcDbLine
10
-92.5638297872341
20
-0.737642944485579
30
0.000000000000000
11
-92.4638297872341
21
-0.757860258320098
31
0.000000000000000
  0
LINE
  5
F1015A
330
F1015B
100
AcDbEntity
8
Geo
100
AcDbLine
10
-92.4638297872341
20
-0.757860258320098
30
0.000000000000000
11
-92.3638297872341
21
-0.781682503517848
31
0.000000000000000
  0
LINE
  5
F1015C
330
F1015D
100
AcDbEntity
8
Geo
100
AcDbLine
10
-92.3638297872341
20
-0.781682503517848
30
0.000000000000000
11
-92.2638297872341
21
-0.809074392220571
31
0.000000000000000
  0
LINE
  5
F1015E
330
F1015F
100
AcDbEntity
8
Geo
100
AcDbLine
10
-92.2638297872341
20
-0.809074392220571
30
0.000000000000000
11
-92.1638297872341
21
-0.839995348862109
31
0.000000000000000
  0
LINE
  5
F10160
330
F10161
100
AcDbEntity
8
Geo
100
AcDbLine
10
-92.1638297872341
20
-0.839995348862109
30
0.000000000000000
11
-92.0638297872341
21
-0.874399570272941
31
0.000000000000000
  0
LINE
  5
F10162
330
F10163
100
AcDbEntity
8
Geo
100
AcDbLine
10
-92.0638297872341
20
-0.874399570272941
30
0.000000000000000
11
-91.9638297872341
21
-0.912236093528347
31
0.000000000000000
  0
LINE
  5
F10164
330
F10165
100
AcDbEntity
8
Geo
100
AcDbLine
10
-91.9638297872341
20
-0.912236093528347
30
0.000000000000000
11
-91.8638297872341
21
-0.953448871439718
31
0.000000000000000
  0
LINE
  5
F10166
330
F10167
100
AcDbEntity
8
Geo
100
AcDbLine
10
-91.8638297872341
20
-0.953448871439718
30
0.000000000000000
11
-91.7638297872341
21
-0.997976855577181
31
0.000000000000000
  0
LINE
  5
F10168
330
F10169
100
AcDbEntity
8
Geo
100
AcDbLine
10
-91.7638297872341
20
-0.997976855577181
30
0.000000000000000
11
-91.6638297872341
21
-1.04575408670055
31
0.000000000000000
  0
LINE
  5
F1016A
330
F1016B
100
AcDbEntity
8
Geo
100
AcDbLine
10
-91.6638297872341
20
-1.04575408670055
30
0.000000000000000
11
-91.5638297872341
21
-1.09670979246464
31
0.000000000000000
  0
LINE
  5
F1016C
330
F1016D
100
AcDbEntity
8
Geo
100
AcDbLine
10
-91.5638297872341
20
-1.09670979246464
30
0.000000000000000
11
-91.4638297872341
21
-1.15076849225429
31
0.000000000000000
  0
LINE
  5
F1016E
330
F1016F
100
AcDbEntity
8
Geo
100
AcDbLine
10
-91.4638297872341
20
-1.15076849225429
30
0.000000000000000
11
-91.3638297872341
21
-1.20785010899363
31
0.000000000000000
  0
LINE
  5
F10170
330
F10171
100
AcDbEntity
8
Geo
100
AcDbLine
10
-91.3638297872341
20
-1.20785010899363
30
0.000000000000000
11
-91.2638297872341
21
-1.26787008776417
31
0.000000000000000
  0
LINE
  5
F10172
330
F10173
100
AcDbEntity
8
Geo
100
AcDbLine
10
-91.2638297872341
20
-1.26787008776417
30
0.000000000000000
11
-91.1638297872341
21
-1.33073952105591
31
0.000000000000000
  0
LINE
  5
F10174
330
F10175
100
AcDbEntity
8
Geo
100
AcDbLine
10
-91.1638297872341
20
-1.33073952105591
30
0.000000000000000
11
-91.0638297872341
21
-1.39636528046586
31
0.000000000000000
  0
LINE
  5
F10176
330
F10177
100
AcDbEntity
8
Geo
100
AcDbLine
10
-91.0638297872341
20
-1.39636528046586
30
0.000000000000000
11
-90.9638297872341
21
-1.46465015464902
31
0.000000000000000
  0
LINE
  5
F10178
330
F10179
100
AcDbEntity
8
Geo
100
AcDbLine
10
-90.9638297872341
20
-1.46465015464902
30
0.000000000000000
11
-90.8638297872341
21
-1.53549299331745
31
0.000000000000000
  0
LINE
  5
F1017A
330
F1017B
100
AcDbEntity
8
Geo
100
AcDbLine
10
-90.8638297872341
20
-1.53549299331745
30
0.000000000000000
11
-90.7638297872341
21
-1.60878885707400
31
0.000000000000000
  0
LINE
  5
F1017C
330
F1017D
100
AcDbEntity
8
Geo
100
AcDbLine
10
-90.7638297872341
20
-1.60878885707400
30
0.000000000000000
11
-90.6638297872341
21
-1.68442917285893
31
0.000000000000000
  0
LINE
  5
F1017E
330
F1017F
100
AcDbEntity
8
Geo
100
AcDbLine
10
-90.6638297872341
20
-1.68442917285893
30
0.000000000000000
11
-90.5638297872341
21
-1.76230189477900
31
0.000000000000000
  0
LINE
  5
F10180
330
F10181
100
AcDbEntity
8
Geo
100
AcDbLine
10
-90.5638297872341
20
-1.76230189477900
30
0.000000000000000
11
-90.4638297872341
21
-1.84229167008090
31
0.000000000000000
  0
LINE
  5
F10182
330
F10183
100
AcDbEntity
8
Geo
100
AcDbLine
10
-90.4638297872341
20
-1.84229167008090
30
0.000000000000000
11
-90.3638297872341
21
-1.92428001002314
31
0.000000000000000
  0
LINE
  5
F10184
330
F10185
100
AcDbEntity
8
Geo
100
AcDbLine
10
-90.3638297872341
20
-1.92428001002314
30
0.000000000000000
11
-90.2638297872341
21
-2.00814546539325
31
0.000000000000000
  0
LINE
  5
F10186
330
F10187
100
AcDbEntity
8
Geo
100
AcDbLine
10
-90.2638297872341
20
-2.00814546539325
30
0.000000000000000
11
-90.1638297872341
21
-2.09376380641029
31
0.000000000000000
  0
LINE
  5
F10188
330
F10189
100
AcDbEntity
8
Geo
100
AcDbLine
10
-90.1638297872341
20
-2.09376380641029
30
0.000000000000000
11
-90.0638297872341
21
-2.18100820674631
31
0.000000000000000
  0
LINE
  5
F1018A
330
F1018B
100
AcDbEntity
8
Geo
100
AcDbLine
10
-90.0638297872341
20
-2.18100820674631
30
0.000000000000000
11
-89.9638297872341
21
-2.26974943139397
31
0.000000000000000
  0
LINE
  5
F1018C
330
F1018D
100
AcDbEntity
8
Geo
100
AcDbLine
10
-89.9638297872341
20
-2.26974943139397
30
0.000000000000000
11
-89.8638297872341
21
-2.35985602810218
31
0.000000000000000
  0
LINE
  5
F1018E
330
F1018F
100
AcDbEntity
8
Geo
100
AcDbLine
10
-89.8638297872341
20
-2.35985602810218
30
0.000000000000000
11
-89.7638297872341
21
-2.45119452209616
31
0.000000000000000
  0
LINE
  5
F10190
330
F10191
100
AcDbEntity
8
Geo
100
AcDbLine
10
-89.7638297872341
20
-2.45119452209616
30
0.000000000000000
11
-89.6638297872341
21
-2.54362961379338
31
0.000000000000000
  0
LINE
  5
F10192
330
F10193
100
AcDbEntity
8
Geo
100
AcDbLine
10
-89.6638297872341
20
-2.54362961379338
30
0.000000000000000
11
-89.5638297872341
21
-2.63702437922272
31
0.000000000000000
  0
LINE
  5
F10194
330
F10195
100
AcDbEntity
8
Geo
100
AcDbLine
10
-89.5638297872341
20
-2.63702437922272
30
0.000000000000000
11
-89.4638297872341
21
-2.73124047284967
31
0.000000000000000
  0
LINE
  5
F10196
330
F10197
100
AcDbEntity
8
Geo
100
AcDbLine
10
-89.4638297872341
20
-2.73124047284967
30
0.000000000000000
11
-89.3638297872341
21
-2.82613833250745
31
0.000000000000000
  0
LINE
  5
F10198
330
F10199
100
AcDbEntity
8
Geo
100
AcDbLine
10
-89.3638297872341
20
-2.82613833250745
30
0.000000000000000
11
-89.2638297872341
21
-2.92157738613020
31
0.000000000000000
  0
LINE
  5
F1019A
330
F1019B
100
AcDbEntity
8
Geo
100
AcDbLine
10
-89.2638297872341
20
-2.92157738613020
30
0.000000000000000
11
-89.1638297872341
21
-3.01741625998222
31
0.000000000000000
  0
LINE
  5
F1019C
330
F1019D
100
AcDbEntity
8
Geo
100
AcDbLine
10
-89.1638297872341
20
-3.01741625998222
30
0.000000000000000
11
-89.0638297872341
21
-3.11351298807464
31
0.000000000000000
  0
LINE
  5
F1019E
330
F1019F
100
AcDbEntity
8
Geo
100
AcDbLine
10
-89.0638297872341
20
-3.11351298807464
30
0.000000000000000
11
-88.9638297872341
21
-3.20972522245949
31
0.000000000000000
  0
LINE
  5
F101A0
330
F101A1
100
AcDbEntity
8
Geo
100
AcDbLine
10
-88.9638297872341
20
-3.20972522245949
30
0.000000000000000
11
-88.8638297872341
21
-3.30591044408948
31
0.000000000000000
  0
LINE
  5
F101A2
330
F101A3
100
AcDbEntity
8
Geo
100
AcDbLine
10
-88.8638297872341
20
-3.30591044408948
30
0.000000000000000
11
-88.7638297872341
21
-3.40192617393129
31
0.000000000000000
  0
LINE
  5
F101A4
330
F101A5
100
AcDbEntity
8
Geo
100
AcDbLine
10
-88.7638297872341
20
-3.40192617393129
30
0.000000000000000
11
-88.6638297872341
21
-3.49763018401953
31
0.000000000000000
  0
LINE
  5
F101A6
330
F101A7
100
AcDbEntity
8
Geo
100
AcDbLine
10
-88.6638297872341
20
-3.49763018401953
30
0.000000000000000
11
-88.5638297872341
21
-3.59288070813885
31
0.000000000000000
  0
LINE
  5
F101A8
330
F101A9
100
AcDbEntity
8
Geo
100
AcDbLine
10
-88.5638297872341
20
-3.59288070813885
30
0.000000000000000
11
-88.4638297872341
21
-3.68753665182203
31
0.000000000000000
  0
LINE
  5
F101AA
330
F101AB
100
AcDbEntity
8
Geo
100
AcDbLine
10
-88.4638297872341
20
-3.68753665182203
30
0.000000000000000
11
-88.3638297872341
21
-3.78145780135300
31
0.000000000000000
  0
LINE
  5
F101AC
330
F101AD
100
AcDbEntity
8
Geo
100
AcDbLine
10
-88.3638297872341
20
-3.78145780135300
30
0.000000000000000
11
-88.2638297872341
21
-3.87450503146526
31
0.000000000000000
  0
LINE
  5
F101AE
330
F101AF
100
AcDbEntity
8
Geo
100
AcDbLine
10
-88.2638297872341
20
-3.87450503146526
30
0.000000000000000
11
-88.1638297872341
21
-3.96654051142787
31
0.000000000000000
  0
LINE
  5
F101B0
330
F101B1
100
AcDbEntity
8
Geo
100
AcDbLine
10
-88.1638297872341
20
-3.96654051142787
30
0.000000000000000
11
-88.0638297872341
21
-4.05742790921401
31
0.000000000000000
  0
LINE
  5
F101B2
330
F101B3
100
AcDbEntity
8
Geo
100
AcDbLine
10
-88.0638297872341
20
-4.05742790921401
30
0.000000000000000
11
-87.9638297872341
21
-4.14703259344933
31
0.000000000000000
  0
LINE
  5
F101B4
330
F101B5
100
AcDbEntity
8
Geo
100
AcDbLine
10
-87.9638297872341
20
-4.14703259344933
30
0.000000000000000
11
-87.8638297872341
21
-4.23522183284129
31
0.000000000000000
  0
LINE
  5
F101B6
330
F101B7
100
AcDbEntity
8
Geo
100
AcDbLine
10
-87.8638297872341
20
-4.23522183284129
30
0.000000000000000
11
-87.7638297872341
21
-4.32186499279377
31
0.000000000000000
  0
LINE
  5
F101B8
330
F101B9
100
AcDbEntity
8
Geo
100
AcDbLine
10
-87.7638297872341
20
-4.32186499279377
30
0.000000000000000
11
-87.6638297872341
21
-4.40683372891599
31
0.000000000000000
  0
LINE
  5
F101BA
330
F101BB
100
AcDbEntity
8
Geo
100
AcDbLine
10
-87.6638297872341
20
-4.40683372891599
30
0.000000000000000
11
-87.5638297872341
21
-4.49000217713878
31
0.000000000000000
  0
LINE
  5
F101BC
330
F101BD
100
AcDbEntity
8
Geo
100
AcDbLine
10
-87.5638297872341
20
-4.49000217713878
30
0.000000000000000
11
-87.4638297872341
21
-4.57124714015693
31
0.000000000000000
  0
LINE
  5
F101BE
330
F101BF
100
AcDbEntity
8
Geo
100
AcDbLine
10
-87.4638297872341
20
-4.57124714015693
30
0.000000000000000
11
-87.3638297872341
21
-4.65044826992117
31
0.000000000000000
  0
LINE
  5
F101C0
330
F101C1
100
AcDbEntity
8
Geo
100
AcDbLine
10
-87.3638297872341
20
-4.65044826992117
30
0.000000000000000
11
-87.2638297872341
21
-4.72748824590950
31
0.000000000000000
  0
LINE
  5
F101C2
330
F101C3
100
AcDbEntity
8
Geo
100
AcDbLine
10
-87.2638297872341
20
-4.72748824590950
30
0.000000000000000
11
-87.1638297872341
21
-4.80225294891401
31
0.000000000000000
  0
LINE
  5
F101C4
330
F101C5
100
AcDbEntity
8
Geo
100
AcDbLine
10
-87.1638297872341
20
-4.80225294891401
30
0.000000000000000
11
-87.0638297872341
21
-4.87463163008545
31
0.000000000000000
  0
LINE
  5
F101C6
330
F101C7
100
AcDbEntity
8
Geo
100
AcDbLine
10
-87.0638297872341
20
-4.87463163008545
30
0.000000000000000
11
-86.9638297872341
21
-4.94451707498532
31
0.000000000000000
  0
LINE
  5
F101C8
330
F101C9
100
AcDbEntity
8
Geo
100
AcDbLine
10
-86.9638297872341
20
-4.94451707498532
30
0.000000000000000
11
-86.8638297872341
21
-5.01180576240253
31
0.000000000000000
  0
LINE
  5
F101CA
330
F101CB
100
AcDbEntity
8
Geo
100
AcDbLine
10
-86.8638297872341
20
-5.01180576240253
30
0.000000000000000
11
-86.7638297872341
21
-5.07639801769918
31
0.000000000000000
  0
LINE
  5
F101CC
330
F101CD
100
AcDbEntity
8
Geo
100
AcDbLine
10
-86.7638297872341
20
-5.07639801769918
30
0.000000000000000
11
-86.6638297872341
21
-5.13819816045848
31
0.000000000000000
  0
LINE
  5
F101CE
330
F101CF
100
AcDbEntity
8
Geo
100
AcDbLine
10
-86.6638297872341
20
-5.13819816045848
30
0.000000000000000
11
-86.5638297872341
21
-5.19711464621599
31
0.000000000000000
  0
LINE
  5
F101D0
330
F101D1
100
AcDbEntity
8
Geo
100
AcDbLine
10
-86.5638297872341
20
-5.19711464621599
30
0.000000000000000
11
-86.4638297872341
21
-5.25306020206434
31
0.000000000000000
  0
LINE
  5
F101D2
330
F101D3
100
AcDbEntity
8
Geo
100
AcDbLine
10
-86.4638297872341
20
-5.25306020206434
30
0.000000000000000
11
-86.3638297872341
21
-5.30595195593045
31
0.000000000000000
  0
LINE
  5
F101D4
330
F101D5
100
AcDbEntity
8
Geo
100
AcDbLine
10
-86.3638297872341
20
-5.30595195593045
30
0.000000000000000
11
-86.2638297872341
21
-5.35571155933382
31
0.000000000000000
  0
LINE
  5
F101D6
330
F101D7
100
AcDbEntity
8
Geo
100
AcDbLine
10
-86.2638297872341
20
-5.35571155933382
30
0.000000000000000
11
-86.1638297872341
21
-5.40226530344400
31
0.000000000000000
  0
LINE
  5
F101D8
330
F101D9
100
AcDbEntity
8
Geo
100
AcDbLine
10
-86.1638297872341
20
-5.40226530344400
30
0.000000000000000
11
-86.0638297872341
21
-5.44554422826541
31
0.000000000000000
  0
LINE
  5
F101DA
330
F101DB
100
AcDbEntity
8
Geo
100
AcDbLine
10
-86.0638297872341
20
-5.44554422826541
30
0.000000000000000
11
-85.9638297872341
21
-5.48548422478767
31
0.000000000000000
  0
LINE
  5
F101DC
330
F101DD
100
AcDbEntity
8
Geo
100
AcDbLine
10
-85.9638297872341
20
-5.48548422478767
30
0.000000000000000
11
-85.8638297872341
21
-5.52202612995019
31
0.000000000000000
  0
LINE
  5
F101DE
330
F101DF
100
AcDbEntity
8
Geo
100
AcDbLine
10
-85.8638297872341
20
-5.52202612995019
30
0.000000000000000
11
-85.7638297872341
21
-5.55511581428031
31
0.000000000000000
  0
LINE
  5
F101E0
330
F101E1
100
AcDbEntity
8
Geo
100
AcDbLine
10
-85.7638297872341
20
-5.55511581428031
30
0.000000000000000
11
-85.6638297872341
21
-5.58470426207523
31
0.000000000000000
  0
LINE
  5
F101E2
330
F101E3
100
AcDbEntity
8
Geo
100
AcDbLine
10
-85.6638297872341
20
-5.58470426207523
30
0.000000000000000
11
-85.5638297872341
21
-5.61074764400893
31
0.000000000000000
  0
LINE
  5
F101E4
330
F101E5
100
AcDbEntity
8
Geo
100
AcDbLine
10
-85.5638297872341
20
-5.61074764400893
30
0.000000000000000
11
-85.4638297872341
21
-5.63320738205641
31
0.000000000000000
  0
LINE
  5
F101E6
330
F101E7
100
AcDbEntity
8
Geo
100
AcDbLine
10
-85.4638297872341
20
-5.63320738205641
30
0.000000000000000
11
-85.3638297872341
21
-5.65205020663934
31
0.000000000000000
  0
LINE
  5
F101E8
330
F101E9
100
AcDbEntity
8
Geo
100
AcDbLine
10
-85.3638297872341
20
-5.65205020663934
30
0.000000000000000
11
-85.2638297872341
21
-5.66724820590821
31
0.000000000000000
  0
LINE
  5
F101EA
330
F101EB
100
AcDbEntity
8
Geo
100
AcDbLine
10
-85.2638297872341
20
-5.66724820590821
30
0.000000000000000
11
-85.1638297872341
21
-5.67877886708810
31
0.000000000000000
  0
LINE
  5
F101EC
330
F101ED
100
AcDbEntity
8
Geo
100
AcDbLine
10
-85.1638297872341
20
-5.67877886708810
30
0.000000000000000
11
-85.0638297872341
21
-5.68662510982685
31
0.000000000000000
  0
LINE
  5
F101EE
330
F101EF
100
AcDbEntity
8
Geo
100
AcDbLine
10
-85.0638297872341
20
-5.68662510982685
30
0.000000000000000
11
-84.9638297872341
21
-5.69077531149614
31
0.000000000000000
  0
LINE
  5
F101F0
330
F101F1
100
AcDbEntity
8
Geo
100
AcDbLine
10
-93.0638297872341
20
-0.908953722593759
30
0.000000000000000
11
-92.9638297872341
21
-0.845336901985136
31
0.000000000000000
  0
LINE
  5
F101F2
330
F101F3
100
AcDbEntity
8
Geo
100
AcDbLine
10
-92.9638297872341
20
-0.845336901985136
30
0.000000000000000
11
-92.8638297872341
21
-0.880301085340204
31
0.000000000000000
  0
LINE
  5
F101F4
330
F101F5
100
AcDbEntity
8
Geo
100
AcDbLine
10
-92.8638297872341
20
-0.880301085340204
30
0.000000000000000
11
-92.7638297872341
21
-0.918688828633887
31
0.000000000000000
  0
LINE
  5
F101F6
330
F101F7
100
AcDbEntity
8
Geo
100
AcDbLine
10
-92.7638297872341
20
-0.918688828633887
30
0.000000000000000
11
-92.6638297872341
21
-0.960443268156113
31
0.000000000000000
  0
LINE
  5
F101F8
330
F101F9
100
AcDbEntity
8
Geo
100
AcDbLine
10
-92.6638297872341
20
-0.960443268156113
30
0.000000000000000
11
-92.5638297872341
21
-1.00550255311443
31
0.000000000000000
  0
LINE
  5
F101FA
330
F101FB
100
AcDbEntity
8
Geo
100
AcDbLine
10
-92.5638297872341
20
-1.00550255311443
30
0.000000000000000
11
-92.4638297872341
21
-1.05379993725348
31
0.000000000000000
  0
LINE
  5
F101FC
330
F101FD
100
AcDbEntity
8
Geo
100
AcDbLine
10
-92.4638297872341
20
-1.05379993725348
30
0.000000000000000
11
-92.3638297872341
21
-1.10526387772617
31
0.000000000000000
  0
LINE
  5
F101FE
330
F101FF
100
AcDbEntity
8
Geo
100
AcDbLine
10
-92.3638297872341
20
-1.10526387772617
30
0.000000000000000
11
-92.2638297872341
21
-1.15981814106996
31
0.000000000000000
  0
LINE
  5
F10200
330
F10201
100
AcDbEntity
8
Geo
100
AcDbLine
10
-92.2638297872341
20
-1.15981814106996
30
0.000000000000000
11
-92.1638297872341
21
-1.21738191613140
31
0.000000000000000
  0
LINE
  5
F10202
330
F10203
100
AcDbEntity
8
Geo
100
AcDbLine
10
-92.1638297872341
20
-1.21738191613140
30
0.000000000000000
11
-92.0638297872341
21
-1.27786993377156
31
0.000000000000000
  0
LINE
  5
F10204
330
F10205
100
AcDbEntity
8
Geo
100
AcDbLine
10
-92.0638297872341
20
-1.27786993377156
30
0.000000000000000
11
-91.9638297872341
21
-1.34119259317510
31
0.000000000000000
  0
LINE
  5
F10206
330
F10207
100
AcDbEntity
8
Geo
100
AcDbLine
10
-91.9638297872341
20
-1.34119259317510
30
0.000000000000000
11
-91.8638297872341
21
-1.40725609457585
31
0.000000000000000
  0
LINE
  5
F10208
330
F10209
100
AcDbEntity
8
Geo
100
AcDbLine
10
-91.8638297872341
20
-1.40725609457585
30
0.000000000000000
11
-91.7638297872341
21
-1.47596257820220
31
0.000000000000000
  0
LINE
  5
F1020A
330
F1020B
100
AcDbEntity
8
Geo
100
AcDbLine
10
-91.7638297872341
20
-1.47596257820220
30
0.000000000000000
11
-91.6638297872341
21
-1.54721026923675
31
0.000000000000000
  0
LINE
  5
F1020C
330
F1020D
100
AcDbEntity
8
Geo
100
AcDbLine
10
-91.6638297872341
20
-1.54721026923675
30
0.000000000000000
11
-91.5638297872341
21
-1.62089362857511
31
0.000000000000000
  0
LINE
  5
F1020E
330
F1020F
100
AcDbEntity
8
Geo
100
AcDbLine
10
-91.5638297872341
20
-1.62089362857511
30
0.000000000000000
11
-91.4638297872341
21
-1.69690350916087
31
0.000000000000000
  0
LINE
  5
F10210
330
F10211
100
AcDbEntity
8
Geo
100
AcDbLine
10
-91.4638297872341
20
-1.69690350916087
30
0.000000000000000
11
-91.3638297872341
21
-1.77512731766496
31
0.000000000000000
  0
LINE
  5
F10212
330
F10213
100
AcDbEntity
8
Geo
100
AcDbLine
10
-91.3638297872341
20
-1.77512731766496
30
0.000000000000000
11
-91.2638297872341
21
-1.85544918127004
31
0.000000000000000
  0
LINE
  5
F10214
330
F10215
100
AcDbEntity
8
Geo
100
AcDbLine
10
-91.2638297872341
20
-1.85544918127004
30
0.000000000000000
11
-91.1638297872341
21
-1.93775011931267
31
0.000000000000000
  0
LINE
  5
F10216
330
F10217
100
AcDbEntity
8
Geo
100
AcDbLine
10
-91.1638297872341
20
-1.93775011931267
30
0.000000000000000
11
-91.0638297872341
21
-2.02190821952923
31
0.000000000000000
  0
LINE
  5
F10218
330
F10219
100
AcDbEntity
8
Geo
100
AcDbLine
10
-91.0638297872341
20
-2.02190821952923
30
0.000000000000000
11
-90.9638297872341
21
-2.10779881864442
31
0.000000000000000
  0
LINE
  5
F1021A
330
F1021B
100
AcDbEntity
8
Geo
100
AcDbLine
10
-90.9638297872341
20
-2.10779881864442
30
0.000000000000000
11
-90.8638297872341
21
-2.19529468703473
31
0.000000000000000
  0
LINE
  5
F1021C
330
F1021D
100
AcDbEntity
8
Geo
100
AcDbLine
10
-90.8638297872341
20
-2.19529468703473
30
0.000000000000000
11
-90.7638297872341
21
-2.28426621719355
31
0.000000000000000
  0
LINE
  5
F1021E
330
F1021F
100
AcDbEntity
8
Geo
100
AcDbLine
10
-90.7638297872341
20
-2.28426621719355
30
0.000000000000000
11
-90.6638297872341
21
-2.37458161571857
31
0.000000000000000
  0
LINE
  5
F10220
330
F10221
100
AcDbEntity
8
Geo
100
AcDbLine
10
-90.6638297872341
20
-2.37458161571857
30
0.000000000000000
11
-90.5638297872341
21
-2.46610709853715
31
0.000000000000000
  0
LINE
  5
F10222
330
F10223
100
AcDbEntity
8
Geo
100
AcDbLine
10
-90.5638297872341
20
-2.46610709853715
30
0.000000000000000
11
-90.4638297872341
21
-2.55870708908051
31
0.000000000000000
  0
LINE
  5
F10224
330
F10225
100
AcDbEntity
8
Geo
100
AcDbLine
10
-90.4638297872341
20
-2.55870708908051
30
0.000000000000000
11
-90.3638297872341
21
-2.65224441911306
31
0.000000000000000
  0
LINE
  5
F10226
330
F10227
100
AcDbEntity
8
Geo
100
AcDbLine
10
-90.3638297872341
20
-2.65224441911306
30
0.000000000000000
11
-90.2638297872341
21
-2.74658053191958
31
0.000000000000000
  0
LINE
  5
F10228
330
F10229
100
AcDbEntity
8
Geo
100
AcDbLine
10
-90.2638297872341
20
-2.74658053191958
30
0.000000000000000
11
-90.1638297872341
21
-2.84157568754903
31
0.000000000000000
  0
LINE
  5
F1022A
330
F1022B
100
AcDbEntity
8
Geo
100
AcDbLine
10
-90.1638297872341
20
-2.84157568754903
30
0.000000000000000
11
-90.0638297872341
21
-2.93708916981118
31
0.000000000000000
  0
LINE
  5
F1022C
330
F1022D
100
AcDbEntity
8
Geo
100
AcDbLine
10
-90.0638297872341
20
-2.93708916981118
30
0.000000000000000
11
-89.9638297872341
21
-3.03297949471926
31
0.000000000000000
  0
LINE
  5
F1022E
330
F1022F
100
AcDbEntity
8
Geo
100
AcDbLine
10
-89.9638297872341
20
-3.03297949471926
30
0.000000000000000
11
-89.8638297872341
21
-3.12910462007006
31
0.000000000000000
  0
LINE
  5
F10230
330
F10231
100
AcDbEntity
8
Geo
100
AcDbLine
10
-89.8638297872341
20
-3.12910462007006
30
0.000000000000000
11
-89.7638297872341
21
-3.22532215585077
31
0.000000000000000
  0
LINE
  5
F10232
330
F10233
100
AcDbEntity
8
Geo
100
AcDbLine
10
-89.7638297872341
20
-3.22532215585077
30
0.000000000000000
11
-89.6638297872341
21
-3.32148957516117
31
0.000000000000000
  0
LINE
  5
F10234
330
F10235
100
AcDbEntity
8
Geo
100
AcDbLine
10
-89.6638297872341
20
-3.32148957516117
30
0.000000000000000
11
-89.5638297872341
21
-3.41746442533846
31
0.000000000000000
  0
LINE
  5
F10236
330
F10237
100
AcDbEntity
8
Geo
100
AcDbLine
10
-89.5638297872341
20
-3.41746442533846
30
0.000000000000000
11
-89.4638297872341
21
-3.51310453897225
31
0.000000000000000
  0
LINE
  5
F10238
330
F10239
100
AcDbEntity
8
Geo
100
AcDbLine
10
-89.4638297872341
20
-3.51310453897225
30
0.000000000000000
11
-89.3638297872341
21
-3.60826824449694
31
0.000000000000000
  0
LINE
  5
F1023A
330
F1023B
100
AcDbEntity
8
Geo
100
AcDbLine
10
-89.3638297872341
20
-3.60826824449694
30
0.000000000000000
11
-89.2638297872341
21
-3.70281457604954
31
0.000000000000000
  0
LINE
  5
F1023C
330
F1023D
100
AcDbEntity
8
Geo
100
AcDbLine
10
-89.2638297872341
20
-3.70281457604954
30
0.000000000000000
11
-89.1638297872341
21
-3.79660348228230
31
0.000000000000000
  0
LINE
  5
F1023E
330
F1023F
100
AcDbEntity
8
Geo
100
AcDbLine
10
-89.1638297872341
20
-3.79660348228230
30
0.000000000000000
11
-89.0638297872341
21
-3.88949603382050
31
0.000000000000000
  0
LINE
  5
F10240
330
F10241
100
AcDbEntity
8
Geo
100
AcDbLine
10
-89.0638297872341
20
-3.88949603382050
30
0.000000000000000
11
-88.9638297872341
21
-3.98135462905840
31
0.000000000000000
  0
LINE
  5
F10242
330
F10243
100
AcDbEntity
8
Geo
100
AcDbLine
10
-88.9638297872341
20
-3.98135462905840
30
0.000000000000000
11
-88.8638297872341
21
-4.07204319798823
31
0.000000000000000
  0
LINE
  5
F10244
330
F10245
100
AcDbEntity
8
Geo
100
AcDbLine
10
-88.8638297872341
20
-4.07204319798823
30
0.000000000000000
11
-88.7638297872341
21
-4.16142740376058
31
0.000000000000000
  0
LINE
  5
F10246
330
F10247
100
AcDbEntity
8
Geo
100
AcDbLine
10
-88.7638297872341
20
-4.16142740376058
30
0.000000000000000
11
-88.6638297872341
21
-4.24937484167732
31
0.000000000000000
  0
LINE
  5
F10248
330
F10249
100
AcDbEntity
8
Geo
100
AcDbLine
10
-88.6638297872341
20
-4.24937484167732
30
0.000000000000000
11
-88.5638297872341
21
-4.33575523532254
31
0.000000000000000
  0
LINE
  5
F1024A
330
F1024B
100
AcDbEntity
8
Geo
100
AcDbLine
10
-88.5638297872341
20
-4.33575523532254
30
0.000000000000000
11
-88.4638297872341
21
-4.42044062954078
31
0.000000000000000
  0
LINE
  5
F1024C
330
F1024D
100
AcDbEntity
8
Geo
100
AcDbLine
10
-88.4638297872341
20
-4.42044062954078
30
0.000000000000000
11
-88.3638297872341
21
-4.50330557997688
31
0.000000000000000
  0
LINE
  5
F1024E
330
F1024F
100
AcDbEntity
8
Geo
100
AcDbLine
10
-88.3638297872341
20
-4.50330557997688
30
0.000000000000000
11
-88.2638297872341
21
-4.58422733889645
31
0.000000000000000
  0
LINE
  5
F10250
330
F10251
100
AcDbEntity
8
Geo
100
AcDbLine
10
-88.2638297872341
20
-4.58422733889645
30
0.000000000000000
11
-88.1638297872341
21
-4.66308603701199
31
0.000000000000000
  0
LINE
  5
F10252
330
F10253
100
AcDbEntity
8
Geo
100
AcDbLine
10
-88.1638297872341
20
-4.66308603701199
30
0.000000000000000
11
-88.0638297872341
21
-4.73976486104503
31
0.000000000000000
  0
LINE
  5
F10254
330
F10255
100
AcDbEntity
8
Geo
100
AcDbLine
10
-88.0638297872341
20
-4.73976486104503
30
0.000000000000000
11
-87.9638297872341
21
-4.81415022676155
31
0.000000000000000
  0
LINE
  5
F10256
330
F10257
100
AcDbEntity
8
Geo
100
AcDbLine
10
-87.9638297872341
20
-4.81415022676155
30
0.000000000000000
11
-87.8638297872341
21
-4.88613194722407
31
0.000000000000000
  0
LINE
  5
F10258
330
F10259
100
AcDbEntity
8
Geo
100
AcDbLine
10
-87.8638297872341
20
-4.88613194722407
30
0.000000000000000
11
-87.7638297872341
21
-4.95560339601144
31
0.000000000000000
  0
LINE
  5
F1025A
330
F1025B
100
AcDbEntity
8
Geo
100
AcDbLine
10
-87.7638297872341
20
-4.95560339601144
30
0.000000000000000
11
-87.6638297872341
21
-5.02246166516444
31
0.000000000000000
  0
LINE
  5
F1025C
330
F1025D
100
AcDbEntity
8
Geo
100
AcDbLine
10
-87.6638297872341
20
-5.02246166516444
30
0.000000000000000
11
-87.5638297872341
21
-5.08660771762312
31
0.000000000000000
  0
LINE
  5
F1025E
330
F1025F
100
AcDbEntity
8
Geo
100
AcDbLine
10
-87.5638297872341
20
-5.08660771762312
30
0.000000000000000
11
-87.4638297872341
21
-5.14794653393032
31
0.000000000000000
  0
LINE
  5
F10260
330
F10261
100
AcDbEntity
8
Geo
100
AcDbLine
10
-87.4638297872341
20
-5.14794653393032
30
0.000000000000000
11
-87.3638297872341
21
-5.20638725298385
31
0.000000000000000
  0
LINE
  5
F10262
330
F10263
100
AcDbEntity
8
Geo
100
AcDbLine
10
-87.3638297872341
20
-5.20638725298385
30
0.000000000000000
11
-87.2638297872341
21
-5.26184330662887
31
0.000000000000000
  0
LINE
  5
F10264
330
F10265
100
AcDbEntity
8
Geo
100
AcDbLine
10
-87.2638297872341
20
-5.26184330662887
30
0.000000000000000
11
-87.1638297872341
21
-5.31423254789124
31
0.000000000000000
  0
LINE
  5
F10266
330
F10267
100
AcDbEntity
8
Geo
100
AcDbLine
10
-87.1638297872341
20
-5.31423254789124
30
0.000000000000000
11
-87.0638297872341
21
-5.36347737266165
31
0.000000000000000
  0
LINE
  5
F10268
330
F10269
100
AcDbEntity
8
Geo
100
AcDbLine
10
-87.0638297872341
20
-5.36347737266165
30
0.000000000000000
11
-86.9638297872341
21
-5.40950483465052
31
0.000000000000000
  0
LINE
  5
F1026A
330
F1026B
100
AcDbEntity
8
Geo
100
AcDbLine
10
-86.9638297872341
20
-5.40950483465052
30
0.000000000000000
11
-86.8638297872341
21
-5.45224675344325
31
0.000000000000000
  0
LINE
  5
F1026C
330
F1026D
100
AcDbEntity
8
Geo
100
AcDbLine
10
-86.8638297872341
20
-5.45224675344325
30
0.000000000000000
11
-86.7638297872341
21
-5.49163981549573
31
0.000000000000000
  0
LINE
  5
F1026E
330
F1026F
100
AcDbEntity
8
Geo
100
AcDbLine
10
-86.7638297872341
20
-5.49163981549573
30
0.000000000000000
11
-86.6638297872341
21
-5.52762566792061
31
0.000000000000000
  0
LINE
  5
F10270
330
F10271
100
AcDbEntity
8
Geo
100
AcDbLine
10
-86.6638297872341
20
-5.52762566792061
30
0.000000000000000
11
-86.5638297872341
21
-5.56015100492538
31
0.000000000000000
  0
LINE
  5
F10272
330
F10273
100
AcDbEntity
8
Geo
100
AcDbLine
10
-86.5638297872341
20
-5.56015100492538
30
0.000000000000000
11
-86.4638297872341
21
-5.58916764677416
31
0.000000000000000
  0
LINE
  5
F10274
330
F10275
100
AcDbEntity
8
Geo
100
AcDbLine
10
-86.4638297872341
20
-5.58916764677416
30
0.000000000000000
11
-86.3638297872341
21
-5.61463261115623
31
0.000000000000000
  0
LINE
  5
F10276
330
F10277
100
AcDbEntity
8
Geo
100
AcDbLine
10
-86.3638297872341
20
-5.61463261115623
30
0.000000000000000
11
-86.2638297872341
21
-5.63650817685573
31
0.000000000000000
  0
LINE
  5
F10278
330
F10279
100
AcDbEntity
8
Geo
100
AcDbLine
10
-86.2638297872341
20
-5.63650817685573
30
0.000000000000000
11
-86.1638297872341
21
-5.65476193962799
31
0.000000000000000
  0
LINE
  5
F1027A
330
F1027B
100
AcDbEntity
8
Geo
100
AcDbLine
10
-86.1638297872341
20
-5.65476193962799
30
0.000000000000000
11
-86.0638297872341
21
-5.66936686019993
31
0.000000000000000
  0
LINE
  5
F1027C
330
F1027D
100
AcDbEntity
8
Geo
100
AcDbLine
10
-86.0638297872341
20
-5.66936686019993
30
0.000000000000000
11
-85.9638297872341
21
-5.68030130432327
31
0.000000000000000
  0
LINE
  5
F1027E
330
F1027F
100
AcDbEntity
8
Geo
100
AcDbLine
10
-85.9638297872341
20
-5.68030130432327
30
0.000000000000000
11
-85.8638297872341
21
-5.68754907482134
31
0.000000000000000
  0
LINE
  5
F10280
330
F10281
100
AcDbEntity
8
Geo
100
AcDbLine
10
-85.8638297872341
20
-5.68754907482134
30
0.000000000000000
11
-85.7638297872341
21
-5.69109943558190
31
0.000000000000000
  0
LINE
  5
F10282
330
F10283
100
AcDbEntity
8
Geo
100
AcDbLine
10
-93.0638297872341
20
-3.19148936170213
30
0.000000000000000
11
-92.9638297872341
21
-3.28769064905662
31
0.000000000000000
  0
LINE
  5
F10284
330
F10285
100
AcDbEntity
8
Geo
100
AcDbLine
10
-92.9638297872341
20
-3.28769064905662
30
0.000000000000000
11
-92.8638297872341
21
-3.38374943357964
31
0.000000000000000
  0
LINE
  5
F10286
330
F10287
100
AcDbEntity
8
Geo
100
AcDbLine
10
-92.8638297872341
20
-3.38374943357964
30
0.000000000000000
11
-92.7638297872341
21
-3.47952342352897
31
0.000000000000000
  0
LINE
  5
F10288
330
F10289
100
AcDbEntity
8
Geo
100
AcDbLine
10
-92.7638297872341
20
-3.47952342352897
30
0.000000000000000
11
-92.6638297872341
21
-3.57487074902820
31
0.000000000000000
  0
LINE
  5
F1028A
330
F1028B
100
AcDbEntity
8
Geo
100
AcDbLine
10
-92.6638297872341
20
-3.57487074902820
30
0.000000000000000
11
-92.5638297872341
21
-3.66965017221835
31
0.000000000000000
  0
LINE
  5
F1028C
330
F1028D
100
AcDbEntity
8
Geo
100
AcDbLine
10
-92.5638297872341
20
-3.66965017221835
30
0.000000000000000
11
-92.4638297872341
21
-3.76372129647333
31
0.000000000000000
  0
LINE
  5
F1028E
330
F1028F
100
AcDbEntity
8
Geo
100
AcDbLine
10
-92.4638297872341
20
-3.76372129647333
30
0.000000000000000
11
-92.3638297872341
21
-3.85694477436930
31
0.000000000000000
  0
LINE
  5
F10290
330
F10291
100
AcDbEntity
8
Geo
100
AcDbLine
10
-92.3638297872341
20
-3.85694477436930
30
0.000000000000000
11
-92.2638297872341
21
-3.94918251409973
31
0.000000000000000
  0
LINE
  5
F10292
330
F10293
100
AcDbEntity
8
Geo
100
AcDbLine
10
-92.2638297872341
20
-3.94918251409973
30
0.000000000000000
11
-92.1638297872341
21
-4.04029788403067
31
0.000000000000000
  0
LINE
  5
F10294
330
F10295
100
AcDbEntity
8
Geo
100
AcDbLine
10
-92.1638297872341
20
-4.04029788403067
30
0.000000000000000
11
-92.0638297872341
21
-4.13015591509299
31
0.000000000000000
  0
LINE
  5
F10296
330
F10297
100
AcDbEntity
8
Geo
100
AcDbLine
10
-92.0638297872341
20
-4.13015591509299
30
0.000000000000000
11
-91.9638297872341
21
-4.21862350071181
31
0.000000000000000
  0
LINE
  5
F10298
330
F10299
100
AcDbEntity
8
Geo
100
AcDbLine
10
-91.9638297872341
20
-4.21862350071181
30
0.000000000000000
11
-91.8638297872341
21
-4.30556959397717
31
0.000000000000000
  0
LINE
  5
F1029A
330
F1029B
100
AcDbEntity
8
Geo
100
AcDbLine
10
-91.8638297872341
20
-4.30556959397717
30
0.000000000000000
11
-91.7638297872341
21
-4.39086540176358
31
0.000000000000000
  0
LINE
  5
F1029C
330
F1029D
100
AcDbEntity
8
Geo
100
AcDbLine
10
-91.7638297872341
20
-4.39086540176358
30
0.000000000000000
11
-91.6638297872341
21
-4.47438457551108
31
0.000000000000000
  0
LINE
  5
F1029E
330
F1029F
100
AcDbEntity
8
Geo
100
AcDbLine
10
-91.6638297872341
20
-4.47438457551108
30
0.000000000000000
11
-91.5638297872341
21
-4.55600339838524
31
0.000000000000000
  0
LINE
  5
F102A0
330
F102A1
100
AcDbEntity
8
Geo
100
AcDbLine
10
-91.5638297872341
20
-4.55600339838524
30
0.000000000000000
11
-91.4638297872341
21
-4.63560096853869
31
0.000000000000000
  0
LINE
  5
F102A2
330
F102A3
100
AcDbEntity
8
Geo
100
AcDbLine
10
-91.4638297872341
20
-4.63560096853869
30
0.000000000000000
11
-91.3638297872341
21
-4.71305937820287
31
0.000000000000000
  0
LINE
  5
F102A4
330
F102A5
100
AcDbEntity
8
Geo
100
AcDbLine
10
-91.3638297872341
20
-4.71305937820287
30
0.000000000000000
11
-91.2638297872341
21
-4.78826388834465
31
0.000000000000000
  0
LINE
  5
F102A6
330
F102A7
100
AcDbEntity
8
Geo
100
AcDbLine
10
-91.2638297872341
20
-4.78826388834465
30
0.000000000000000
11
-91.1638297872341
21
-4.86110309862906
31
0.000000000000000
  0
LINE
  5
F102A8
330
F102A9
100
AcDbEntity
8
Geo
100
AcDbLine
10
-91.1638297872341
20
-4.86110309862906
30
0.000000000000000
11
-91.0638297872341
21
-4.93146911243650
31
0.000000000000000
  0
LINE
  5
F102AA
330
F102AB
100
AcDbEntity
8
Geo
100
AcDbLine
10
-91.0638297872341
20
-4.93146911243650
30
0.000000000000000
11
-90.9638297872341
21
-4.99925769668983
31
0.000000000000000
  0
LINE
  5
F102AC
330
F102AD
100
AcDbEntity
8
Geo
100
AcDbLine
10
-90.9638297872341
20
-4.99925769668983
30
0.000000000000000
11
-90.8638297872341
21
-5.06436843625467
31
0.000000000000000
  0
LINE
  5
F102AE
330
F102AF
100
AcDbEntity
8
Geo
100
AcDbLine
10
-90.8638297872341
20
-5.06436843625467
30
0.000000000000000
11
-90.7638297872341
21
-5.12670488268420
31
0.000000000000000
  0
LINE
  5
F102B0
330
F102B1
100
AcDbEntity
8
Geo
100
AcDbLine
10
-90.7638297872341
20
-5.12670488268420
30
0.000000000000000
11
-90.6638297872341
21
-5.18617469708812
31
0.000000000000000
  0
LINE
  5
F102B2
330
F102B3
100
AcDbEntity
8
Geo
100
AcDbLine
10
-90.6638297872341
20
-5.18617469708812
30
0.000000000000000
11
-90.5638297872341
21
-5.24268978691412
31
0.000000000000000
  0
LINE
  5
F102B4
330
F102B5
100
AcDbEntity
8
Geo
100
AcDbLine
10
-90.5638297872341
20
-5.24268978691412
30
0.000000000000000
11
-90.4638297872341
21
-5.29616643643924
31
0.000000000000000
  0
LINE
  5
F102B6
330
F102B7
100
AcDbEntity
8
Geo
100
AcDbLine
10
-90.4638297872341
20
-5.29616643643924
30
0.000000000000000
11
-90.3638297872341
21
-5.34652543077785
31
0.000000000000000
  0
LINE
  5
F102B8
330
F102B9
100
AcDbEntity
8
Geo
100
AcDbLine
10
-90.3638297872341
20
-5.34652543077785
30
0.000000000000000
11
-90.2638297872341
21
-5.39369217322257
31
0.000000000000000
  0
LINE
  5
F102BA
330
F102BB
100
AcDbEntity
8
Geo
100
AcDbLine
10
-90.2638297872341
20
-5.39369217322257
30
0.000000000000000
11
-90.1638297872341
21
-5.43759679574424
31
0.000000000000000
  0
LINE
  5
F102BC
330
F102BD
100
AcDbEntity
8
Geo
100
AcDbLine
10
-90.1638297872341
20
-5.43759679574424
30
0.000000000000000
11
-90.0638297872341
21
-5.47817426248736
31
0.000000000000000
  0
LINE
  5
F102BE
330
F102BF
100
AcDbEntity
8
Geo
100
AcDbLine
10
-90.0638297872341
20
-5.47817426248736
30
0.000000000000000
11
-89.9638297872341
21
-5.51536446610759
31
0.000000000000000
  0
LINE
  5
F102C0
330
F102C1
100
AcDbEntity
8
Geo
100
AcDbLine
10
-89.9638297872341
20
-5.51536446610759
30
0.000000000000000
11
-89.8638297872341
21
-5.54911231680870
31
0.000000000000000
  0
LINE
  5
F102C2
330
F102C3
100
AcDbEntity
8
Geo
100
AcDbLine
10
-89.8638297872341
20
-5.54911231680870
30
0.000000000000000
11
-89.7638297872341
21
-5.57936782394697
31
0.000000000000000
  0
LINE
  5
F102C4
330
F102C5
100
AcDbEntity
8
Geo
100
AcDbLine
10
-89.7638297872341
20
-5.57936782394697
30
0.000000000000000
11
-89.6638297872341
21
-5.60608617008228
31
0.000000000000000
  0
LINE
  5
F102C6
330
F102C7
100
AcDbEntity
8
Geo
100
AcDbLine
10
-89.6638297872341
20
-5.60608617008228
30
0.000000000000000
11
-89.5638297872341
21
-5.62922777736614
31
0.000000000000000
  0
LINE
  5
F102C8
330
F102C9
100
AcDbEntity
8
Geo
100
AcDbLine
10
-89.5638297872341
20
-5.62922777736614
30
0.000000000000000
11
-89.4638297872341
21
-5.64875836616828
31
0.000000000000000
  0
LINE
  5
F102CA
330
F102CB
100
AcDbEntity
8
Geo
100
AcDbLine
10
-89.4638297872341
20
-5.64875836616828
30
0.000000000000000
11
-89.3638297872341
21
-5.66464900585500
31
0.000000000000000
  0
LINE
  5
F102CC
330
F102CD
100
AcDbEntity
8
Geo
100
AcDbLine
10
-89.3638297872341
20
-5.66464900585500
30
0.000000000000000
11
-89.2638297872341
21
-5.67687615764413
31
0.000000000000000
  0
LINE
  5
F102CE
330
F102CF
100
AcDbEntity
8
Geo
100
AcDbLine
10
-89.2638297872341
20
-5.67687615764413
30
0.000000000000000
11
-89.1638297872341
21
-5.68542170947293
31
0.000000000000000
  0
LINE
  5
F102D0
330
F102D1
100
AcDbEntity
8
Geo
100
AcDbLine
10
-89.1638297872341
20
-5.68542170947293
30
0.000000000000000
11
-89.0638297872341
21
-5.69027300282752
31
0.000000000000000
  0
LINE
  5
F102D2
330
F102D3
100
AcDbEntity
8
Geo
100
AcDbLine
10
-93.0638297872341
20
-3.93313014820199
30
0.000000000000000
11
-92.9638297872341
21
-4.05495252580578
31
0.000000000000000
  0
LINE
  5
F102D4
330
F102D5
100
AcDbEntity
8
Geo
100
AcDbLine
10
-92.9638297872341
20
-4.05495252580578
30
0.000000000000000
11
-92.8638297872341
21
-4.14459415720322
31
0.000000000000000
  0
LINE
  5
F102D6
330
F102D7
100
AcDbEntity
8
Geo
100
AcDbLine
10
-92.8638297872341
20
-4.14459415720322
30
0.000000000000000
11
-92.7638297872341
21
-4.23282395580947
31
0.000000000000000
  0
LINE
  5
F102D8
330
F102D9
100
AcDbEntity
8
Geo
100
AcDbLine
10
-92.7638297872341
20
-4.23282395580947
30
0.000000000000000
11
-92.6638297872341
21
-4.31951122694812
31
0.000000000000000
  0
LINE
  5
F102DA
330
F102DB
100
AcDbEntity
8
Geo
100
AcDbLine
10
-92.6638297872341
20
-4.31951122694812
30
0.000000000000000
11
-92.5638297872341
21
-4.40452756088652
31
0.000000000000000
  0
LINE
  5
F102DC
330
F102DD
100
AcDbEntity
8
Geo
100
AcDbLine
10
-92.5638297872341
20
-4.40452756088652
30
0.000000000000000
11
-92.4638297872341
21
-4.48774702304896
31
0.000000000000000
  0
LINE
  5
F102DE
330
F102DF
100
AcDbEntity
8
Geo
100
AcDbLine
10
-92.4638297872341
20
-4.48774702304896
30
0.000000000000000
11
-92.3638297872341
21
-4.56904634056335
31
0.000000000000000
  0
LINE
  5
F102E0
330
F102E1
100
AcDbEntity
8
Geo
100
AcDbLine
10
-92.3638297872341
20
-4.56904634056335
30
0.000000000000000
11
-92.2638297872341
21
-4.64830508486514
31
0.000000000000000
  0
LINE
  5
F102E2
330
F102E3
100
AcDbEntity
8
Geo
100
AcDbLine
10
-92.2638297872341
20
-4.64830508486514
30
0.000000000000000
11
-92.1638297872341
21
-4.72540585008804
31
0.000000000000000
  0
LINE
  5
F102E4
330
F102E5
100
AcDbEntity
8
Geo
100
AcDbLine
10
-92.1638297872341
20
-4.72540585008804
30
0.000000000000000
11
-92.0638297872341
21
-4.80023442697712
31
0.000000000000000
  0
LINE
  5
F102E6
330
F102E7
100
AcDbEntity
8
Geo
100
AcDbLine
10
-92.0638297872341
20
-4.80023442697712
30
0.000000000000000
11
-91.9638297872341
21
-4.87267997206682
31
0.000000000000000
  0
LINE
  5
F102E8
330
F102E9
100
AcDbEntity
8
Geo
100
AcDbLine
10
-91.9638297872341
20
-4.87267997206682
30
0.000000000000000
11
-91.8638297872341
21
-4.94263517187324
31
0.000000000000000
  0
LINE
  5
F102EA
330
F102EB
100
AcDbEntity
8
Geo
100
AcDbLine
10
-91.8638297872341
20
-4.94263517187324
30
0.000000000000000
11
-91.7638297872341
21
-5.00999640185742
31
0.000000000000000
  0
LINE
  5
F102EC
330
F102ED
100
AcDbEntity
8
Geo
100
AcDbLine
10
-91.7638297872341
20
-5.00999640185742
30
0.000000000000000
11
-91.6638297872341
21
-5.07466387992427
31
0.000000000000000
  0
LINE
  5
F102EE
330
F102EF
100
AcDbEntity
8
Geo
100
AcDbLine
10
-91.6638297872341
20
-5.07466387992427
30
0.000000000000000
11
-91.5638297872341
21
-5.13654181422961
31
0.000000000000000
  0
LINE
  5
F102F0
330
F102F1
100
AcDbEntity
8
Geo
100
AcDbLine
10
-91.5638297872341
20
-5.13654181422961
30
0.000000000000000
11
-91.4638297872341
21
-5.19553854507650
31
0.000000000000000
  0
LINE
  5
F102F2
330
F102F3
100
AcDbEntity
8
Geo
100
AcDbLine
10
-91.4638297872341
20
-5.19553854507650
30
0.000000000000000
11
-91.3638297872341
21
-5.25156668069062
31
0.000000000000000
  0
LINE
  5
F102F4
330
F102F5
100
AcDbEntity
8
Geo
100
AcDbLine
10
-91.3638297872341
20
-5.25156668069062
30
0.000000000000000
11
-91.2638297872341
21
-5.30454322667362
31
0.000000000000000
  0
LINE
  5
F102F6
330
F102F7
100
AcDbEntity
8
Geo
100
AcDbLine
10
-91.2638297872341
20
-5.30454322667362
30
0.000000000000000
11
-91.1638297872341
21
-5.35438970894253
31
0.000000000000000
  0
LINE
  5
F102F8
330
F102F9
100
AcDbEntity
8
Geo
100
AcDbLine
10
-91.1638297872341
20
-5.35438970894253
30
0.000000000000000
11
-91.0638297872341
21
-5.40103228997338
31
0.000000000000000
  0
LINE
  5
F102FA
330
F102FB
100
AcDbEntity
8
Geo
100
AcDbLine
10
-91.0638297872341
20
-5.40103228997338
30
0.000000000000000
11
-90.9638297872341
21
-5.44440187817658
31
0.000000000000000
  0
LINE
  5
F102FC
330
F102FD
100
AcDbEntity
8
Geo
100
AcDbLine
10
-90.9638297872341
20
-5.44440187817658
30
0.000000000000000
11
-90.8638297872341
21
-5.48443423024221
31
0.000000000000000
  0
LINE
  5
F102FE
330
F102FF
100
AcDbEntity
8
Geo
100
AcDbLine
10
-90.8638297872341
20
-5.48443423024221
30
0.000000000000000
11
-90.7638297872341
21
-5.52107004630353
31
0.000000000000000
  0
LINE
  5
F10300
330
F10301
100
AcDbEntity
8
Geo
100
AcDbLine
10
-90.7638297872341
20
-5.52107004630353
30
0.000000000000000
11
-90.6638297872341
21
-5.55425505777782
31
0.000000000000000
  0
LINE
  5
F10302
330
F10303
100
AcDbEntity
8
Geo
100
AcDbLine
10
-90.6638297872341
20
-5.55425505777782
30
0.000000000000000
11
-90.5638297872341
21
-5.58394010775431
31
0.000000000000000
  0
LINE
  5
F10304
330
F10305
100
AcDbEntity
8
Geo
100
AcDbLine
10
-90.5638297872341
20
-5.58394010775431
30
0.000000000000000
11
-90.4638297872341
21
-5.61008122381028
31
0.000000000000000
  0
LINE
  5
F10306
330
F10307
100
AcDbEntity
8
Geo
100
AcDbLine
10
-90.4638297872341
20
-5.61008122381028
30
0.000000000000000
11
-90.3638297872341
21
-5.63263968314734
31
0.000000000000000
  0
LINE
  5
F10308
330
F10309
100
AcDbEntity
8
Geo
100
AcDbLine
10
-90.3638297872341
20
-5.63263968314734
30
0.000000000000000
11
-90.2638297872341
21
-5.65158206995145
31
0.000000000000000
  0
LINE
  5
F1030A
330
F1030B
100
AcDbEntity
8
Geo
100
AcDbLine
10
-90.2638297872341
20
-5.65158206995145
30
0.000000000000000
11
-90.1638297872341
21
-5.66688032489171
31
0.000000000000000
  0
LINE
  5
F1030C
330
F1030D
100
AcDbEntity
8
Geo
100
AcDbLine
10
-90.1638297872341
20
-5.66688032489171
30
0.000000000000000
11
-90.0638297872341
21
-5.67851178668463
31
0.000000000000000
  0
LINE
  5
F1030E
330
F1030F
100
AcDbEntity
8
Geo
100
AcDbLine
10
-90.0638297872341
20
-5.67851178668463
30
0.000000000000000
11
-89.9638297872341
21
-5.68645922566222
31
0.000000000000000
  0
LINE
  5
F10310
330
F10311
100
AcDbEntity
8
Geo
100
AcDbLine
10
-89.9638297872341
20
-5.68645922566222
30
0.000000000000000
11
-89.8638297872341
21
-5.69071086929434
31
0.000000000000000
  0
LINE
  5
F10312
330
F10313
100
AcDbEntity
8
Geo
100
AcDbLine
10
-81.7638297872341
20
-0.691489361702125
30
0.000000000000000
11
-81.6638297872341
21
-0.691501414901619
31
0.000000000000000
  0
LINE
  5
F10314
330
F10315
100
AcDbEntity
8
Geo
100
AcDbLine
10
-81.6638297872341
20
-0.691501414901619
30
0.000000000000000
11
-81.5638297872341
21
-0.693786555007488
31
0.000000000000000
  0
LINE
  5
F10316
330
F10317
100
AcDbEntity
8
Geo
100
AcDbLine
10
-81.5638297872341
20
-0.693786555007488
30
0.000000000000000
11
-81.4638297872341
21
-0.699849347607825
31
0.000000000000000
  0
LINE
  5
F10318
330
F10319
100
AcDbEntity
8
Geo
100
AcDbLine
10
-81.4638297872341
20
-0.699849347607825
30
0.000000000000000
11
-81.3638297872341
21
-0.709436979954751
31
0.000000000000000
  0
LINE
  5
F1031A
330
F1031B
100
AcDbEntity
8
Geo
100
AcDbLine
10
-81.3638297872341
20
-0.709436979954751
30
0.000000000000000
11
-81.2638297872341
21
-0.722297889982922
31
0.000000000000000
  0
LINE
  5
F1031C
330
F1031D
100
AcDbEntity
8
Geo
100
AcDbLine
10
-81.2638297872341
20
-0.722297889982922
30
0.000000000000000
11
-81.1638297872341
21
-0.738182836606747
31
0.000000000000000
  0
LINE
  5
F1031E
330
F1031F
100
AcDbEntity
8
Geo
100
AcDbLine
10
-81.1638297872341
20
-0.738182836606747
30
0.000000000000000
11
-81.0638297872341
21
-0.756845861380058
31
0.000000000000000
  0
LINE
  5
F10320
330
F10321
100
AcDbEntity
8
Geo
100
AcDbLine
10
-81.0638297872341
20
-0.756845861380058
30
0.000000000000000
11
-80.9638297872341
21
-0.778045145317424
31
0.000000000000000
  0
LINE
  5
F10322
330
F10323
100
AcDbEntity
8
Geo
100
AcDbLine
10
-80.9638297872341
20
-0.778045145317424
30
0.000000000000000
11
-80.8638297872341
21
-0.801543765103676
31
0.000000000000000
  0
LINE
  5
F10324
330
F10325
100
AcDbEntity
8
Geo
100
AcDbLine
10
-80.8638297872341
20
-0.801543765103676
30
0.000000000000000
11
-80.7638297872341
21
-0.827110353264183
31
0.000000000000000
  0
LINE
  5
F10326
330
F10327
100
AcDbEntity
8
Geo
100
AcDbLine
10
-80.7638297872341
20
-0.827110353264183
30
0.000000000000000
11
-80.6638297872341
21
-0.854519667139322
31
0.000000000000000
  0
LINE
  5
F10328
330
F10329
100
AcDbEntity
8
Geo
100
AcDbLine
10
-80.6638297872341
20
-0.854519667139322
30
0.000000000000000
11
-80.5638297872341
21
-0.883553071708549
31
0.000000000000000
  0
LINE
  5
F1032A
330
F1032B
100
AcDbEntity
8
Geo
100
AcDbLine
10
-80.5638297872341
20
-0.883553071708549
30
0.000000000000000
11
-80.4638297872341
21
-0.913998941448768
31
0.000000000000000
  0
LINE
  5
F1032C
330
F1032D
100
AcDbEntity
8
Geo
100
AcDbLine
10
-80.4638297872341
20
-0.913998941448768
30
0.000000000000000
11
-80.3638297872341
21
-0.945652986494365
31
0.000000000000000
  0
LINE
  5
F1032E
330
F1032F
100
AcDbEntity
8
Geo
100
AcDbLine
10
-80.3638297872341
20
-0.945652986494365
30
0.000000000000000
11
-80.2638297872341
21
-0.978318508398211
31
0.000000000000000
  0
LINE
  5
F10330
330
F10331
100
AcDbEntity
8
Geo
100
AcDbLine
10
-80.2638297872341
20
-0.978318508398211
30
0.000000000000000
11
-80.1638297872341
21
-1.01180659077982
31
0.000000000000000
  0
LINE
  5
F10332
330
F10333
100
AcDbEntity
8
Geo
100
AcDbLine
10
-80.1638297872341
20
-1.01180659077982
30
0.000000000000000
11
-80.0638297872341
21
-1.04593623009418
31
0.000000000000000
  0
LINE
  5
F10334
330
F10335
100
AcDbEntity
8
Geo
100
AcDbLine
10
-80.0638297872341
20
-1.04593623009418
30
0.000000000000000
11
-79.9638297872341
21
-1.08053441166777
31
0.000000000000000
  0
LINE
  5
F10336
330
F10337
100
AcDbEntity
8
Geo
100
AcDbLine
10
-79.9638297872341
20
-1.08053441166777
30
0.000000000000000
11
-79.8638297872341
21
-1.11543613603140
31
0.000000000000000
  0
LINE
  5
F10338
330
F10339
100
AcDbEntity
8
Geo
100
AcDbLine
10
-79.8638297872341
20
-1.11543613603140
30
0.000000000000000
11
-79.7638297872341
21
-1.15048440043824
31
0.000000000000000
  0
LINE
  5
F1033A
330
F1033B
100
AcDbEntity
8
Geo
100
AcDbLine
10
-79.7638297872341
20
-1.15048440043824
30
0.000000000000000
11
-79.6638297872341
21
-1.18553014029283
31
0.000000000000000
  0
LINE
  5
F1033C
330
F1033D
100
AcDbEntity
8
Geo
100
AcDbLine
10
-79.6638297872341
20
-1.18553014029283
30
0.000000000000000
11
-79.5638297872341
21
-1.22043213503788
31
0.000000000000000
  0
LINE
  5
F1033E
330
F1033F
100
AcDbEntity
8
Geo
100
AcDbLine
10
-79.5638297872341
20
-1.22043213503788
30
0.000000000000000
11
-79.4638297872341
21
-1.25505688285332
31
0.000000000000000
  0
LINE
  5
F10340
330
F10341
100
AcDbEntity
8
Geo
100
AcDbLine
10
-79.4638297872341
20
-1.25505688285332
30
0.000000000000000
11
-79.3638297872341
21
-1.28927844831985
31
0.000000000000000
  0
LINE
  5
F10342
330
F10343
100
AcDbEntity
8
Geo
100
AcDbLine
10
-79.3638297872341
20
-1.28927844831985
30
0.000000000000000
11
-79.2638297872341
21
-1.32297828699011
31
0.000000000000000
  0
LINE
  5
F10344
330
F10345
100
AcDbEntity
8
Geo
100
AcDbLine
10
-79.2638297872341
20
-1.32297828699011
30
0.000000000000000
11
-79.1638297872341
21
-1.35604505059722
31
0.000000000000000
  0
LINE
  5
F10346
330
F10347
100
AcDbEntity
8
Geo
100
AcDbLine
10
-79.1638297872341
20
-1.35604505059722
30
0.000000000000000
11
-79.0638297872341
21
-1.38837437641484
31
0.000000000000000
  0
LINE
  5
F10348
330
F10349
100
AcDbEntity
8
Geo
100
AcDbLine
10
-79.0638297872341
20
-1.38837437641484
30
0.000000000000000
11
-78.9638297872341
21
-1.41986866406804
31
0.000000000000000
  0
LINE
  5
F1034A
330
F1034B
100
AcDbEntity
8
Geo
100
AcDbLine
10
-78.9638297872341
20
-1.41986866406804
30
0.000000000000000
11
-78.8638297872341
21
-1.45043684288084
31
0.000000000000000
  0
LINE
  5
F1034C
330
F1034D
100
AcDbEntity
8
Geo
100
AcDbLine
10
-78.8638297872341
20
-1.45043684288084
30
0.000000000000000
11
-78.7638297872341
21
-1.47999413263666
31
0.000000000000000
  0
LINE
  5
F1034E
330
F1034F
100
AcDbEntity
8
Geo
100
AcDbLine
10
-78.7638297872341
20
-1.47999413263666
30
0.000000000000000
11
-78.6638297872341
21
-1.50846180042299
31
0.000000000000000
  0
LINE
  5
F10350
330
F10351
100
AcDbEntity
8
Geo
100
AcDbLine
10
-78.6638297872341
20
-1.50846180042299
30
0.000000000000000
11
-78.5638297872341
21
-1.53576691603296
31
0.000000000000000
  0
LINE
  5
F10352
330
F10353
100
AcDbEntity
8
Geo
100
AcDbLine
10
-78.5638297872341
20
-1.53576691603296
30
0.000000000000000
11
-78.4638297872341
21
-1.56184210820407
31
0.000000000000000
  0
LINE
  5
F10354
330
F10355
100
AcDbEntity
8
Geo
100
AcDbLine
10
-78.4638297872341
20
-1.56184210820407
30
0.000000000000000
11
-78.3638297872341
21
-1.58662532378999
31
0.000000000000000
  0
LINE
  5
F10356
330
F10357
100
AcDbEntity
8
Geo
100
AcDbLine
10
-78.3638297872341
20
-1.58662532378999
30
0.000000000000000
11
-78.2638297872341
21
-1.61005959178469
31
0.000000000000000
  0
LINE
  5
F10358
330
F10359
100
AcDbEntity
8
Geo
100
AcDbLine
10
-78.2638297872341
20
-1.61005959178469
30
0.000000000000000
11
-78.1638297872341
21
-1.63209279395006
31
0.000000000000000
  0
LINE
  5
F1035A
330
F1035B
100
AcDbEntity
8
Geo
100
AcDbLine
10
-78.1638297872341
20
-1.63209279395006
30
0.000000000000000
11
-78.0638297872341
21
-1.65267744363845
31
0.000000000000000
  0
LINE
  5
F1035C
330
F1035D
100
AcDbEntity
8
Geo
100
AcDbLine
10
-78.0638297872341
20
-1.65267744363845
30
0.000000000000000
11
-77.9638297872341
21
-1.67177047425050
31
0.000000000000000
  0
LINE
  5
F1035E
330
F1035F
100
AcDbEntity
8
Geo
100
AcDbLine
10
-77.9638297872341
20
-1.67177047425050
30
0.000000000000000
11
-77.8638297872341
21
-1.68933303862634
31
0.000000000000000
  0
LINE
  5
F10360
330
F10361
100
AcDbEntity
8
Geo
100
AcDbLine
10
-77.8638297872341
20
-1.68933303862634
30
0.000000000000000
11
-77.7638297872341
21
-1.70533032053406
31
0.000000000000000
  0
LINE
  5
F10362
330
F10363
100
AcDbEntity
8
Geo
100
AcDbLine
10
-77.7638297872341
20
-1.70533032053406
30
0.000000000000000
11
-77.6638297872341
21
-1.71973135929314
31
0.000000000000000
  0
LINE
  5
F10364
330
F10365
100
AcDbEntity
8
Geo
100
AcDbLine
10
-77.6638297872341
20
-1.71973135929314
30
0.000000000000000
11
-77.5638297872341
21
-1.73250888845287
31
0.000000000000000
  0
LINE
  5
F10366
330
F10367
100
AcDbEntity
8
Geo
100
AcDbLine
10
-77.5638297872341
20
-1.73250888845287
30
0.000000000000000
11
-77.4638297872341
21
-1.74363918933411
31
0.000000000000000
  0
LINE
  5
F10368
330
F10369
100
AcDbEntity
8
Geo
100
AcDbLine
10
-77.4638297872341
20
-1.74363918933411
30
0.000000000000000
11
-77.3638297872341
21
-1.75310196013934
31
0.000000000000000
  0
LINE
  5
F1036A
330
F1036B
100
AcDbEntity
8
Geo
100
AcDbLine
10
-77.3638297872341
20
-1.75310196013934
30
0.000000000000000
11
-77.2638297872341
21
-1.76088020123751
31
0.000000000000000
  0
LINE
  5
F1036C
330
F1036D
100
AcDbEntity
8
Geo
100
AcDbLine
10
-77.2638297872341
20
-1.76088020123751
30
0.000000000000000
11
-77.1638297872341
21
-1.76696011713824
31
0.000000000000000
  0
LINE
  5
F1036E
330
F1036F
100
AcDbEntity
8
Geo
100
AcDbLine
10
-77.1638297872341
20
-1.76696011713824
30
0.000000000000000
11
-77.0638297872341
21
-1.77133103558259
31
0.000000000000000
  0
LINE
  5
F10370
330
F10371
100
AcDbEntity
8
Geo
100
AcDbLine
10
-84.9638297872341
20
-0.692203411908114
30
0.000000000000000
11
-84.8638297872341
21
-0.691755398996174
31
0.000000000000000
  0
LINE
  5
F10372
330
F10373
100
AcDbEntity
8
Geo
100
AcDbLine
10
-84.8638297872341
20
-0.691755398996174
30
0.000000000000000
11
-84.7638297872341
21
-0.695010238482478
31
0.000000000000000
  0
LINE
  5
F10374
330
F10375
100
AcDbEntity
8
Geo
100
AcDbLine
10
-84.7638297872341
20
-0.695010238482478
30
0.000000000000000
11
-84.6638297872341
21
-0.701963108977878
31
0.000000000000000
  0
LINE
  5
F10376
330
F10377
100
AcDbEntity
8
Geo
100
AcDbLine
10
-84.6638297872341
20
-0.701963108977878
30
0.000000000000000
11
-84.5638297872341
21
-0.712603711205103
31
0.000000000000000
  0
LINE
  5
F10378
330
F10379
100
AcDbEntity
8
Geo
100
AcDbLine
10
-84.5638297872341
20
-0.712603711205103
30
0.000000000000000
11
-84.4638297872341
21
-0.726916283255060
31
0.000000000000000
  0
LINE
  5
F1037A
330
F1037B
100
AcDbEntity
8
Geo
100
AcDbLine
10
-84.4638297872341
20
-0.726916283255060
30
0.000000000000000
11
-84.3638297872341
21
-0.744879623934929
31
0.000000000000000
  0
LINE
  5
F1037C
330
F1037D
100
AcDbEntity
8
Geo
100
AcDbLine
10
-84.3638297872341
20
-0.744879623934929
30
0.000000000000000
11
-84.2638297872341
21
-0.766467124173462
31
0.000000000000000
  0
LINE
  5
F1037E
330
F1037F
100
AcDbEntity
8
Geo
100
AcDbLine
10
-84.2638297872341
20
-0.766467124173462
30
0.000000000000000
11
-84.1638297872341
21
-0.791646806436960
31
0.000000000000000
  0
LINE
  5
F10380
330
F10381
100
AcDbEntity
8
Geo
100
AcDbLine
10
-84.1638297872341
20
-0.791646806436960
30
0.000000000000000
11
-84.0638297872341
21
-0.820381372097549
31
0.000000000000000
  0
LINE
  5
F10382
330
F10383
100
AcDbEntity
8
Geo
100
AcDbLine
10
-84.0638297872341
20
-0.820381372097549
30
0.000000000000000
11
-83.9638297872341
21
-0.852628256683588
31
0.000000000000000
  0
LINE
  5
F10384
330
F10385
100
AcDbEntity
8
Geo
100
AcDbLine
10
-83.9638297872341
20
-0.852628256683588
30
0.000000000000000
11
-83.8638297872341
21
-0.888339692930357
31
0.000000000000000
  0
LINE
  5
F10386
330
F10387
100
AcDbEntity
8
Geo
100
AcDbLine
10
-83.8638297872341
20
-0.888339692930357
30
0.000000000000000
11
-83.7638297872341
21
-0.927462781537641
31
0.000000000000000
  0
LINE
  5
F10388
330
F10389
100
AcDbEntity
8
Geo
100
AcDbLine
10
-83.7638297872341
20
-0.927462781537641
30
0.000000000000000
11
-83.6638297872341
21
-0.969939569529389
31
0.000000000000000
  0
LINE
  5
F1038A
330
F1038B
100
AcDbEntity
8
Geo
100
AcDbLine
10
-83.6638297872341
20
-0.969939569529389
30
0.000000000000000
11
-83.5638297872341
21
-1.01570713609937
31
0.000000000000000
  0
LINE
  5
F1038C
330
F1038D
100
AcDbEntity
8
Geo
100
AcDbLine
10
-83.5638297872341
20
-1.01570713609937
30
0.000000000000000
11
-83.4638297872341
21
-1.06469768581569
31
0.000000000000000
  0
LINE
  5
F1038E
330
F1038F
100
AcDbEntity
8
Geo
100
AcDbLine
10
-83.4638297872341
20
-1.06469768581569
30
0.000000000000000
11
-83.3638297872341
21
-1.11683864904606
31
0.000000000000000
  0
LINE
  5
F10390
330
F10391
100
AcDbEntity
8
Geo
100
AcDbLine
10
-83.3638297872341
20
-1.11683864904606
30
0.000000000000000
11
-83.2638297872341
21
-1.17205278945507
31
0.000000000000000
  0
LINE
  5
F10392
330
F10393
100
AcDbEntity
8
Geo
100
AcDbLine
10
-83.2638297872341
20
-1.17205278945507
30
0.000000000000000
11
-83.1638297872341
21
-1.23025831841431
31
0.000000000000000
  0
LINE
  5
F10394
330
F10395
100
AcDbEntity
8
Geo
100
AcDbLine
10
-83.1638297872341
20
-1.23025831841431
30
0.000000000000000
11
-83.0638297872341
21
-1.29136901615570
31
0.000000000000000
  0
LINE
  5
F10396
330
F10397
100
AcDbEntity
8
Geo
100
AcDbLine
10
-83.0638297872341
20
-1.29136901615570
30
0.000000000000000
11
-82.9638297872341
21
-1.35529435948875
31
0.000000000000000
  0
LINE
  5
F10398
330
F10399
100
AcDbEntity
8
Geo
100
AcDbLine
10
-82.9638297872341
20
-1.35529435948875
30
0.000000000000000
11
-82.8638297872341
21
-1.42193965589242
31
0.000000000000000
  0
LINE
  5
F1039A
330
F1039B
100
AcDbEntity
8
Geo
100
AcDbLine
10
-82.8638297872341
20
-1.42193965589242
30
0.000000000000000
11
-82.7638297872341
21
-1.49120618378301
31
0.000000000000000
  0
LINE
  5
F1039C
330
F1039D
100
AcDbEntity
8
Geo
100
AcDbLine
10
-82.7638297872341
20
-1.49120618378301
30
0.000000000000000
11
-82.6638297872341
21
-1.56299133875031
31
0.000000000000000
  0
LINE
  5
F1039E
330
F1039F
100
AcDbEntity
8
Geo
100
AcDbLine
10
-82.6638297872341
20
-1.56299133875031
30
0.000000000000000
11
-82.5638297872341
21
-1.63718878554538
31
0.000000000000000
  0
LINE
  5
F103A0
330
F103A1
100
AcDbEntity
8
Geo
100
AcDbLine
10
-82.5638297872341
20
-1.63718878554538
30
0.000000000000000
11
-82.4638297872341
21
-1.71368861559478
31
0.000000000000000
  0
LINE
  5
F103A2
330
F103A3
100
AcDbEntity
8
Geo
100
AcDbLine
10
-82.4638297872341
20
-1.71368861559478
30
0.000000000000000
11
-82.3638297872341
21
-1.79237750980800
31
0.000000000000000
  0
LINE
  5
F103A4
330
F103A5
100
AcDbEntity
8
Geo
100
AcDbLine
10
-82.3638297872341
20
-1.79237750980800
30
0.000000000000000
11
-82.2638297872341
21
-1.87313890643687
31
0.000000000000000
  0
LINE
  5
F103A6
330
F103A7
100
AcDbEntity
8
Geo
100
AcDbLine
10
-82.2638297872341
20
-1.87313890643687
30
0.000000000000000
11
-82.1638297872341
21
-1.95585317373832
31
0.000000000000000
  0
LINE
  5
F103A8
330
F103A9
100
AcDbEntity
8
Geo
100
AcDbLine
10
-82.1638297872341
20
-1.95585317373832
30
0.000000000000000
11
-82.0638297872341
21
-2.04039778718470
31
0.000000000000000
  0
LINE
  5
F103AA
330
F103AB
100
AcDbEntity
8
Geo
100
AcDbLine
10
-82.0638297872341
20
-2.04039778718470
30
0.000000000000000
11
-81.9638297872341
21
-2.02978018889391
31
0.000000000000000
  0
LINE
  5
F103AC
330
F103AD
100
AcDbEntity
8
Geo
100
AcDbLine
10
-81.9638297872341
20
-2.02978018889391
30
0.000000000000000
11
-81.8638297872341
21
-2.01939447672863
31
0.000000000000000
  0
LINE
  5
F103AE
330
F103AF
100
AcDbEntity
8
Geo
100
AcDbLine
10
-81.8638297872341
20
-2.01939447672863
30
0.000000000000000
11
-81.7638297872341
21
-2.00923935165965
31
0.000000000000000
  0
LINE
  5
F103B0
330
F103B1
100
AcDbEntity
8
Geo
100
AcDbLine
10
-81.7638297872341
20
-2.00923935165965
30
0.000000000000000
11
-81.6638297872341
21
-1.99931351784081
31
0.000000000000000
  0
LINE
  5
F103B2
330
F103B3
100
AcDbEntity
8
Geo
100
AcDbLine
10
-81.6638297872341
20
-1.99931351784081
30
0.000000000000000
11
-81.5638297872341
21
-1.98961568402712
31
0.000000000000000
  0
LINE
  5
F103B4
330
F103B5
100
AcDbEntity
8
Geo
100
AcDbLine
10
-81.5638297872341
20
-1.98961568402712
30
0.000000000000000
11
-81.4638297872341
21
-1.98014456495809
31
0.000000000000000
  0
LINE
  5
F103B6
330
F103B7
100
AcDbEntity
8
Geo
100
AcDbLine
10
-81.4638297872341
20
-1.98014456495809
30
0.000000000000000
11
-81.3638297872341
21
-1.97089888270663
31
0.000000000000000
  0
LINE
  5
F103B8
330
F103B9
100
AcDbEntity
8
Geo
100
AcDbLine
10
-81.3638297872341
20
-1.97089888270663
30
0.000000000000000
11
-81.2638297872341
21
-1.96187736799371
31
0.000000000000000
  0
LINE
  5
F103BA
330
F103BB
100
AcDbEntity
8
Geo
100
AcDbLine
10
-81.2638297872341
20
-1.96187736799371
30
0.000000000000000
11
-81.1638297872341
21
-1.95307876146912
31
0.000000000000000
  0
LINE
  5
F103BC
330
F103BD
100
AcDbEntity
8
Geo
100
AcDbLine
10
-81.1638297872341
20
-1.95307876146912
30
0.000000000000000
11
-81.0638297872341
21
-1.94450181495857
31
0.000000000000000
  0
LINE
  5
F103BE
330
F103BF
100
AcDbEntity
8
Geo
100
AcDbLine
10
-81.0638297872341
20
-1.94450181495857
30
0.000000000000000
11
-80.9638297872341
21
-1.93614529267744
31
0.000000000000000
  0
LINE
  5
F103C0
330
F103C1
100
AcDbEntity
8
Geo
100
AcDbLine
10
-80.9638297872341
20
-1.93614529267744
30
0.000000000000000
11
-80.8638297872341
21
-1.92800797241143
31
0.000000000000000
  0
LINE
  5
F103C2
330
F103C3
100
AcDbEntity
8
Geo
100
AcDbLine
10
-80.8638297872341
20
-1.92800797241143
30
0.000000000000000
11
-80.7638297872341
21
-1.92008864666449
31
0.000000000000000
  0
LINE
  5
F103C4
330
F103C5
100
AcDbEntity
8
Geo
100
AcDbLine
10
-80.7638297872341
20
-1.92008864666449
30
0.000000000000000
11
-80.6638297872341
21
-1.91238612377414
31
0.000000000000000
  0
LINE
  5
F103C6
330
F103C7
100
AcDbEntity
8
Geo
100
AcDbLine
10
-80.6638297872341
20
-1.91238612377414
30
0.000000000000000
11
-80.5638297872341
21
-1.90489922899469
31
0.000000000000000
  0
LINE
  5
F103C8
330
F103C9
100
AcDbEntity
8
Geo
100
AcDbLine
10
-80.5638297872341
20
-1.90489922899469
30
0.000000000000000
11
-80.4638297872341
21
-1.89762680554856
31
0.000000000000000
  0
LINE
  5
F103CA
330
F103CB
100
AcDbEntity
8
Geo
100
AcDbLine
10
-80.4638297872341
20
-1.89762680554856
30
0.000000000000000
11
-80.3638297872341
21
-1.89056771564589
31
0.000000000000000
  0
LINE
  5
F103CC
330
F103CD
100
AcDbEntity
8
Geo
100
AcDbLine
10
-80.3638297872341
20
-1.89056771564589
30
0.000000000000000
11
-80.2638297872341
21
-1.88372084147294
31
0.000000000000000
  0
LINE
  5
F103CE
330
F103CF
100
AcDbEntity
8
Geo
100
AcDbLine
10
-80.2638297872341
20
-1.88372084147294
30
0.000000000000000
11
-80.1638297872341
21
-1.87708508614939
31
0.000000000000000
  0
LINE
  5
F103D0
330
F103D1
100
AcDbEntity
8
Geo
100
AcDbLine
10
-80.1638297872341
20
-1.87708508614939
30
0.000000000000000
11
-80.0638297872341
21
-1.87065937465492
31
0.000000000000000
  0
LINE
  5
F103D2
330
F103D3
100
AcDbEntity
8
Geo
100
AcDbLine
10
-80.0638297872341
20
-1.87065937465492
30
0.000000000000000
11
-79.9638297872341
21
-1.86444265472540
31
0.000000000000000
  0
LINE
  5
F103D4
330
F103D5
100
AcDbEntity
8
Geo
100
AcDbLine
10
-79.9638297872341
20
-1.86444265472540
30
0.000000000000000
11
-79.8638297872341
21
-1.85843389771882
31
0.000000000000000
  0
LINE
  5
F103D6
330
F103D7
100
AcDbEntity
8
Geo
100
AcDbLine
10
-79.8638297872341
20
-1.85843389771882
30
0.000000000000000
11
-79.7638297872341
21
-1.85263209945138
31
0.000000000000000
  0
LINE
  5
F103D8
330
F103D9
100
AcDbEntity
8
Geo
100
AcDbLine
10
-79.7638297872341
20
-1.85263209945138
30
0.000000000000000
11
-79.6638297872341
21
-1.84703628100404
31
0.000000000000000
  0
LINE
  5
F103DA
330
F103DB
100
AcDbEntity
8
Geo
100
AcDbLine
10
-79.6638297872341
20
-1.84703628100404
30
0.000000000000000
11
-79.5638297872341
21
-1.84164548949961
31
0.000000000000000
  0
LINE
  5
F103DC
330
F103DD
100
AcDbEntity
8
Geo
100
AcDbLine
10
-79.5638297872341
20
-1.84164548949961
30
0.000000000000000
11
-79.4638297872341
21
-1.83645879885090
31
0.000000000000000
  0
LINE
  5
F103DE
330
F103DF
100
AcDbEntity
8
Geo
100
AcDbLine
10
-79.4638297872341
20
-1.83645879885090
30
0.000000000000000
11
-79.3638297872341
21
-1.83147531048001
31
0.000000000000000
  0
LINE
  5
F103E0
330
F103E1
100
AcDbEntity
8
Geo
100
AcDbLine
10
-79.3638297872341
20
-1.83147531048001
30
0.000000000000000
11
-79.2638297872341
21
-1.82669415400910
31
0.000000000000000
  0
LINE
  5
F103E2
330
F103E3
100
AcDbEntity
8
Geo
100
AcDbLine
10
-79.2638297872341
20
-1.82669415400910
30
0.000000000000000
11
-79.1638297872341
21
-1.82211448792284
31
0.000000000000000
  0
LINE
  5
F103E4
330
F103E5
100
AcDbEntity
8
Geo
100
AcDbLine
10
-79.1638297872341
20
-1.82211448792284
30
0.000000000000000
11
-79.0638297872341
21
-1.81773550020291
31
0.000000000000000
  0
LINE
  5
F103E6
330
F103E7
100
AcDbEntity
8
Geo
100
AcDbLine
10
-79.0638297872341
20
-1.81773550020291
30
0.000000000000000
11
-78.9638297872341
21
-1.81355640893455
31
0.000000000000000
  0
LINE
  5
F103E8
330
F103E9
100
AcDbEntity
8
Geo
100
AcDbLine
10
-78.9638297872341
20
-1.81355640893455
30
0.000000000000000
11
-78.8638297872341
21
-1.80957646288573
31
0.000000000000000
  0
LINE
  5
F103EA
330
F103EB
100
AcDbEntity
8
Geo
100
AcDbLine
10
-78.8638297872341
20
-1.80957646288573
30
0.000000000000000
11
-78.7638297872341
21
-1.80579494205878
31
0.000000000000000
  0
LINE
  5
F103EC
330
F103ED
100
AcDbEntity
8
Geo
100
AcDbLine
10
-78.7638297872341
20
-1.80579494205878
30
0.000000000000000
11
-78.6638297872341
21
-1.80221115821503
31
0.000000000000000
  0
LINE
  5
F103EE
330
F103EF
100
AcDbEntity
8
Geo
100
AcDbLine
10
-78.6638297872341
20
-1.80221115821503
30
0.000000000000000
11
-78.5638297872341
21
-1.79882445537249
31
0.000000000000000
  0
LINE
  5
F103F0
330
F103F1
100
AcDbEntity
8
Geo
100
AcDbLine
10
-78.5638297872341
20
-1.79882445537249
30
0.000000000000000
11
-78.4638297872341
21
-1.79563421027680
31
0.000000000000000
  0
LINE
  5
F103F2
330
F103F3
100
AcDbEntity
8
Geo
100
AcDbLine
10
-78.4638297872341
20
-1.79563421027680
30
0.000000000000000
11
-78.3638297872341
21
-1.79263983284562
31
0.000000000000000
  0
LINE
  5
F103F4
330
F103F5
100
AcDbEntity
8
Geo
100
AcDbLine
10
-78.3638297872341
20
-1.79263983284562
30
0.000000000000000
11
-78.2638297872341
21
-1.78984076658678
31
0.000000000000000
  0
LINE
  5
F103F6
330
F103F7
100
AcDbEntity
8
Geo
100
AcDbLine
10
-78.2638297872341
20
-1.78984076658678
30
0.000000000000000
11
-78.1638297872341
21
-1.78723648899017
31
0.000000000000000
  0
LINE
  5
F103F8
330
F103F9
100
AcDbEntity
8
Geo
100
AcDbLine
10
-78.1638297872341
20
-1.78723648899017
30
0.000000000000000
11
-78.0638297872341
21
-1.78482651189361
31
0.000000000000000
  0
LINE
  5
F103FA
330
F103FB
100
AcDbEntity
8
Geo
100
AcDbLine
10
-78.0638297872341
20
-1.78482651189361
30
0.000000000000000
11
-77.9638297872341
21
-1.78261038182298
31
0.000000000000000
  0
LINE
  5
F103FC
330
F103FD
100
AcDbEntity
8
Geo
100
AcDbLine
10
-77.9638297872341
20
-1.78261038182298
30
0.000000000000000
11
-77.8638297872341
21
-1.78058768030649
31
0.000000000000000
  0
LINE
  5
F103FE
330
F103FF
100
AcDbEntity
8
Geo
100
AcDbLine
10
-77.8638297872341
20
-1.78058768030649
30
0.000000000000000
11
-77.7638297872341
21
-1.77875802416355
31
0.000000000000000
  0
LINE
  5
F10400
330
F10401
100
AcDbEntity
8
Geo
100
AcDbLine
10
-77.7638297872341
20
-1.77875802416355
30
0.000000000000000
11
-77.6638297872341
21
-1.77712106576801
31
0.000000000000000
  0
LINE
  5
F10402
330
F10403
100
AcDbEntity
8
Geo
100
AcDbLine
10
-77.6638297872341
20
-1.77712106576801
30
0.000000000000000
11
-77.5638297872341
21
-1.77567649328626
31
0.000000000000000
  0
LINE
  5
F10404
330
F10405
100
AcDbEntity
8
Geo
100
AcDbLine
10
-77.5638297872341
20
-1.77567649328626
30
0.000000000000000
11
-77.4638297872341
21
-1.77442403088991
31
0.000000000000000
  0
LINE
  5
F10406
330
F10407
100
AcDbEntity
8
Geo
100
AcDbLine
10
-77.4638297872341
20
-1.77442403088991
30
0.000000000000000
11
-77.3638297872341
21
-1.77336343894350
31
0.000000000000000
  0
LINE
  5
F10408
330
F10409
100
AcDbEntity
8
Geo
100
AcDbLine
10
-77.3638297872341
20
-1.77336343894350
30
0.000000000000000
11
-77.2638297872341
21
-1.77249451416708
31
0.000000000000000
  0
LINE
  5
F1040A
330
F1040B
100
AcDbEntity
8
Geo
100
AcDbLine
10
-77.2638297872341
20
-1.77249451416708
30
0.000000000000000
11
-77.1638297872341
21
-1.77181708977379
31
0.000000000000000
  0
LINE
  5
F1040C
330
F1040D
100
AcDbEntity
8
Geo
100
AcDbLine
10
-77.1638297872341
20
-1.77181708977379
30
0.000000000000000
11
-77.0638297872341
21
-1.77133103558259
31
0.000000000000000
  0
LINE
  5
F1040E
330
F1040F
100
AcDbEntity
8
Geo
100
AcDbLine
10
-85.7638297872341
20
-0.691879287822354
30
0.000000000000000
11
-85.6638297872341
21
-0.692031595943691
31
0.000000000000000
  0
LINE
  5
F10410
330
F10411
100
AcDbEntity
8
Geo
100
AcDbLine
10
-85.6638297872341
20
-0.692031595943691
30
0.000000000000000
11
-85.5638297872341
21
-0.695886347333122
31
0.000000000000000
  0
LINE
  5
F10412
330
F10413
100
AcDbEntity
8
Geo
100
AcDbLine
10
-85.5638297872341
20
-0.695886347333122
30
0.000000000000000
11
-85.4638297872341
21
-0.703437831952844
31
0.000000000000000
  0
LINE
  5
F10414
330
F10415
100
AcDbEntity
8
Geo
100
AcDbLine
10
-85.4638297872341
20
-0.703437831952844
30
0.000000000000000
11
-85.3638297872341
21
-0.714674863799325
31
0.000000000000000
  0
LINE
  5
F10416
330
F10417
100
AcDbEntity
8
Geo
100
AcDbLine
10
-85.3638297872341
20
-0.714674863799325
30
0.000000000000000
11
-85.2638297872341
21
-0.729580797473116
31
0.000000000000000
  0
LINE
  5
F10418
330
F10419
100
AcDbEntity
8
Geo
100
AcDbLine
10
-85.2638297872341
20
-0.729580797473116
30
0.000000000000000
11
-85.1638297872341
21
-0.748133552835661
31
0.000000000000000
  0
LINE
  5
F1041A
330
F1041B
100
AcDbEntity
8
Geo
100
AcDbLine
10
-85.1638297872341
20
-0.748133552835661
30
0.000000000000000
11
-85.0638297872341
21
-0.770305647716572
31
0.000000000000000
  0
LINE
  5
F1041C
330
F1041D
100
AcDbEntity
8
Geo
100
AcDbLine
10
-85.0638297872341
20
-0.770305647716572
30
0.000000000000000
11
-84.9638297872341
21
-0.796064238622931
31
0.000000000000000
  0
LINE
  5
F1041E
330
F1041F
100
AcDbEntity
8
Geo
100
AcDbLine
10
-84.9638297872341
20
-0.796064238622931
30
0.000000000000000
11
-84.8638297872341
21
-0.825371169390306
31
0.000000000000000
  0
LINE
  5
F10420
330
F10421
100
AcDbEntity
8
Geo
100
AcDbLine
10
-84.8638297872341
20
-0.825371169390306
30
0.000000000000000
11
-84.7638297872341
21
-0.858183027703428
31
0.000000000000000
  0
LINE
  5
F10422
330
F10423
100
AcDbEntity
8
Geo
100
AcDbLine
10
-84.7638297872341
20
-0.858183027703428
30
0.000000000000000
11
-84.6638297872341
21
-0.894451209402793
31
0.000000000000000
  0
LINE
  5
F10424
330
F10425
100
AcDbEntity
8
Geo
100
AcDbLine
10
-84.6638297872341
20
-0.894451209402793
30
0.000000000000000
11
-84.5638297872341
21
-0.934121990481929
31
0.000000000000000
  0
LINE
  5
F10426
330
F10427
100
AcDbEntity
8
Geo
100
AcDbLine
10
-84.5638297872341
20
-0.934121990481929
30
0.000000000000000
11
-84.4638297872341
21
-0.977136606668698
31
0.000000000000000
  0
LINE
  5
F10428
330
F10429
100
AcDbEntity
8
Geo
100
AcDbLine
10
-84.4638297872341
20
-0.977136606668698
30
0.000000000000000
11
-84.3638297872341
21
-1.02343134047273
31
0.000000000000000
  0
LINE
  5
F1042A
330
F1042B
100
AcDbEntity
8
Geo
100
AcDbLine
10
-84.3638297872341
20
-1.02343134047273
30
0.000000000000000
11
-84.2638297872341
21
-1.07293761557003
31
0.000000000000000
  0
LINE
  5
F1042C
330
F1042D
100
AcDbEntity
8
Geo
100
AcDbLine
10
-84.2638297872341
20
-1.07293761557003
30
0.000000000000000
11
-84.1638297872341
21
-1.12558209838504
31
0.000000000000000
  0
LINE
  5
F1042E
330
F1042F
100
AcDbEntity
8
Geo
100
AcDbLine
10
-84.1638297872341
20
-1.12558209838504
30
0.000000000000000
11
-84.0638297872341
21
-1.18128680671951
31
0.000000000000000
  0
LINE
  5
F10430
330
F10431
100
AcDbEntity
8
Geo
100
AcDbLine
10
-84.0638297872341
20
-1.18128680671951
30
0.000000000000000
11
-83.9638297872341
21
-1.23996922526743
31
0.000000000000000
  0
LINE
  5
F10432
330
F10433
100
AcDbEntity
8
Geo
100
AcDbLine
10
-83.9638297872341
20
-1.23996922526743
30
0.000000000000000
11
-83.8638297872341
21
-1.30154242784486
31
0.000000000000000
  0
LINE
  5
F10434
330
F10435
100
AcDbEntity
8
Geo
100
AcDbLine
10
-83.8638297872341
20
-1.30154242784486
30
0.000000000000000
11
-83.7638297872341
21
-1.36591520615355
31
0.000000000000000
  0
LINE
  5
F10436
330
F10437
100
AcDbEntity
8
Geo
100
AcDbLine
10
-83.7638297872341
20
-1.36591520615355
30
0.000000000000000
11
-83.6638297872341
21
-1.43299220488765
31
0.000000000000000
  0
LINE
  5
F10438
330
F10439
100
AcDbEntity
8
Geo
100
AcDbLine
10
-83.6638297872341
20
-1.43299220488765
30
0.000000000000000
11
-83.5638297872341
21
-1.50267406298340
31
0.000000000000000
  0
LINE
  5
F1043A
330
F1043B
100
AcDbEntity
8
Geo
100
AcDbLine
10
-83.5638297872341
20
-1.50267406298340
30
0.000000000000000
11
-83.4638297872341
21
-1.57485756080257
31
0.000000000000000
  0
LINE
  5
F1043C
330
F1043D
100
AcDbEntity
8
Geo
100
AcDbLine
10
-83.4638297872341
20
-1.57485756080257
30
0.000000000000000
11
-83.3638297872341
21
-1.64943577303149
31
0.000000000000000
  0
LINE
  5
F1043E
330
F1043F
100
AcDbEntity
8
Geo
100
AcDbLine
10
-83.3638297872341
20
-1.64943577303149
30
0.000000000000000
11
-83.2638297872341
21
-1.72629822706942
31
0.000000000000000
  0
LINE
  5
F10440
330
F10441
100
AcDbEntity
8
Geo
100
AcDbLine
10
-83.2638297872341
20
-1.72629822706942
30
0.000000000000000
11
-83.1638297872341
21
-1.80533106667145
31
0.000000000000000
  0
LINE
  5
F10442
330
F10443
100
AcDbEntity
8
Geo
100
AcDbLine
10
-83.1638297872341
20
-1.80533106667145
30
0.000000000000000
11
-83.0638297872341
21
-1.88641722060361
31
0.000000000000000
  0
LINE
  5
F10444
330
F10445
100
AcDbEntity
8
Geo
100
AcDbLine
10
-83.0638297872341
20
-1.88641722060361
30
0.000000000000000
11
-82.9638297872341
21
-1.96943657606026
31
0.000000000000000
  0
LINE
  5
F10446
330
F10447
100
AcDbEntity
8
Geo
100
AcDbLine
10
-82.9638297872341
20
-1.96943657606026
30
0.000000000000000
11
-82.8638297872341
21
-2.05426615658710
31
0.000000000000000
  0
LINE
  5
F10448
330
F10449
100
AcDbEntity
8
Geo
100
AcDbLine
10
-82.8638297872341
20
-2.05426615658710
30
0.000000000000000
11
-82.7638297872341
21
-2.14078030424597
31
0.000000000000000
  0
LINE
  5
F1044A
330
F1044B
100
AcDbEntity
8
Geo
100
AcDbLine
10
-82.7638297872341
20
-2.14078030424597
30
0.000000000000000
11
-82.6638297872341
21
-2.22885086575180
31
0.000000000000000
  0
LINE
  5
F1044C
330
F1044D
100
AcDbEntity
8
Geo
100
AcDbLine
10
-82.6638297872341
20
-2.22885086575180
30
0.000000000000000
11
-82.5638297872341
21
-2.31834738230586
31
0.000000000000000
  0
LINE
  5
F1044E
330
F1044F
100
AcDbEntity
8
Geo
100
AcDbLine
10
-82.5638297872341
20
-2.31834738230586
30
0.000000000000000
11
-82.4638297872341
21
-2.40913728284424
31
0.000000000000000
  0
LINE
  5
F10450
330
F10451
100
AcDbEntity
8
Geo
100
AcDbLine
10
-82.4638297872341
20
-2.40913728284424
30
0.000000000000000
11
-82.3638297872341
21
-2.50108608041514
31
0.000000000000000
  0
LINE
  5
F10452
330
F10453
100
AcDbEntity
8
Geo
100
AcDbLine
10
-82.3638297872341
20
-2.50108608041514
30
0.000000000000000
11
-82.2638297872341
21
-2.59405757139423
31
0.000000000000000
  0
LINE
  5
F10454
330
F10455
100
AcDbEntity
8
Geo
100
AcDbLine
10
-82.2638297872341
20
-2.59405757139423
30
0.000000000000000
11
-82.1638297872341
21
-2.68791403724285
31
0.000000000000000
  0
LINE
  5
F10456
330
F10457
100
AcDbEntity
8
Geo
100
AcDbLine
10
-82.1638297872341
20
-2.68791403724285
30
0.000000000000000
11
-82.0638297872341
21
-2.78251644851036
31
0.000000000000000
  0
LINE
  5
F10458
330
F10459
100
AcDbEntity
8
Geo
100
AcDbLine
10
-82.0638297872341
20
-2.78251644851036
30
0.000000000000000
11
-81.9638297872341
21
-2.88919392860261
31
0.000000000000000
  0
LINE
  5
F1045A
330
F1045B
100
AcDbEntity
8
Geo
100
AcDbLine
10
-81.9638297872341
20
-2.88919392860261
30
0.000000000000000
11
-81.8638297872341
21
-2.99434847764065
31
0.000000000000000
  0
LINE
  5
F1045C
330
F1045D
100
AcDbEntity
8
Geo
100
AcDbLine
10
-81.8638297872341
20
-2.99434847764065
30
0.000000000000000
11
-81.7638297872341
21
-3.09776559002343
31
0.000000000000000
  0
LINE
  5
F1045E
330
F1045F
100
AcDbEntity
8
Geo
100
AcDbLine
10
-81.7638297872341
20
-3.09776559002343
30
0.000000000000000
11
-81.6638297872341
21
-3.19925247011252
31
0.000000000000000
  0
LINE
  5
F10460
330
F10461
100
AcDbEntity
8
Geo
100
AcDbLine
10
-81.6638297872341
20
-3.19925247011252
30
0.000000000000000
11
-81.5638297872341
21
-3.29863734082323
31
0.000000000000000
  0
LINE
  5
F10462
330
F10463
100
AcDbEntity
8
Geo
100
AcDbLine
10
-81.5638297872341
20
-3.29863734082323
30
0.000000000000000
11
-81.4638297872341
21
-3.39576868068513
31
0.000000000000000
  0
LINE
  5
F10464
330
F10465
100
AcDbEntity
8
Geo
100
AcDbLine
10
-81.4638297872341
20
-3.39576868068513
30
0.000000000000000
11
-81.3638297872341
21
-3.49051440122589
31
0.000000000000000
  0
LINE
  5
F10466
330
F10467
100
AcDbEntity
8
Geo
100
AcDbLine
10
-81.3638297872341
20
-3.49051440122589
30
0.000000000000000
11
-81.2638297872341
21
-3.58276097578774
31
0.000000000000000
  0
LINE
  5
F10468
330
F10469
100
AcDbEntity
8
Geo
100
AcDbLine
10
-81.2638297872341
20
-3.58276097578774
30
0.000000000000000
11
-81.1638297872341
21
-3.67241253012350
31
0.000000000000000
  0
LINE
  5
F1046A
330
F1046B
100
AcDbEntity
8
Geo
100
AcDbLine
10
-81.1638297872341
20
-3.67241253012350
30
0.000000000000000
11
-81.0638297872341
21
-3.75938990434980
31
0.000000000000000
  0
LINE
  5
F1046C
330
F1046D
100
AcDbEntity
8
Geo
100
AcDbLine
10
-81.0638297872341
20
-3.75938990434980
30
0.000000000000000
11
-80.9638297872341
21
-3.84362969506546
31
0.000000000000000
  0
LINE
  5
F1046E
330
F1046F
100
AcDbEntity
8
Geo
100
AcDbLine
10
-80.9638297872341
20
-3.84362969506546
30
0.000000000000000
11
-80.8638297872341
21
-3.92508328568166
31
0.000000000000000
  0
LINE
  5
F10470
330
F10471
100
AcDbEntity
8
Geo
100
AcDbLine
10
-80.8638297872341
20
-3.92508328568166
30
0.000000000000000
11
-80.7638297872341
21
-4.00371587226308
31
0.000000000000000
  0
LINE
  5
F10472
330
F10473
100
AcDbEntity
8
Geo
100
AcDbLine
10
-80.7638297872341
20
-4.00371587226308
30
0.000000000000000
11
-80.6638297872341
21
-4.07950549145150
31
0.000000000000000
  0
LINE
  5
F10474
330
F10475
100
AcDbEntity
8
Geo
100
AcDbLine
10
-80.6638297872341
20
-4.07950549145150
30
0.000000000000000
11
-80.5638297872341
21
-4.15244205633943
31
0.000000000000000
  0
LINE
  5
F10476
330
F10477
100
AcDbEntity
8
Geo
100
AcDbLine
10
-80.5638297872341
20
-4.15244205633943
30
0.000000000000000
11
-80.4638297872341
21
-4.22252640548581
31
0.000000000000000
  0
LINE
  5
F10478
330
F10479
100
AcDbEntity
8
Geo
100
AcDbLine
10
-80.4638297872341
20
-4.22252640548581
30
0.000000000000000
11
-80.3638297872341
21
-4.28976936962073
31
0.000000000000000
  0
LINE
  5
F1047A
330
F1047B
100
AcDbEntity
8
Geo
100
AcDbLine
10
-80.3638297872341
20
-4.28976936962073
30
0.000000000000000
11
-80.2638297872341
21
-4.35419085997502
31
0.000000000000000
  0
LINE
  5
F1047C
330
F1047D
100
AcDbEntity
8
Geo
100
AcDbLine
10
-80.2638297872341
20
-4.35419085997502
30
0.000000000000000
11
-80.1638297872341
21
-4.41581898159395
31
0.000000000000000
  0
LINE
  5
F1047E
330
F1047F
100
AcDbEntity
8
Geo
100
AcDbLine
10
-80.1638297872341
20
-4.41581898159395
30
0.000000000000000
11
-80.0638297872341
21
-4.47468917445436
31
0.000000000000000
  0
LINE
  5
F10480
330
F10481
100
AcDbEntity
8
Geo
100
AcDbLine
10
-80.0638297872341
20
-4.47468917445436
30
0.000000000000000
11
-79.9638297872341
21
-4.53084338470183
31
0.000000000000000
  0
LINE
  5
F10482
330
F10483
100
AcDbEntity
8
Geo
100
AcDbLine
10
-79.9638297872341
20
-4.53084338470183
30
0.000000000000000
11
-79.8638297872341
21
-4.58432926785868
31
0.000000000000000
  0
LINE
  5
F10484
330
F10485
100
AcDbEntity
8
Geo
100
AcDbLine
10
-79.8638297872341
20
-4.58432926785868
30
0.000000000000000
11
-79.7638297872341
21
-4.63519942542552
31
0.000000000000000
  0
LINE
  5
F10486
330
F10487
100
AcDbEntity
8
Geo
100
AcDbLine
10
-79.7638297872341
20
-4.63519942542552
30
0.000000000000000
11
-79.6638297872341
21
-4.68351067590747
31
0.000000000000000
  0
LINE
  5
F10488
330
F10489
100
AcDbEntity
8
Geo
100
AcDbLine
10
-79.6638297872341
20
-4.68351067590747
30
0.000000000000000
11
-79.5638297872341
21
-4.72932336094089
31
0.000000000000000
  0
LINE
  5
F1048A
330
F1048B
100
AcDbEntity
8
Geo
100
AcDbLine
10
-79.5638297872341
20
-4.72932336094089
30
0.000000000000000
11
-79.4638297872341
21
-4.77270068687644
31
0.000000000000000
  0
LINE
  5
F1048C
330
F1048D
100
AcDbEntity
8
Geo
100
AcDbLine
10
-79.4638297872341
20
-4.77270068687644
30
0.000000000000000
11
-79.3638297872341
21
-4.81370810188773
31
0.000000000000000
  0
LINE
  5
F1048E
330
F1048F
100
AcDbEntity
8
Geo
100
AcDbLine
10
-79.3638297872341
20
-4.81370810188773
30
0.000000000000000
11
-79.2638297872341
21
-4.85241270842183
31
0.000000000000000
  0
LINE
  5
F10490
330
F10491
100
AcDbEntity
8
Geo
100
AcDbLine
10
-79.2638297872341
20
-4.85241270842183
30
0.000000000000000
11
-79.1638297872341
21
-4.88888271058525
31
0.000000000000000
  0
LINE
  5
F10492
330
F10493
100
AcDbEntity
8
Geo
100
AcDbLine
10
-79.1638297872341
20
-4.88888271058525
30
0.000000000000000
11
-79.0638297872341
21
-4.92318689586692
31
0.000000000000000
  0
LINE
  5
F10494
330
F10495
100
AcDbEntity
8
Geo
100
AcDbLine
10
-79.0638297872341
20
-4.92318689586692
30
0.000000000000000
11
-78.9638297872341
21
-4.95539415043493
31
0.000000000000000
  0
LINE
  5
F10496
330
F10497
100
AcDbEntity
8
Geo
100
AcDbLine
10
-78.9638297872341
20
-4.95539415043493
30
0.000000000000000
11
-78.8638297872341
21
-4.98557300710612
31
0.000000000000000
  0
LINE
  5
F10498
330
F10499
100
AcDbEntity
8
Geo
100
AcDbLine
10
-78.8638297872341
20
-4.98557300710612
30
0.000000000000000
11
-78.7638297872341
21
-5.01379122497456
31
0.000000000000000
  0
LINE
  5
F1049A
330
F1049B
100
AcDbEntity
8
Geo
100
AcDbLine
10
-78.7638297872341
20
-5.01379122497456
30
0.000000000000000
11
-78.6638297872341
21
-5.04011539959481
31
0.000000000000000
  0
LINE
  5
F1049C
330
F1049D
100
AcDbEntity
8
Geo
100
AcDbLine
10
-78.6638297872341
20
-5.04011539959481
30
0.000000000000000
11
-78.5638297872341
21
-5.06461060254783
31
0.000000000000000
  0
LINE
  5
F1049E
330
F1049F
100
AcDbEntity
8
Geo
100
AcDbLine
10
-78.5638297872341
20
-5.06461060254783
30
0.000000000000000
11
-78.4638297872341
21
-5.08734004916838
31
0.000000000000000
  0
LINE
  5
F104A0
330
F104A1
100
AcDbEntity
8
Geo
100
AcDbLine
10
-78.4638297872341
20
-5.08734004916838
30
0.000000000000000
11
-78.3638297872341
21
-5.10836479318336
31
0.000000000000000
  0
LINE
  5
F104A2
330
F104A3
100
AcDbEntity
8
Geo
100
AcDbLine
10
-78.3638297872341
20
-5.10836479318336
30
0.000000000000000
11
-78.2638297872341
21
-5.12774344699644
31
0.000000000000000
  0
LINE
  5
F104A4
330
F104A5
100
AcDbEntity
8
Geo
100
AcDbLine
10
-78.2638297872341
20
-5.12774344699644
30
0.000000000000000
11
-78.1638297872341
21
-5.14553192635703
31
0.000000000000000
  0
LINE
  5
F104A6
330
F104A7
100
AcDbEntity
8
Geo
100
AcDbLine
10
-78.1638297872341
20
-5.14553192635703
30
0.000000000000000
11
-78.0638297872341
21
-5.16178321816751
31
0.000000000000000
  0
LINE
  5
F104A8
330
F104A9
100
AcDbEntity
8
Geo
100
AcDbLine
10
-78.0638297872341
20
-5.16178321816751
30
0.000000000000000
11
-77.9638297872341
21
-5.17654717021119
31
0.000000000000000
  0
LINE
  5
F104AA
330
F104AB
100
AcDbEntity
8
Geo
100
AcDbLine
10
-77.9638297872341
20
-5.17654717021119
30
0.000000000000000
11
-77.8638297872341
21
-5.18987030162411
31
0.000000000000000
  0
LINE
  5
F104AC
330
F104AD
100
AcDbEntity
8
Geo
100
AcDbLine
10
-77.8638297872341
20
-5.18987030162411
30
0.000000000000000
11
-77.7638297872341
21
-5.20179563298380
31
0.000000000000000
  0
LINE
  5
F104AE
330
F104AF
100
AcDbEntity
8
Geo
100
AcDbLine
10
-77.7638297872341
20
-5.20179563298380
30
0.000000000000000
11
-77.6638297872341
21
-5.21236253494807
31
0.000000000000000
  0
LINE
  5
F104B0
330
F104B1
100
AcDbEntity
8
Geo
100
AcDbLine
10
-77.6638297872341
20
-5.21236253494807
30
0.000000000000000
11
-77.5638297872341
21
-5.22160659444446
31
0.000000000000000
  0
LINE
  5
F104B2
330
F104B3
100
AcDbEntity
8
Geo
100
AcDbLine
10
-77.5638297872341
20
-5.22160659444446
30
0.000000000000000
11
-77.4638297872341
21
-5.22955949748596
31
0.000000000000000
  0
LINE
  5
F104B4
330
F104B5
100
AcDbEntity
8
Geo
100
AcDbLine
10
-77.4638297872341
20
-5.22955949748596
30
0.000000000000000
11
-77.3638297872341
21
-5.23624892776985
31
0.000000000000000
  0
LINE
  5
F104B6
330
F104B7
100
AcDbEntity
8
Geo
100
AcDbLine
10
-77.3638297872341
20
-5.23624892776985
30
0.000000000000000
11
-77.2638297872341
21
-5.24169848030314
31
0.000000000000000
  0
LINE
  5
F104B8
330
F104B9
100
AcDbEntity
8
Geo
100
AcDbLine
10
-77.2638297872341
20
-5.24169848030314
30
0.000000000000000
11
-77.1638297872341
21
-5.24592758938926
31
0.000000000000000
  0
LINE
  5
F104BA
330
F104BB
100
AcDbEntity
8
Geo
100
AcDbLine
10
-77.1638297872341
20
-5.24592758938926
30
0.000000000000000
11
-77.0638297872341
21
-5.24895147040629
31
0.000000000000000
  0
LINE
  5
F104BC
330
F104BD
100
AcDbEntity
8
Geo
100
AcDbLine
10
-89.0638297872341
20
-0.692705720576726
30
0.000000000000000
11
-88.9638297872341
21
-0.691555871910359
31
0.000000000000000
  0
LINE
  5
F104BE
330
F104BF
100
AcDbEntity
8
Geo
100
AcDbLine
10
-88.9638297872341
20
-0.691555871910359
30
0.000000000000000
11
-88.8638297872341
21
-0.694109171201426
31
0.000000000000000
  0
LINE
  5
F104C0
330
F104C1
100
AcDbEntity
8
Geo
100
AcDbLine
10
-88.8638297872341
20
-0.694109171201426
30
0.000000000000000
11
-88.7638297872341
21
-0.700361836251285
31
0.000000000000000
  0
LINE
  5
F104C2
330
F104C3
100
AcDbEntity
8
Geo
100
AcDbLine
10
-88.7638297872341
20
-0.700361836251285
30
0.000000000000000
11
-88.6638297872341
21
-0.710304604996002
31
0.000000000000000
  0
LINE
  5
F104C4
330
F104C5
100
AcDbEntity
8
Geo
100
AcDbLine
10
-88.6638297872341
20
-0.710304604996002
30
0.000000000000000
11
-88.5638297872341
21
-0.723922749226241
31
0.000000000000000
  0
LINE
  5
F104C6
330
F104C7
100
AcDbEntity
8
Geo
100
AcDbLine
10
-88.5638297872341
20
-0.723922749226241
30
0.000000000000000
11
-88.4638297872341
21
-0.741196096404133
31
0.000000000000000
  0
LINE
  5
F104C8
330
F104C9
100
AcDbEntity
8
Geo
100
AcDbLine
10
-88.4638297872341
20
-0.741196096404133
30
0.000000000000000
11
-88.3638297872341
21
-0.762099059544831
31
0.000000000000000
  0
LINE
  5
F104CA
330
F104CB
100
AcDbEntity
8
Geo
100
AcDbLine
10
-88.3638297872341
20
-0.762099059544831
30
0.000000000000000
11
-88.2638297872341
21
-0.786600675118478
31
0.000000000000000
  0
LINE
  5
F104CC
330
F104CD
100
AcDbEntity
8
Geo
100
AcDbLine
10
-88.2638297872341
20
-0.786600675118478
30
0.000000000000000
11
-88.1638297872341
21
-0.814664648916430
31
0.000000000000000
  0
LINE
  5
F104CE
330
F104CF
100
AcDbEntity
8
Geo
100
AcDbLine
10
-88.1638297872341
20
-0.814664648916430
30
0.000000000000000
11
-88.0638297872341
21
-0.846249409813829
31
0.000000000000000
  0
LINE
  5
F104D0
330
F104D1
100
AcDbEntity
8
Geo
100
AcDbLine
10
-88.0638297872341
20
-0.846249409813829
30
0.000000000000000
11
-87.9638297872341
21
-0.881308171348842
31
0.000000000000000
  0
LINE
  5
F104D2
330
F104D3
100
AcDbEntity
8
Geo
100
AcDbLine
10
-87.9638297872341
20
-0.881308171348842
30
0.000000000000000
11
-87.8638297872341
21
-0.919789001027385
31
0.000000000000000
  0
LINE
  5
F104D4
330
F104D5
100
AcDbEntity
8
Geo
100
AcDbLine
10
-87.8638297872341
20
-0.919789001027385
30
0.000000000000000
11
-87.7638297872341
21
-0.961634897250653
31
0.000000000000000
  0
LINE
  5
F104D6
330
F104D7
100
AcDbEntity
8
Geo
100
AcDbLine
10
-87.7638297872341
20
-0.961634897250653
30
0.000000000000000
11
-87.6638297872341
21
-1.00678387375151
31
0.000000000000000
  0
LINE
  5
F104D8
330
F104D9
100
AcDbEntity
8
Geo
100
AcDbLine
10
-87.6638297872341
20
-1.00678387375151
30
0.000000000000000
11
-87.5638297872341
21
-1.05516905141465
31
0.000000000000000
  0
LINE
  5
F104DA
330
F104DB
100
AcDbEntity
8
Geo
100
AcDbLine
10
-87.5638297872341
20
-1.05516905141465
30
0.000000000000000
11
-87.4638297872341
21
-1.10671875734455
31
0.000000000000000
  0
LINE
  5
F104DC
330
F104DD
100
AcDbEntity
8
Geo
100
AcDbLine
10
-87.4638297872341
20
-1.10671875734455
30
0.000000000000000
11
-87.3638297872341
21
-1.16135663103442
31
0.000000000000000
  0
LINE
  5
F104DE
330
F104DF
100
AcDbEntity
8
Geo
100
AcDbLine
10
-87.3638297872341
20
-1.16135663103442
30
0.000000000000000
11
-87.2638297872341
21
-1.21900173747892
31
0.000000000000000
  0
LINE
  5
F104E0
330
F104E1
100
AcDbEntity
8
Geo
100
AcDbLine
10
-87.2638297872341
20
-1.21900173747892
30
0.000000000000000
11
-87.1638297872341
21
-1.27956868706306
31
0.000000000000000
  0
LINE
  5
F104E2
330
F104E3
100
AcDbEntity
8
Geo
100
AcDbLine
10
-87.1638297872341
20
-1.27956868706306
30
0.000000000000000
11
-87.0638297872341
21
-1.34296776204973
31
0.000000000000000
  0
LINE
  5
F104E4
330
F104E5
100
AcDbEntity
8
Geo
100
AcDbLine
10
-87.0638297872341
20
-1.34296776204973
30
0.000000000000000
11
-86.9638297872341
21
-1.40910504947844
31
0.000000000000000
  0
LINE
  5
F104E6
330
F104E7
100
AcDbEntity
8
Geo
100
AcDbLine
10
-86.9638297872341
20
-1.40910504947844
30
0.000000000000000
11
-86.8638297872341
21
-1.47788258027848
31
0.000000000000000
  0
LINE
  5
F104E8
330
F104E9
100
AcDbEntity
8
Geo
100
AcDbLine
10
-86.8638297872341
20
-1.47788258027848
30
0.000000000000000
11
-86.7638297872341
21
-1.54919847439033
31
0.000000000000000
  0
LINE
  5
F104EA
330
F104EB
100
AcDbEntity
8
Geo
100
AcDbLine
10
-86.7638297872341
20
-1.54919847439033
30
0.000000000000000
11
-86.6638297872341
21
-1.62294709168050
31
0.000000000000000
  0
LINE
  5
F104EC
330
F104ED
100
AcDbEntity
8
Geo
100
AcDbLine
10
-86.6638297872341
20
-1.62294709168050
30
0.000000000000000
11
-86.5638297872341
21
-1.69901918842606
31
0.000000000000000
  0
LINE
  5
F104EE
330
F104EF
100
AcDbEntity
8
Geo
100
AcDbLine
10
-86.5638297872341
20
-1.69901918842606
30
0.000000000000000
11
-86.4638297872341
21
-1.77730207913725
31
0.000000000000000
  0
LINE
  5
F104F0
330
F104F1
100
AcDbEntity
8
Geo
100
AcDbLine
10
-86.4638297872341
20
-1.77730207913725
30
0.000000000000000
11
-86.3638297872341
21
-1.85767980347831
31
0.000000000000000
  0
LINE
  5
F104F2
330
F104F3
100
AcDbEntity
8
Geo
100
AcDbLine
10
-86.3638297872341
20
-1.85767980347831
30
0.000000000000000
11
-86.2638297872341
21
-1.94003329803938
31
0.000000000000000
  0
LINE
  5
F104F4
330
F104F5
100
AcDbEntity
8
Geo
100
AcDbLine
10
-86.2638297872341
20
-1.94003329803938
30
0.000000000000000
11
-86.1638297872341
21
-2.02424057270496
31
0.000000000000000
  0
LINE
  5
F104F6
330
F104F7
100
AcDbEntity
8
Geo
100
AcDbLine
10
-86.1638297872341
20
-2.02424057270496
30
0.000000000000000
11
-86.0638297872341
21
-2.11017689135769
31
0.000000000000000
  0
LINE
  5
F104F8
330
F104F9
100
AcDbEntity
8
Geo
100
AcDbLine
10
-86.0638297872341
20
-2.11017689135769
30
0.000000000000000
11
-85.9638297872341
21
-2.19771495664978
31
0.000000000000000
  0
LINE
  5
F104FA
330
F104FB
100
AcDbEntity
8
Geo
100
AcDbLine
10
-85.9638297872341
20
-2.19771495664978
30
0.000000000000000
11
-85.8638297872341
21
-2.28672509856841
31
0.000000000000000
  0
LINE
  5
F104FC
330
F104FD
100
AcDbEntity
8
Geo
100
AcDbLine
10
-85.8638297872341
20
-2.28672509856841
30
0.000000000000000
11
-85.7638297872341
21
-2.37707546651572
31
0.000000000000000
  0
LINE
  5
F104FE
330
F104FF
100
AcDbEntity
8
Geo
100
AcDbLine
10
-85.7638297872341
20
-2.37707546651572
30
0.000000000000000
11
-85.6638297872341
21
-2.46863222461892
31
0.000000000000000
  0
LINE
  5
F10500
330
F10501
100
AcDbEntity
8
Geo
100
AcDbLine
10
-85.6638297872341
20
-2.46863222461892
30
0.000000000000000
11
-85.5638297872341
21
-2.56125974998118
31
0.000000000000000
  0
LINE
  5
F10502
330
F10503
100
AcDbEntity
8
Geo
100
AcDbLine
10
-85.5638297872341
20
-2.56125974998118
30
0.000000000000000
11
-85.4638297872341
21
-2.65482083357965
31
0.000000000000000
  0
LINE
  5
F10504
330
F10505
100
AcDbEntity
8
Geo
100
AcDbLine
10
-85.4638297872341
20
-2.65482083357965
30
0.000000000000000
11
-85.3638297872341
21
-2.74917688351296
31
0.000000000000000
  0
LINE
  5
F10506
330
F10507
100
AcDbEntity
8
Geo
100
AcDbLine
10
-85.3638297872341
20
-2.74917688351296
30
0.000000000000000
11
-85.2638297872341
21
-2.84418813029725
31
0.000000000000000
  0
LINE
  5
F10508
330
F10509
100
AcDbEntity
8
Geo
100
AcDbLine
10
-85.2638297872341
20
-2.84418813029725
30
0.000000000000000
11
-85.1638297872341
21
-2.93971383390646
31
0.000000000000000
  0
LINE
  5
F1050A
330
F1050B
100
AcDbEntity
8
Geo
100
AcDbLine
10
-85.1638297872341
20
-2.93971383390646
30
0.000000000000000
11
-85.0638297872341
21
-3.03561249225039
31
0.000000000000000
  0
LINE
  5
F1050C
330
F1050D
100
AcDbEntity
8
Geo
100
AcDbLine
10
-85.0638297872341
20
-3.03561249225039
30
0.000000000000000
11
-84.9638297872341
21
-3.13174205078150
31
0.000000000000000
  0
LINE
  5
F1050E
330
F1050F
100
AcDbEntity
8
Geo
100
AcDbLine
10
-84.9638297872341
20
-3.13174205078150
30
0.000000000000000
11
-84.8638297872341
21
-3.22796011292012
31
0.000000000000000
  0
LINE
  5
F10510
330
F10511
100
AcDbEntity
8
Geo
100
AcDbLine
10
-84.8638297872341
20
-3.22796011292012
30
0.000000000000000
11
-84.7638297872341
21
-3.32412415098633
31
0.000000000000000
  0
LINE
  5
F10512
330
F10513
100
AcDbEntity
8
Geo
100
AcDbLine
10
-84.7638297872341
20
-3.32412415098633
30
0.000000000000000
11
-84.6638297872341
21
-3.42009171732598
31
0.000000000000000
  0
LINE
  5
F10514
330
F10515
100
AcDbEntity
8
Geo
100
AcDbLine
10
-84.6638297872341
20
-3.42009171732598
30
0.000000000000000
11
-84.5638297872341
21
-3.51572065531822
31
0.000000000000000
  0
LINE
  5
F10516
330
F10517
100
AcDbEntity
8
Geo
100
AcDbLine
10
-84.5638297872341
20
-3.51572065531822
30
0.000000000000000
11
-84.4638297872341
21
-3.61086930995188
31
0.000000000000000
  0
LINE
  5
F10518
330
F10519
100
AcDbEntity
8
Geo
100
AcDbLine
10
-84.4638297872341
20
-3.61086930995188
30
0.000000000000000
11
-84.3638297872341
21
-3.70539673765887
31
0.000000000000000
  0
LINE
  5
F1051A
330
F1051B
100
AcDbEntity
8
Geo
100
AcDbLine
10
-84.3638297872341
20
-3.70539673765887
30
0.000000000000000
11
-84.2638297872341
21
-3.79916291509365
31
0.000000000000000
  0
LINE
  5
F1051C
330
F1051D
100
AcDbEntity
8
Geo
100
AcDbLine
10
-84.2638297872341
20
-3.79916291509365
30
0.000000000000000
11
-84.1638297872341
21
-3.89202894654967
31
0.000000000000000
  0
LINE
  5
F1051E
330
F1051F
100
AcDbEntity
8
Geo
100
AcDbLine
10
-84.1638297872341
20
-3.89202894654967
30
0.000000000000000
11
-84.0638297872341
21
-3.98385726970532
31
0.000000000000000
  0
LINE
  5
F10520
330
F10521
100
AcDbEntity
8
Geo
100
AcDbLine
10
-84.0638297872341
20
-3.98385726970532
30
0.000000000000000
11
-83.9638297872341
21
-4.07451185939484
31
0.000000000000000
  0
LINE
  5
F10522
330
F10523
100
AcDbEntity
8
Geo
100
AcDbLine
10
-83.9638297872341
20
-4.07451185939484
30
0.000000000000000
11
-83.8638297872341
21
-4.16385842910221
31
0.000000000000000
  0
LINE
  5
F10524
330
F10525
100
AcDbEntity
8
Geo
100
AcDbLine
10
-83.8638297872341
20
-4.16385842910221
30
0.000000000000000
11
-83.7638297872341
21
-4.25176462987956
31
0.000000000000000
  0
LINE
  5
F10526
330
F10527
100
AcDbEntity
8
Geo
100
AcDbLine
10
-83.7638297872341
20
-4.25176462987956
30
0.000000000000000
11
-83.6638297872341
21
-4.33810024639548
31
0.000000000000000
  0
LINE
  5
F10528
330
F10529
100
AcDbEntity
8
Geo
100
AcDbLine
10
-83.6638297872341
20
-4.33810024639548
30
0.000000000000000
11
-83.5638297872341
21
-4.42273738982284
31
0.000000000000000
  0
LINE
  5
F1052A
330
F1052B
100
AcDbEntity
8
Geo
100
AcDbLine
10
-83.5638297872341
20
-4.42273738982284
30
0.000000000000000
11
-83.4638297872341
21
-4.50555068728028
31
0.000000000000000
  0
LINE
  5
F1052C
330
F1052D
100
AcDbEntity
8
Geo
100
AcDbLine
10
-83.4638297872341
20
-4.50555068728028
30
0.000000000000000
11
-83.3638297872341
21
-4.58641746754691
31
0.000000000000000
  0
LINE
  5
F1052E
330
F1052F
100
AcDbEntity
8
Geo
100
AcDbLine
10
-83.3638297872341
20
-4.58641746754691
30
0.000000000000000
11
-83.2638297872341
21
-4.66521794277501
31
0.000000000000000
  0
LINE
  5
F10530
330
F10531
100
AcDbEntity
8
Geo
100
AcDbLine
10
-83.2638297872341
20
-4.66521794277501
30
0.000000000000000
11
-83.1638297872341
21
-4.74183538593162
31
0.000000000000000
  0
LINE
  5
F10532
330
F10533
100
AcDbEntity
8
Geo
100
AcDbLine
10
-83.1638297872341
20
-4.74183538593162
30
0.000000000000000
11
-83.0638297872341
21
-4.81615630370610
31
0.000000000000000
  0
LINE
  5
F10534
330
F10535
100
AcDbEntity
8
Geo
100
AcDbLine
10
-83.0638297872341
20
-4.81615630370610
30
0.000000000000000
11
-82.9638297872341
21
-4.88807060462763
31
0.000000000000000
  0
LINE
  5
F10536
330
F10537
100
AcDbEntity
8
Geo
100
AcDbLine
10
-82.9638297872341
20
-4.88807060462763
30
0.000000000000000
11
-82.8638297872341
21
-4.95747176214354
31
0.000000000000000
  0
LINE
  5
F10538
330
F10539
100
AcDbEntity
8
Geo
100
AcDbLine
10
-82.8638297872341
20
-4.95747176214354
30
0.000000000000000
11
-82.7638297872341
21
-5.02425697241694
31
0.000000000000000
  0
LINE
  5
F1053A
330
F1053B
100
AcDbEntity
8
Geo
100
AcDbLine
10
-82.7638297872341
20
-5.02425697241694
30
0.000000000000000
11
-82.6638297872341
21
-5.08832730660993
31
0.000000000000000
  0
LINE
  5
F1053C
330
F1053D
100
AcDbEntity
8
Geo
100
AcDbLine
10
-82.6638297872341
20
-5.08832730660993
30
0.000000000000000
11
-82.5638297872341
21
-5.14958785742670
31
0.000000000000000
  0
LINE
  5
F1053E
330
F1053F
100
AcDbEntity
8
Geo
100
AcDbLine
10
-82.5638297872341
20
-5.14958785742670
30
0.000000000000000
11
-82.4638297872341
21
-5.20794787969960
31
0.000000000000000
  0
LINE
  5
F10540
330
F10541
100
AcDbEntity
8
Geo
100
AcDbLine
10
-82.4638297872341
20
-5.20794787969960
30
0.000000000000000
11
-82.3638297872341
21
-5.26332092480985
31
0.000000000000000
  0
LINE
  5
F10542
330
F10543
100
AcDbEntity
8
Geo
100
AcDbLine
10
-82.3638297872341
20
-5.26332092480985
30
0.000000000000000
11
-82.2638297872341
21
-5.31562496874371
31
0.000000000000000
  0
LINE
  5
F10544
330
F10545
100
AcDbEntity
8
Geo
100
AcDbLine
10
-82.2638297872341
20
-5.31562496874371
30
0.000000000000000
11
-82.1638297872341
21
-5.36478253359456
31
0.000000000000000
  0
LINE
  5
F10546
330
F10547
100
AcDbEntity
8
Geo
100
AcDbLine
10
-82.1638297872341
20
-5.36478253359456
30
0.000000000000000
11
-82.0638297872341
21
-5.41072080233084
31
0.000000000000000
  0
LINE
  5
F10548
330
F10549
100
AcDbEntity
8
Geo
100
AcDbLine
10
-82.0638297872341
20
-5.41072080233084
30
0.000000000000000
11
-81.9638297872341
21
-5.40518125485557
31
0.000000000000000
  0
LINE
  5
F1054A
330
F1054B
100
AcDbEntity
8
Geo
100
AcDbLine
10
-81.9638297872341
20
-5.40518125485557
30
0.000000000000000
11
-81.8638297872341
21
-5.39969985452635
31
0.000000000000000
  0
LINE
  5
F1054C
330
F1054D
100
AcDbEntity
8
Geo
100
AcDbLine
10
-81.8638297872341
20
-5.39969985452635
30
0.000000000000000
11
-81.7638297872341
21
-5.39427961811661
31
0.000000000000000
  0
LINE
  5
F1054E
330
F1054F
100
AcDbEntity
8
Geo
100
AcDbLine
10
-81.7638297872341
20
-5.39427961811661
30
0.000000000000000
11
-81.6638297872341
21
-5.38892349207181
31
0.000000000000000
  0
LINE
  5
F10550
330
F10551
100
AcDbEntity
8
Geo
100
AcDbLine
10
-81.6638297872341
20
-5.38892349207181
30
0.000000000000000
11
-81.5638297872341
21
-5.38363435300903
31
0.000000000000000
  0
LINE
  5
F10552
330
F10553
100
AcDbEntity
8
Geo
100
AcDbLine
10
-81.5638297872341
20
-5.38363435300903
30
0.000000000000000
11
-81.4638297872341
21
-5.37841500822081
31
0.000000000000000
  0
LINE
  5
F10554
330
F10555
100
AcDbEntity
8
Geo
100
AcDbLine
10
-81.4638297872341
20
-5.37841500822081
30
0.000000000000000
11
-81.3638297872341
21
-5.37326819618228
31
0.000000000000000
  0
LINE
  5
F10556
330
F10557
100
AcDbEntity
8
Geo
100
AcDbLine
10
-81.3638297872341
20
-5.37326819618228
30
0.000000000000000
11
-81.2638297872341
21
-5.36819658706075
31
0.000000000000000
  0
LINE
  5
F10558
330
F10559
100
AcDbEntity
8
Geo
100
AcDbLine
10
-81.2638297872341
20
-5.36819658706075
30
0.000000000000000
11
-81.1638297872341
21
-5.36320278322683
31
0.000000000000000
  0
LINE
  5
F1055A
330
F1055B
100
AcDbEntity
8
Geo
100
AcDbLine
10
-81.1638297872341
20
-5.36320278322683
30
0.000000000000000
11
-81.0638297872341
21
-5.35828931976621
31
0.000000000000000
  0
LINE
  5
F1055C
330
F1055D
100
AcDbEntity
8
Geo
100
AcDbLine
10
-81.0638297872341
20
-5.35828931976621
30
0.000000000000000
11
-80.9638297872341
21
-5.35345866499127
31
0.000000000000000
  0
LINE
  5
F1055E
330
F1055F
100
AcDbEntity
8
Geo
100
AcDbLine
10
-80.9638297872341
20
-5.35345866499127
30
0.000000000000000
11
-80.8638297872341
21
-5.34871322095181
31
0.000000000000000
  0
LINE
  5
F10560
330
F10561
100
AcDbEntity
8
Geo
100
AcDbLine
10
-80.8638297872341
20
-5.34871322095181
30
0.000000000000000
11
-80.7638297872341
21
-5.34405532394389
31
0.000000000000000
  0
LINE
  5
F10562
330
F10563
100
AcDbEntity
8
Geo
100
AcDbLine
10
-80.7638297872341
20
-5.34405532394389
30
0.000000000000000
11
-80.6638297872341
21
-5.33948724501629
31
0.000000000000000
  0
LINE
  5
F10564
330
F10565
100
AcDbEntity
8
Geo
100
AcDbLine
10
-80.6638297872341
20
-5.33948724501629
30
0.000000000000000
11
-80.5638297872341
21
-5.33501119047362
31
0.000000000000000
  0
LINE
  5
F10566
330
F10567
100
AcDbEntity
8
Geo
100
AcDbLine
10
-80.5638297872341
20
-5.33501119047362
30
0.000000000000000
11
-80.4638297872341
21
-5.33062930237543
31
0.000000000000000
  0
LINE
  5
F10568
330
F10569
100
AcDbEntity
8
Geo
100
AcDbLine
10
-80.4638297872341
20
-5.33062930237543
30
0.000000000000000
11
-80.3638297872341
21
-5.32634365903072
31
0.000000000000000
  0
LINE
  5
F1056A
330
F1056B
100
AcDbEntity
8
Geo
100
AcDbLine
10
-80.3638297872341
20
-5.32634365903072
30
0.000000000000000
11
-80.2638297872341
21
-5.32215627548701
31
0.000000000000000
  0
LINE
  5
F1056C
330
F1056D
100
AcDbEntity
8
Geo
100
AcDbLine
10
-80.2638297872341
20
-5.32215627548701
30
0.000000000000000
11
-80.1638297872341
21
-5.31806910401340
31
0.000000000000000
  0
LINE
  5
F1056E
330
F1056F
100
AcDbEntity
8
Geo
100
AcDbLine
10
-80.1638297872341
20
-5.31806910401340
30
0.000000000000000
11
-80.0638297872341
21
-5.31408403457703
31
0.000000000000000
  0
LINE
  5
F10570
330
F10571
100
AcDbEntity
8
Geo
100
AcDbLine
10
-80.0638297872341
20
-5.31408403457703
30
0.000000000000000
11
-79.9638297872341
21
-5.31020289531215
31
0.000000000000000
  0
LINE
  5
F10572
330
F10573
100
AcDbEntity
8
Geo
100
AcDbLine
10
-79.9638297872341
20
-5.31020289531215
30
0.000000000000000
11
-79.8638297872341
21
-5.30642745298146
31
0.000000000000000
  0
LINE
  5
F10574
330
F10575
100
AcDbEntity
8
Geo
100
AcDbLine
10
-79.8638297872341
20
-5.30642745298146
30
0.000000000000000
11
-79.7638297872341
21
-5.30275941342892
31
0.000000000000000
  0
LINE
  5
F10576
330
F10577
100
AcDbEntity
8
Geo
100
AcDbLine
10
-79.7638297872341
20
-5.30275941342892
30
0.000000000000000
11
-79.6638297872341
21
-5.29920042202359
31
0.000000000000000
  0
LINE
  5
F10578
330
F10579
100
AcDbEntity
8
Geo
100
AcDbLine
10
-79.6638297872341
20
-5.29920042202359
30
0.000000000000000
11
-79.5638297872341
21
-5.29575206409395
31
0.000000000000000
  0
LINE
  5
F1057A
330
F1057B
100
AcDbEntity
8
Geo
100
AcDbLine
10
-79.5638297872341
20
-5.29575206409395
30
0.000000000000000
11
-79.4638297872341
21
-5.29241586535215
31
0.000000000000000
  0
LINE
  5
F1057C
330
F1057D
100
AcDbEntity
8
Geo
100
AcDbLine
10
-79.4638297872341
20
-5.29241586535215
30
0.000000000000000
11
-79.3638297872341
21
-5.28919329230778
31
0.000000000000000
  0
LINE
  5
F1057E
330
F1057F
100
AcDbEntity
8
Geo
100
AcDbLine
10
-79.3638297872341
20
-5.28919329230778
30
0.000000000000000
11
-79.2638297872341
21
-5.28608575267060
31
0.000000000000000
  0
LINE
  5
F10580
330
F10581
100
AcDbEntity
8
Geo
100
AcDbLine
10
-79.2638297872341
20
-5.28608575267060
30
0.000000000000000
11
-79.1638297872341
21
-5.28309459574176
31
0.000000000000000
  0
LINE
  5
F10582
330
F10583
100
AcDbEntity
8
Geo
100
AcDbLine
10
-79.1638297872341
20
-5.28309459574176
30
0.000000000000000
11
-79.0638297872341
21
-5.28022111279320
31
0.000000000000000
  0
LINE
  5
F10584
330
F10585
100
AcDbEntity
8
Geo
100
AcDbLine
10
-79.0638297872341
20
-5.28022111279320
30
0.000000000000000
11
-78.9638297872341
21
-5.27746653743470
31
0.000000000000000
  0
LINE
  5
F10586
330
F10587
100
AcDbEntity
8
Geo
100
AcDbLine
10
-78.9638297872341
20
-5.27746653743470
30
0.000000000000000
11
-78.8638297872341
21
-5.27483204596818
31
0.000000000000000
  0
LINE
  5
F10588
330
F10589
100
AcDbEntity
8
Geo
100
AcDbLine
10
-78.8638297872341
20
-5.27483204596818
30
0.000000000000000
11
-78.7638297872341
21
-5.27231875772894
31
0.000000000000000
  0
LINE
  5
F1058A
330
F1058B
100
AcDbEntity
8
Geo
100
AcDbLine
10
-78.7638297872341
20
-5.27231875772894
30
0.000000000000000
11
-78.6638297872341
21
-5.26992773541343
31
0.000000000000000
  0
LINE
  5
F1058C
330
F1058D
100
AcDbEntity
8
Geo
100
AcDbLine
10
-78.6638297872341
20
-5.26992773541343
30
0.000000000000000
11
-78.5638297872341
21
-5.26765998539323
31
0.000000000000000
  0
LINE
  5
F1058E
330
F1058F
100
AcDbEntity
8
Geo
100
AcDbLine
10
-78.5638297872341
20
-5.26765998539323
30
0.000000000000000
11
-78.4638297872341
21
-5.26551645801485
31
0.000000000000000
  0
LINE
  5
F10590
330
F10591
100
AcDbEntity
8
Geo
100
AcDbLine
10
-78.4638297872341
20
-5.26551645801485
30
0.000000000000000
11
-78.3638297872341
21
-5.26349804788516
31
0.000000000000000
  0
LINE
  5
F10592
330
F10593
100
AcDbEntity
8
Geo
100
AcDbLine
10
-78.3638297872341
20
-5.26349804788516
30
0.000000000000000
11
-78.2638297872341
21
-5.26160559414204
31
0.000000000000000
  0
LINE
  5
F10594
330
F10595
100
AcDbEntity
8
Geo
100
AcDbLine
10
-78.2638297872341
20
-5.26160559414204
30
0.000000000000000
11
-78.1638297872341
21
-5.25983988071002
31
0.000000000000000
  0
LINE
  5
F10596
330
F10597
100
AcDbEntity
8
Geo
100
AcDbLine
10
-78.1638297872341
20
-5.25983988071002
30
0.000000000000000
11
-78.0638297872341
21
-5.25820163654074
31
0.000000000000000
  0
LINE
  5
F10598
330
F10599
100
AcDbEntity
8
Geo
100
AcDbLine
10
-78.0638297872341
20
-5.25820163654074
30
0.000000000000000
11
-77.9638297872341
21
-5.25669153583780
31
0.000000000000000
  0
LINE
  5
F1059A
330
F1059B
100
AcDbEntity
8
Geo
100
AcDbLine
10
-77.9638297872341
20
-5.25669153583780
30
0.000000000000000
11
-77.8638297872341
21
-5.25531019826595
31
0.000000000000000
  0
LINE
  5
F1059C
330
F1059D
100
AcDbEntity
8
Geo
100
AcDbLine
10
-77.8638297872341
20
-5.25531019826595
30
0.000000000000000
11
-77.7638297872341
21
-5.25405818914437
31
0.000000000000000
  0
LINE
  5
F1059E
330
F1059F
100
AcDbEntity
8
Geo
100
AcDbLine
10
-77.7638297872341
20
-5.25405818914437
30
0.000000000000000
11
-77.6638297872341
21
-5.25293601962380
31
0.000000000000000
  0
LINE
  5
F105A0
330
F105A1
100
AcDbEntity
8
Geo
100
AcDbLine
10
-77.6638297872341
20
-5.25293601962380
30
0.000000000000000
11
-77.5638297872341
21
-5.25194414684740
31
0.000000000000000
  0
LINE
  5
F105A2
330
F105A3
100
AcDbEntity
8
Geo
100
AcDbLine
10
-77.5638297872341
20
-5.25194414684740
30
0.000000000000000
11
-77.4638297872341
21
-5.25108297409513
31
0.000000000000000
  0
LINE
  5
F105A4
330
F105A5
100
AcDbEntity
8
Geo
100
AcDbLine
10
-77.4638297872341
20
-5.25108297409513
30
0.000000000000000
11
-77.3638297872341
21
-5.25035285091165
31
0.000000000000000
  0
LINE
  5
F105A6
330
F105A7
100
AcDbEntity
8
Geo
100
AcDbLine
10
-77.3638297872341
20
-5.25035285091165
30
0.000000000000000
11
-77.2638297872341
21
-5.24975407321739
31
0.000000000000000
  0
LINE
  5
F105A8
330
F105A9
100
AcDbEntity
8
Geo
100
AcDbLine
10
-77.2638297872341
20
-5.24975407321739
30
0.000000000000000
11
-77.1638297872341
21
-5.24928688340290
31
0.000000000000000
  0
LINE
  5
F105AA
330
F105AB
100
AcDbEntity
8
Geo
100
AcDbLine
10
-77.1638297872341
20
-5.24928688340290
30
0.000000000000000
11
-77.0638297872341
21
-5.24895147040629
31
0.000000000000000
  0
LINE
  5
F105AC
330
F105AD
100
AcDbEntity
8
Geo
100
AcDbLine
10
-93.0638297872341
20
-0.834901406118858
30
0.000000000000000
11
-92.9638297872341
21
-0.746194853621834
31
0.000000000000000
  0
LINE
  5
F105AE
330
F105AF
100
AcDbEntity
8
Geo
100
AcDbLine
10
-93.0638297872341
20
-3.43769129995518
30
0.000000000000000
11
-92.9638297872341
21
-3.53203972019365
31
0.000000000000000
  0
LINE
  5
F105B0
330
F105B1
100
AcDbEntity
8
Geo
100
AcDbLine
10
-92.9638297872341
20
-0.746194853621834
30
0.000000000000000
11
-92.8638297872341
21
-0.761110512435589
31
0.000000000000000
  0
LINE
  5
F105B2
330
F105B3
100
AcDbEntity
8
Geo
100
AcDbLine
10
-92.9638297872341
20
-3.53203972019365
30
0.000000000000000
11
-92.8638297872341
21
-3.62588368366573
31
0.000000000000000
  0
LINE
  5
F105B4
330
F105B5
100
AcDbEntity
8
Geo
100
AcDbLine
10
-92.8638297872341
20
-0.761110512435589
30
0.000000000000000
11
-92.7638297872341
21
-0.779626288015733
31
0.000000000000000
  0
LINE
  5
F105B6
330
F105B7
100
AcDbEntity
8
Geo
100
AcDbLine
10
-92.8638297872341
20
-3.62588368366573
30
0.000000000000000
11
-92.7638297872341
21
-3.71908417944049
31
0.000000000000000
  0
LINE
  5
F105B8
330
F105B9
100
AcDbEntity
8
Geo
100
AcDbLine
10
-92.7638297872341
20
-0.779626288015733
30
0.000000000000000
11
-92.6638297872341
21
-0.801714752969978
31
0.000000000000000
  0
LINE
  5
F105BA
330
F105BB
100
AcDbEntity
8
Geo
100
AcDbLine
10
-92.7638297872341
20
-3.71908417944049
30
0.000000000000000
11
-92.6638297872341
21
-3.81150314975483
31
0.000000000000000
  0
LINE
  5
F105BC
330
F105BD
100
AcDbEntity
8
Geo
100
AcDbLine
10
-92.6638297872341
20
-0.801714752969978
30
0.000000000000000
11
-92.5638297872341
21
-0.827343187686293
31
0.000000000000000
  0
LINE
  5
F105BE
330
F105BF
100
AcDbEntity
8
Geo
100
AcDbLine
10
-92.6638297872341
20
-3.81150314975483
30
0.000000000000000
11
-92.5638297872341
21
-3.90300369451817
31
0.000000000000000
  0
LINE
  5
F105C0
330
F105C1
100
AcDbEntity
8
Geo
100
AcDbLine
10
-92.5638297872341
20
-0.827343187686293
30
0.000000000000000
11
-92.4638297872341
21
-0.856473628800433
31
0.000000000000000
  0
LINE
  5
F105C2
330
F105C3
100
AcDbEntity
8
Geo
100
AcDbLine
10
-92.5638297872341
20
-3.90300369451817
30
0.000000000000000
11
-92.4638297872341
21
-3.99345027410243
31
0.000000000000000
  0
LINE
  5
F105C4
330
F105C5
100
AcDbEntity
8
Geo
100
AcDbLine
10
-92.4638297872341
20
-0.856473628800433
30
0.000000000000000
11
-92.3638297872341
21
-0.889062925431001
31
0.000000000000000
  0
LINE
  5
F105C6
330
F105C7
100
AcDbEntity
8
Geo
100
AcDbLine
10
-92.4638297872341
20
-3.99345027410243
30
0.000000000000000
11
-92.3638297872341
21
-4.08270891011666
31
0.000000000000000
  0
LINE
  5
F105C8
330
F105C9
100
AcDbEntity
8
Geo
100
AcDbLine
10
-92.3638297872341
20
-0.889062925431001
30
0.000000000000000
11
-92.2638297872341
21
-0.925062803098801
31
0.000000000000000
  0
LINE
  5
F105CA
330
F105CB
100
AcDbEntity
8
Geo
100
AcDbLine
10
-92.3638297872341
20
-4.08270891011666
30
0.000000000000000
11
-92.2638297872341
21
-4.17064738386905
31
0.000000000000000
  0
LINE
  5
F105CC
330
F105CD
100
AcDbEntity
8
Geo
100
AcDbLine
10
-92.2638297872341
20
-0.925062803098801
30
0.000000000000000
11
-92.1638297872341
21
-0.964419935235744
31
0.000000000000000
  0
LINE
  5
F105CE
330
F105CF
100
AcDbEntity
8
Geo
100
AcDbLine
10
-92.2638297872341
20
-4.17064738386905
30
0.000000000000000
11
-92.1638297872341
21
-4.25713543222229
31
0.000000000000000
  0
LINE
  5
F105D0
330
F105D1
100
AcDbEntity
8
Geo
100
AcDbLine
10
-92.1638297872341
20
-0.964419935235744
30
0.000000000000000
11
-92.0638297872341
21
-1.00707602217743
31
0.000000000000000
  0
LINE
  5
F105D2
330
F105D3
100
AcDbEntity
8
Geo
100
AcDbLine
10
-92.1638297872341
20
-4.25713543222229
30
0.000000000000000
11
-92.0638297872341
21
-4.34204494055215
31
0.000000000000000
  0
LINE
  5
F105D4
330
F105D5
100
AcDbEntity
8
Geo
100
AcDbLine
10
-92.0638297872341
20
-1.00707602217743
30
0.000000000000000
11
-91.9638297872341
21
-1.05296787752235
31
0.000000000000000
  0
LINE
  5
F105D6
330
F105D7
100
AcDbEntity
8
Geo
100
AcDbLine
10
-92.0638297872341
20
-4.34204494055215
30
0.000000000000000
11
-91.9638297872341
21
-4.42525013252355
31
0.000000000000000
  0
LINE
  5
F105D8
330
F105D9
100
AcDbEntity
8
Geo
100
AcDbLine
10
-91.9638297872341
20
-1.05296787752235
30
0.000000000000000
11
-91.8638297872341
21
-1.10202752172982
31
0.000000000000000
  0
LINE
  5
F105DA
330
F105DB
100
AcDbEntity
8
Geo
100
AcDbLine
10
-91.9638297872341
20
-4.42525013252355
30
0.000000000000000
11
-91.8638297872341
21
-4.50662775640281
31
0.000000000000000
  0
LINE
  5
F105DC
330
F105DD
100
AcDbEntity
8
Geo
100
AcDbLine
10
-91.8638297872341
20
-1.10202752172982
30
0.000000000000000
11
-91.7638297872341
21
-1.15418228281796
31
0.000000000000000
  0
LINE
  5
F105DE
330
F105DF
100
AcDbEntity
8
Geo
100
AcDbLine
10
-91.8638297872341
20
-4.50662775640281
30
0.000000000000000
11
-91.7638297872341
21
-4.58605726763028
31
0.000000000000000
  0
LINE
  5
F105E0
330
F105E1
100
AcDbEntity
8
Geo
100
AcDbLine
10
-91.7638297872341
20
-1.15418228281796
30
0.000000000000000
11
-91.6638297872341
21
-1.20935490401264
31
0.000000000000000
  0
LINE
  5
F105E2
330
F105E3
100
AcDbEntity
8
Geo
100
AcDbLine
10
-91.7638297872341
20
-4.58605726763028
30
0.000000000000000
11
-91.6638297872341
21
-4.66342100738285
31
0.000000000000000
  0
LINE
  5
F105E4
330
F105E5
100
AcDbEntity
8
Geo
100
AcDbLine
10
-91.6638297872341
20
-1.20935490401264
30
0.000000000000000
11
-91.5638297872341
21
-1.26746365818779
31
0.000000000000000
  0
LINE
  5
F105E6
330
F105E7
100
AcDbEntity
8
Geo
100
AcDbLine
10
-91.6638297872341
20
-4.66342100738285
30
0.000000000000000
11
-91.5638297872341
21
-4.73860437686181
31
0.000000000000000
  0
LINE
  5
F105E8
330
F105E9
100
AcDbEntity
8
Geo
100
AcDbLine
10
-91.5638297872341
20
-1.26746365818779
30
0.000000000000000
11
-91.4638297872341
21
-1.32842246892769
31
0.000000000000000
  0
LINE
  5
F105EA
330
F105EB
100
AcDbEntity
8
Geo
100
AcDbLine
10
-91.5638297872341
20
-4.73860437686181
30
0.000000000000000
11
-91.4638297872341
21
-4.81149600704781
31
0.000000000000000
  0
LINE
  5
F105EC
330
F105ED
100
AcDbEntity
8
Geo
100
AcDbLine
10
-91.4638297872341
20
-1.32842246892769
30
0.000000000000000
11
-91.3638297872341
21
-1.39214103803185
31
0.000000000000000
  0
LINE
  5
F105EE
330
F105EF
100
AcDbEntity
8
Geo
100
AcDbLine
10
-91.4638297872341
20
-4.81149600704781
30
0.000000000000000
11
-91.3638297872341
21
-4.88198792367174
31
0.000000000000000
  0
LINE
  5
F105F0
330
F105F1
100
AcDbEntity
8
Geo
100
AcDbLine
10
-91.3638297872341
20
-1.39214103803185
30
0.000000000000000
11
-91.2638297872341
21
-1.45852497927360
31
0.000000000000000
  0
LINE
  5
F105F2
330
F105F3
100
AcDbEntity
8
Geo
100
AcDbLine
10
-91.3638297872341
20
-4.88198792367174
30
0.000000000000000
11
-91.2638297872341
21
-4.94997570715678
31
0.000000000000000
  0
LINE
  5
F105F4
330
F105F5
100
AcDbEntity
8
Geo
100
AcDbLine
10
-91.2638297872341
20
-1.45852497927360
30
0.000000000000000
11
-91.1638297872341
21
-1.52747595821427
31
0.000000000000000
  0
LINE
  5
F105F6
330
F105F7
100
AcDbEntity
8
Geo
100
AcDbLine
10
-91.2638297872341
20
-4.94997570715678
30
0.000000000000000
11
-91.1638297872341
21
-5.01535864729502
31
0.000000000000000
  0
LINE
  5
F105F8
330
F105F9
100
AcDbEntity
8
Geo
100
AcDbLine
10
-91.1638297872341
20
-1.52747595821427
30
0.000000000000000
11
-91.0638297872341
21
-1.59889183786587
31
0.000000000000000
  0
LINE
  5
F105FA
330
F105FB
100
AcDbEntity
8
Geo
100
AcDbLine
10
-91.1638297872341
20
-5.01535864729502
30
0.000000000000000
11
-91.0638297872341
21
-5.07803989242930
31
0.000000000000000
  0
LINE
  5
F105FC
330
F105FD
100
AcDbEntity
8
Geo
100
AcDbLine
10
-91.0638297872341
20
-1.59889183786587
30
0.000000000000000
11
-90.9638297872341
21
-1.67266682998646
31
0.000000000000000
  0
LINE
  5
F105FE
330
F105FF
100
AcDbEntity
8
Geo
100
AcDbLine
10
-91.0638297872341
20
-5.07803989242930
30
0.000000000000000
11
-90.9638297872341
21
-5.13792659291950
31
0.000000000000000
  0
LINE
  5
F10600
330
F10601
100
AcDbEntity
8
Geo
100
AcDbLine
10
-90.9638297872341
20
-1.67266682998646
30
0.000000000000000
11
-90.8638297872341
21
-1.74869165178412
31
0.000000000000000
  0
LINE
  5
F10602
330
F10603
100
AcDbEntity
8
Geo
100
AcDbLine
10
-90.9638297872341
20
-5.13792659291950
30
0.000000000000000
11
-90.8638297872341
21
-5.19493003868054
31
0.000000000000000
  0
LINE
  5
F10604
330
F10605
100
AcDbEntity
8
Geo
100
AcDbLine
10
-90.8638297872341
20
-1.74869165178412
30
0.000000000000000
11
-90.7638297872341
21
-1.82685368779739
31
0.000000000000000
  0
LINE
  5
F10606
330
F10607
100
AcDbEntity
8
Geo
100
AcDbLine
10
-90.8638297872341
20
-5.19493003868054
30
0.000000000000000
11
-90.7638297872341
21
-5.24896579058848
31
0.000000000000000
  0
LINE
  5
F10608
330
F10609
100
AcDbEntity
8
Geo
100
AcDbLine
10
-90.7638297872341
20
-1.82685368779739
30
0.000000000000000
11
-90.6638297872341
21
-1.90703715671242
31
0.000000000000000
  0
LINE
  5
F1060A
330
F1060B
100
AcDbEntity
8
Geo
100
AcDbLine
10
-90.7638297872341
20
-5.24896579058848
30
0.000000000000000
11
-90.6638297872341
21
-5.29995380556013
31
0.000000000000000
  0
LINE
  5
F1060C
330
F1060D
100
AcDbEntity
8
Geo
100
AcDbLine
10
-90.6638297872341
20
-1.90703715671242
30
0.000000000000000
11
-90.5638297872341
21
-1.98912328286963
31
0.000000000000000
  0
LINE
  5
F1060E
330
F1060F
100
AcDbEntity
8
Geo
100
AcDbLine
10
-90.6638297872341
20
-5.29995380556013
30
0.000000000000000
11
-90.5638297872341
21
-5.34781855512073
31
0.000000000000000
  0
LINE
  5
F10610
330
F10611
100
AcDbEntity
8
Geo
100
AcDbLine
10
-90.5638297872341
20
-1.98912328286963
30
0.000000000000000
11
-90.4638297872341
21
-2.07299047220596
31
0.000000000000000
  0
LINE
  5
F10612
330
F10613
100
AcDbEntity
8
Geo
100
AcDbLine
10
-90.5638297872341
20
-5.34781855512073
30
0.000000000000000
11
-90.4638297872341
21
-5.39248913728417
31
0.000000000000000
  0
LINE
  5
F10614
330
F10615
100
AcDbEntity
8
Geo
100
AcDbLine
10
-90.4638297872341
20
-2.07299047220596
30
0.000000000000000
11
-90.3638297872341
21
-2.15851449237197
31
0.000000000000000
  0
LINE
  5
F10616
330
F10617
100
AcDbEntity
8
Geo
100
AcDbLine
10
-90.4638297872341
20
-5.39248913728417
30
0.000000000000000
11
-90.3638297872341
21
-5.43389938158000
31
0.000000000000000
  0
LINE
  5
F10618
330
F10619
100
AcDbEntity
8
Geo
100
AcDbLine
10
-90.3638297872341
20
-2.15851449237197
30
0.000000000000000
11
-90.2638297872341
21
-2.24556865675704
31
0.000000000000000
  0
LINE
  5
F1061A
330
F1061B
100
AcDbEntity
8
Geo
100
AcDbLine
10
-90.3638297872341
20
-5.43389938158000
30
0.000000000000000
11
-90.2638297872341
21
-5.47198794707168
31
0.000000000000000
  0
LINE
  5
F1061C
330
F1061D
100
AcDbEntity
8
Geo
100
AcDbLine
10
-90.2638297872341
20
-2.24556865675704
30
0.000000000000000
11
-90.1638297872341
21
-2.33402401215007
31
0.000000000000000
  0
LINE
  5
F1061E
330
F1061F
100
AcDbEntity
8
Geo
100
AcDbLine
10
-90.2638297872341
20
-5.47198794707168
30
0.000000000000000
11
-90.1638297872341
21
-5.50669841322078
31
0.000000000000000
  0
LINE
  5
F10620
330
F10621
100
AcDbEntity
8
Geo
100
AcDbLine
10
-90.1638297872341
20
-2.33402401215007
30
0.000000000000000
11
-90.0638297872341
21
-2.42374952975772
31
0.000000000000000
  0
LINE
  5
F10622
330
F10623
100
AcDbEntity
8
Geo
100
AcDbLine
10
-90.1638297872341
20
-5.50669841322078
30
0.000000000000000
11
-90.0638297872341
21
-5.53797936346270
31
0.000000000000000
  0
LINE
  5
F10624
330
F10625
100
AcDbEntity
8
Geo
100
AcDbLine
10
-90.0638297872341
20
-2.42374952975772
30
0.000000000000000
11
-89.9638297872341
21
-2.51461229929711
31
0.000000000000000
  0
LINE
  5
F10626
330
F10627
100
AcDbEntity
8
Geo
100
AcDbLine
10
-90.0638297872341
20
-5.53797936346270
30
0.000000000000000
11
-89.9638297872341
21
-5.56578446136988
31
0.000000000000000
  0
LINE
  5
F10628
330
F10629
100
AcDbEntity
8
Geo
100
AcDbLine
10
-89.9638297872341
20
-2.51461229929711
30
0.000000000000000
11
-89.8638297872341
21
-2.60647772587570
31
0.000000000000000
  0
LINE
  5
F1062A
330
F1062B
100
AcDbEntity
8
Geo
100
AcDbLine
10
-89.9638297872341
20
-5.56578446136988
30
0.000000000000000
11
-89.8638297872341
21
-5.59007251928996
31
0.000000000000000
  0
LINE
  5
F1062C
330
F1062D
100
AcDbEntity
8
Geo
100
AcDbLine
10
-89.8638297872341
20
-2.60647772587570
30
0.000000000000000
11
-89.7638297872341
21
-2.69920972936650
31
0.000000000000000
  0
LINE
  5
F1062E
330
F1062F
100
AcDbEntity
8
Geo
100
AcDbLine
10
-89.8638297872341
20
-5.59007251928996
30
0.000000000000000
11
-89.7638297872341
21
-5.61080755935696
31
0.000000000000000
  0
LINE
  5
F10630
330
F10631
100
AcDbEntity
8
Geo
100
AcDbLine
10
-89.7638297872341
20
-2.69920972936650
30
0.000000000000000
11
-89.6638297872341
21
-2.79267094598332
31
0.000000000000000
  0
LINE
  5
F10632
330
F10633
100
AcDbEntity
8
Geo
100
AcDbLine
10
-89.7638297872341
20
-5.61080755935696
30
0.000000000000000
11
-89.6638297872341
21
-5.62795886678523
31
0.000000000000000
  0
LINE
  5
F10634
330
F10635
100
AcDbEntity
8
Geo
100
AcDbLine
10
-89.6638297872341
20
-2.79267094598332
30
0.000000000000000
11
-89.5638297872341
21
-2.88672293175765
31
0.000000000000000
  0
LINE
  5
F10636
330
F10637
100
AcDbEntity
8
Geo
100
AcDbLine
10
-89.6638297872341
20
-5.62795886678523
30
0.000000000000000
11
-89.5638297872341
21
-5.64150103536722
31
0.000000000000000
  0
LINE
  5
F10638
330
F10639
100
AcDbEntity
8
Geo
100
AcDbLine
10
-89.5638297872341
20
-2.88672293175765
30
0.000000000000000
11
-89.4638297872341
21
-2.98122636761540
31
0.000000000000000
  0
LINE
  5
F1063A
330
F1063B
100
AcDbEntity
8
Geo
100
AcDbLine
10
-89.5638297872341
20
-5.64150103536722
30
0.000000000000000
11
-89.4638297872341
21
-5.65141400510770
31
0.000000000000000
  0
LINE
  5
F1063C
330
F1063D
100
AcDbEntity
8
Geo
100
AcDbLine
10
-89.4638297872341
20
-2.98122636761540
30
0.000000000000000
11
-89.3638297872341
21
-3.07604126575016
31
0.000000000000000
  0
LINE
  5
F1063E
330
F1063F
100
AcDbEntity
8
Geo
100
AcDbLine
10
-89.4638297872341
20
-5.65141400510770
30
0.000000000000000
11
-89.3638297872341
21
-5.65768309193854
31
0.000000000000000
  0
LINE
  5
F10640
330
F10641
100
AcDbEntity
8
Geo
100
AcDbLine
10
-89.3638297872341
20
-3.07604126575016
30
0.000000000000000
11
-89.2638297872341
21
-3.17102717698684
31
0.000000000000000
  0
LINE
  5
F10642
330
F10643
100
AcDbEntity
8
Geo
100
AcDbLine
10
-89.3638297872341
20
-5.65768309193854
30
0.000000000000000
11
-89.2638297872341
21
-5.66029900947026
31
0.000000000000000
  0
LINE
  5
F10644
330
F10645
100
AcDbEntity
8
Geo
100
AcDbLine
10
-89.2638297872341
20
-3.17102717698684
30
0.000000000000000
11
-89.1638297872341
21
-3.26604339882893
31
0.000000000000000
  0
LINE
  5
F10646
330
F10647
100
AcDbEntity
8
Geo
100
AcDbLine
10
-89.1638297872341
20
-3.26604339882893
30
0.000000000000000
11
-89.0638297872341
21
-3.36094918388082
31
0.000000000000000
  0
LINE
  5
F10648
330
F10649
100
AcDbEntity
8
Geo
100
AcDbLine
10
-89.1638297872341
20
-0.723720840656354
30
0.000000000000000
11
-89.0638297872341
21
-0.728417469413249
31
0.000000000000000
  0
LINE
  5
F1064A
330
F1064B
100
AcDbEntity
8
Geo
100
AcDbLine
10
-89.0638297872341
20
-3.36094918388082
30
0.000000000000000
11
-88.9638297872341
21
-3.45560394833680
31
0.000000000000000
  0
LINE
  5
F1064C
330
F1064D
100
AcDbEntity
8
Geo
100
AcDbLine
10
-89.0638297872341
20
-0.728417469413249
30
0.000000000000000
11
-88.9638297872341
21
-0.736762643095112
31
0.000000000000000
  0
LINE
  5
F1064E
330
F1064F
100
AcDbEntity
8
Geo
100
AcDbLine
10
-88.9638297872341
20
-3.45560394833680
30
0.000000000000000
11
-88.8638297872341
21
-3.54986748022758
31
0.000000000000000
  0
LINE
  5
F10650
330
F10651
100
AcDbEntity
8
Geo
100
AcDbLine
10
-88.9638297872341
20
-0.736762643095112
30
0.000000000000000
11
-88.8638297872341
21
-0.748744000007933
31
0.000000000000000
  0
LINE
  5
F10652
330
F10653
100
AcDbEntity
8
Geo
100
AcDbLine
10
-88.8638297872341
20
-3.54986748022758
30
0.000000000000000
11
-88.7638297872341
21
-3.64360014711614
31
0.000000000000000
  0
LINE
  5
F10654
330
F10655
100
AcDbEntity
8
Geo
100
AcDbLine
10
-88.8638297872341
20
-0.748744000007933
30
0.000000000000000
11
-88.7638297872341
21
-0.764343792184577
31
0.000000000000000
  0
LINE
  5
F10656
330
F10657
100
AcDbEntity
8
Geo
100
AcDbLine
10
-88.7638297872341
20
-3.64360014711614
30
0.000000000000000
11
-88.6638297872341
21
-3.73666310293504
31
0.000000000000000
  0
LINE
  5
F10658
330
F10659
100
AcDbEntity
8
Geo
100
AcDbLine
10
-88.7638297872341
20
-0.764343792184577
30
0.000000000000000
11
-88.6638297872341
21
-0.783538911674873
31
0.000000000000000
  0
LINE
  5
F1065A
330
F1065B
100
AcDbEntity
8
Geo
100
AcDbLine
10
-88.6638297872341
20
-3.73666310293504
30
0.000000000000000
11
-88.5638297872341
21
-3.82891849365888
31
0.000000000000000
  0
LINE
  5
F1065C
330
F1065D
100
AcDbEntity
8
Geo
100
AcDbLine
10
-88.6638297872341
20
-0.783538911674873
30
0.000000000000000
11
-88.5638297872341
21
-0.806300924775351
31
0.000000000000000
  0
LINE
  5
F1065E
330
F1065F
100
AcDbEntity
8
Geo
100
AcDbLine
10
-88.5638297872341
20
-3.82891849365888
30
0.000000000000000
11
-88.4638297872341
21
-3.92022966150734
31
0.000000000000000
  0
LINE
  5
F10660
330
F10661
100
AcDbEntity
8
Geo
100
AcDbLine
10
-88.5638297872341
20
-0.806300924775351
30
0.000000000000000
11
-88.4638297872341
21
-0.832596114148066
31
0.000000000000000
  0
LINE
  5
F10662
330
F10663
100
AcDbEntity
8
Geo
100
AcDbLine
10
-88.4638297872341
20
-3.92022966150734
30
0.000000000000000
11
-88.3638297872341
21
-4.01046134737608
31
0.000000000000000
  0
LINE
  5
F10664
330
F10665
100
AcDbEntity
8
Geo
100
AcDbLine
10
-88.4638297872341
20
-0.832596114148066
30
0.000000000000000
11
-88.3638297872341
21
-0.862385528766034
31
0.000000000000000
  0
LINE
  5
F10666
330
F10667
100
AcDbEntity
8
Geo
100
AcDbLine
10
-88.3638297872341
20
-4.01046134737608
30
0.000000000000000
11
-88.2638297872341
21
-4.09947989119592
31
0.000000000000000
  0
LINE
  5
F10668
330
F10669
100
AcDbEntity
8
Geo
100
AcDbLine
10
-88.3638297872341
20
-0.862385528766034
30
0.000000000000000
11
-88.2638297872341
21
-0.895625041611340
31
0.000000000000000
  0
LINE
  5
F1066A
330
F1066B
100
AcDbEntity
8
Geo
100
AcDbLine
10
-88.2638297872341
20
-4.09947989119592
30
0.000000000000000
11
-88.1638297872341
21
-4.18715342992325
31
0.000000000000000
  0
LINE
  5
F1066C
330
F1066D
100
AcDbEntity
8
Geo
100
AcDbLine
10
-88.2638297872341
20
-0.895625041611340
30
0.000000000000000
11
-88.1638297872341
21
-0.932265415040420
31
0.000000000000000
  0
LINE
  5
F1066E
330
F1066F
100
AcDbEntity
8
Geo
100
AcDbLine
10
-88.1638297872341
20
-4.18715342992325
30
0.000000000000000
11
-88.0638297872341
21
-4.27335209286866
31
0.000000000000000
  0
LINE
  5
F10670
330
F10671
100
AcDbEntity
8
Geo
100
AcDbLine
10
-88.1638297872341
20
-0.932265415040420
30
0.000000000000000
11
-88.0638297872341
21
-0.972252373719720
31
0.000000000000000
  0
LINE
  5
F10672
330
F10673
100
AcDbEntity
8
Geo
100
AcDbLine
10
-88.0638297872341
20
-4.27335209286866
30
0.000000000000000
11
-87.9638297872341
21
-4.35794819407413
31
0.000000000000000
  0
LINE
  5
F10674
330
F10675
100
AcDbEntity
8
Geo
100
AcDbLine
10
-88.0638297872341
20
-0.972252373719720
30
0.000000000000000
11
-87.9638297872341
21
-1.01552668502367
31
0.000000000000000
  0
LINE
  5
F10676
330
F10677
100
AcDbEntity
8
Geo
100
AcDbLine
10
-87.9638297872341
20
-4.35794819407413
30
0.000000000000000
11
-87.8638297872341
21
-4.44081642145408
31
0.000000000000000
  0
LINE
  5
F10678
330
F10679
100
AcDbEntity
8
Geo
100
AcDbLine
10
-87.9638297872341
20
-1.01552668502367
30
0.000000000000000
11
-87.8638297872341
21
-1.06202424677588
31
0.000000000000000
  0
LINE
  5
F1067A
330
F1067B
100
AcDbEntity
8
Geo
100
AcDbLine
10
-87.8638297872341
20
-4.44081642145408
30
0.000000000000000
11
-87.7638297872341
21
-4.52183402242003
31
0.000000000000000
  0
LINE
  5
F1067C
330
F1067D
100
AcDbEntity
8
Geo
100
AcDbLine
10
-87.8638297872341
20
-1.06202424677588
30
0.000000000000000
11
-87.7638297872341
21
-1.11167618220361
31
0.000000000000000
  0
LINE
  5
F1067E
330
F1067F
100
AcDbEntity
8
Geo
100
AcDbLine
10
-87.7638297872341
20
-4.52183402242003
30
0.000000000000000
11
-87.6638297872341
21
-4.60088098571375
31
0.000000000000000
  0
LINE
  5
F10680
330
F10681
100
AcDbEntity
8
Geo
100
AcDbLine
10
-87.7638297872341
20
-1.11167618220361
30
0.000000000000000
11
-87.6638297872341
21
-1.16440894196486
31
0.000000000000000
  0
LINE
  5
F10682
330
F10683
100
AcDbEntity
8
Geo
100
AcDbLine
10
-87.6638297872341
20
-4.60088098571375
30
0.000000000000000
11
-87.5638297872341
21
-4.67784021917986
31
0.000000000000000
  0
LINE
  5
F10684
330
F10685
100
AcDbEntity
8
Geo
100
AcDbLine
10
-87.6638297872341
20
-1.16440894196486
30
0.000000000000000
11
-87.5638297872341
21
-1.22014441309685
31
0.000000000000000
  0
LINE
  5
F10686
330
F10687
100
AcDbEntity
8
Geo
100
AcDbLine
10
-87.5638297872341
20
-4.67784021917986
30
0.000000000000000
11
-87.4638297872341
21
-4.75259772321422
31
0.000000000000000
  0
LINE
  5
F10688
330
F10689
100
AcDbEntity
8
Geo
100
AcDbLine
10
-87.5638297872341
20
-1.22014441309685
30
0.000000000000000
11
-87.4638297872341
21
-1.27880003472470
31
0.000000000000000
  0
LINE
  5
F1068A
330
F1068B
100
AcDbEntity
8
Geo
100
AcDbLine
10
-87.4638297872341
20
-4.75259772321422
30
0.000000000000000
11
-87.3638297872341
21
-4.82504275963139
31
0.000000000000000
  0
LINE
  5
F1068C
330
F1068D
100
AcDbEntity
8
Geo
100
AcDbLine
10
-87.4638297872341
20
-1.27880003472470
30
0.000000000000000
11
-87.3638297872341
21
-1.34028892035870
31
0.000000000000000
  0
LINE
  5
F1068E
330
F1068F
100
AcDbEntity
8
Geo
100
AcDbLine
10
-87.3638297872341
20
-4.82504275963139
30
0.000000000000000
11
-87.2638297872341
21
-4.89506801570096
31
0.000000000000000
  0
LINE
  5
F10690
330
F10691
100
AcDbEntity
8
Geo
100
AcDbLine
10
-87.3638297872341
20
-1.34028892035870
30
0.000000000000000
11
-87.2638297872341
21
-1.40451998659917
31
0.000000000000000
  0
LINE
  5
F10692
330
F10693
100
AcDbEntity
8
Geo
100
AcDbLine
10
-87.2638297872341
20
-4.89506801570096
30
0.000000000000000
11
-87.1638297872341
21
-4.96256976310974
31
0.000000000000000
  0
LINE
  5
F10694
330
F10695
100
AcDbEntity
8
Geo
100
AcDbLine
10
-87.2638297872341
20
-1.40451998659917
30
0.000000000000000
11
-87.1638297872341
21
-1.47139808805814
31
0.000000000000000
  0
LINE
  5
F10696
330
F10697
100
AcDbEntity
8
Geo
100
AcDbLine
10
-87.1638297872341
20
-4.96256976310974
30
0.000000000000000
11
-87.0638297872341
21
-5.02744801161437
31
0.000000000000000
  0
LINE
  5
F10698
330
F10699
100
AcDbEntity
8
Geo
100
AcDbLine
10
-87.1638297872341
20
-1.47139808805814
30
0.000000000000000
11
-87.0638297872341
21
-1.54082415829813
31
0.000000000000000
  0
LINE
  5
F1069A
330
F1069B
100
AcDbEntity
8
Geo
100
AcDbLine
10
-87.0638297872341
20
-5.02744801161437
30
0.000000000000000
11
-86.9638297872341
21
-5.08960665715671
31
0.000000000000000
  0
LINE
  5
F1069C
330
F1069D
100
AcDbEntity
8
Geo
100
AcDbLine
10
-87.0638297872341
20
-1.54082415829813
30
0.000000000000000
11
-86.9638297872341
21
-1.61269535657907
31
0.000000000000000
  0
LINE
  5
F1069E
330
F1069F
100
AcDbEntity
8
Geo
100
AcDbLine
10
-86.9638297872341
20
-5.08960665715671
30
0.000000000000000
11
-86.8638297872341
21
-5.14895362422268
31
0.000000000000000
  0
LINE
  5
F106A0
330
F106A1
100
AcDbEntity
8
Geo
100
AcDbLine
10
-86.9638297872341
20
-1.61269535657907
30
0.000000000000000
11
-86.8638297872341
21
-1.68690522019617
31
0.000000000000000
  0
LINE
  5
F106A2
330
F106A3
100
AcDbEntity
8
Geo
100
AcDbLine
10
-86.8638297872341
20
-5.14895362422268
30
0.000000000000000
11
-86.7638297872341
21
-5.20540100223353
31
0.000000000000000
  0
LINE
  5
F106A4
330
F106A5
100
AcDbEntity
8
Geo
100
AcDbLine
10
-86.8638297872341
20
-1.68690522019617
30
0.000000000000000
11
-86.7638297872341
21
-1.76334382218297
31
0.000000000000000
  0
LINE
  5
F106A6
330
F106A7
100
AcDbEntity
8
Geo
100
AcDbLine
10
-86.7638297872341
20
-5.20540100223353
30
0.000000000000000
11
-86.6638297872341
21
-5.25886517576772
31
0.000000000000000
  0
LINE
  5
F106A8
330
F106A9
100
AcDbEntity
8
Geo
100
AcDbLine
10
-86.7638297872341
20
-1.76334382218297
30
0.000000000000000
11
-86.6638297872341
21
-1.84189793414601
31
0.000000000000000
  0
LINE
  5
F106AA
330
F106AB
100
AcDbEntity
8
Geo
100
AcDbLine
10
-86.6638297872341
20
-5.25886517576772
30
0.000000000000000
11
-86.5638297872341
21
-5.30926694842031
31
0.000000000000000
  0
LINE
  5
F106AC
330
F106AD
100
AcDbEntity
8
Geo
100
AcDbLine
10
-86.6638297872341
20
-1.84189793414601
30
0.000000000000000
11
-86.5638297872341
21
-1.92245119398988
31
0.000000000000000
  0
LINE
  5
F106AE
330
F106AF
100
AcDbEntity
8
Geo
100
AcDbLine
10
-86.5638297872341
20
-5.30926694842031
30
0.000000000000000
11
-86.4638297872341
21
-5.35653166011644
31
0.000000000000000
  0
LINE
  5
F106B0
330
F106B1
100
AcDbEntity
8
Geo
100
AcDbLine
10
-86.5638297872341
20
-1.92245119398988
30
0.000000000000000
11
-86.4638297872341
21
-2.00488427828422
31
0.000000000000000
  0
LINE
  5
F106B2
330
F106B3
100
AcDbEntity
8
Geo
100
AcDbLine
10
-86.4638297872341
20
-5.35653166011644
30
0.000000000000000
11
-86.3638297872341
21
-5.40058929770525
31
0.000000000000000
  0
LINE
  5
F106B4
330
F106B5
100
AcDbEntity
8
Geo
100
AcDbLine
10
-86.4638297872341
20
-2.00488427828422
30
0.000000000000000
11
-86.3638297872341
21
-2.08907507901737
31
0.000000000000000
  0
LINE
  5
F106B6
330
F106B7
100
AcDbEntity
8
Geo
100
AcDbLine
10
-86.3638297872341
20
-5.40058929770525
30
0.000000000000000
11
-86.2638297872341
21
-5.44137459867023
31
0.000000000000000
  0
LINE
  5
F106B8
330
F106B9
100
AcDbEntity
8
Geo
100
AcDbLine
10
-86.3638297872341
20
-2.08907507901737
30
0.000000000000000
11
-86.2638297872341
21
-2.17489888447479
31
0.000000000000000
  0
LINE
  5
F106BA
330
F106BB
100
AcDbEntity
8
Geo
100
AcDbLine
10
-86.2638297872341
20
-5.44137459867023
30
0.000000000000000
11
-86.1638297872341
21
-5.47882714780251
31
0.000000000000000
  0
LINE
  5
F106BC
330
F106BD
100
AcDbEntity
8
Geo
100
AcDbLine
10
-86.2638297872341
20
-2.17489888447479
30
0.000000000000000
11
-86.1638297872341
21
-2.26222856397432
31
0.000000000000000
  0
LINE
  5
F106BE
330
F106BF
100
AcDbEntity
8
Geo
100
AcDbLine
10
-86.1638297872341
20
-5.47882714780251
30
0.000000000000000
11
-86.0638297872341
21
-5.51289146669381
31
0.000000000000000
  0
LINE
  5
F106C0
330
F106C1
100
AcDbEntity
8
Geo
100
AcDbLine
10
-86.1638297872341
20
-2.26222856397432
30
0.000000000000000
11
-86.0638297872341
21
-2.35093475618472
31
0.000000000000000
  0
LINE
  5
F106C2
330
F106C3
100
AcDbEntity
8
Geo
100
AcDbLine
10
-86.0638297872341
20
-5.51289146669381
30
0.000000000000000
11
-85.9638297872341
21
-5.54351709591652
31
0.000000000000000
  0
LINE
  5
F106C4
330
F106C5
100
AcDbEntity
8
Geo
100
AcDbLine
10
-86.0638297872341
20
-2.35093475618472
30
0.000000000000000
11
-85.9638297872341
21
-2.44088606074840
31
0.000000000000000
  0
LINE
  5
F106C6
330
F106C7
100
AcDbEntity
8
Geo
100
AcDbLine
10
-85.9638297872341
20
-5.54351709591652
30
0.000000000000000
11
-85.8638297872341
21
-5.57065866976923
31
0.000000000000000
  0
LINE
  5
F106C8
330
F106C9
100
AcDbEntity
8
Geo
100
AcDbLine
10
-85.9638297872341
20
-2.44088606074840
30
0.000000000000000
11
-85.8638297872341
21
-2.53194923292462
31
0.000000000000000
  0
LINE
  5
F106CA
330
F106CB
100
AcDbEntity
8
Geo
100
AcDbLine
10
-85.8638297872341
20
-5.57065866976923
30
0.000000000000000
11
-85.7638297872341
21
-5.59427598347679
31
0.000000000000000
  0
LINE
  5
F106CC
330
F106CD
100
AcDbEntity
8
Geo
100
AcDbLine
10
-85.8638297872341
20
-2.53194923292462
30
0.000000000000000
11
-85.7638297872341
21
-2.62398938096467
31
0.000000000000000
  0
LINE
  5
F106CE
330
F106CF
100
AcDbEntity
8
Geo
100
AcDbLine
10
-85.7638297872341
20
-5.59427598347679
30
0.000000000000000
11
-85.6638297872341
21
-5.61433405274570
31
0.000000000000000
  0
LINE
  5
F106D0
330
F106D1
100
AcDbEntity
8
Geo
100
AcDbLine
10
-85.7638297872341
20
-2.62398938096467
30
0.000000000000000
11
-85.6638297872341
21
-2.71687016592690
31
0.000000000000000
  0
LINE
  5
F106D2
330
F106D3
100
AcDbEntity
8
Geo
100
AcDbLine
10
-85.6638297872341
20
-5.61433405274570
30
0.000000000000000
11
-85.5638297872341
21
-5.63080316558617
31
0.000000000000000
  0
LINE
  5
F106D4
330
F106D5
100
AcDbEntity
8
Geo
100
AcDbLine
10
-85.6638297872341
20
-2.71687016592690
30
0.000000000000000
11
-85.5638297872341
21
-2.81045400363536
31
0.000000000000000
  0
LINE
  5
F106D6
330
F106D7
100
AcDbEntity
8
Geo
100
AcDbLine
10
-85.5638297872341
20
-5.63080316558617
30
0.000000000000000
11
-85.4638297872341
21
-5.64365892632458
31
0.000000000000000
  0
LINE
  5
F106D8
330
F106D9
100
AcDbEntity
8
Geo
100
AcDbLine
10
-85.5638297872341
20
-2.81045400363536
30
0.000000000000000
11
-85.4638297872341
21
-2.90460226848307
31
0.000000000000000
  0
LINE
  5
F106DA
330
F106DB
100
AcDbEntity
8
Geo
100
AcDbLine
10
-85.4638297872341
20
-5.64365892632458
30
0.000000000000000
11
-85.3638297872341
21
-5.65288229174062
31
0.000000000000000
  0
LINE
  5
F106DC
330
F106DD
100
AcDbEntity
8
Geo
100
AcDbLine
10
-85.4638297872341
20
-2.90460226848307
30
0.000000000000000
11
-85.3638297872341
21
-2.99917549877790
31
0.000000000000000
  0
LINE
  5
F106DE
330
F106DF
100
AcDbEntity
8
Geo
100
AcDbLine
10
-85.3638297872341
20
-5.65288229174062
30
0.000000000000000
11
-85.2638297872341
21
-5.65845959927612
31
0.000000000000000
  0
LINE
  5
F106E0
330
F106E1
100
AcDbEntity
8
Geo
100
AcDbLine
10
-85.3638297872341
20
-2.99917549877790
30
0.000000000000000
11
-85.2638297872341
21
-3.09403360332701
31
0.000000000000000
  0
LINE
  5
F106E2
330
F106E3
100
AcDbEntity
8
Geo
100
AcDbLine
10
-85.2638297872341
20
-5.65845959927612
30
0.000000000000000
11
-85.1638297872341
21
-5.66038258727326
31
0.000000000000000
  0
LINE
  5
F106E4
330
F106E5
100
AcDbEntity
8
Geo
100
AcDbLine
10
-85.2638297872341
20
-3.09403360332701
30
0.000000000000000
11
-85.1638297872341
21
-3.18903606895375
31
0.000000000000000
  0
LINE
  5
F106E6
330
F106E7
100
AcDbEntity
8
Geo
100
AcDbLine
10
-85.1638297872341
20
-3.18903606895375
30
0.000000000000000
11
-85.0638297872341
21
-3.28404216863958
31
0.000000000000000
  0
LINE
  5
F106E8
330
F106E9
100
AcDbEntity
8
Geo
100
AcDbLine
10
-85.0638297872341
20
-0.724330316191613
30
0.000000000000000
11
-84.9638297872341
21
-0.729719095471516
31
0.000000000000000
  0
LINE
  5
F106EA
330
F106EB
100
AcDbEntity
8
Geo
100
AcDbLine
10
-85.0638297872341
20
-3.28404216863958
30
0.000000000000000
11
-84.9638297872341
21
-3.37891116998285
31
0.000000000000000
  0
LINE
  5
F106EC
330
F106ED
100
AcDbEntity
8
Geo
100
AcDbLine
10
-84.9638297872341
20
-0.729719095471516
30
0.000000000000000
11
-84.8638297872341
21
-0.738754491579541
31
0.000000000000000
  0
LINE
  5
F106EE
330
F106EF
100
AcDbEntity
8
Geo
100
AcDbLine
10
-84.9638297872341
20
-3.37891116998285
30
0.000000000000000
11
-84.8638297872341
21
-3.47350254366548
31
0.000000000000000
  0
LINE
  5
F106F0
330
F106F1
100
AcDbEntity
8
Geo
100
AcDbLine
10
-84.8638297872341
20
-0.738754491579541
30
0.000000000000000
11
-84.7638297872341
21
-0.751423120396163
31
0.000000000000000
  0
LINE
  5
F106F2
330
F106F3
100
AcDbEntity
8
Geo
100
AcDbLine
10
-84.8638297872341
20
-3.47350254366548
30
0.000000000000000
11
-84.7638297872341
21
-3.56767617161887
31
0.000000000000000
  0
LINE
  5
F106F4
330
F106F5
100
AcDbEntity
8
Geo
100
AcDbLine
10
-84.7638297872341
20
-0.751423120396163
30
0.000000000000000
11
-84.6638297872341
21
-0.767706215899355
31
0.000000000000000
  0
LINE
  5
F106F6
330
F106F7
100
AcDbEntity
8
Geo
100
AcDbLine
10
-84.7638297872341
20
-3.56767617161887
30
0.000000000000000
11
-84.6638297872341
21
-3.66129255458056
31
0.000000000000000
  0
LINE
  5
F106F8
330
F106F9
100
AcDbEntity
8
Geo
100
AcDbLine
10
-84.6638297872341
20
-0.767706215899355
30
0.000000000000000
11
-84.5638297872341
21
-0.787579657962684
31
0.000000000000000
  0
LINE
  5
F106FA
330
F106FB
100
AcDbEntity
8
Geo
100
AcDbLine
10
-84.6638297872341
20
-3.66129255458056
30
0.000000000000000
11
-84.5638297872341
21
-3.75421301873433
31
0.000000000000000
  0
LINE
  5
F106FC
330
F106FD
100
AcDbEntity
8
Geo
100
AcDbLine
10
-84.5638297872341
20
-0.787579657962684
30
0.000000000000000
11
-84.4638297872341
21
-0.811014008084411
31
0.000000000000000
  0
LINE
  5
F106FE
330
F106FF
100
AcDbEntity
8
Geo
100
AcDbLine
10
-84.5638297872341
20
-3.75421301873433
30
0.000000000000000
11
-84.4638297872341
21
-3.84629992112750
31
0.000000000000000
  0
LINE
  5
F10700
330
F10701
100
AcDbEntity
8
Geo
100
AcDbLine
10
-84.4638297872341
20
-0.811014008084411
30
0.000000000000000
11
-84.3638297872341
21
-0.837974552994708
31
0.000000000000000
  0
LINE
  5
F10702
330
F10703
100
AcDbEntity
8
Geo
100
AcDbLine
10
-84.4638297872341
20
-3.84629992112750
30
0.000000000000000
11
-84.3638297872341
21
-3.93741685356125
31
0.000000000000000
  0
LINE
  5
F10704
330
F10705
100
AcDbEntity
8
Geo
100
AcDbLine
10
-84.3638297872341
20
-0.837974552994708
30
0.000000000000000
11
-84.2638297872341
21
-0.868421356076370
31
0.000000000000000
  0
LINE
  5
F10706
330
F10707
100
AcDbEntity
8
Geo
100
AcDbLine
10
-84.3638297872341
20
-3.93741685356125
30
0.000000000000000
11
-84.2638297872341
21
-4.02742884465189
31
0.000000000000000
  0
LINE
  5
F10708
330
F10709
100
AcDbEntity
8
Geo
100
AcDbLine
10
-84.2638297872341
20
-0.868421356076370
30
0.000000000000000
11
-84.1638297872341
21
-0.902309316522875
31
0.000000000000000
  0
LINE
  5
F1070A
330
F1070B
100
AcDbEntity
8
Geo
100
AcDbLine
10
-84.2638297872341
20
-4.02742884465189
30
0.000000000000000
11
-84.1638297872341
21
-4.11620255976382
31
0.000000000000000
  0
LINE
  5
F1070C
330
F1070D
100
AcDbEntity
8
Geo
100
AcDbLine
10
-84.1638297872341
20
-0.902309316522875
30
0.000000000000000
11
-84.0638297872341
21
-0.939588236146142
31
0.000000000000000
  0
LINE
  5
F1070E
330
F1070F
100
AcDbEntity
8
Geo
100
AcDbLine
10
-84.1638297872341
20
-4.11620255976382
30
0.000000000000000
11
-84.0638297872341
21
-4.20360649851785
31
0.000000000000000
  0
LINE
  5
F10710
330
F10711
100
AcDbEntity
8
Geo
100
AcDbLine
10
-84.0638297872341
20
-0.939588236146142
30
0.000000000000000
11
-83.9638297872341
21
-0.980202893735040
31
0.000000000000000
  0
LINE
  5
F10712
330
F10713
100
AcDbEntity
8
Geo
100
AcDbLine
10
-84.0638297872341
20
-4.20360649851785
30
0.000000000000000
11
-83.9638297872341
21
-4.28951118958261
31
0.000000000000000
  0
LINE
  5
F10714
330
F10715
100
AcDbEntity
8
Geo
100
AcDbLine
10
-83.9638297872341
20
-0.980202893735040
30
0.000000000000000
11
-83.8638297872341
21
-1.02409312685448
31
0.000000000000000
  0
LINE
  5
F10716
330
F10717
100
AcDbEntity
8
Geo
100
AcDbLine
10
-83.9638297872341
20
-4.28951118958261
30
0.000000000000000
11
-83.8638297872341
21
-4.37378938246023
31
0.000000000000000
  0
LINE
  5
F10718
330
F10719
100
AcDbEntity
8
Geo
100
AcDbLine
10
-83.8638297872341
20
-1.02409312685448
30
0.000000000000000
11
-83.7638297872341
21
-1.07119392096397
31
0.000000000000000
  0
LINE
  5
F1071A
330
F1071B
100
AcDbEntity
8
Geo
100
AcDbLine
10
-83.8638297872341
20
-4.37378938246023
30
0.000000000000000
11
-83.7638297872341
21
-4.45631623598230
31
0.000000000000000
  0
LINE
  5
F1071C
330
F1071D
100
AcDbEntity
8
Geo
100
AcDbLine
10
-83.7638297872341
20
-1.07119392096397
30
0.000000000000000
11
-83.6638297872341
21
-1.12143550572352
31
0.000000000000000
  0
LINE
  5
F1071E
330
F1071F
100
AcDbEntity
8
Geo
100
AcDbLine
10
-83.7638297872341
20
-4.45631623598230
30
0.000000000000000
11
-83.6638297872341
21
-4.53696950323691
31
0.000000000000000
  0
LINE
  5
F10720
330
F10721
100
AcDbEntity
8
Geo
100
AcDbLine
10
-83.6638297872341
20
-1.12143550572352
30
0.000000000000000
11
-83.5638297872341
21
-1.17474345834440
31
0.000000000000000
  0
LINE
  5
F10722
330
F10723
100
AcDbEntity
8
Geo
100
AcDbLine
10
-83.6638297872341
20
-4.53696950323691
30
0.000000000000000
11
-83.5638297872341
21
-4.61562971265290
31
0.000000000000000
  0
LINE
  5
F10724
330
F10725
100
AcDbEntity
8
Geo
100
AcDbLine
10
-83.5638297872341
20
-1.17474345834440
30
0.000000000000000
11
-83.4638297872341
21
-1.23103881383147
31
0.000000000000000
  0
LINE
  5
F10726
330
F10727
100
AcDbEntity
8
Geo
100
AcDbLine
10
-83.5638297872341
20
-4.61562971265290
30
0.000000000000000
11
-83.4638297872341
21
-4.69218034497283
31
0.000000000000000
  0
LINE
  5
F10728
330
F10729
100
AcDbEntity
8
Geo
100
AcDbLine
10
-83.4638297872341
20
-1.23103881383147
30
0.000000000000000
11
-83.3638297872341
21
-1.29023818195393
31
0.000000000000000
  0
LINE
  5
F1072A
330
F1072B
100
AcDbEntity
8
Geo
100
AcDbLine
10
-83.4638297872341
20
-4.69218034497283
30
0.000000000000000
11
-83.3638297872341
21
-4.76650800585287
31
0.000000000000000
  0
LINE
  5
F1072C
330
F1072D
100
AcDbEntity
8
Geo
100
AcDbLine
10
-83.3638297872341
20
-1.29023818195393
30
0.000000000000000
11
-83.2638297872341
21
-1.35225387077116
31
0.000000000000000
  0
LINE
  5
F1072E
330
F1072F
100
AcDbEntity
8
Geo
100
AcDbLine
10
-83.3638297872341
20
-4.76650800585287
30
0.000000000000000
11
-83.2638297872341
21
-4.83850259383364
31
0.000000000000000
  0
LINE
  5
F10730
330
F10731
100
AcDbEntity
8
Geo
100
AcDbLine
10
-83.2638297872341
20
-1.35225387077116
30
0.000000000000000
11
-83.1638297872341
21
-1.41699401653067
31
0.000000000000000
  0
LINE
  5
F10732
330
F10733
100
AcDbEntity
8
Geo
100
AcDbLine
10
-83.2638297872341
20
-4.83850259383364
30
0.000000000000000
11
-83.1638297872341
21
-4.90805746343336
31
0.000000000000000
  0
LINE
  5
F10734
330
F10735
100
AcDbEntity
8
Geo
100
AcDbLine
10
-83.1638297872341
20
-1.41699401653067
30
0.000000000000000
11
-83.0638297872341
21
-1.48436271974571
31
0.000000000000000
  0
LINE
  5
F10736
330
F10737
100
AcDbEntity
8
Geo
100
AcDbLine
10
-83.1638297872341
20
-4.90805746343336
30
0.000000000000000
11
-83.0638297872341
21
-4.97506958312167
31
0.000000000000000
  0
LINE
  5
F10738
330
F10739
100
AcDbEntity
8
Geo
100
AcDbLine
10
-83.0638297872341
20
-1.48436271974571
30
0.000000000000000
11
-82.9638297872341
21
-1.55426018725111
31
0.000000000000000
  0
LINE
  5
F1073A
330
F1073B
100
AcDbEntity
8
Geo
100
AcDbLine
10
-83.0638297872341
20
-4.97506958312167
30
0.000000000000000
11
-82.9638297872341
21
-5.03943968794004
31
0.000000000000000
  0
LINE
  5
F1073C
330
F1073D
100
AcDbEntity
8
Geo
100
AcDbLine
10
-82.9638297872341
20
-1.55426018725111
30
0.000000000000000
11
-82.8638297872341
21
-1.62658288002669
31
0.000000000000000
  0
LINE
  5
F1073E
330
F1073F
100
AcDbEntity
8
Geo
100
AcDbLine
10
-82.9638297872341
20
-5.03943968794004
30
0.000000000000000
11
-82.8638297872341
21
-5.10107242654287
31
0.000000000000000
  0
LINE
  5
F10740
330
F10741
100
AcDbEntity
8
Geo
100
AcDbLine
10
-82.8638297872341
20
-1.62658288002669
30
0.000000000000000
11
-82.7638297872341
21
-1.70122366656951
31
0.000000000000000
  0
LINE
  5
F10742
330
F10743
100
AcDbEntity
8
Geo
100
AcDbLine
10
-82.8638297872341
20
-5.10107242654287
30
0.000000000000000
11
-82.7638297872341
21
-5.15987650244128
31
0.000000000000000
  0
LINE
  5
F10744
330
F10745
100
AcDbEntity
8
Geo
100
AcDbLine
10
-82.7638297872341
20
-1.70122366656951
30
0.000000000000000
11
-82.6638297872341
21
-1.77807198158759
31
0.000000000000000
  0
LINE
  5
F10746
330
F10747
100
AcDbEntity
8
Geo
100
AcDbLine
10
-82.7638297872341
20
-5.15987650244128
30
0.000000000000000
11
-82.6638297872341
21
-5.21576480924046
31
0.000000000000000
  0
LINE
  5
F10748
330
F10749
100
AcDbEntity
8
Geo
100
AcDbLine
10
-82.6638297872341
20
-1.77807198158759
30
0.000000000000000
11
-82.5638297872341
21
-1.85701398978012
31
0.000000000000000
  0
LINE
  5
F1074A
330
F1074B
100
AcDbEntity
8
Geo
100
AcDbLine
10
-82.6638297872341
20
-5.21576480924046
30
0.000000000000000
11
-82.5638297872341
21
-5.26865455967025
31
0.000000000000000
  0
LINE
  5
F1074C
330
F1074D
100
AcDbEntity
8
Geo
100
AcDbLine
10
-82.5638297872341
20
-1.85701398978012
30
0.000000000000000
11
-82.4638297872341
21
-1.93793275446156
31
0.000000000000000
  0
LINE
  5
F1074E
330
F1074F
100
AcDbEntity
8
Geo
100
AcDbLine
10
-82.5638297872341
20
-5.26865455967025
30
0.000000000000000
11
-82.4638297872341
21
-5.31846740821786
31
0.000000000000000
  0
LINE
  5
F10750
330
F10751
100
AcDbEntity
8
Geo
100
AcDbLine
10
-82.4638297872341
20
-1.93793275446156
30
0.000000000000000
11
-82.3638297872341
21
-2.02070841077975
31
0.000000000000000
  0
LINE
  5
F10752
330
F10753
100
AcDbEntity
8
Geo
100
AcDbLine
10
-82.4638297872341
20
-5.31846740821786
30
0.000000000000000
11
-82.3638297872341
21
-5.36512956718086
31
0.000000000000000
  0
LINE
  5
F10754
330
F10755
100
AcDbEntity
8
Geo
100
AcDbLine
10
-82.3638297872341
20
-2.02070841077975
30
0.000000000000000
11
-82.2638297872341
21
-2.10521834327157
31
0.000000000000000
  0
LINE
  5
F10756
330
F10757
100
AcDbEntity
8
Geo
100
AcDbLine
10
-82.3638297872341
20
-5.36512956718086
30
0.000000000000000
11
-82.2638297872341
21
-5.40857191596893
31
0.000000000000000
  0
LINE
  5
F10758
330
F10759
100
AcDbEntity
8
Geo
100
AcDbLine
10
-82.2638297872341
20
-2.10521834327157
30
0.000000000000000
11
-82.1638297872341
21
-2.19133736749306
31
0.000000000000000
  0
LINE
  5
F1075A
330
F1075B
100
AcDbEntity
8
Geo
100
AcDbLine
10
-82.2638297872341
20
-5.40857191596893
30
0.000000000000000
11
-82.1638297872341
21
-5.44873010349197
31
0.000000000000000
  0
LINE
  5
F1075C
330
F1075D
100
AcDbEntity
8
Geo
100
AcDbLine
10
-82.1638297872341
20
-2.19133736749306
30
0.000000000000000
11
-82.0638297872341
21
-2.27893791545491
31
0.000000000000000
  0
LINE
  5
F1075E
330
F1075F
100
AcDbEntity
8
Geo
100
AcDbLine
10
-82.1638297872341
20
-5.44873010349197
30
0.000000000000000
11
-82.0638297872341
21
-5.48554464348338
31
0.000000000000000
  0
LINE
  5
F10760
330
F10761
100
AcDbEntity
8
Geo
100
AcDbLine
10
-93.0638297872341
20
-3.19148936170212
30
0.000000000000000
11
-93.0638297872341
21
-3.19148936170212
31
0.000000000000000
  0
LINE
  5
F10762
330
F10763
100
AcDbEntity
8
Geo
100
AcDbLine
10
-93.0638297872341
20
-3.19148936170212
30
0.000000000000000
11
-93.0638297872341
21
-3.19148936170212
31
0.000000000000000
  0
LINE
  5
F10764
330
F10765
100
AcDbEntity
8
Geo
100
AcDbLine
10
-94.0638297872341
20
-3.19148936170212
30
0.000000000000000
11
-93.7638297872341
21
-3.19148936170212
31
0.000000000000000
  0
LINE
  5
F10766
330
F10767
100
AcDbEntity
8
Geo
100
AcDbLine
10
-93.6363297872341
20
-3.19148936170212
30
0.000000000000000
11
-93.5513297872341
21
-3.19148936170212
31
0.000000000000000
  0
LINE
  5
F10768
330
F10769
100
AcDbEntity
8
Geo
100
AcDbLine
10
-93.3388297872341
20
-3.19148936170212
30
0.000000000000000
11
-92.9138297872341
21
-3.19148936170212
31
0.000000000000000
  0
LINE
  5
F1076A
330
F1076B
100
AcDbEntity
8
Geo
100
AcDbLine
10
-92.7863297872341
20
-3.19148936170212
30
0.000000000000000
11
-92.7013297872341
21
-3.19148936170212
31
0.000000000000000
  0
LINE
  5
F1076C
330
F1076D
100
AcDbEntity
8
Geo
100
AcDbLine
10
-92.4888297872341
20
-3.19148936170212
30
0.000000000000000
11
-92.0638297872341
21
-3.19148936170212
31
0.000000000000000
  0
LINE
  5
F1076E
330
F1076F
100
AcDbEntity
8
Geo
100
AcDbLine
10
-31.0638297872340
20
-1.19148936170212
30
0.000000000000000
11
-31.0638297872340
21
-3.19148936170212
31
0.000000000000000
  0
LINE
  5
F10770
330
F10771
100
AcDbEntity
8
Geo
100
AcDbLine
10
-92.9800199404539
20
-3.19148936170212
30
0.000000000000000
11
-93.0638297872341
21
-5.59148936170213
31
0.000000000000000
  0
LINE
  5
F10772
330
F10773
100
AcDbEntity
8
Geo
100
AcDbLine
10
-93.0638297872341
20
-5.59148936170213
30
0.000000000000000
11
-92.9638297872341
21
-5.69148936170212
31
0.000000000000000
  0
LINE
  5
F10774
330
F10775
100
AcDbEntity
8
Geo
100
AcDbLine
10
-92.9638297872341
20
-5.69148936170212
30
0.000000000000000
11
-77.0638297872341
21
-5.69148936170212
31
0.000000000000000
  0
LINE
  5
F10776
330
F10777
100
AcDbEntity
8
Geo
100
AcDbLine
10
-77.0638297872341
20
-5.69148936170212
30
0.000000000000000
11
-73.0638297872341
21
-5.69148936170212
31
0.000000000000000
  0
LINE
  5
F10778
330
F10779
100
AcDbEntity
8
Geo
100
AcDbLine
10
-73.0638297872341
20
-5.69148936170212
30
0.000000000000000
11
-71.1978043834496
21
-6.19148936170212
31
0.000000000000000
  0
LINE
  5
F1077A
330
F1077B
100
AcDbEntity
8
Geo
100
AcDbLine
10
-71.1978043834496
20
-6.19148936170212
30
0.000000000000000
11
-32.0638297872340
21
-6.19148936170212
31
0.000000000000000
  0
LINE
  5
F1077C
330
F1077D
100
AcDbEntity
8
Geo
100
AcDbLine
10
-32.0638297872340
20
-6.19148936170212
30
0.000000000000000
11
-31.0638297872340
21
-5.19148936170213
31
0.000000000000000
  0
LINE
  5
F1077E
330
F1077F
100
AcDbEntity
8
Geo
100
AcDbLine
10
-93.0638297872341
20
-0.791489361702125
30
0.000000000000000
11
-93.0638297872341
21
-5.59148936170213
31
0.000000000000000
  0
LINE
  5
F10780
330
F10781
100
AcDbEntity
8
Geo
100
AcDbLine
10
-92.9638297872341
20
-0.691489361702125
30
0.000000000000000
11
-92.9638297872341
21
-5.69148936170212
31
0.000000000000000
  0
LINE
  5
F10782
330
F10783
100
AcDbEntity
8
Geo
100
AcDbLine
10
-92.9638297872341
20
-0.691489361702125
30
0.000000000000000
11
-92.9638297872341
21
-5.69148936170212
31
0.000000000000000
  0
LINE
  5
F10784
330
F10785
100
AcDbEntity
8
Geo
100
AcDbLine
10
-77.0638297872341
20
-0.691489361702125
30
0.000000000000000
11
-77.0638297872341
21
-5.69148936170212
31
0.000000000000000
  0
LINE
  5
F10786
330
F10787
100
AcDbEntity
8
Geo
100
AcDbLine
10
-77.0638297872341
20
-0.691489361702125
30
0.000000000000000
11
-77.0638297872341
21
-5.69148936170212
31
0.000000000000000
  0
LINE
  5
F10788
330
F10789
100
AcDbEntity
8
Geo
100
AcDbLine
10
-73.0638297872341
20
-0.691489361702125
30
0.000000000000000
11
-73.0638297872341
21
-5.69148936170212
31
0.000000000000000
  0
LINE
  5
F1078A
330
F1078B
100
AcDbEntity
8
Geo
100
AcDbLine
10
-71.1978043834496
20
-0.191489361702125
30
0.000000000000000
11
-71.1978043834496
21
-6.19148936170212
31
0.000000000000000
  0
LINE
  5
F1078C
330
F1078D
100
AcDbEntity
8
Geo
100
AcDbLine
10
-71.1978043834496
20
-0.191489361702125
30
0.000000000000000
11
-71.1978043834496
21
-6.19148936170212
31
0.000000000000000
  0
LINE
  5
F1078E
330
F1078F
100
AcDbEntity
8
Geo
100
AcDbLine
10
-32.0638297872340
20
-0.191489361702125
30
0.000000000000000
11
-32.0638297872340
21
-6.19148936170212
31
0.000000000000000
  0
LINE
  5
F10790
330
F10791
100
AcDbEntity
8
Geo
100
AcDbLine
10
-31.0638297872340
20
-1.19148936170212
30
0.000000000000000
11
-31.0638297872340
21
-5.19148936170213
31
0.000000000000000
  0
LWPOLYLINE
  5
F10792
330
F10793
100
AcDbEntity
8
Rahmen
100
AcDbPolyline
90
   4
70
   1
43
   0.0
 10
-125.531555083423
 20
102.929720066340
 10
134.481792405389
 20
102.929720066340
 10
134.481792405389
 20
-102.889365806618
 10
-125.531555083423
 20
-102.889365806618
  0
TEXT
  5
F10794
330
F10795
 100
AcDbEntity
8
Text
100
AcDbText
10
-133.511808991691
20
-102.389365806618
30
0.000000000000000
40
1.00000000000000
1
ISBESketcher
100
AcDbText
  0
LWPOLYLINE
  5
F10796
330
F10797
100
AcDbEntity
8
Rahmen
100
AcDbPolyline
90
   4
70
   1
43
   0.0
 10
94.4614145967588
 20
-99.9116591244286
 10
134.481792405389
 20
-99.9116591244286
 10
134.481792405389
 20
-102.889365806618
 10
94.4614145967588
 20
-102.889365806618
  0
TEXT
  5
F10798
330
F10799
 100
AcDbEntity
8
Text
100
AcDbText
10
95.5000000000000
20
-102.024203737369
30
0.000000000000000
40
0.750000000000000
1
Created by:
100
AcDbText
  0
TEXT
  5
F1079A
330
F1079B
 100
AcDbEntity
8
Text
100
AcDbText
10
120.534713589755
20
-102.024203737369
30
0.000000000000000
40
0.750000000000000
1
nsarkol
100
AcDbText
  0
LWPOLYLINE
  5
F1079C
330
F1079D
100
AcDbEntity
8
Rahmen
100
AcDbPolyline
90
   4
70
   1
43
   0.0
 10
54.4410367881281
 20
-99.9116591244286
 10
94.4614145967588
 20
-99.9116591244286
 10
94.4614145967588
 20
-102.889365806618
 10
54.4410367881281
 20
-102.889365806618
  0
TEXT
  5
F1079E
330
F1079F
 100
AcDbEntity
8
Text
100
AcDbText
10
55.5000000000000
20
-102.024203737369
30
0.000000000000000
40
0.750000000000000
1
Created for:
100
AcDbText
  0
TEXT
  5
F107A0
330
F107A1
 100
AcDbEntity
8
Text
100
AcDbText
10
0.000000000000000
20
0.250000000000000
30
0.000000000000000
40
0.750000000000000
1

100
AcDbText
  0
LWPOLYLINE
  5
F107A2
330
F107A3
100
AcDbEntity
8
Rahmen
100
AcDbPolyline
90
   4
70
   1
43
   0.0
 10
121.141666469179
 20
-96.9339524422388
 10
134.481792405389
 20
-96.9339524422388
 10
134.481792405389
 20
-99.9116591244286
 10
121.141666469179
 20
-99.9116591244286
  0
TEXT
  5
F107A4
330
F107A5
 100
AcDbEntity
8
Text
100
AcDbText
10
122.166666666667
20
-99.0242037373693
30
0.000000000000000
40
0.750000000000000
1
Pages
100
AcDbText
  0
TEXT
  5
F107A6
330
F107A7
 100
AcDbEntity
8
Text
100
AcDbText
10
0.000000000000000
20
0.250000000000000
30
0.000000000000000
40
0.750000000000000
1

100
AcDbText
  0
LWPOLYLINE
  5
F107A8
330
F107A9
100
AcDbEntity
8
Rahmen
100
AcDbPolyline
90
   4
70
   1
43
   0.0
 10
121.141666469179
 20
-93.9562457600491
 10
134.481792405389
 20
-93.9562457600491
 10
134.481792405389
 20
-96.9339524422388
 10
121.141666469179
 20
-96.9339524422388
  0
TEXT
  5
F107AA
330
F107AB
 100
AcDbEntity
8
Text
100
AcDbText
10
122.166666666667
20
-96.0242037373693
30
0.000000000000000
40
0.750000000000000
1
Page
100
AcDbText
  0
TEXT
  5
F107AC
330
F107AD
 100
AcDbEntity
8
Text
100
AcDbText
10
0.000000000000000
20
0.250000000000000
30
0.000000000000000
40
0.750000000000000
1

100
AcDbText
  0
LWPOLYLINE
  5
F107AE
330
F107AF
100
AcDbEntity
8
Rahmen
100
AcDbPolyline
90
   4
70
   1
43
   0.0
 10
54.4410367881281
 20
-93.9562457600491
 10
121.141666469179
 20
-93.9562457600491
 10
121.141666469179
 20
-99.9116591244286
 10
54.4410367881281
 20
-99.9116591244286
  0
TEXT
  5
F107B0
330
F107B1
 100
AcDbEntity
8
Text
100
AcDbText
10
55.5000000000000
20
-96.0242037373693
30
0.000000000000000
40
0.750000000000000
1
Date:
100
AcDbText
  0
TEXT
  5
F107B2
330
F107B3
 100
AcDbEntity
8
Text
100
AcDbText
10
84.5578559829246
20
-99.0242037373693
30
0.000000000000000
40
0.750000000000000
1
05.07.2016
100
AcDbText
  0
LWPOLYLINE
  5
F107B4
330
F107B5
100
AcDbEntity
8
Rahmen
100
AcDbPolyline
90
   4
70
   1
43
   0.0
 10
54.4410367881281
 20
-87.8817241283819
 10
134.481792405389
 20
-87.8817241283819
 10
134.481792405389
 20
-93.9562457600491
 10
54.4410367881281
 20
-93.9562457600491
  0
TEXT
  5
F107B6
330
F107B7
 100
AcDbEntity
8
Text
100
AcDbText
10
0.000000000000000
20
0.500000000000000
30
0.000000000000000
40
1.50000000000000
1

100
AcDbText
  0
TEXT
  5
F107B8
330
F107B9
 100
AcDbEntity
8
Text
100
AcDbText
10
71.6312126807824
20
-92.6679402797061
30
0.000000000000000
40
2.50000000000000
1
VHTR 4 050 062 06 03
100
AcDbText
  0
LWPOLYLINE
  5
F107BA
330
F107BB
100
AcDbEntity
8
Rahmen
100
AcDbPolyline
90
   4
70
   1
43
   0.0
 10
94.4614145967588
 20
-81.9263107640023
 10
134.481792405389
 20
-81.9263107640023
 10
134.481792405389
 20
-87.8817241283819
 10
94.4614145967588
 20
-87.8817241283819
  0
TEXT
  5
F107BC
330
F107BD
 100
AcDbEntity
8
Text
100
AcDbText
10
95.5000000000000
20
-84.0242037373693
30
0.000000000000000
40
0.750000000000000
1
Work piece material:
100
AcDbText
  0
TEXT
  5
F107BE
330
F107BF
 100
AcDbEntity
8
Text
100
AcDbText
10
0.000000000000000
20
0.250000000000000
30
0.000000000000000
40
0.750000000000000
1

100
AcDbText
  0
LWPOLYLINE
  5
F107C0
330
F107C1
100
AcDbEntity
8
Rahmen
100
AcDbPolyline
90
   4
70
   1
43
   0.0
 10
54.4410367881281
 20
-81.9263107640023
 10
94.4614145967588
 20
-81.9263107640023
 10
94.4614145967588
 20
-87.8817241283819
 10
54.4410367881281
 20
-87.8817241283819
  0
TEXT
  5
F107C2
330
F107C3
 100
AcDbEntity
8
Text
100
AcDbText
10
55.5000000000000
20
-84.0242037373693
30
0.000000000000000
40
0.750000000000000
1
Tool material:
100
AcDbText
  0
TEXT
  5
F107C4
330
F107C5
 100
AcDbEntity
8
Text
100
AcDbText
10
0.000000000000000
20
0.250000000000000
30
0.000000000000000
40
0.750000000000000
1

100
AcDbText
  0
LWPOLYLINE
  5
F107C6
330
F107C7
100
AcDbEntity
8
Rahmen
100
AcDbPolyline
90
   4
70
   1
43
   0.0
 10
94.4614145967588
 20
-78.9486040818125
 10
134.481792405389
 20
-78.9486040818125
 10
134.481792405389
 20
-81.9263107640023
 10
94.4614145967588
 20
-81.9263107640023
  0
TEXT
  5
F107C8
330
F107C9
 100
AcDbEntity
8
Text
100
AcDbText
10
0.000000000000000
20
0.500000000000000
30
0.000000000000000
40
1.50000000000000
1

100
AcDbText
  0
TEXT
  5
F107CA
330
F107CB
 100
AcDbEntity
8
Text
100
AcDbText
10
0.000000000000000
20
0.250000000000000
30
0.000000000000000
40
0.750000000000000
1

100
AcDbText
  0
LWPOLYLINE
  5
F107CC
330
F107CD
100
AcDbEntity
8
Rahmen
100
AcDbPolyline
90
   4
70
   1
43
   0.0
 10
54.4410367881281
 20
-78.9486040818125
 10
94.4614145967588
 20
-78.9486040818125
 10
94.4614145967588
 20
-81.9263107640023
 10
54.4410367881281
 20
-81.9263107640023
  0
TEXT
  5
F107CE
330
F107CF
 100
AcDbEntity
8
Text
100
AcDbText
10
55.5000000000000
20
-81.0242037373693
30
0.000000000000000
40
0.750000000000000
1
Scale:
100
AcDbText
  0
TEXT
  5
F107D0
330
F107D1
 100
AcDbEntity
8
Text
100
AcDbText
10
81.1898090598365
20
-81.0242037373693
30
0.000000000000000
40
0.750000000000000
1
3 : 1
100
AcDbText
0
VIEWPORT
5
294
102
{ACAD_XDICTIONARY
360
58A
102
}
330
25D
100
AcDbEntity
67
1
8
0
60
1
100
AcDbViewport
10
0.0
20
0.0
30
0.0
40
10.0
41
10.0
68
-1
69
1
12
0.0
22
0.0
13
0.0
23
0.0
14
1.0
24
1.0
15
0.0
25
0.0
16
0.0
26
0.0
36
1.0
17
0.0
27
0.0
37
0.0
42
0.0
43
0.0
44
0.0
45
10.0
50
0.0
51
0.0000000000007958
72
100
90
32800
1

281
0
71
0
74
0
110
0.0
120
0.0
130
0.0
111
1.0
121
0.0
131
0.0
112
0.0
122
1.0
132
0.0
79
0
146
0.0
1001
VD_INVISIBLE_NOT_FOR_READ
1000
VD_INVISIBLE_NOT_FOR_READ
0
VIEWPORT
5
295
102
{ACAD_XDICTIONARY
360
58C
102
}
330
25D
100
AcDbEntity
67
1
8
0
60
1
100
AcDbViewport
10
0.0
20
0.0
30
0.0
40
10.0
41
10.0
68
0
69
2
12
0.0
22
0.0
13
0.0
23
0.0
14
1.0
24
1.0
15
0.0
25
0.0
16
0.0
26
0.0
36
1.0
17
0.0
27
0.0
37
0.0
42
0.0
43
0.0
44
0.0
45
10.0
50
0.0
51
0.0000000000007958
72
100
90
163872
1

281
0
71
0
74
0
110
0.0
120
0.0
130
0.0
111
1.0
121
0.0
131
0.0
112
0.0
122
1.0
132
0.0
79
0
146
0.0
1001
VD_INVISIBLE_NOT_FOR_READ
1000
VD_INVISIBLE_NOT_FOR_READ
0
ENDSEC
0
SECTION
2
OBJECTS
0
DICTIONARY
5
13
330
0
100
AcDbDictionary
281
1
3
ACAD_COLOR
350
FA7
3
ACAD_GROUP
350
14
3
ACAD_LAYOUT
350
FCF
3
ACAD_MATERIAL
350
F7A
3
ACAD_MLEADERSTYLE
350
FCD
3
ACAD_MLINESTYLE
350
16
3
ACAD_PLOTSETTINGS
350
17
3
ACAD_PLOTSTYLENAME
350
18
3
ACAD_SCALELIST
350
FAB
3
ACAD_TABLESTYLE
350
FA8
3
ACAD_VISUALSTYLE
350
F93
3
ACDB_RECOMPOSE_DATA
350
107E
3
AcDbVariableDictionary
350
FF0
3
DWGPROPS
350
107F
0
DICTIONARY
5
F1000A
330
F10009
100
AcDbDictionary
280
1
281
1
3
ACAD_MTEXT_2008_RT
360
F1000B
0
DICTIONARY
5
F10014
330
F10013
100
AcDbDictionary
280
1
281
1
3
ACAD_MTEXT_2008_RT
360
F10015
0
DICTIONARY
5
F10023
330
F10022
100
AcDbDictionary
280
1
281
1
3
ACAD_MTEXT_2008_RT
360
F10024
0
DICTIONARY
5
F1002D
330
F1002C
100
AcDbDictionary
280
1
281
1
3
ACAD_MTEXT_2008_RT
360
F1002E
0
DICTIONARY
5
F10032
330
F10031
100
AcDbDictionary
280
1
281
1
3
ACAD_MTEXT_2008_RT
360
F10033
0
DICTIONARY
5
F10005
330
F10004
100
AcDbDictionary
280
1
281
1
3
ACAD_MTEXT_2008_RT
360
F10006
0
DICTIONARY
5
F1001E
330
F1001D
100
AcDbDictionary
280
1
281
1
3
ACAD_MTEXT_2008_RT
360
F1001F
0
DICTIONARY
5
F1000F
330
F1000E
100
AcDbDictionary
280
1
281
1
3
ACAD_MTEXT_2008_RT
360
F10010
0
DICTIONARY
5
F10019
330
F10018
100
AcDbDictionary
280
1
281
1
3
ACAD_MTEXT_2008_RT
360
F1001A
0
DICTIONARY
5
F10028
330
F10027
100
AcDbDictionary
280
1
281
1
3
ACAD_MTEXT_2008_RT
360
F10029
0
DICTIONARY
5
FA7
102
{ACAD_REACTORS
330
13
102
}
330
13
100
AcDbDictionary
281
1
0
DICTIONARY
5
14
330
13
100
AcDbDictionary
281
1
0
DICTIONARY
5
FCF
102
{ACAD_REACTORS
330
13
102
}
330
13
100
AcDbDictionary
281
1
3
Layout1
350
FD1
3
Model
350
FD0
0
DICTIONARY
5
F7A
102
{ACAD_REACTORS
330
13
102
}
330
13
100
AcDbDictionary
281
1
3
ByBlock
350
F83
3
ByLayer
350
F7B
3
Global
350
F8B
0
DICTIONARY
5
FCD
102
{ACAD_REACTORS
330
13
102
}
330
13
100
AcDbDictionary
281
1
3
Standard
350
FCE
0
DICTIONARY
5
16
330
13
100
AcDbDictionary
281
1
3
Standard
350
FAA
0
DICTIONARY
5
17
102
{ACAD_REACTORS
330
13
102
}
330
13
100
AcDbDictionary
281
1
0
ACDBDICTIONARYWDFLT
5
18
102
{ACAD_REACTORS
330
13
102
}
330
13
100
AcDbDictionary
281
1
3
Normal
350
19
100
AcDbDictionaryWithDefault
340
19
0
DICTIONARY
5
FAB
102
{ACAD_REACTORS
330
13
102
}
330
13
100
AcDbDictionary
281
1
3
A0
350
FAC
3
A1
350
FAD
3
A2
350
FAE
3
A3
350
FAF
3
A4
350
FB0
3
A5
350
FB1
3
A6
350
FB2
3
A7
350
FB3
3
A8
350
FB4
3
A9
350
FB5
3
B0
350
FB6
3
B1
350
FB7
3
B2
350
FB8
3
B3
350
FB9
3
B4
350
FBA
3
B5
350
FBB
3
B6
350
FBC
3
B7
350
FBD
3
B8
350
FBE
3
B9
350
FBF
3
C0
350
FC0
3
C1
350
FC1
3
C2
350
FC2
3
C3
350
FC3
3
C4
350
FC4
3
C5
350
FC5
3
C6
350
FC6
3
C7
350
FC7
3
C8
350
FC8
3
C9
350
FC9
3
D0
350
FCA
3
D1
350
FCB
3
D2
350
FCC
0
DICTIONARY
5
FA8
102
{ACAD_REACTORS
330
13
102
}
330
13
100
AcDbDictionary
281
1
3
Standard
350
FA9
0
DICTIONARY
5
F93
102
{ACAD_REACTORS
330
13
102
}
330
13
100
AcDbDictionary
281
1
3
2dWireframe
350
F99
3
3D Hidden
350
F9B
3
3dWireframe
350
F9A
3
Basic
350
F98
3
Brighten
350
F9F
3
ColorChange
350
FA3
3
Conceptual
350
F9C
3
Dim
350
F9E
3
EdgeColorOff
350
FA6
3
Facepattern
350
FA2
3
Flat
350
F94
3
FlatWithEdges
350
F95
3
Gouraud
350
F96
3
GouraudWithEdges
350
F97
3
JitterOff
350
FA4
3
Linepattern
350
FA1
3
OverhangOff
350
FA5
3
Realistic
350
F9D
3
Thicken
350
FA0
0
XRECORD
5
107E
102
{ACAD_REACTORS
330
13
102
}
330
13
100
AcDbXrecord
280
1
90
1
330
FA9
330
F10009
330
F10013
330
F10022
330
F1002C
330
F10031
330
F10004
330
F1001D
330
F1000E
330
F10018
330
F10027
0
XRECORD
5
F1000B
102
{ACAD_REACTORS
330
F1000A
102
}
330
F1000A
100
AcDbXrecord
280
1
40
48458.0
1
0.1 x 45°
0
XRECORD
5
F10015
102
{ACAD_REACTORS
330
F10014
102
}
330
F10014
100
AcDbXrecord
280
1
40
48458.0
1
20
0
XRECORD
5
F10024
102
{ACAD_REACTORS
330
F10023
102
}
330
F10023
100
AcDbXrecord
280
1
40
48458.0
1
40.134
0
XRECORD
5
F1002E
102
{ACAD_REACTORS
330
F1002D
102
}
330
F1002D
100
AcDbXrecord
280
1
40
48458.0
1
16
0
XRECORD
5
F10033
102
{ACAD_REACTORS
330
F10032
102
}
330
F10032
100
AcDbXrecord
280
1
40
48458.0
1
62
0
XRECORD
5
F10006
102
{ACAD_REACTORS
330
F10005
102
}
330
F10005
100
AcDbXrecord
280
1
40
48458.0
1
2°
0
XRECORD
5
F1001F
102
{ACAD_REACTORS
330
F1001E
102
}
330
F1001E
100
AcDbXrecord
280
1
40
48458.0
1
15°
0
XRECORD
5
F10010
102
{ACAD_REACTORS
330
F1000F
102
}
330
F1000F
100
AcDbXrecord
280
1
40
48458.0
1
5
0
XRECORD
5
F1001A
102
{ACAD_REACTORS
330
F10019
102
}
330
F10019
100
AcDbXrecord
280
1
40
48458.0
1
6
0
LAYOUT
5
FD1
102
{ACAD_XDICTIONARY
360
10A9
102
}
102
{ACAD_REACTORS
330
FCF
102
}
330
FCF
100
AcDbPlotSettings
1

2
Microsoft XPS Document Writer
4

6

40
0.0
41
0.0
42
0.0
43
0.0
44
0.0
45
0.0
46
0.0
47
0.0
48
0.0
49
0.0
140
0.0
141
0.0
142
1.0
143
1.0
70
688
72
0
73
0
74
5
7

75
16
147
1.0
148
0.0
149
0.0
100
AcDbLayout
1
Layout1
70
1
71
1
10
0.0
20
0.0
11
12.0
21
9.0
12
0.0
22
0.0
32
0.0
14
1.000000000000000E+20
24
1.000000000000000E+20
34
1.000000000000000E+20
15
-1.000000000000000E+20
25
-1.000000000000000E+20
35
-1.000000000000000E+20
146
0.0
13
0.0
23
0.0
33
0.0
16
1.0
26
0.0
36
0.0
17
0.0
27
1.0
37
0.0
76
0
330
25D
0
LAYOUT
5
FD0
102
{ACAD_XDICTIONARY
360
10A7
102
}
102
{ACAD_REACTORS
330
FCF
102
}
330
FCF
100
AcDbPlotSettings
1

2
Microsoft XPS Document Writer
4

6

40
0.0
41
0.0
42
0.0
43
0.0
44
0.0
45
0.0
46
0.0
47
0.0
48
0.0
49
0.0
140
0.0
141
0.0
142
1.0
143
1.0
70
1712
72
0
73
0
74
0
7

75
0
147
1.0
148
0.0
149
0.0
100
AcDbLayout
1
Model
70
1
71
0
10
0.0
20
0.0
11
12.0
21
9.0
12
0.0
22
0.0
32
0.0
14
0.0
24
0.0
34
0.0
15
0.0
25
0.0
35
0.0
146
0.0
13
0.0
23
0.0
33
0.0
16
1.0
26
0.0
36
0.0
17
0.0
27
1.0
37
0.0
76
0
330
261
331
26B
0
MATERIAL
5
F83
102
{ACAD_XDICTIONARY
360
F84
102
}
102
{ACAD_REACTORS
330
F7A
102
}
330
F7A
100
AcDbMaterial
1
ByBlock
72
0
43
0.0208333333333333
43
0.0
43
0.0
43
0.0
43
0.0
43
0.0208333333333333
43
0.0
43
0.0
43
0.0
43
0.0
43
1.0
43
0.0
43
0.0
43
0.0
43
0.0
43
1.0
77
0
47
0.0208333333333333
47
0.0
47
0.0
47
0.0
47
0.0
47
0.0208333333333333
47
0.0
47
0.0
47
0.0
47
0.0
47
1.0
47
0.0
47
0.0
47
0.0
47
0.0
47
1.0
171
0
49
0.0208333333333333
49
0.0
49
0.0
49
0.0
49
0.0
49
0.0208333333333333
49
0.0
49
0.0
49
0.0
49
0.0
49
1.0
49
0.0
49
0.0
49
0.0
49
0.0
49
1.0
175
0
142
0.0208333333333333
142
0.0
142
0.0
142
0.0
142
0.0
142
0.0208333333333333
142
0.0
142
0.0
142
0.0
142
0.0
142
1.0
142
0.0
142
0.0
142
0.0
142
0.0
142
1.0
179
0
144
0.0208333333333333
144
0.0
144
0.0
144
0.0
144
0.0
144
0.0208333333333333
144
0.0
144
0.0
144
0.0
144
0.0
144
1.0
144
0.0
144
0.0
144
0.0
144
0.0
144
1.0
147
0.0208333333333333
147
0.0
147
0.0
147
0.0
147
0.0
147
0.0208333333333333
147
0.0
147
0.0
147
0.0
147
0.0
147
1.0
147
0.0
147
0.0
147
0.0
147
0.0
147
1.0
0
MATERIAL
5
F7B
102
{ACAD_XDICTIONARY
360
F7C
102
}
102
{ACAD_REACTORS
330
F7A
102
}
330
F7A
100
AcDbMaterial
1
ByLayer
72
0
43
0.0208333333333333
43
0.0
43
0.0
43
0.0
43
0.0
43
0.0208333333333333
43
0.0
43
0.0
43
0.0
43
0.0
43
1.0
43
0.0
43
0.0
43
0.0
43
0.0
43
1.0
77
0
47
0.0208333333333333
47
0.0
47
0.0
47
0.0
47
0.0
47
0.0208333333333333
47
0.0
47
0.0
47
0.0
47
0.0
47
1.0
47
0.0
47
0.0
47
0.0
47
0.0
47
1.0
171
0
49
0.0208333333333333
49
0.0
49
0.0
49
0.0
49
0.0
49
0.0208333333333333
49
0.0
49
0.0
49
0.0
49
0.0
49
1.0
49
0.0
49
0.0
49
0.0
49
0.0
49
1.0
175
0
142
0.0208333333333333
142
0.0
142
0.0
142
0.0
142
0.0
142
0.0208333333333333
142
0.0
142
0.0
142
0.0
142
0.0
142
1.0
142
0.0
142
0.0
142
0.0
142
0.0
142
1.0
179
0
144
0.0208333333333333
144
0.0
144
0.0
144
0.0
144
0.0
144
0.0208333333333333
144
0.0
144
0.0
144
0.0
144
0.0
144
1.0
144
0.0
144
0.0
144
0.0
144
0.0
144
1.0
147
0.0208333333333333
147
0.0
147
0.0
147
0.0
147
0.0
147
0.0208333333333333
147
0.0
147
0.0
147
0.0
147
0.0
147
1.0
147
0.0
147
0.0
147
0.0
147
0.0
147
1.0
0
MATERIAL
5
F8B
102
{ACAD_XDICTIONARY
360
F8C
102
}
102
{ACAD_REACTORS
330
F7A
102
}
330
F7A
100
AcDbMaterial
1
Global
72
0
43
0.0208333333333333
43
0.0
43
0.0
43
0.0
43
0.0
43
0.0208333333333333
43
0.0
43
0.0
43
0.0
43
0.0
43
1.0
43
0.0
43
0.0
43
0.0
43
0.0
43
1.0
77
0
47
0.0208333333333333
47
0.0
47
0.0
47
0.0
47
0.0
47
0.0208333333333333
47
0.0
47
0.0
47
0.0
47
0.0
47
1.0
47
0.0
47
0.0
47
0.0
47
0.0
47
1.0
171
0
49
0.0208333333333333
49
0.0
49
0.0
49
0.0
49
0.0
49
0.0208333333333333
49
0.0
49
0.0
49
0.0
49
0.0
49
1.0
49
0.0
49
0.0
49
0.0
49
0.0
49
1.0
175
0
142
0.0208333333333333
142
0.0
142
0.0
142
0.0
142
0.0
142
0.0208333333333333
142
0.0
142
0.0
142
0.0
142
0.0
142
1.0
142
0.0
142
0.0
142
0.0
142
0.0
142
1.0
179
0
144
0.0208333333333333
144
0.0
144
0.0
144
0.0
144
0.0
144
0.0208333333333333
144
0.0
144
0.0
144
0.0
144
0.0
144
1.0
144
0.0
144
0.0
144
0.0
144
0.0
144
1.0
147
0.0208333333333333
147
0.0
147
0.0
147
0.0
147
0.0
147
0.0208333333333333
147
0.0
147
0.0
147
0.0
147
0.0
147
1.0
147
0.0
147
0.0
147
0.0
147
0.0
147
1.0
0
MLEADERSTYLE
5
FCE
102
{ACAD_REACTORS
330
FCD
102
}
330
FCD
100
AcDbMLeaderStyle
170
2
171
1
172
0
90
2
40
0.0
41
0.0
173
1
91
-1056964608
340
256
92
-2
290
1
42
0.09
291
1
43
0.36
3
Standard
44
0.18
300

342
253
174
1
178
6
175
1
176
0
93
-1056964608
45
0.18
292
0
297
0
46
0.18
94
-1056964608
47
1.0
49
1.0
140
1.0
293
1
141
0.0
294
1
177
0
142
1.0
295
0
296
0
143
0.125
1001
ACAD_MLEADERVER
1070
2
0
MLINESTYLE
5
FAA
102
{ACAD_REACTORS
330
16
102
}
330
16
100
AcDbMlineStyle
2
STANDARD
70
0
3

62
256
51
90.0
52
90.0
71
2
49
0.5
62
256
6
BYLAYER
49
-0.5
62
256
6
BYLAYER
0
ACDBPLACEHOLDER
5
19
102
{ACAD_REACTORS
330
18
102
}
330
18
0
SCALE
5
FAC
102
{ACAD_REACTORS
330
FAB
102
}
330
FAB
100
AcDbScale
70
0
300
1:1
140
1.0
141
1.0
290
1
0
SCALE
5
FAD
102
{ACAD_REACTORS
330
FAB
102
}
330
FAB
100
AcDbScale
70
0
300
1:2
140
1.0
141
2.0
290
0
0
SCALE
5
FAE
102
{ACAD_REACTORS
330
FAB
102
}
330
FAB
100
AcDbScale
70
0
300
1:4
140
1.0
141
4.0
290
0
0
SCALE
5
FAF
102
{ACAD_REACTORS
330
FAB
102
}
330
FAB
100
AcDbScale
70
0
300
1:5
140
1.0
141
5.0
290
0
0
SCALE
5
FB0
102
{ACAD_REACTORS
330
FAB
102
}
330
FAB
100
AcDbScale
70
0
300
1:8
140
1.0
141
8.0
290
0
0
SCALE
5
FB1
102
{ACAD_REACTORS
330
FAB
102
}
330
FAB
100
AcDbScale
70
0
300
1:10
140
1.0
141
10.0
290
0
0
SCALE
5
FB2
102
{ACAD_REACTORS
330
FAB
102
}
330
FAB
100
AcDbScale
70
0
300
1:16
140
1.0
141
16.0
290
0
0
SCALE
5
FB3
102
{ACAD_REACTORS
330
FAB
102
}
330
FAB
100
AcDbScale
70
0
300
1:20
140
1.0
141
20.0
290
0
0
SCALE
5
FB4
102
{ACAD_REACTORS
330
FAB
102
}
330
FAB
100
AcDbScale
70
0
300
1:30
140
1.0
141
30.0
290
0
0
SCALE
5
FB5
102
{ACAD_REACTORS
330
FAB
102
}
330
FAB
100
AcDbScale
70
0
300
1:40
140
1.0
141
40.0
290
0
0
SCALE
5
FB6
102
{ACAD_REACTORS
330
FAB
102
}
330
FAB
100
AcDbScale
70
0
300
1:50
140
1.0
141
50.0
290
0
0
SCALE
5
FB7
102
{ACAD_REACTORS
330
FAB
102
}
330
FAB
100
AcDbScale
70
0
300
1:100
140
1.0
141
100.0
290
0
0
SCALE
5
FB8
102
{ACAD_REACTORS
330
FAB
102
}
330
FAB
100
AcDbScale
70
0
300
2:1
140
2.0
141
1.0
290
0
0
SCALE
5
FB9
102
{ACAD_REACTORS
330
FAB
102
}
330
FAB
100
AcDbScale
70
0
300
4:1
140
4.0
141
1.0
290
0
0
SCALE
5
FBA
102
{ACAD_REACTORS
330
FAB
102
}
330
FAB
100
AcDbScale
70
0
300
8:1
140
8.0
141
1.0
290
0
0
SCALE
5
FBB
102
{ACAD_REACTORS
330
FAB
102
}
330
FAB
100
AcDbScale
70
0
300
10:1
140
10.0
141
1.0
290
0
0
SCALE
5
FBC
102
{ACAD_REACTORS
330
FAB
102
}
330
FAB
100
AcDbScale
70
0
300
100:1
140
100.0
141
1.0
290
0
0
SCALE
5
FBD
102
{ACAD_REACTORS
330
FAB
102
}
330
FAB
100
AcDbScale
70
0
300
1/128" = 1'-0"
140
0.0078125
141
12.0
290
0
0
SCALE
5
FBE
102
{ACAD_REACTORS
330
FAB
102
}
330
FAB
100
AcDbScale
70
0
300
1/64" = 1'-0"
140
0.015625
141
12.0
290
0
0
SCALE
5
FBF
102
{ACAD_REACTORS
330
FAB
102
}
330
FAB
100
AcDbScale
70
0
300
1/32" = 1'-0"
140
0.03125
141
12.0
290
0
0
SCALE
5
FC0
102
{ACAD_REACTORS
330
FAB
102
}
330
FAB
100
AcDbScale
70
0
300
1/16" = 1'-0"
140
0.0625
141
12.0
290
0
0
SCALE
5
FC1
102
{ACAD_REACTORS
330
FAB
102
}
330
FAB
100
AcDbScale
70
0
300
3/32" = 1'-0"
140
0.09375
141
12.0
290
0
0
SCALE
5
FC2
102
{ACAD_REACTORS
330
FAB
102
}
330
FAB
100
AcDbScale
70
0
300
1/8" = 1'-0"
140
0.125
141
12.0
290
0
0
SCALE
5
FC3
102
{ACAD_REACTORS
330
FAB
102
}
330
FAB
100
AcDbScale
70
0
300
3/16" = 1'-0"
140
0.1875
141
12.0
290
0
0
SCALE
5
FC4
102
{ACAD_REACTORS
330
FAB
102
}
330
FAB
100
AcDbScale
70
0
300
1/4" = 1'-0"
140
0.25
141
12.0
290
0
0
SCALE
5
FC5
102
{ACAD_REACTORS
330
FAB
102
}
330
FAB
100
AcDbScale
70
0
300
3/8" = 1'-0"
140
0.375
141
12.0
290
0
0
SCALE
5
FC6
102
{ACAD_REACTORS
330
FAB
102
}
330
FAB
100
AcDbScale
70
0
300
1/2" = 1'-0"
140
0.5
141
12.0
290
0
0
SCALE
5
FC7
102
{ACAD_REACTORS
330
FAB
102
}
330
FAB
100
AcDbScale
70
0
300
3/4" = 1'-0"
140
0.75
141
12.0
290
0
0
SCALE
5
FC8
102
{ACAD_REACTORS
330
FAB
102
}
330
FAB
100
AcDbScale
70
0
300
1" = 1'-0"
140
1.0
141
12.0
290
0
0
SCALE
5
FC9
102
{ACAD_REACTORS
330
FAB
102
}
330
FAB
100
AcDbScale
70
0
300
1-1/2" = 1'-0"
140
1.5
141
12.0
290
0
0
SCALE
5
FCA
102
{ACAD_REACTORS
330
FAB
102
}
330
FAB
100
AcDbScale
70
0
300
3" = 1'-0"
140
3.0
141
12.0
290
0
0
SCALE
5
FCB
102
{ACAD_REACTORS
330
FAB
102
}
330
FAB
100
AcDbScale
70
0
300
6" = 1'-0"
140
6.0
141
12.0
290
0
0
SCALE
5
FCC
102
{ACAD_REACTORS
330
FAB
102
}
330
FAB
100
AcDbScale
70
0
300
1'-0" = 1'-0"
140
12.0
141
12.0
290
0
0
TABLESTYLE
5
FA9
102
{ACAD_XDICTIONARY
360
FF8
102
}
102
{ACAD_REACTORS
330
FA8
102
}
330
FA8
100
AcDbTableStyle
3
Standard
70
0
71
0
40
0.06
41
0.06
280
0
281
0
7
Standard
140
0.18
170
2
62
0
63
7
283
0
274
-2
284
1
64
0
275
-2
285
1
65
0
276
-2
286
1
66
0
277
-2
287
1
67
0
278
-2
288
1
68
0
279
-2
289
1
69
0
7
Standard
140
0.25
170
5
62
0
63
7
283
0
274
-2
284
1
64
0
275
-2
285
1
65
0
276
-2
286
1
66
0
277
-2
287
1
67
0
278
-2
288
1
68
0
279
-2
289
1
69
0
7
Standard
140
0.18
170
5
62
0
63
7
283
0
274
-2
284
1
64
0
275
-2
285
1
65
0
276
-2
286
1
66
0
277
-2
287
1
67
0
278
-2
288
1
68
0
279
-2
289
1
69
0
0
VISUALSTYLE
5
F99
102
{ACAD_XDICTIONARY
360
108A
102
}
102
{ACAD_REACTORS
330
F93
102
}
330
F93
100
AcDbVisualStyle
2

70
4
71
0
72
2
73
0
90
0
40
-0.6
41
-30.0
62
5
63
7
74
1
91
4
64
7
65
257
75
1
175
1
42
1.0
92
0
66
257
43
1.0
76
1
77
6
78
2
67
7
79
5
170
0
171
0
290
0
174
0
93
1
44
0.0
173
0
291
0
45
0.0
1001
ACAD
1000
AcDbSavedByObjectVersion
1070
0
0
VISUALSTYLE
5
F9B
102
{ACAD_XDICTIONARY
360
108E
102
}
102
{ACAD_REACTORS
330
F93
102
}
330
F93
100
AcDbVisualStyle
2

70
6
71
1
72
2
73
2
90
0
40
-0.6
41
-30.0
62
5
63
7
74
2
91
2
64
7
65
257
75
2
175
1
42
179.0
92
0
66
257
43
1.0
76
1
77
6
78
2
67
7
79
3
170
0
171
0
290
0
174
0
93
1
44
0.0
173
0
291
0
45
0.0
1001
ACAD
1000
AcDbSavedByObjectVersion
1070
0
0
VISUALSTYLE
5
F9A
102
{ACAD_XDICTIONARY
360
108C
102
}
102
{ACAD_REACTORS
330
F93
102
}
330
F93
100
AcDbVisualStyle
2

70
5
71
0
72
2
73
0
90
0
40
-0.6
41
-30.0
62
5
63
7
74
1
91
4
64
7
65
257
75
1
175
1
42
1.0
92
0
66
257
43
1.0
76
1
77
6
78
2
67
7
79
5
170
0
171
0
290
0
174
0
93
1
44
0.0
173
0
291
0
45
0.0
1001
ACAD
1000
AcDbSavedByObjectVersion
1070
0
0
VISUALSTYLE
5
F98
102
{ACAD_XDICTIONARY
360
1088
102
}
102
{ACAD_REACTORS
330
F93
102
}
330
F93
100
AcDbVisualStyle
2

70
7
71
1
72
0
73
1
90
0
40
-0.6
41
-30.0
62
5
63
7
74
0
91
4
64
7
65
257
75
1
175
1
42
1.0
92
8
66
7
43
1.0
76
1
77
6
78
2
67
7
79
5
170
0
171
0
290
0
174
0
93
1
44
0.0
173
0
291
1
45
0.0
1001
ACAD
1000
AcDbSavedByObjectVersion
1070
0
0
VISUALSTYLE
5
F9F
102
{ACAD_XDICTIONARY
360
1096
102
}
102
{ACAD_REACTORS
330
F93
102
}
330
F93
100
AcDbVisualStyle
2

70
12
71
2
72
2
73
0
90
0
40
-0.6
41
-30.0
62
5
63
7
74
1
91
4
64
7
65
257
75
1
175
1
42
1.0
92
8
66
7
43
1.0
76
1
77
6
78
2
67
7
79
5
170
0
171
0
290
0
174
0
93
1
44
50.0
173
0
291
1
45
0.0
1001
ACAD
1000
AcDbSavedByObjectVersion
1070
0
0
VISUALSTYLE
5
FA3
102
{ACAD_XDICTIONARY
360
109E
102
}
102
{ACAD_REACTORS
330
F93
102
}
330
F93
100
AcDbVisualStyle
2

70
16
71
2
72
2
73
3
90
0
40
-0.6
41
-30.0
62
5
63
8
74
1
91
4
64
7
65
257
75
1
175
1
42
1.0
92
8
66
8
43
1.0
76
1
77
6
78
2
67
7
79
5
170
0
171
0
290
0
174
0
93
1
44
0.0
173
0
291
1
45
0.0
1001
ACAD
1000
AcDbSavedByObjectVersion
1070
0
0
VISUALSTYLE
5
F9C
102
{ACAD_XDICTIONARY
360
1090
102
}
102
{ACAD_REACTORS
330
F93
102
}
330
F93
100
AcDbVisualStyle
2

70
9
71
3
72
2
73
0
90
0
40
-0.6
41
-30.0
62
5
63
7
74
2
91
2
64
7
65
257
75
1
175
1
42
179.0
92
8
66
7
43
1.0
76
1
77
6
78
2
67
7
79
3
170
0
171
0
290
0
174
0
93
1
44
0.0
173
0
291
0
45
0.0
1001
ACAD
1000
AcDbSavedByObjectVersion
1070
0
0
VISUALSTYLE
5
F9E
102
{ACAD_XDICTIONARY
360
1094
102
}
102
{ACAD_REACTORS
330
F93
102
}
330
F93
100
AcDbVisualStyle
2

70
11
71
2
72
2
73
0
90
0
40
-0.6
41
-30.0
62
5
63
7
74
1
91
4
64
7
65
257
75
1
175
1
42
1.0
92
8
66
7
43
1.0
76
1
77
6
78
2
67
7
79
5
170
0
171
0
290
0
174
0
93
1
44
-50.0
173
0
291
1
45
0.0
1001
ACAD
1000
AcDbSavedByObjectVersion
1070
0
0
VISUALSTYLE
5
FA6
102
{ACAD_XDICTIONARY
360
10A4
102
}
102
{ACAD_REACTORS
330
F93
102
}
330
F93
100
AcDbVisualStyle
2

70
22
71
2
72
2
73
0
90
0
40
-0.6
41
-30.0
62
5
63
7
74
1
91
4
64
7
65
257
75
1
175
1
42
1.0
92
8
66
7
43
1.0
76
1
77
6
78
2
67
7
79
5
170
0
171
0
290
0
174
0
93
1
44
0.0
173
0
291
1
45
0.0
1001
ACAD
1000
AcDbSavedByObjectVersion
1070
0
0
VISUALSTYLE
5
FA2
102
{ACAD_XDICTIONARY
360
109C
102
}
102
{ACAD_REACTORS
330
F93
102
}
330
F93
100
AcDbVisualStyle
2

70
15
71
2
72
2
73
0
90
0
40
-0.6
41
-30.0
62
5
63
7
74
1
91
4
64
7
65
257
75
1
175
1
42
1.0
92
8
66
7
43
1.0
76
1
77
6
78
2
67
7
79
5
170
0
171
0
290
0
174
0
93
1
44
0.0
173
0
291
1
45
0.0
1001
ACAD
1000
AcDbSavedByObjectVersion
1070
0
0
VISUALSTYLE
5
F94
102
{ACAD_XDICTIONARY
360
1080
102
}
102
{ACAD_REACTORS
330
F93
102
}
330
F93
100
AcDbVisualStyle
2

70
0
71
2
72
1
73
1
90
2
40
-0.6
41
30.0
62
5
63
7
74
0
91
4
64
7
65
257
75
1
175
1
42
1.0
92
8
66
7
43
1.0
76
1
77
6
78
2
67
7
79
5
170
0
171
0
290
0
174
0
93
13
44
0.0
173
0
291
1
45
0.0
1001
ACAD
1000
AcDbSavedByObjectVersion
1070
0
0
VISUALSTYLE
5
F95
102
{ACAD_XDICTIONARY
360
1082
102
}
102
{ACAD_REACTORS
330
F93
102
}
330
F93
100
AcDbVisualStyle
2

70
1
71
2
72
1
73
1
90
2
40
-0.6
41
30.0
62
5
63
7
74
1
91
4
64
7
65
257
75
1
175
1
42
1.0
92
0
66
257
43
1.0
76
1
77
6
78
2
67
7
79
5
170
0
171
0
290
0
174
0
93
13
44
0.0
173
0
291
1
45
0.0
1001
ACAD
1000
AcDbSavedByObjectVersion
1070
0
0
VISUALSTYLE
5
F96
102
{ACAD_XDICTIONARY
360
1084
102
}
102
{ACAD_REACTORS
330
F93
102
}
330
F93
100
AcDbVisualStyle
2

70
2
71
2
72
2
73
1
90
2
40
-0.6
41
30.0
62
5
63
7
74
0
91
4
64
7
65
257
75
1
175
1
42
1.0
92
0
66
7
43
1.0
76
1
77
6
78
2
67
7
79
5
170
0
171
0
290
0
174
0
93
13
44
0.0
173
0
291
1
45
0.0
1001
ACAD
1000
AcDbSavedByObjectVersion
1070
0
0
VISUALSTYLE
5
F97
102
{ACAD_XDICTIONARY
360
1086
102
}
102
{ACAD_REACTORS
330
F93
102
}
330
F93
100
AcDbVisualStyle
2

70
3
71
2
72
2
73
1
90
2
40
-0.6
41
30.0
62
5
63
7
74
1
91
4
64
7
65
257
75
1
175
1
42
1.0
92
0
66
257
43
1.0
76
1
77
6
78
2
67
7
79
5
170
0
171
0
290
0
174
0
93
13
44
0.0
173
0
291
1
45
0.0
1001
ACAD
1000
AcDbSavedByObjectVersion
1070
0
0
VISUALSTYLE
5
FA4
102
{ACAD_XDICTIONARY
360
10A0
102
}
102
{ACAD_REACTORS
330
F93
102
}
330
F93
100
AcDbVisualStyle
2

70
20
71
2
72
2
73
0
90
0
40
-0.6
41
-30.0
62
5
63
7
74
1
91
4
64
7
65
257
75
1
175
1
42
1.0
92
10
66
7
43
1.0
76
1
77
6
78
2
67
7
79
5
170
0
171
0
290
0
174
0
93
1
44
0.0
173
0
291
1
45
0.0
1001
ACAD
1000
AcDbSavedByObjectVersion
1070
0
0
VISUALSTYLE
5
FA1
102
{ACAD_XDICTIONARY
360
109A
102
}
102
{ACAD_REACTORS
330
F93
102
}
330
F93
100
AcDbVisualStyle
2

70
14
71
2
72
2
73
0
90
0
40
-0.6
41
-30.0
62
5
63
7
74
1
91
4
64
7
65
257
75
7
175
7
42
1.0
92
8
66
7
43
1.0
76
1
77
6
78
2
67
7
79
5
170
0
171
0
290
0
174
0
93
1
44
0.0
173
0
291
1
45
0.0
1001
ACAD
1000
AcDbSavedByObjectVersion
1070
0
0
VISUALSTYLE
5
FA5
102
{ACAD_XDICTIONARY
360
10A2
102
}
102
{ACAD_REACTORS
330
F93
102
}
330
F93
100
AcDbVisualStyle
2

70
21
71
2
72
2
73
0
90
0
40
-0.6
41
-30.0
62
5
63
7
74
1
91
4
64
7
65
257
75
1
175
1
42
1.0
92
9
66
7
43
1.0
76
1
77
6
78
2
67
7
79
5
170
0
171
0
290
0
174
0
93
1
44
0.0
173
0
291
1
45
0.0
1001
ACAD
1000
AcDbSavedByObjectVersion
1070
0
0
VISUALSTYLE
5
F9D
102
{ACAD_XDICTIONARY
360
1092
102
}
102
{ACAD_REACTORS
330
F93
102
}
330
F93
100
AcDbVisualStyle
2

70
8
71
2
72
2
73
0
90
0
40
-0.6
41
-30.0
62
5
63
7
74
1
91
0
64
7
65
257
75
1
175
1
42
1.0
92
8
66
8
43
1.0
76
1
77
6
78
2
67
7
79
5
170
0
171
0
290
0
174
0
93
13
44
0.0
173
0
291
0
45
0.0
1001
ACAD
1000
AcDbSavedByObjectVersion
1070
0
0
VISUALSTYLE
5
FA0
102
{ACAD_XDICTIONARY
360
1098
102
}
102
{ACAD_REACTORS
330
F93
102
}
330
F93
100
AcDbVisualStyle
2

70
13
71
2
72
2
73
0
90
0
40
-0.6
41
-30.0
62
5
63
7
74
1
91
4
64
7
65
257
75
1
175
1
42
1.0
92
12
66
7
43
1.0
76
1
77
6
78
2
67
7
79
5
170
0
171
0
290
0
174
0
93
1
44
0.0
173
0
291
1
45
0.0
1001
ACAD
1000
AcDbSavedByObjectVersion
1070
0
0
DICTIONARYVAR
5
FF3
102
{ACAD_REACTORS
330
FF0
102
}
330
FF0
100
DictionaryVariables
280
0
1
1:1
0
DICTIONARYVAR
5
FF2
102
{ACAD_REACTORS
330
FF0
102
}
330
FF0
100
DictionaryVariables
280
0
1
STANDARD
0
DICTIONARYVAR
5
FF1
102
{ACAD_REACTORS
330
FF0
102
}
330
FF0
100
DictionaryVariables
280
0
1
STANDARD
0
DICTIONARYVAR
5
FF6
102
{ACAD_REACTORS
330
FF0
102
}
330
FF0
100
DictionaryVariables
280
0
1
1
0
DICTIONARYVAR
5
FF5
102
{ACAD_REACTORS
330
FF0
102
}
330
FF0
100
DictionaryVariables
280
0
1
0
0
DICTIONARYVAR
5
FF4
102
{ACAD_REACTORS
330
FF0
102
}
330
FF0
100
DictionaryVariables
280
0
1
127
0
DICTIONARYVAR
5
1078
102
{ACAD_REACTORS
330
FF0
102
}
330
FF0
100
DictionaryVariables
280
0
1
2
0
DICTIONARY
5
10A9
330
FD1
100
AcDbDictionary
280
1
281
1
3
ACAD_XREC_ROUNDTRIP
360
10AA
0
DICTIONARY
5
10A7
330
FD0
100
AcDbDictionary
280
1
281
1
3
ACAD_XREC_ROUNDTRIP
360
10A8
0
DICTIONARY
5
F84
330
F83
100
AcDbDictionary
280
1
281
1
3
ACAD_XREC_ROUNDTRIP
360
FFF
3
BUMPTILE
360
F86
3
DIFFUSETILE
360
F85
3
OPACITYTILE
360
F89
3
REFLECTIONTILE
360
F88
3
REFRACTIONTILE
360
F8A
3
SPECULARTILE
360
F87
0
DICTIONARY
5
F7C
330
F7B
100
AcDbDictionary
280
1
281
1
3
ACAD_XREC_ROUNDTRIP
360
FFE
3
BUMPTILE
360
F7E
3
DIFFUSETILE
360
F7D
3
OPACITYTILE
360
F81
3
REFLECTIONTILE
360
F80
3
REFRACTIONTILE
360
F82
3
SPECULARTILE
360
F7F
0
DICTIONARY
5
F8C
330
F8B
100
AcDbDictionary
280
1
281
1
3
ACAD_XREC_ROUNDTRIP
360
1000
3
BUMPTILE
360
F8E
3
DIFFUSETILE
360
F8D
3
OPACITYTILE
360
F91
3
REFLECTIONTILE
360
F90
3
REFRACTIONTILE
360
F92
3
SPECULARTILE
360
F8F
0
DICTIONARY
5
FF8
330
FA9
100
AcDbDictionary
280
1
281
1
3
ACAD_ROUNDTRIP_2008_TABLESTYLE_CELLSTYLEMAP
360
1079
3
ACAD_XREC_ROUNDTRIP
360
10A6
0
DICTIONARY
5
108A
330
F99
100
AcDbDictionary
280
1
281
1
3
ACAD_XREC_ROUNDTRIP
360
108B
0
DICTIONARY
5
108E
330
F9B
100
AcDbDictionary
280
1
281
1
3
ACAD_XREC_ROUNDTRIP
360
108F
0
DICTIONARY
5
108C
330
F9A
100
AcDbDictionary
280
1
281
1
3
ACAD_XREC_ROUNDTRIP
360
108D
0
DICTIONARY
5
1088
330
F98
100
AcDbDictionary
280
1
281
1
3
ACAD_XREC_ROUNDTRIP
360
1089
0
DICTIONARY
5
1096
330
F9F
100
AcDbDictionary
280
1
281
1
3
ACAD_XREC_ROUNDTRIP
360
1097
0
DICTIONARY
5
109E
330
FA3
100
AcDbDictionary
280
1
281
1
3
ACAD_XREC_ROUNDTRIP
360
109F
0
DICTIONARY
5
1090
330
F9C
100
AcDbDictionary
280
1
281
1
3
ACAD_XREC_ROUNDTRIP
360
1091
0
DICTIONARY
5
1094
330
F9E
100
AcDbDictionary
280
1
281
1
3
ACAD_XREC_ROUNDTRIP
360
1095
0
DICTIONARY
5
10A4
330
FA6
100
AcDbDictionary
280
1
281
1
3
ACAD_XREC_ROUNDTRIP
360
10A5
0
DICTIONARY
5
109C
330
FA2
100
AcDbDictionary
280
1
281
1
3
ACAD_XREC_ROUNDTRIP
360
109D
0
DICTIONARY
5
1080
330
F94
100
AcDbDictionary
280
1
281
1
3
ACAD_XREC_ROUNDTRIP
360
1081
0
DICTIONARY
5
1082
330
F95
100
AcDbDictionary
280
1
281
1
3
ACAD_XREC_ROUNDTRIP
360
1083
0
DICTIONARY
5
1084
330
F96
100
AcDbDictionary
280
1
281
1
3
ACAD_XREC_ROUNDTRIP
360
1085
0
DICTIONARY
5
1086
330
F97
100
AcDbDictionary
280
1
281
1
3
ACAD_XREC_ROUNDTRIP
360
1087
0
DICTIONARY
5
10A0
330
FA4
100
AcDbDictionary
280
1
281
1
3
ACAD_XREC_ROUNDTRIP
360
10A1
0
DICTIONARY
5
109A
330
FA1
100
AcDbDictionary
280
1
281
1
3
ACAD_XREC_ROUNDTRIP
360
109B
0
DICTIONARY
5
10A2
330
FA5
100
AcDbDictionary
280
1
281
1
3
ACAD_XREC_ROUNDTRIP
360
10A3
0
DICTIONARY
5
1092
330
F9D
100
AcDbDictionary
280
1
281
1
3
ACAD_XREC_ROUNDTRIP
360
1093
0
DICTIONARY
5
1098
330
FA0
100
AcDbDictionary
280
1
281
1
3
ACAD_XREC_ROUNDTRIP
360
1099
0
XRECORD
5
10AA
102
{ACAD_REACTORS
330
10A9
102
}
330
10A9
100
AcDbXrecord
280
1
102
SHADEPLOT
70
0
102
SHADEPLOTRESLEVEL
70
2
102
SHADEPLOTCUSTOMDPI
70
300
0
XRECORD
5
10A8
102
{ACAD_REACTORS
330
10A7
102
}
330
10A7
100
AcDbXrecord
280
1
102
SHADEPLOT
70
0
102
SHADEPLOTRESLEVEL
70
2
102
SHADEPLOTCUSTOMDPI
70
300
0
XRECORD
5
FFF
102
{ACAD_REACTORS
330
F84
102
}
330
F84
100
AcDbXrecord
280
1
102
MATERIAL
148
0.0
149
0.0
149
0.0
93
0
94
127
282
0
72
0
77
0
171
0
175
0
179
0
273
0
0
XRECORD
5
F86
102
{ACAD_REACTORS
330
F84
102
}
330
F84
100
AcDbXrecord
280
1
270
1
271
1
0
XRECORD
5
F85
102
{ACAD_REACTORS
330
F84
102
}
330
F84
100
AcDbXrecord
280
1
270
1
271
1
0
XRECORD
5
F89
102
{ACAD_REACTORS
330
F84
102
}
330
F84
100
AcDbXrecord
280
1
270
1
271
1
0
XRECORD
5
F88
102
{ACAD_REACTORS
330
F84
102
}
330
F84
100
AcDbXrecord
280
1
270
1
271
1
0
XRECORD
5
F8A
102
{ACAD_REACTORS
330
F84
102
}
330
F84
100
AcDbXrecord
280
1
270
1
271
1
0
XRECORD
5
F87
102
{ACAD_REACTORS
330
F84
102
}
330
F84
100
AcDbXrecord
280
1
270
1
271
1
0
XRECORD
5
FFE
102
{ACAD_REACTORS
330
F7C
102
}
330
F7C
100
AcDbXrecord
280
1
102
MATERIAL
148
0.0
149
0.0
149
0.0
93
0
94
127
282
0
72
0
77
0
171
0
175
0
179
0
273
0
0
XRECORD
5
F7E
102
{ACAD_REACTORS
330
F7C
102
}
330
F7C
100
AcDbXrecord
280
1
270
1
271
1
0
XRECORD
5
F7D
102
{ACAD_REACTORS
330
F7C
102
}
330
F7C
100
AcDbXrecord
280
1
270
1
271
1
0
XRECORD
5
F81
102
{ACAD_REACTORS
330
F7C
102
}
330
F7C
100
AcDbXrecord
280
1
270
1
271
1
0
XRECORD
5
F80
102
{ACAD_REACTORS
330
F7C
102
}
330
F7C
100
AcDbXrecord
280
1
270
1
271
1
0
XRECORD
5
F82
102
{ACAD_REACTORS
330
F7C
102
}
330
F7C
100
AcDbXrecord
280
1
270
1
271
1
0
XRECORD
5
F7F
102
{ACAD_REACTORS
330
F7C
102
}
330
F7C
100
AcDbXrecord
280
1
270
1
271
1
0
XRECORD
5
1000
102
{ACAD_REACTORS
330
F8C
102
}
330
F8C
100
AcDbXrecord
280
1
102
MATERIAL
148
0.0
149
0.0
149
0.0
93
0
94
127
282
0
72
0
77
0
171
0
175
0
179
0
273
0
0
XRECORD
5
F8E
102
{ACAD_REACTORS
330
F8C
102
}
330
F8C
100
AcDbXrecord
280
1
270
1
271
1
0
XRECORD
5
F8D
102
{ACAD_REACTORS
330
F8C
102
}
330
F8C
100
AcDbXrecord
280
1
270
1
271
1
0
XRECORD
5
F91
102
{ACAD_REACTORS
330
F8C
102
}
330
F8C
100
AcDbXrecord
280
1
270
1
271
1
0
XRECORD
5
F90
102
{ACAD_REACTORS
330
F8C
102
}
330
F8C
100
AcDbXrecord
280
1
270
1
271
1
0
XRECORD
5
F92
102
{ACAD_REACTORS
330
F8C
102
}
330
F8C
100
AcDbXrecord
280
1
270
1
271
1
0
XRECORD
5
F8F
102
{ACAD_REACTORS
330
F8C
102
}
330
F8C
100
AcDbXrecord
280
1
270
1
271
1
0
CELLSTYLEMAP
5
1079
102
{ACAD_REACTORS
330
FF8
102
}
330
FF8
100
AcDbCellStyleMap
90
3
300
CELLSTYLE
1
TABLEFORMAT_BEGIN
90
5
170
1
91
0
92
32768
62
257
93
1
300
CONTENTFORMAT
1
CONTENTFORMAT_BEGIN
90
0
91
0
92
512
93
0
300

40
0.0
140
1.0
94
5
62
0
340
253
144
0.25
309
CONTENTFORMAT_END
171
1
301
MARGIN
1
CELLMARGIN_BEGIN
40
0.06
40
0.06
40
0.06
40
0.06
40
0.18
40
0.18
309
CELLMARGIN_END
94
6
95
1
302
GRIDFORMAT
1
GRIDFORMAT_BEGIN
90
0
91
1
62
0
92
-2
340
0
93
0
40
0.045
309
GRIDFORMAT_END
95
2
302
GRIDFORMAT
1
GRIDFORMAT_BEGIN
90
0
91
1
62
0
92
-2
340
0
93
0
40
0.045
309
GRIDFORMAT_END
95
4
302
GRIDFORMAT
1
GRIDFORMAT_BEGIN
90
0
91
1
62
0
92
-2
340
0
93
0
40
0.045
309
GRIDFORMAT_END
95
8
302
GRIDFORMAT
1
GRIDFORMAT_BEGIN
90
0
91
1
62
0
92
-2
340
0
93
0
40
0.045
309
GRIDFORMAT_END
95
16
302
GRIDFORMAT
1
GRIDFORMAT_BEGIN
90
0
91
1
62
0
92
-2
340
0
93
0
40
0.045
309
GRIDFORMAT_END
95
32
302
GRIDFORMAT
1
GRIDFORMAT_BEGIN
90
0
91
1
62
0
92
-2
340
0
93
0
40
0.045
309
GRIDFORMAT_END
309
TABLEFORMAT_END
1
CELLSTYLE_BEGIN
90
1
91
1
300
_TITLE
309
CELLSTYLE_END
300
CELLSTYLE
1
TABLEFORMAT_BEGIN
90
5
170
1
91
0
92
0
62
257
93
1
300
CONTENTFORMAT
1
CONTENTFORMAT_BEGIN
90
0
91
0
92
512
93
0
300

40
0.0
140
1.0
94
5
62
0
340
253
144
0.18
309
CONTENTFORMAT_END
171
1
301
MARGIN
1
CELLMARGIN_BEGIN
40
0.06
40
0.06
40
0.06
40
0.06
40
0.18
40
0.18
309
CELLMARGIN_END
94
6
95
1
302
GRIDFORMAT
1
GRIDFORMAT_BEGIN
90
0
91
1
62
0
92
-2
340
0
93
0
40
0.045
309
GRIDFORMAT_END
95
2
302
GRIDFORMAT
1
GRIDFORMAT_BEGIN
90
0
91
1
62
0
92
-2
340
0
93
0
40
0.045
309
GRIDFORMAT_END
95
4
302
GRIDFORMAT
1
GRIDFORMAT_BEGIN
90
0
91
1
62
0
92
-2
340
0
93
0
40
0.045
309
GRIDFORMAT_END
95
8
302
GRIDFORMAT
1
GRIDFORMAT_BEGIN
90
0
91
1
62
0
92
-2
340
0
93
0
40
0.045
309
GRIDFORMAT_END
95
16
302
GRIDFORMAT
1
GRIDFORMAT_BEGIN
90
0
91
1
62
0
92
-2
340
0
93
0
40
0.045
309
GRIDFORMAT_END
95
32
302
GRIDFORMAT
1
GRIDFORMAT_BEGIN
90
0
91
1
62
0
92
-2
340
0
93
0
40
0.045
309
GRIDFORMAT_END
309
TABLEFORMAT_END
1
CELLSTYLE_BEGIN
90
2
91
1
300
_HEADER
309
CELLSTYLE_END
300
CELLSTYLE
1
TABLEFORMAT_BEGIN
90
5
170
1
91
0
92
0
62
257
93
1
300
CONTENTFORMAT
1
CONTENTFORMAT_BEGIN
90
0
91
0
92
512
93
0
300

40
0.0
140
1.0
94
2
62
0
340
253
144
0.18
309
CONTENTFORMAT_END
171
1
301
MARGIN
1
CELLMARGIN_BEGIN
40
0.06
40
0.06
40
0.06
40
0.06
40
0.18
40
0.18
309
CELLMARGIN_END
94
6
95
1
302
GRIDFORMAT
1
GRIDFORMAT_BEGIN
90
0
91
1
62
0
92
-2
340
0
93
0
40
0.045
309
GRIDFORMAT_END
95
2
302
GRIDFORMAT
1
GRIDFORMAT_BEGIN
90
0
91
1
62
0
92
-2
340
0
93
0
40
0.045
309
GRIDFORMAT_END
95
4
302
GRIDFORMAT
1
GRIDFORMAT_BEGIN
90
0
91
1
62
0
92
-2
340
0
93
0
40
0.045
309
GRIDFORMAT_END
95
8
302
GRIDFORMAT
1
GRIDFORMAT_BEGIN
90
0
91
1
62
0
92
-2
340
0
93
0
40
0.045
309
GRIDFORMAT_END
95
16
302
GRIDFORMAT
1
GRIDFORMAT_BEGIN
90
0
91
1
62
0
92
-2
340
0
93
0
40
0.045
309
GRIDFORMAT_END
95
32
302
GRIDFORMAT
1
GRIDFORMAT_BEGIN
90
0
91
1
62
0
92
-2
340
0
93
0
40
0.045
309
GRIDFORMAT_END
309
TABLEFORMAT_END
1
CELLSTYLE_BEGIN
90
3
91
2
300
_DATA
309
CELLSTYLE_END
0
XRECORD
5
10A6
102
{ACAD_REACTORS
330
FF8
102
}
330
FF8
100
AcDbXrecord
280
1
102
ACAD_ROUNDTRIP_PRE2007_TABLESTYLE
90
512
91
0
1

92
512
93
0
2

94
512
95
0
3

0
XRECORD
5
108B
102
{ACAD_REACTORS
330
108A
102
}
330
108A
100
AcDbXrecord
280
1
102
RTVSPropertyOp0
70
1
102
RTVSPropertyOp1
70
1
102
RTVSPropertyOp2
70
1
102
RTVSPropertyOp3
70
1
102
RTVSPropertyOp4
70
1
102
RTVSPropertyOp5
70
1
102
RTVSPropertyOp6
70
1
102
RTVSPropertyOp7
70
1
102
RTVSPropertyOp8
70
1
102
RTVSPropertyOp9
70
1
102
RTVSPropertyOp10
70
1
102
RTVSPropertyOp11
70
1
102
RTVSPropertyOp12
70
1
102
RTVSPropertyOp13
70
1
102
RTVSPropertyOp14
70
1
102
RTVSPropertyOp15
70
1
102
RTVSPropertyOp16
70
1
102
RTVSPropertyOp17
70
1
102
RTVSPropertyOp18
70
1
102
RTVSPropertyOp19
70
1
102
RTVSPropertyOp20
70
1
102
RTVSPropertyOp21
70
1
102
RTVSPropertyOp22
70
1
102
RTVSPropertyOp23
70
1
102
RTVSPropertyOp24
70
1
102
RTVSPropertyOp25
70
1
102
RTVSPropertyOp26
70
1
102
RTVSPropertyOp27
70
1
0
XRECORD
5
108F
102
{ACAD_REACTORS
330
108E
102
}
330
108E
100
AcDbXrecord
280
1
102
RTVSPropertyOp0
70
1
102
RTVSPropertyOp1
70
1
102
RTVSPropertyOp2
70
1
102
RTVSPropertyOp3
70
1
102
RTVSPropertyOp4
70
1
102
RTVSPropertyOp5
70
1
102
RTVSPropertyOp6
70
1
102
RTVSPropertyOp7
70
1
102
RTVSPropertyOp8
70
1
102
RTVSPropertyOp9
70
1
102
RTVSPropertyOp10
70
1
102
RTVSPropertyOp11
70
1
102
RTVSPropertyOp12
70
1
102
RTVSPropertyOp13
70
1
102
RTVSPropertyOp14
70
1
102
RTVSPropertyOp15
70
1
102
RTVSPropertyOp16
70
1
102
RTVSPropertyOp17
70
1
102
RTVSPropertyOp18
70
1
102
RTVSPropertyOp19
70
1
102
RTVSPropertyOp20
70
1
102
RTVSPropertyOp21
70
1
102
RTVSPropertyOp22
70
1
102
RTVSPropertyOp23
70
1
102
RTVSPropertyOp24
70
1
102
RTVSPropertyOp25
70
1
102
RTVSPropertyOp26
70
1
102
RTVSPropertyOp27
70
1
0
XRECORD
5
108D
102
{ACAD_REACTORS
330
108C
102
}
330
108C
100
AcDbXrecord
280
1
102
RTVSPropertyOp0
70
1
102
RTVSPropertyOp1
70
1
102
RTVSPropertyOp2
70
1
102
RTVSPropertyOp3
70
1
102
RTVSPropertyOp4
70
1
102
RTVSPropertyOp5
70
1
102
RTVSPropertyOp6
70
1
102
RTVSPropertyOp7
70
1
102
RTVSPropertyOp8
70
1
102
RTVSPropertyOp9
70
1
102
RTVSPropertyOp10
70
1
102
RTVSPropertyOp11
70
1
102
RTVSPropertyOp12
70
1
102
RTVSPropertyOp13
70
1
102
RTVSPropertyOp14
70
1
102
RTVSPropertyOp15
70
1
102
RTVSPropertyOp16
70
1
102
RTVSPropertyOp17
70
1
102
RTVSPropertyOp18
70
1
102
RTVSPropertyOp19
70
1
102
RTVSPropertyOp20
70
1
102
RTVSPropertyOp21
70
1
102
RTVSPropertyOp22
70
1
102
RTVSPropertyOp23
70
1
102
RTVSPropertyOp24
70
1
102
RTVSPropertyOp25
70
1
102
RTVSPropertyOp26
70
1
102
RTVSPropertyOp27
70
1
0
XRECORD
5
1089
102
{ACAD_REACTORS
330
1088
102
}
330
1088
100
AcDbXrecord
280
1
102
RTVSPropertyOp0
70
1
102
RTVSPropertyOp1
70
1
102
RTVSPropertyOp2
70
1
102
RTVSPropertyOp3
70
1
102
RTVSPropertyOp4
70
1
102
RTVSPropertyOp5
70
1
102
RTVSPropertyOp6
70
1
102
RTVSPropertyOp7
70
1
102
RTVSPropertyOp8
70
1
102
RTVSPropertyOp9
70
1
102
RTVSPropertyOp10
70
1
102
RTVSPropertyOp11
70
1
102
RTVSPropertyOp12
70
1
102
RTVSPropertyOp13
70
1
102
RTVSPropertyOp14
70
1
102
RTVSPropertyOp15
70
1
102
RTVSPropertyOp16
70
1
102
RTVSPropertyOp17
70
1
102
RTVSPropertyOp18
70
1
102
RTVSPropertyOp19
70
1
102
RTVSPropertyOp20
70
1
102
RTVSPropertyOp21
70
1
102
RTVSPropertyOp22
70
1
102
RTVSPropertyOp23
70
1
102
RTVSPropertyOp24
70
1
102
RTVSPropertyOp25
70
1
102
RTVSPropertyOp26
70
1
102
RTVSPropertyOp27
70
1
0
XRECORD
5
1097
102
{ACAD_REACTORS
330
1096
102
}
330
1096
100
AcDbXrecord
280
1
102
RTVSPropertyOp0
70
1
102
RTVSPropertyOp1
70
1
102
RTVSPropertyOp2
70
1
102
RTVSPropertyOp3
70
1
102
RTVSPropertyOp4
70
1
102
RTVSPropertyOp5
70
1
102
RTVSPropertyOp6
70
1
102
RTVSPropertyOp7
70
1
102
RTVSPropertyOp8
70
1
102
RTVSPropertyOp9
70
1
102
RTVSPropertyOp10
70
1
102
RTVSPropertyOp11
70
1
102
RTVSPropertyOp12
70
1
102
RTVSPropertyOp13
70
1
102
RTVSPropertyOp14
70
1
102
RTVSPropertyOp15
70
1
102
RTVSPropertyOp16
70
1
102
RTVSPropertyOp17
70
1
102
RTVSPropertyOp18
70
1
102
RTVSPropertyOp19
70
1
102
RTVSPropertyOp20
70
1
102
RTVSPropertyOp21
70
1
102
RTVSPropertyOp22
70
1
102
RTVSPropertyOp23
70
1
102
RTVSPropertyOp24
70
1
102
RTVSPropertyOp25
70
1
102
RTVSPropertyOp26
70
1
102
RTVSPropertyOp27
70
1
0
XRECORD
5
109F
102
{ACAD_REACTORS
330
109E
102
}
330
109E
100
AcDbXrecord
280
1
102
RTVSPropertyOp0
70
1
102
RTVSPropertyOp1
70
1
102
RTVSPropertyOp2
70
1
102
RTVSPropertyOp3
70
1
102
RTVSPropertyOp4
70
1
102
RTVSPropertyOp5
70
1
102
RTVSPropertyOp6
70
1
102
RTVSPropertyOp7
70
1
102
RTVSPropertyOp8
70
1
102
RTVSPropertyOp9
70
1
102
RTVSPropertyOp10
70
1
102
RTVSPropertyOp11
70
1
102
RTVSPropertyOp12
70
1
102
RTVSPropertyOp13
70
1
102
RTVSPropertyOp14
70
1
102
RTVSPropertyOp15
70
1
102
RTVSPropertyOp16
70
1
102
RTVSPropertyOp17
70
1
102
RTVSPropertyOp18
70
1
102
RTVSPropertyOp19
70
1
102
RTVSPropertyOp20
70
1
102
RTVSPropertyOp21
70
1
102
RTVSPropertyOp22
70
1
102
RTVSPropertyOp23
70
1
102
RTVSPropertyOp24
70
1
102
RTVSPropertyOp25
70
1
102
RTVSPropertyOp26
70
1
102
RTVSPropertyOp27
70
1
0
XRECORD
5
1091
102
{ACAD_REACTORS
330
1090
102
}
330
1090
100
AcDbXrecord
280
1
102
RTVSPropertyOp0
70
1
102
RTVSPropertyOp1
70
1
102
RTVSPropertyOp2
70
1
102
RTVSPropertyOp3
70
1
102
RTVSPropertyOp4
70
1
102
RTVSPropertyOp5
70
1
102
RTVSPropertyOp6
70
1
102
RTVSPropertyOp7
70
1
102
RTVSPropertyOp8
70
1
102
RTVSPropertyOp9
70
1
102
RTVSPropertyOp10
70
1
102
RTVSPropertyOp11
70
1
102
RTVSPropertyOp12
70
1
102
RTVSPropertyOp13
70
1
102
RTVSPropertyOp14
70
1
102
RTVSPropertyOp15
70
1
102
RTVSPropertyOp16
70
1
102
RTVSPropertyOp17
70
1
102
RTVSPropertyOp18
70
1
102
RTVSPropertyOp19
70
1
102
RTVSPropertyOp20
70
1
102
RTVSPropertyOp21
70
1
102
RTVSPropertyOp22
70
1
102
RTVSPropertyOp23
70
1
102
RTVSPropertyOp24
70
1
102
RTVSPropertyOp25
70
1
102
RTVSPropertyOp26
70
1
102
RTVSPropertyOp27
70
1
0
XRECORD
5
1095
102
{ACAD_REACTORS
330
1094
102
}
330
1094
100
AcDbXrecord
280
1
102
RTVSPropertyOp0
70
1
102
RTVSPropertyOp1
70
1
102
RTVSPropertyOp2
70
1
102
RTVSPropertyOp3
70
1
102
RTVSPropertyOp4
70
1
102
RTVSPropertyOp5
70
1
102
RTVSPropertyOp6
70
1
102
RTVSPropertyOp7
70
1
102
RTVSPropertyOp8
70
1
102
RTVSPropertyOp9
70
1
102
RTVSPropertyOp10
70
1
102
RTVSPropertyOp11
70
1
102
RTVSPropertyOp12
70
1
102
RTVSPropertyOp13
70
1
102
RTVSPropertyOp14
70
1
102
RTVSPropertyOp15
70
1
102
RTVSPropertyOp16
70
1
102
RTVSPropertyOp17
70
1
102
RTVSPropertyOp18
70
1
102
RTVSPropertyOp19
70
1
102
RTVSPropertyOp20
70
1
102
RTVSPropertyOp21
70
1
102
RTVSPropertyOp22
70
1
102
RTVSPropertyOp23
70
1
102
RTVSPropertyOp24
70
1
102
RTVSPropertyOp25
70
1
102
RTVSPropertyOp26
70
1
102
RTVSPropertyOp27
70
1
0
XRECORD
5
10A5
102
{ACAD_REACTORS
330
10A4
102
}
330
10A4
100
AcDbXrecord
280
1
102
RTVSPropertyOp0
70
0
102
RTVSPropertyOp1
70
0
102
RTVSPropertyOp2
70
0
102
RTVSPropertyOp3
70
0
102
RTVSPropertyOp4
70
0
102
RTVSPropertyOp5
70
0
102
RTVSPropertyOp6
70
0
102
RTVSPropertyOp7
70
0
102
RTVSPropertyOp8
70
0
102
RTVSPropertyOp9
70
0
102
RTVSPropertyOp10
70
0
102
RTVSPropertyOp11
70
0
102
RTVSPropertyOp12
70
0
102
RTVSPropertyOp13
70
0
102
RTVSPropertyOp14
70
2
102
RTVSPropertyOp15
70
0
102
RTVSPropertyOp16
70
0
102
RTVSPropertyOp17
70
0
102
RTVSPropertyOp18
70
0
102
RTVSPropertyOp19
70
0
102
RTVSPropertyOp20
70
0
102
RTVSPropertyOp21
70
0
102
RTVSPropertyOp22
70
0
102
RTVSPropertyOp23
70
0
102
RTVSPropertyOp24
70
0
102
RTVSPropertyOp25
70
0
102
RTVSPropertyOp26
70
0
102
RTVSPropertyOp27
70
0
0
XRECORD
5
109D
102
{ACAD_REACTORS
330
109C
102
}
330
109C
100
AcDbXrecord
280
1
102
RTVSPropertyOp0
70
1
102
RTVSPropertyOp1
70
1
102
RTVSPropertyOp2
70
1
102
RTVSPropertyOp3
70
1
102
RTVSPropertyOp4
70
1
102
RTVSPropertyOp5
70
1
102
RTVSPropertyOp6
70
1
102
RTVSPropertyOp7
70
1
102
RTVSPropertyOp8
70
1
102
RTVSPropertyOp9
70
1
102
RTVSPropertyOp10
70
1
102
RTVSPropertyOp11
70
1
102
RTVSPropertyOp12
70
1
102
RTVSPropertyOp13
70
1
102
RTVSPropertyOp14
70
1
102
RTVSPropertyOp15
70
1
102
RTVSPropertyOp16
70
1
102
RTVSPropertyOp17
70
1
102
RTVSPropertyOp18
70
1
102
RTVSPropertyOp19
70
1
102
RTVSPropertyOp20
70
1
102
RTVSPropertyOp21
70
1
102
RTVSPropertyOp22
70
1
102
RTVSPropertyOp23
70
1
102
RTVSPropertyOp24
70
1
102
RTVSPropertyOp25
70
1
102
RTVSPropertyOp26
70
1
102
RTVSPropertyOp27
70
1
0
XRECORD
5
1081
102
{ACAD_REACTORS
330
1080
102
}
330
1080
100
AcDbXrecord
280
1
102
RTVSPropertyOp0
70
1
102
RTVSPropertyOp1
70
1
102
RTVSPropertyOp2
70
1
102
RTVSPropertyOp3
70
1
102
RTVSPropertyOp4
70
1
102
RTVSPropertyOp5
70
1
102
RTVSPropertyOp6
70
1
102
RTVSPropertyOp7
70
1
102
RTVSPropertyOp8
70
1
102
RTVSPropertyOp9
70
1
102
RTVSPropertyOp10
70
1
102
RTVSPropertyOp11
70
1
102
RTVSPropertyOp12
70
1
102
RTVSPropertyOp13
70
1
102
RTVSPropertyOp14
70
1
102
RTVSPropertyOp15
70
1
102
RTVSPropertyOp16
70
1
102
RTVSPropertyOp17
70
1
102
RTVSPropertyOp18
70
1
102
RTVSPropertyOp19
70
1
102
RTVSPropertyOp20
70
1
102
RTVSPropertyOp21
70
1
102
RTVSPropertyOp22
70
1
102
RTVSPropertyOp23
70
1
102
RTVSPropertyOp24
70
1
102
RTVSPropertyOp25
70
1
102
RTVSPropertyOp26
70
1
102
RTVSPropertyOp27
70
1
0
XRECORD
5
1083
102
{ACAD_REACTORS
330
1082
102
}
330
1082
100
AcDbXrecord
280
1
102
RTVSPropertyOp0
70
1
102
RTVSPropertyOp1
70
1
102
RTVSPropertyOp2
70
1
102
RTVSPropertyOp3
70
1
102
RTVSPropertyOp4
70
1
102
RTVSPropertyOp5
70
1
102
RTVSPropertyOp6
70
1
102
RTVSPropertyOp7
70
1
102
RTVSPropertyOp8
70
1
102
RTVSPropertyOp9
70
1
102
RTVSPropertyOp10
70
1
102
RTVSPropertyOp11
70
1
102
RTVSPropertyOp12
70
1
102
RTVSPropertyOp13
70
1
102
RTVSPropertyOp14
70
1
102
RTVSPropertyOp15
70
1
102
RTVSPropertyOp16
70
1
102
RTVSPropertyOp17
70
1
102
RTVSPropertyOp18
70
1
102
RTVSPropertyOp19
70
1
102
RTVSPropertyOp20
70
1
102
RTVSPropertyOp21
70
1
102
RTVSPropertyOp22
70
1
102
RTVSPropertyOp23
70
1
102
RTVSPropertyOp24
70
1
102
RTVSPropertyOp25
70
1
102
RTVSPropertyOp26
70
1
102
RTVSPropertyOp27
70
1
0
XRECORD
5
1085
102
{ACAD_REACTORS
330
1084
102
}
330
1084
100
AcDbXrecord
280
1
102
RTVSPropertyOp0
70
1
102
RTVSPropertyOp1
70
1
102
RTVSPropertyOp2
70
1
102
RTVSPropertyOp3
70
1
102
RTVSPropertyOp4
70
1
102
RTVSPropertyOp5
70
1
102
RTVSPropertyOp6
70
1
102
RTVSPropertyOp7
70
1
102
RTVSPropertyOp8
70
1
102
RTVSPropertyOp9
70
1
102
RTVSPropertyOp10
70
1
102
RTVSPropertyOp11
70
1
102
RTVSPropertyOp12
70
1
102
RTVSPropertyOp13
70
1
102
RTVSPropertyOp14
70
1
102
RTVSPropertyOp15
70
1
102
RTVSPropertyOp16
70
1
102
RTVSPropertyOp17
70
1
102
RTVSPropertyOp18
70
1
102
RTVSPropertyOp19
70
1
102
RTVSPropertyOp20
70
1
102
RTVSPropertyOp21
70
1
102
RTVSPropertyOp22
70
1
102
RTVSPropertyOp23
70
1
102
RTVSPropertyOp24
70
1
102
RTVSPropertyOp25
70
1
102
RTVSPropertyOp26
70
1
102
RTVSPropertyOp27
70
1
0
XRECORD
5
1087
102
{ACAD_REACTORS
330
1086
102
}
330
1086
100
AcDbXrecord
280
1
102
RTVSPropertyOp0
70
1
102
RTVSPropertyOp1
70
1
102
RTVSPropertyOp2
70
1
102
RTVSPropertyOp3
70
1
102
RTVSPropertyOp4
70
1
102
RTVSPropertyOp5
70
1
102
RTVSPropertyOp6
70
1
102
RTVSPropertyOp7
70
1
102
RTVSPropertyOp8
70
1
102
RTVSPropertyOp9
70
1
102
RTVSPropertyOp10
70
1
102
RTVSPropertyOp11
70
1
102
RTVSPropertyOp12
70
1
102
RTVSPropertyOp13
70
1
102
RTVSPropertyOp14
70
1
102
RTVSPropertyOp15
70
1
102
RTVSPropertyOp16
70
1
102
RTVSPropertyOp17
70
1
102
RTVSPropertyOp18
70
1
102
RTVSPropertyOp19
70
1
102
RTVSPropertyOp20
70
1
102
RTVSPropertyOp21
70
1
102
RTVSPropertyOp22
70
1
102
RTVSPropertyOp23
70
1
102
RTVSPropertyOp24
70
1
102
RTVSPropertyOp25
70
1
102
RTVSPropertyOp26
70
1
102
RTVSPropertyOp27
70
1
0
XRECORD
5
10A1
102
{ACAD_REACTORS
330
10A0
102
}
330
10A0
100
AcDbXrecord
280
1
102
RTVSPropertyOp0
70
0
102
RTVSPropertyOp1
70
0
102
RTVSPropertyOp2
70
0
102
RTVSPropertyOp3
70
0
102
RTVSPropertyOp4
70
0
102
RTVSPropertyOp5
70
0
102
RTVSPropertyOp6
70
0
102
RTVSPropertyOp7
70
0
102
RTVSPropertyOp8
70
0
102
RTVSPropertyOp9
70
0
102
RTVSPropertyOp10
70
0
102
RTVSPropertyOp11
70
0
102
RTVSPropertyOp12
70
0
102
RTVSPropertyOp13
70
0
102
RTVSPropertyOp14
70
2
102
RTVSPropertyOp15
70
0
102
RTVSPropertyOp16
70
0
102
RTVSPropertyOp17
70
0
102
RTVSPropertyOp18
70
0
102
RTVSPropertyOp19
70
0
102
RTVSPropertyOp20
70
0
102
RTVSPropertyOp21
70
0
102
RTVSPropertyOp22
70
0
102
RTVSPropertyOp23
70
0
102
RTVSPropertyOp24
70
0
102
RTVSPropertyOp25
70
0
102
RTVSPropertyOp26
70
0
102
RTVSPropertyOp27
70
0
0
XRECORD
5
109B
102
{ACAD_REACTORS
330
109A
102
}
330
109A
100
AcDbXrecord
280
1
102
RTVSPropertyOp0
70
1
102
RTVSPropertyOp1
70
1
102
RTVSPropertyOp2
70
1
102
RTVSPropertyOp3
70
1
102
RTVSPropertyOp4
70
1
102
RTVSPropertyOp5
70
1
102
RTVSPropertyOp6
70
1
102
RTVSPropertyOp7
70
1
102
RTVSPropertyOp8
70
1
102
RTVSPropertyOp9
70
1
102
RTVSPropertyOp10
70
1
102
RTVSPropertyOp11
70
1
102
RTVSPropertyOp12
70
1
102
RTVSPropertyOp13
70
1
102
RTVSPropertyOp14
70
1
102
RTVSPropertyOp15
70
1
102
RTVSPropertyOp16
70
1
102
RTVSPropertyOp17
70
1
102
RTVSPropertyOp18
70
1
102
RTVSPropertyOp19
70
1
102
RTVSPropertyOp20
70
1
102
RTVSPropertyOp21
70
1
102
RTVSPropertyOp22
70
1
102
RTVSPropertyOp23
70
1
102
RTVSPropertyOp24
70
1
102
RTVSPropertyOp25
70
1
102
RTVSPropertyOp26
70
1
102
RTVSPropertyOp27
70
1
0
XRECORD
5
10A3
102
{ACAD_REACTORS
330
10A2
102
}
330
10A2
100
AcDbXrecord
280
1
102
RTVSPropertyOp0
70
0
102
RTVSPropertyOp1
70
0
102
RTVSPropertyOp2
70
0
102
RTVSPropertyOp3
70
0
102
RTVSPropertyOp4
70
0
102
RTVSPropertyOp5
70
0
102
RTVSPropertyOp6
70
0
102
RTVSPropertyOp7
70
0
102
RTVSPropertyOp8
70
0
102
RTVSPropertyOp9
70
0
102
RTVSPropertyOp10
70
0
102
RTVSPropertyOp11
70
0
102
RTVSPropertyOp12
70
0
102
RTVSPropertyOp13
70
0
102
RTVSPropertyOp14
70
2
102
RTVSPropertyOp15
70
0
102
RTVSPropertyOp16
70
0
102
RTVSPropertyOp17
70
0
102
RTVSPropertyOp18
70
0
102
RTVSPropertyOp19
70
0
102
RTVSPropertyOp20
70
0
102
RTVSPropertyOp21
70
0
102
RTVSPropertyOp22
70
0
102
RTVSPropertyOp23
70
0
102
RTVSPropertyOp24
70
0
102
RTVSPropertyOp25
70
0
102
RTVSPropertyOp26
70
0
102
RTVSPropertyOp27
70
0
0
XRECORD
5
1093
102
{ACAD_REACTORS
330
1092
102
}
330
1092
100
AcDbXrecord
280
1
102
RTVSPropertyOp0
70
1
102
RTVSPropertyOp1
70
1
102
RTVSPropertyOp2
70
1
102
RTVSPropertyOp3
70
1
102
RTVSPropertyOp4
70
1
102
RTVSPropertyOp5
70
1
102
RTVSPropertyOp6
70
1
102
RTVSPropertyOp7
70
1
102
RTVSPropertyOp8
70
1
102
RTVSPropertyOp9
70
1
102
RTVSPropertyOp10
70
1
102
RTVSPropertyOp11
70
1
102
RTVSPropertyOp12
70
1
102
RTVSPropertyOp13
70
1
102
RTVSPropertyOp14
70
1
102
RTVSPropertyOp15
70
1
102
RTVSPropertyOp16
70
1
102
RTVSPropertyOp17
70
1
102
RTVSPropertyOp18
70
1
102
RTVSPropertyOp19
70
1
102
RTVSPropertyOp20
70
1
102
RTVSPropertyOp21
70
1
102
RTVSPropertyOp22
70
1
102
RTVSPropertyOp23
70
1
102
RTVSPropertyOp24
70
1
102
RTVSPropertyOp25
70
1
102
RTVSPropertyOp26
70
1
102
RTVSPropertyOp27
70
1
0
XRECORD
5
1099
102
{ACAD_REACTORS
330
1098
102
}
330
1098
100
AcDbXrecord
280
1
102
RTVSPropertyOp0
70
1
102
RTVSPropertyOp1
70
1
102
RTVSPropertyOp2
70
1
102
RTVSPropertyOp3
70
1
102
RTVSPropertyOp4
70
1
102
RTVSPropertyOp5
70
1
102
RTVSPropertyOp6
70
1
102
RTVSPropertyOp7
70
1
102
RTVSPropertyOp8
70
1
102
RTVSPropertyOp9
70
1
102
RTVSPropertyOp10
70
1
102
RTVSPropertyOp11
70
1
102
RTVSPropertyOp12
70
1
102
RTVSPropertyOp13
70
1
102
RTVSPropertyOp14
70
1
102
RTVSPropertyOp15
70
1
102
RTVSPropertyOp16
70
1
102
RTVSPropertyOp17
70
1
102
RTVSPropertyOp18
70
1
102
RTVSPropertyOp19
70
1
102
RTVSPropertyOp20
70
1
102
RTVSPropertyOp21
70
1
102
RTVSPropertyOp22
70
1
102
RTVSPropertyOp23
70
1
102
RTVSPropertyOp24
70
1
102
RTVSPropertyOp25
70
1
102
RTVSPropertyOp26
70
1
102
RTVSPropertyOp27
70
1
0
ENDSEC
0
EOF
