0
SECTION
2
HEADER
9
$ACADVER
1
AC1015
9
$ACADMAINTVER
70
20
9
$DWGCODEPAGE
3
ANSI_1252
9
$INSBASE
10
0.0
20
0.0
30
0.0
9
$EXTMIN
10
-150.000000000000
20
-105.000000000000
30
0.0
9
$EXTMAX
10
150.000000000000
20
105.000000000000
30
0.0
9
$LIMMIN
10
0.0
20
0.0
9
$LIMMAX
10
12.0
20
9.0
9
$ORTHOMODE
70
0
9
$REGENMODE
70
1
9
$FILLMODE
70
1
9
$QTEXTMODE
70
0
9
$MIRRTEXT
70
1
9
$LTSCALE
40
1.0
9
$ATTMODE
70
1
9
$TEXTSIZE
40
0.2
9
$TRACEWID
40
0.05
9
$TEXTSTYLE
7
Standard
9
$CLAYER
8
0
9
$CELTYPE
6
ByLayer
9
$CECOLOR
62
256
9
$CELTSCALE
40
1.0
9
$DISPSILH
70
0
9
$DIMSCALE
40
1.0
9
$DIMASZ
40
2.5
9
$DIMEXO
40
0.625
9
$DIMDLI
40
0.38
9
$DIMRND
40
0.0
9
$DIMDLE
40
0.0
9
$DIMEXE
40
1.25
9
$DIMTP
40
0.0
9
$DIMTM
40
0.000000001
9
$DIMTXT
40
2.5
9
$DIMCEN
40
0.09
9
$DIMTSZ
40
0.0
9
$DIMTOL
70
1
9
$DIMLIM
70
0
9
$DIMTIH
70
0
9
$DIMTOH
70
0
9
$DIMSE1
70
0
9
$DIMSE2
70
0
9
$DIMTAD
70
1
9
$DIMZIN
70
0
9
$DIMBLK
1
VDDIM_DEFAULT
9
$DIMASO
70
1
9
$DIMSHO
70
1
9
$DIMPOST
1

9
$DIMAPOST
1

9
$DIMALT
70
0
9
$DIMALTD
70
2
9
$DIMALTF
40
25.4
9
$DIMLFAC
40
1.00000000000000
9
$DIMTOFL
70
0
9
$DIMTVP
40
0.0
9
$DIMTIX
70
0
9
$DIMSOXD
70
0
9
$DIMSAH
70
0
9
$DIMBLK1
1

9
$DIMBLK2
1

9
$DIMSTYLE
2
BEM-ISBE
9
$DIMCLRD
70
0
9
$DIMCLRE
70
0
9
$DIMCLRT
70
0
9
$DIMTFAC
40
0.5
9
$DIMGAP
40
0.625
9
$DIMJUST
70
0
9
$DIMSD1
70
0
9
$DIMSD2
70
0
9
$DIMTOLJ
70
1
9
$DIMTZIN
70
0
9
$DIMALTZ
70
0
9
$DIMALTTZ
70
0
9
$DIMUPT
70
0
9
$DIMDEC
70
3
9
$DIMTDEC
70
3
9
$DIMALTU
70
2
9
$DIMALTTD
70
2
9
$DIMTXSTY
7
Standard
9
$DIMAUNIT
70
0
9
$DIMADEC
70
3
9
$DIMALTRND
40
0.0
9
$DIMAZIN
70
0
9
$DIMDSEP
70
46
9
$DIMATFIT
70
3
9
$DIMFRAC
70
0
9
$DIMLDRBLK
1

9
$DIMLUNIT
70
2
9
$DIMLWD
70
-2
9
$DIMLWE
70
-2
9
$DIMTMOVE
70
0
9
$LUNITS
70
2
9
$LUPREC
70
4
9
$SKETCHINC
40
0.1
9
$FILLETRAD
40
0.5
9
$AUNITS
70
0
9
$AUPREC
70
0
9
$MENU
1
.
9
$ELEVATION
40
0.0
9
$PELEVATION
40
0.0
9
$THICKNESS
40
0.0
9
$LIMCHECK
70
0
9
$CHAMFERA
40
0.5
9
$CHAMFERB
40
0.5
9
$CHAMFERC
40
1.0
9
$CHAMFERD
40
0.0
9
$SKPOLY
70
0
9
$TDCREATE
40
0.0
9
$TDUCREATE
40
0.0
9
$TDUPDATE
40
0.0
9
$TDUUPDATE
40
0.0
9
$TDINDWG
40
0.0
9
$TDUSRTIMER
40
0.0
9
$USRTIMER
70
1
9
$ANGBASE
50
0.0
9
$ANGDIR
70
0
9
$PDMODE
70
0
9
$PDSIZE
40
0.0
9
$PLINEWID
40
0.0
9
$SPLFRAME
70
0
9
$SPLINETYPE
70
6
9
$SPLINESEGS
70
8
9
$HANDSEED
5
10AB
9
$SURFTAB1
70
6
9
$SURFTAB2
70
6
9
$SURFTYPE
70
6
9
$SURFU
70
6
9
$SURFV
70
6
9
$UCSBASE
2

9
$UCSNAME
2

9
$UCSORG
10
0.0
20
0.0
30
0.0
9
$UCSXDIR
10
1.0
20
0.0
30
0.0
9
$UCSYDIR
10
0.0
20
1.0
30
0.0
9
$UCSORTHOREF
2

9
$UCSORTHOVIEW
70
0
9
$UCSORGTOP
10
0.0
20
0.0
30
0.0
9
$UCSORGBOTTOM
10
0.0
20
0.0
30
0.0
9
$UCSORGLEFT
10
0.0
20
0.0
30
0.0
9
$UCSORGRIGHT
10
0.0
20
0.0
30
0.0
9
$UCSORGFRONT
10
0.0
20
0.0
30
0.0
9
$UCSORGBACK
10
0.0
20
0.0
30
0.0
9
$PUCSBASE
2

9
$PUCSNAME
2

9
$PUCSORG
10
0.0
20
0.0
30
0.0
9
$PUCSXDIR
10
1.0
20
0.0
30
0.0
9
$PUCSYDIR
10
0.0
20
1.0
30
0.0
9
$PUCSORTHOREF
2

9
$PUCSORTHOVIEW
70
0
9
$PUCSORGTOP
10
0.0
20
0.0
30
0.0
9
$PUCSORGBOTTOM
10
0.0
20
0.0
30
0.0
9
$PUCSORGLEFT
10
0.0
20
0.0
30
0.0
9
$PUCSORGRIGHT
10
0.0
20
0.0
30
0.0
9
$PUCSORGFRONT
10
0.0
20
0.0
30
0.0
9
$PUCSORGBACK
10
0.0
20
0.0
30
0.0
9
$USERI1
70
0
9
$USERI2
70
0
9
$USERI3
70
0
9
$USERI4
70
0
9
$USERI5
70
0
9
$USERR1
40
0.0
9
$USERR2
40
0.0
9
$USERR3
40
0.0
9
$USERR4
40
0.0
9
$USERR5
40
0.0
9
$WORLDVIEW
70
1
9
$SHADEDGE
70
3
9
$SHADEDIF
70
70
9
$TILEMODE
70
1
9
$MAXACTVP
70
64
9
$PINSBASE
10
0.0
20
0.0
30
0.0
9
$PLIMCHECK
70
0
9
$PEXTMIN
10
1.000000000000000E+20
20
1.000000000000000E+20
30
1.000000000000000E+20
9
$PEXTMAX
10
-1.000000000000000E+20
20
-1.000000000000000E+20
30
-1.000000000000000E+20
9
$PLIMMIN
10
0.0
20
0.0
9
$PLIMMAX
10
12.0
20
9.0
9
$UNITMODE
70
0
9
$VISRETAIN
70
1
9
$PLINEGEN
70
0
9
$PSLTSCALE
70
1
9
$TREEDEPTH
70
3020
9
$CMLSTYLE
2
Standard
9
$CMLJUST
70
0
9
$CMLSCALE
40
1.0
9
$PROXYGRAPHICS
70
1
9
$MEASUREMENT
70
0
9
$CELWEIGHT
370
-1
9
$ENDCAPS
280
0
9
$JOINSTYLE
280
0
9
$LWDISPLAY
290
0
9
$INSUNITS
70
4
9
$HYPERLINKBASE
1

9
$STYLESHEET
1

9
$XEDIT
290
1
9
$CEPSNTYPE
380
0
9
$PSTYLEMODE
290
0
9
$FINGERPRINTGUID
2
{FAEB1C30-E019-11D5-929B-00C0DF256EC4}
9
$VERSIONGUID
2
{04C5C4E4-4947-4D90-8812-D401569E61F7}
9
$EXTNAMES
290
1
9
$PSVPSCALE
40
0.0
9
$OLESTARTUP
290
0
0
ENDSEC
0
SECTION
2
TABLES
0
TABLE
2
VPORT
5
24A
330
0
100
AcDbSymbolTable
70
1
0
VPORT
5
26B
330
24A
100
AcDbSymbolTableRecord
100
AcDbViewportTableRecord
2
*Active
70
0
10
0.0
20
0.0
11
1.0
21
1.0
12
0.000000000000000
22
0.000000000000000
13
0.0
23
0.0
14
10.0
24
10.0
15
10.0
25
10.0
16
0.0
26
0.0
36
1.0
17
0.0
27
0.0
37
0.0
40
210.000000000000
41
1.42857142857143
42
1.0
43
0.0
44
0.0
50
0.0
51
0.0000000000007958
71
0
72
100
73
1
74
3
75
0
76
0
77
0
78
1
281
0
65
1
110
0.0
120
0.0
130
0.0
111
1.0
121
0.0
131
0.0
112
0.0
122
1.0
132
0.0
79
0
146
0.0
0
ENDTAB
0
TABLE
2
LTYPE
5
247
330
0
100
AcDbSymbolTable
70
25
0
LTYPE
5
256
330
247
100
AcDbSymbolTableRecord
100
AcDbLinetypeTableRecord
2
ByBlock
70
0
3

72
65
73
0
40
0.0
0
LTYPE
5
257
330
247
100
AcDbSymbolTableRecord
100
AcDbLinetypeTableRecord
2
ByLayer
70
0
3

72
65
73
0
40
0.0
0
LTYPE
5
258
330
247
100
AcDbSymbolTableRecord
100
AcDbLinetypeTableRecord
2
Continuous
70
0
3
Solid line
72
65
73
0
40
0.0
0
LTYPE
5
273
330
247
100
AcDbSymbolTableRecord
100
AcDbLinetypeTableRecord
2
CENTER
70
0
3
Center ____ _ ____ _ ____ _ ____ _ ____ _ ____
72
65
73
4
40
2.0
49
1.25
74
0
49
-0.25
74
0
49
0.25
74
0
49
-0.25
74
0
0
LTYPE
5
274
330
247
100
AcDbSymbolTableRecord
100
AcDbLinetypeTableRecord
2
DASHDOT
70
0
3
Dashdot __ . __ . __ . __ . __ . __ . __ . __
72
65
73
4
40
1.0
49
0.5
74
0
49
-0.25
74
0
49
0.0
74
0
49
-0.25
74
0
0
LTYPE
5
275
330
247
100
AcDbSymbolTableRecord
100
AcDbLinetypeTableRecord
2
DASHED
70
0
3
Dashed __ __ __ __ __ __ __ __ __ __ __ __ __ _
72
65
73
2
40
0.75
49
0.5
74
0
49
-0.25
74
0
0
LTYPE
5
276
330
247
100
AcDbSymbolTableRecord
100
AcDbLinetypeTableRecord
2
HIDDEN
70
0
3
Hidden __ __ __ __ __ __ __ __ __ __ __ __ __ __
72
65
73
2
40
0.375
49
0.25
74
0
49
-0.125
74
0
0
LTYPE
5
277
330
247
100
AcDbSymbolTableRecord
100
AcDbLinetypeTableRecord
2
HIDDEN2
70
0
3
Hidden2 _ _ _ _ _ _ _ _ _ _ _ _ _ _ _ _ _
72
65
73
2
40
0.1875
49
0.125
74
0
49
-0.0625
74
0
0
LTYPE
5
278
330
247
100
AcDbSymbolTableRecord
100
AcDbLinetypeTableRecord
2
BORDER
70
0
3
Border __ __ . __ __ . __ __ . __ __ . __ __ .
72
65
73
6
40
1.75
49
0.5
74
0
49
-0.25
74
0
49
0.5
74
0
49
-0.25
74
0
49
0.0
74
0
49
-0.25
74
0
0
LTYPE
5
279
330
247
100
AcDbSymbolTableRecord
100
AcDbLinetypeTableRecord
2
BORDER2
70
0
3
Border2 __.__.__.__.__.__.__.__.__.__.__.
72
65
73
6
40
0.875
49
0.25
74
0
49
-0.125
74
0
49
0.25
74
0
49
-0.125
74
0
49
0.0
74
0
49
-0.125
74
0
0
LTYPE
5
27A
330
247
100
AcDbSymbolTableRecord
100
AcDbLinetypeTableRecord
2
BORDERX2
70
0
3
Borderx2  ____  ____  .  ____  ____  .  ___
72
65
73
6
40
3.5
49
1.0
74
0
49
-0.5
74
0
49
1.0
74
0
49
-0.5
74
0
49
0.0
74
0
49
-0.5
74
0
0
LTYPE
5
27B
330
247
100
AcDbSymbolTableRecord
100
AcDbLinetypeTableRecord
2
CENTER2
70
0
3
Center2  ___ _ ___ _ ___ _ ___ _ ___ _ ___
72
65
73
4
40
1.125
49
0.75
74
0
49
-0.125
74
0
49
0.125
74
0
49
-0.125
74
0
0
LTYPE
5
27C
330
247
100
AcDbSymbolTableRecord
100
AcDbLinetypeTableRecord
2
CENTERX2
70
0
3
Centerx2  ________  __  ________  __  _____
72
65
73
4
40
4.0
49
2.5
74
0
49
-0.5
74
0
49
0.5
74
0
49
-0.5
74
0
0
LTYPE
5
27D
330
247
100
AcDbSymbolTableRecord
100
AcDbLinetypeTableRecord
2
DASHDOT2
70
0
3
Dashdot2  _._._._._._._._._._._._._._._.
72
65
73
4
40
0.5
49
0.25
74
0
49
-0.125
74
0
49
0.0
74
0
49
-0.125
74
0
0
LTYPE
5
27E
330
247
100
AcDbSymbolTableRecord
100
AcDbLinetypeTableRecord
2
DASHDOTX2
70
0
3
Dashdotx2 ____  .  ____  .  ____  .  ___
72
65
73
4
40
2.0
49
1.0
74
0
49
-0.5
74
0
49
0.0
74
0
49
-0.5
74
0
0
LTYPE
5
27F
330
247
100
AcDbSymbolTableRecord
100
AcDbLinetypeTableRecord
2
DASHED2
70
0
3
Dashed2 _ _ _ _ _ _ _ _ _ _ _ _ _ _ _ _ _
72
65
73
2
40
0.375
49
0.25
74
0
49
-0.125
74
0
0
LTYPE
5
280
330
247
100
AcDbSymbolTableRecord
100
AcDbLinetypeTableRecord
2
DASHEDX2
70
0
3
Dashedx2 ____  ____  ____  ____  ____  ___
72
65
73
2
40
1.5
49
1.0
74
0
49
-0.5
74
0
0
LTYPE
5
281
330
247
100
AcDbSymbolTableRecord
100
AcDbLinetypeTableRecord
2
DIVIDE
70
0
3
Divide ____ . . ____ . . ____ . . ____ . . ____
72
65
73
6
40
1.25
49
0.5
74
0
49
-0.25
74
0
49
0.0
74
0
49
-0.25
74
0
49
0.0
74
0
49
-0.25
74
0
0
LTYPE
5
282
330
247
100
AcDbSymbolTableRecord
100
AcDbLinetypeTableRecord
2
DIVIDE2
70
0
3
Divide2 __..__..__..__..__..__..__..__.._
72
65
73
6
40
0.625
49
0.25
74
0
49
-0.125
74
0
49
0.0
74
0
49
-0.125
74
0
49
0.0
74
0
49
-0.125
74
0
0
LTYPE
5
283
330
247
100
AcDbSymbolTableRecord
100
AcDbLinetypeTableRecord
2
DIVIDEX2
70
0
3
Dividex2 ________  .  .  ________  .  .  _
72
65
73
6
40
2.5
49
1.0
74
0
49
-0.5
74
0
49
0.0
74
0
49
-0.5
74
0
49
0.0
74
0
49
-0.5
74
0
0
LTYPE
5
284
330
247
100
AcDbSymbolTableRecord
100
AcDbLinetypeTableRecord
2
DOT
70
0
3
Dot . . . . . . . . . . . . . . . . . . . . . . . .
72
65
73
2
40
0.25
49
0.0
74
0
49
-0.25
74
0
0
LTYPE
5
285
330
247
100
AcDbSymbolTableRecord
100
AcDbLinetypeTableRecord
2
DOT2
70
0
3
Dot2 ........................................
72
65
73
2
40
0.125
49
0.0
74
0
49
-0.125
74
0
0
LTYPE
5
286
330
247
100
AcDbSymbolTableRecord
100
AcDbLinetypeTableRecord
2
DOTX2
70
0
3
Dotx2 .  .  .  .  .  .  .  .  .  .  .  .  .  .
72
65
73
2
40
0.5
49
0.0
74
0
49
-0.5
74
0
0
LTYPE
5
287
330
247
100
AcDbSymbolTableRecord
100
AcDbLinetypeTableRecord
2
HIDDENX2
70
0
3
Hiddenx2 ____ ____ ____ ____ ____ ____ ____
72
65
73
2
40
0.75
49
0.5
74
0
49
-0.25
74
0
0
LTYPE
5
288
330
247
100
AcDbSymbolTableRecord
100
AcDbLinetypeTableRecord
2
PHANTOM
70
0
3
Phantom ______  __  __  ______  __  __  ______
72
65
73
6
40
2.5
49
1.25
74
0
49
-0.25
74
0
49
0.25
74
0
49
-0.25
74
0
49
0.25
74
0
49
-0.25
74
0
0
LTYPE
5
289
330
247
100
AcDbSymbolTableRecord
100
AcDbLinetypeTableRecord
2
PHANTOM2
70
0
3
Phantom2 ___ _ _ ___ _ _ ___ _ _ ___ _ _
72
65
73
6
40
1.25
49
0.625
74
0
49
-0.125
74
0
49
0.125
74
0
49
-0.125
74
0
49
0.125
74
0
49
-0.125
74
0
0
LTYPE
5
28A
330
247
100
AcDbSymbolTableRecord
100
AcDbLinetypeTableRecord
2
PHANTOMX2
70
0
3
Phantomx2 ____________    ____    ____   _
72
65
73
6
40
5.0
49
2.5
74
0
49
-0.5
74
0
49
0.5
74
0
49
-0.5
74
0
49
0.5
74
0
49
-0.5
74
0
0
ENDTAB
0
TABLE
2
LAYER
5
244
330
0
100
AcDbSymbolTable
70
6
0
LAYER
5
252
330
244
100
AcDbSymbolTableRecord
100
AcDbLayerTableRecord
2
0
70
0
62
7
6
Continuous
370
0
390
251
0
LAYER
5
23F
330
244
100
AcDbSymbolTableRecord
100
AcDbLayerTableRecord
2
Bemassung
70
0
 62
   7
6
Continuous
370
0
390
251
0
LAYER
5
240
330
244
100
AcDbSymbolTableRecord
100
AcDbLayerTableRecord
2
Rahmen
70
0
 62
   7
6
Continuous
370
0
390
251
0
LAYER
5
241
330
244
100
AcDbSymbolTableRecord
100
AcDbLayerTableRecord
2
Geo
70
0
 62
   7
6
Continuous
370
0
390
251
0
LAYER
5
33A
330
244
100
AcDbSymbolTableRecord
100
AcDbLayerTableRecord
2
Defpoints
70
0
62
7
6
Continuous
290
0
370
-3
390
251
0
LAYER
5
57E
330
244
100
AcDbSymbolTableRecord
100
AcDbLayerTableRecord
2
Text
70
0
 62
   7
6
Continuous
370
0
390
251
1001
AcAecLayerStandard
1000

1000

0
ENDTAB
0
TABLE
2
STYLE
5
245
330
0
100
AcDbSymbolTable
70
2
0
STYLE
5
253
330
245
100
AcDbSymbolTableRecord
100
AcDbTextStyleTableRecord
2
Standard
70
0
40
0.0
41
1.0
50
0.0
71
0
42
0.2
3
Arial
4

1001
ACAD
1000
Arial
1071
0
0
STYLE
5
132
330
245
100
AcDbSymbolTableRecord
100
AcDbTextStyleTableRecord
2
Beschriftung
70
0
40
0.0
41
1.0
50
0.0
71
0
42
0.2
3
Arial
4

1001
ACAD
1000
Arial
1071
0
1001
AcadAnnotative
1000
AnnotativeData
1070
1
1070
1
0
ENDTAB
0
TABLE
2
VIEW
5
248
330
0
100
AcDbSymbolTable
70
0
0
ENDTAB
0
TABLE
2
UCS
5
249
330
0
100
AcDbSymbolTable
70
0
0
ENDTAB
0
TABLE
2
APPID
5
24B
330
0
100
AcDbSymbolTable
70
13
0
APPID
5
254
330
24B
100
AcDbSymbolTableRecord
100
AcDbRegAppTableRecord
2
ACAD
70
0
0
APPID
5
26C
330
24B
100
AcDbSymbolTableRecord
100
AcDbRegAppTableRecord
2
VD_INVISIBLE_NOT_FOR_READ
70
0
0
APPID
5
26D
330
24B
100
AcDbSymbolTableRecord
100
AcDbRegAppTableRecord
2
VD_TEMPHATCH
70
0
0
APPID
5
26E
330
24B
100
AcDbSymbolTableRecord
100
AcDbRegAppTableRecord
2
VDEXTRAPARAM
70
0
0
APPID
5
26F
330
24B
100
AcDbSymbolTableRecord
100
AcDbRegAppTableRecord
2
PE_URL
70
0
0
APPID
5
270
330
24B
100
AcDbSymbolTableRecord
100
AcDbRegAppTableRecord
2
VD_UNKNOWN
70
0
0
APPID
5
28F
330
24B
100
AcDbSymbolTableRecord
100
AcDbRegAppTableRecord
2
AcadAnnotative
70
0
0
APPID
5
290
330
24B
100
AcDbSymbolTableRecord
100
AcDbRegAppTableRecord
2
ACAD_DSTYLE_DIMJAG
70
0
0
APPID
5
291
330
24B
100
AcDbSymbolTableRecord
100
AcDbRegAppTableRecord
2
ACAD_DSTYLE_DIMTALN
70
0
0
APPID
5
293
330
24B
100
AcDbSymbolTableRecord
100
AcDbRegAppTableRecord
2
ACAD_PSEXT
70
0
0
APPID
5
42A
330
24B
100
AcDbSymbolTableRecord
100
AcDbRegAppTableRecord
2
ACAD_MLEADERVER
70
0
0
APPID
5
532
330
24B
100
AcDbSymbolTableRecord
100
AcDbRegAppTableRecord
2
ACAD_EXEMPT_FROM_CAD_STANDARDS
70
0
0
APPID
5
57F
330
24B
100
AcDbSymbolTableRecord
100
AcDbRegAppTableRecord
2
AcAecLayerStandard
70
0
0
ENDTAB
0
TABLE
2
DIMSTYLE
5
24C
330
0
100
AcDbSymbolTable
70
3
100
AcDbDimStyleTable
71
2
340
27
340
269
0
DIMSTYLE
105
269
330
24C
100
AcDbSymbolTableRecord
100
AcDbDimStyleTableRecord
2
Standard
70
0
172
1
174
1
288
1
340
253
342
23C
0
DIMSTYLE
105
137
330
24C
100
AcDbSymbolTableRecord
100
AcDbDimStyleTableRecord
2
Beschriftung
70
0
41
2.5
42
0.625
44
1.25
73
0
74
0
77
1
140
2.5
147
0.625
172
1
174
1
271
2
288
1
340
253
342
23C
1001
AcadAnnotative
1000
AnnotativeData
1070
1
1070
1
1001
ACAD_DSTYLE_DIMJAG
1070
388
1040
1.5
1001
ACAD_DSTYLE_DIMTALN
1070
392
1070
0
0
DIMSTYLE
105
27
102
{ACAD_REACTORS
330
F1000D
330
F10012
330
F10003
330
F10008
102
}
330
24C
100
AcDbSymbolTableRecord
100
AcDbDimStyleTableRecord
2
BEM-ISBE
70
0
41
2.5
42
0.625
44
1.25
48
0.000000001
71
1
73
0
74
0
77
1
140
2.5
144
1.00000000000000
146
0.5
147
0.625
171
 3
172
 1
179
 3
271
 3
272
 3
274
 3
340
253
342
23C
1001
ACAD_DSTYLE_DIMJAG
1070
388
1040
1.5
1001
ACAD_DSTYLE_DIMTALN
1070
392
1070
1
0
ENDTAB
0
TABLE
2
BLOCK_RECORD
5
243
330
0
100
AcDbSymbolTable
70
5
0
BLOCK_RECORD
5
261
330
243
100
AcDbSymbolTableRecord
100
AcDbBlockTableRecord
2
*Model_Space
340
FD0
0
BLOCK_RECORD
5
25D
330
243
100
AcDbSymbolTableRecord
100
AcDbBlockTableRecord
2
*Paper_Space
340
FD1
0
BLOCK_RECORD
5
265
330
243
100
AcDbSymbolTableRecord
100
AcDbBlockTableRecord
2
*Paper_Space0
340
0
0
BLOCK_RECORD
5
23C
330
243
100
AcDbSymbolTableRecord
100
AcDbBlockTableRecord
2
VDDIM_DEFAULT
340
0
102
{BLKREFS
102
}
0
BLOCK_RECORD
5
23E
330
243
100
AcDbSymbolTableRecord
100
AcDbBlockTableRecord
2
VDDIM_NONE
340
0
0
BLOCK_RECORD
5
F1000C
330
243
100
AcDbSymbolTableRecord
100
AcDbBlockTableRecord
2
*D5
340
0
0
BLOCK_RECORD
5
F10011
330
243
100
AcDbSymbolTableRecord
100
AcDbBlockTableRecord
2
*D6
340
0
0
BLOCK_RECORD
5
F10002
330
243
100
AcDbSymbolTableRecord
100
AcDbBlockTableRecord
2
*D3
340
0
0
BLOCK_RECORD
5
F10007
330
243
100
AcDbSymbolTableRecord
100
AcDbBlockTableRecord
2
*D4
340
0
0
ENDTAB
0
ENDSEC
0
SECTION
2
BLOCKS
0
BLOCK
5
262
330
261
100
AcDbEntity
8
0
100
AcDbBlockBegin
2
*Model_Space
70
0
10
0.0
20
0.0
30
0.0
3
*Model_Space
1

0
ENDBLK
5
263
330
261
100
AcDbEntity
8
0
100
AcDbBlockEnd
0
BLOCK
5
25E
330
25D
100
AcDbEntity
67
1
8
0
100
AcDbBlockBegin
2
*Paper_Space
70
0
10
0.0
20
0.0
30
0.0
3
*Paper_Space
1

0
ENDBLK
5
25F
330
25D
100
AcDbEntity
67
1
8
0
100
AcDbBlockEnd
0
BLOCK
5
266
330
265
100
AcDbEntity
8
0
100
AcDbBlockBegin
2
*Paper_Space0
70
0
10
0.0
20
0.0
30
0.0
3
*Paper_Space0
1

0
VIEWPORT
5
296
102
{ACAD_XDICTIONARY
360
58E
102
}
330
265
100
AcDbEntity
8
0
60
1
100
AcDbViewport
10
0.0
20
0.0
30
0.0
40
10.0
41
10.0
69
0
12
0.0
22
0.0
13
0.0
23
0.0
14
1.0
24
1.0
15
0.0
25
0.0
16
0.0
26
0.0
36
1.0
17
0.0
27
0.0
37
0.0
42
0.0
43
0.0
44
0.0
45
10.0
50
0.0
51
0.0000000000007958
72
100
90
163872
1

281
0
71
0
74
0
110
0.0
120
0.0
130
0.0
111
1.0
121
0.0
131
0.0
112
0.0
122
1.0
132
0.0
79
0
146
0.0
1001
VD_INVISIBLE_NOT_FOR_READ
1000
VD_INVISIBLE_NOT_FOR_READ
0
VIEWPORT
5
297
102
{ACAD_XDICTIONARY
360
590
102
}
330
265
100
AcDbEntity
8
0
60
1
100
AcDbViewport
10
0.0
20
0.0
30
0.0
40
10.0
41
10.0
69
0
12
0.0
22
0.0
13
0.0
23
0.0
14
1.0
24
1.0
15
0.0
25
0.0
16
0.0
26
0.0
36
1.0
17
0.0
27
0.0
37
0.0
42
0.0
43
0.0
44
0.0
45
10.0
50
0.0
51
0.0000000000007958
72
100
90
163872
1

281
0
71
0
74
0
110
0.0
120
0.0
130
0.0
111
1.0
121
0.0
131
0.0
112
0.0
122
1.0
132
0.0
79
0
146
0.0
1001
VD_INVISIBLE_NOT_FOR_READ
1000
VD_INVISIBLE_NOT_FOR_READ
0
ENDBLK
5
267
330
265
100
AcDbEntity
8
0
100
AcDbBlockEnd
0
BLOCK
5
28B
330
23C
100
AcDbEntity
8
0
100
AcDbBlockBegin
2
VDDIM_DEFAULT
70
0
10
0.0
20
0.0
30
0.0
3
VDDIM_DEFAULT
1

0
LWPOLYLINE
5
23D
330
23C
100
AcDbEntity
8
0
6
Continuous
62
0
100
AcDbPolyline
90
4
70
0
43
0.0
10
0.0
20
0.0
10
-1.0
20
-0.1665
10
-1.0
20
0.1665
10
0.0
20
0.0
1001
VDEXTRAPARAM
1071
1
1071
0
1071
0
1040
1.0
1000

1000

1040
0.0
1040
0.0
0
HATCH
5
292
330
23C
100
AcDbEntity
8
0
6
Continuous
62
0
100
AcDbHatch
10
0.0
20
0.0
30
0.0
210
0.0
220
0.0
230
1.0
2
SOLID
70
1
71
0
91
1
92
2
72
0
73
1
93
3
10
0.0
20
0.0
10
-1.0
20
-0.1665
10
-1.0
20
0.1665
97
0
75
0
76
1
98
1
10
0.0
20
0.0
1001
VDEXTRAPARAM
1071
1
1071
0
1071
0
1040
1.0
1000

1000

1040
0.0
1040
0.0
1001
VD_TEMPHATCH
1000
VD_TEMPHATCH
0
ENDBLK
5
28C
330
23C
100
AcDbEntity
8
0
100
AcDbBlockEnd
0
BLOCK
5
28D
330
23E
100
AcDbEntity
8
0
100
AcDbBlockBegin
2
VDDIM_NONE
70
0
10
0.0
20
0.0
30
0.0
3
VDDIM_NONE
1

0
ENDBLK
5
28E
330
23E
100
AcDbEntity
8
0
100
AcDbBlockEnd
  0
BLOCK
  5
F10016
330
F1000C
100
AcDbEntity
  8
0
100
AcDbBlockBegin
  2
*D5
 70
     1
 10
0.0
 20
0.0
 30
0.0
  3
*D5
  1

  0
LINE
  5
F10017
330
F1000C
100
AcDbEntity
  8
Bemassung
 62
     0
370
    -2
100
AcDbLine
10
-89.0771147276422
20
0.890796820381283
30
0.000000000000000
11
-89.0771147276422
21
32.4681514457834
31
0.000000000000000
  0
LINE
  5
F10018
330
F1000C
100
AcDbEntity
  8
Bemassung
 62
     0
370
    -2
100
AcDbLine
10
-0.0771147276421971
20
-6.60920317961872
30
0.000000000000000
11
-0.0771147276421971
21
32.4681514457834
31
0.000000000000000
  0
LINE
  5
F10019
330
F1000C
100
AcDbEntity
  8
Bemassung
 62
     0
370
    -2
100
AcDbLine
10
-89.0771147276422
20
30.4681514457834
30
0.000000000000000
11
14.1108417151036
21
30.4681514457834
31
0.000000000000000
  0
INSERT
  5
F1001A
330
F1000C
100
AcDbEntity
  8
Bemassung
 62
     0
370
    -2
100
AcDbBlockReference
  2
VDDIM_DEFAULT
10
-89.0771147276422
20
30.4681514457834
30
0.000000000000000
 41
2.50000000000000
 42
2.50000000000000
 43
2.50000000000000
 50
180.000000000000
  0
INSERT
  5
F1001B
330
F1000C
100
AcDbEntity
  8
Bemassung
 62
     0
370
    -2
100
AcDbBlockReference
  2
VDDIM_DEFAULT
10
-0.0771147276421971
20
30.4681514457834
30
0.000000000000000
 41
2.50000000000000
 42
2.50000000000000
 43
2.50000000000000
  0
MTEXT
  5
F1001C
330
F1000C
100
AcDbEntity
  8
Bemassung
 62
     0
100
AcDbMText
10
-38.5775619491922
20
31.1348181124501
30
0.000000000000000
 40
2.50000000000000
 41
0.0
 71
     8
 72
     1
  1
89
 11
1.00000000000000
 21
0.000000000000000
 31
0.0
 73
     1
 44
1.0
1001
ACAD
1000
MTEXTBEGIN
1070
73
1070
1
1070
44
1040
1.0
1070
74
1070
0
1000
MTEXTEND
  0
POINT
  5
F1001D
330
F1000C
100
AcDbEntity
  8
Bemassung
 62
     0
100
AcDbPoint
10
-89.0771147276422
20
0.890796820381283
30
0.000000000000000
  0
POINT
  5
F1001E
330
F1000C
100
AcDbEntity
  8
Bemassung
 62
     0
100
AcDbPoint
10
-0.0771147276421971
20
-6.60920317961872
30
0.000000000000000
  0
ENDBLK
  5
F1001F
330
F1000C
100
AcDbEntity
  8
0
100
AcDbBlockEnd
  0
BLOCK
  5
F10020
330
F10011
100
AcDbEntity
  8
0
100
AcDbBlockBegin
  2
*D6
 70
     1
 10
0.0
 20
0.0
 30
0.0
  3
*D6
  1

  0
LINE
  5
F10021
330
F10011
100
AcDbEntity
  8
Bemassung
 62
     0
370
    -2
100
AcDbLine
10
-89.0771147276422
20
0.890796820381283
30
0.000000000000000
11
-89.0771147276422
21
22.1941561976188
31
0.000000000000000
  0
LINE
  5
F10022
330
F10011
100
AcDbEntity
  8
Bemassung
 62
     0
370
    -2
100
AcDbLine
10
-75.2207082670912
20
8.89079682038128
30
0.000000000000000
11
-75.2207082670912
21
22.1941561976188
31
0.000000000000000
  0
LINE
  5
F10023
330
F10011
100
AcDbEntity
  8
Bemassung
 62
     0
370
    -2
100
AcDbLine
10
-89.0771147276422
20
20.1941561976188
30
0.000000000000000
11
-70.6289568654997
21
20.1941561976188
31
0.000000000000000
  0
INSERT
  5
F10024
330
F10011
100
AcDbEntity
  8
Bemassung
 62
     0
370
    -2
100
AcDbBlockReference
  2
VDDIM_DEFAULT
10
-89.0771147276422
20
20.1941561976188
30
0.000000000000000
 41
2.50000000000000
 42
2.50000000000000
 43
2.50000000000000
 50
180.000000000000
  0
INSERT
  5
F10025
330
F10011
100
AcDbEntity
  8
Bemassung
 62
     0
370
    -2
100
AcDbBlockReference
  2
VDDIM_DEFAULT
10
-75.2207082670912
20
20.1941561976188
30
0.000000000000000
 41
2.50000000000000
 42
2.50000000000000
 43
2.50000000000000
  0
MTEXT
  5
F10026
330
F10011
100
AcDbEntity
  8
Bemassung
 62
     0
100
AcDbMText
10
-81.7291936987245
20
20.8608228642855
30
0.000000000000000
 40
2.50000000000000
 41
0.0
 71
     8
 72
     1
  1
13.8
 11
1.00000000000000
 21
0.000000000000000
 31
0.0
 73
     1
 44
1.0
1001
ACAD
1000
MTEXTBEGIN
1070
73
1070
1
1070
44
1040
1.0
1070
74
1070
0
1000
MTEXTEND
  0
POINT
  5
F10027
330
F10011
100
AcDbEntity
  8
Bemassung
 62
     0
100
AcDbPoint
10
-89.0771147276422
20
0.890796820381283
30
0.000000000000000
  0
POINT
  5
F10028
330
F10011
100
AcDbEntity
  8
Bemassung
 62
     0
100
AcDbPoint
10
-75.2207082670912
20
8.89079682038128
30
0.000000000000000
  0
ENDBLK
  5
F10029
330
F10011
100
AcDbEntity
  8
0
100
AcDbBlockEnd
  0
BLOCK
  5
F1002A
330
F10002
100
AcDbEntity
  8
0
100
AcDbBlockBegin
  2
*D3
 70
     1
 10
0.0
 20
0.0
 30
0.0
  3
*D3
  1

 0
ARC
  5
F1002B
330
F10002
100
AcDbEntity
  8
Bemassung
 62
     0
370
   -2
100
AcDbCircle
10
-89.0771147276422
20
0.890796820381283
30
0.000000000000000
 40
37.9419338900570
100
AcDbArc
 50
315.106288663473
 51
30.0000000000001
  0
LINE
  5
F1002C
330
F10002
100
AcDbEntity
  8
Bemassung
 62
     0
370
    -2
100
AcDbLine
10
-54.4863853025742
20
20.8617637654098
30
0.000000000000000
11
-89.0771147276422
21
0.890796820381283
31
0.000000000000000
  0
LINE
  5
F1002D
330
F10002
100
AcDbEntity
  8
Bemassung
 62
     0
370
    -2
100
AcDbLine
10
-54.4863853025742
20
-19.0801701246473
30
0.000000000000000
11
-89.0771147276422
21
0.890796820381283
31
0.000000000000000
  0
INSERT
  5
F1002E
330
F10002
100
AcDbEntity
  8
Bemassung
 62
     0
370
    -2
100
AcDbBlockReference
  2
VDDIM_DEFAULT
10
-56.2184361101431
20
19.8617637654098
30
0.000000000000000
 41
2.50000000000000
 42
2.50000000000000
 43
2.50000000000000
 50
118.112044402403
  0
INSERT
  5
F1002F
330
F10002
100
AcDbEntity
  8
Bemassung
 62
     0
370
    -2
100
AcDbBlockReference
  2
VDDIM_DEFAULT
10
-56.2184361101431
20
-18.0801701246473
30
0.000000000000000
 41
2.50000000000000
 42
2.50000000000000
 43
2.50000000000000
 50
241.887955597597
  0
MTEXT
  5
F10030
330
F10002
100
AcDbEntity
  8
Bemassung
 62
     0
100
AcDbMText
10
-59.6847024362705
20
-23.1024615454906
30
0.000000000000000
 40
2.50000000000000
 41
0.0
 71
     8
 72
     1
  1
60°
 11
0.632784279625157
 21
0.774328131646572
 31
0.0
 73
     1
 44
1.0
1001
ACAD
1000
MTEXTBEGIN
1070
73
1070
1
1070
44
1040
1.0
1070
74
1070
0
1000
MTEXTEND
  0
POINT
  5
F10031
330
F10002
100
AcDbEntity
  8
Bemassung
 62
     0
100
AcDbPoint
10
-89.0771147276422
20
0.890796820381283
30
0.000000000000000
  0
POINT
  5
F10032
330
F10002
100
AcDbEntity
  8
Bemassung
 62
     0
100
AcDbPoint
10
-56.2184361101431
20
19.8617637654098
30
0.000000000000000
  0
POINT
  5
F10033
330
F10002
100
AcDbEntity
  8
Bemassung
 62
     0
100
AcDbPoint
10
-56.2184361101431
20
-18.0801701246473
30
0.000000000000000
  0
POINT
  5
F10034
330
F10002
100
AcDbEntity
  8
Bemassung
 62
     0
100
AcDbPoint
10
-51.1351808375852
20
0.890796820381283
30
0.000000000000000
  0
ENDBLK
  5
F10035
330
F10002
100
AcDbEntity
  8
0
100
AcDbBlockEnd
  0
BLOCK
  5
F10036
330
F10007
100
AcDbEntity
  8
0
100
AcDbBlockBegin
  2
*D4
 70
     1
 10
0.0
 20
0.0
 30
0.0
  3
*D4
  1

  0
LINE
  5
F10037
330
F10007
100
AcDbEntity
  8
Bemassung
 62
     0
370
    -2
100
AcDbLine
10
-0.577114727642197
20
-7.10920317961872
30
0.000000000000000
11
11.9228852723578
21
-7.10920317961872
31
0.000000000000000
  0
LINE
  5
F10038
330
F10007
100
AcDbEntity
  8
Bemassung
 62
     0
370
    -2
100
AcDbLine
10
-0.577114727642197
20
8.89079682038128
30
0.000000000000000
11
11.9228852723578
21
8.89079682038128
31
0.000000000000000
  0
LINE
  5
F10039
330
F10007
100
AcDbEntity
  8
Bemassung
 62
     0
370
    -2
100
AcDbLine
10
9.92288527235780
20
-7.10920317961872
30
0.000000000000000
11
9.92288527235780
21
8.89079682038128
31
0.000000000000000
  0
INSERT
  5
F1003A
330
F10007
100
AcDbEntity
  8
Bemassung
 62
     0
370
    -2
100
AcDbBlockReference
  2
VDDIM_DEFAULT
10
9.92288527235780
20
-7.10920317961872
30
0.000000000000000
 41
2.50000000000000
 42
2.50000000000000
 43
2.50000000000000
 50
270.000000000000
  0
INSERT
  5
F1003B
330
F10007
100
AcDbEntity
  8
Bemassung
 62
     0
370
    -2
100
AcDbBlockReference
  2
VDDIM_DEFAULT
10
9.92288527235780
20
8.89079682038128
30
0.000000000000000
 41
2.50000000000000
 42
2.50000000000000
 43
2.50000000000000
 50
90.0000000000000
  0
MTEXT
  5
F1003C
330
F10007
100
AcDbEntity
  8
Bemassung
 62
     0
100
AcDbMText
10
10.5895519390245
20
0.890796820381283
30
0.000000000000000
 40
2.50000000000000
 41
0.0
 71
     8
 72
     1
  1
16h5
 11
6.12323399573677e-017
 21
1.00000000000000
 31
0.0
 73
     1
 44
1.0
  0
POINT
  5
F1003D
330
F10007
100
AcDbEntity
  8
Bemassung
 62
     0
100
AcDbPoint
10
-0.577114727642197
20
-7.10920317961872
30
0.000000000000000
  0
POINT
  5
F1003E
330
F10007
100
AcDbEntity
  8
Bemassung
 62
     0
100
AcDbPoint
10
-0.577114727642197
20
8.89079682038128
30
0.000000000000000
  0
ENDBLK
  5
F1003F
330
F10007
100
AcDbEntity
  8
0
100
AcDbBlockEnd
0
ENDSEC
0
SECTION
2
ENTITIES
  0
DIMENSION
  5
F1000D
330
261
100
AcDbEntity
  8
Bemassung
100
AcDbDimension
  2
*D5
10
-0.0771147276421971
20
30.4681514457834
30
0.000000000000000
11
-38.5775619491922
21
31.1348181124501
31
0.000000000000000
 70
32
 1
89
 71
     8
  3
BEM-ISBE
100
AcDbAlignedDimension
13
-89.0771147276422
23
0.890796820381283
33
0.000000000000000
14
-0.0771147276421971
24
-6.60920317961872
34
0.000000000000000
100
AcDbRotatedDimension
1001
ACAD
1000
DSTYLE
1002
{
1070
284
1070
8
1070
78
1070
8
1070
144
1040
1.00000000000000
1070
147
1040
0.625
1070
 72
1070
 0
1070
 71
1070
 0
1002
}
  0
DIMENSION
  5
F10012
330
261
100
AcDbEntity
  8
Bemassung
100
AcDbDimension
  2
*D6
10
-75.2207082670912
20
20.1941561976188
30
0.000000000000000
11
-81.7291936987245
21
20.8608228642855
31
0.000000000000000
 70
32
 1
13.8
 71
     8
  3
BEM-ISBE
100
AcDbAlignedDimension
13
-89.0771147276422
23
0.890796820381283
33
0.000000000000000
14
-75.2207082670912
24
8.89079682038128
34
0.000000000000000
100
AcDbRotatedDimension
1001
ACAD
1000
DSTYLE
1002
{
1070
284
1070
8
1070
78
1070
8
1070
144
1040
1.00000000000000
1070
147
1040
0.625
1070
 72
1070
 0
1070
 71
1070
 0
1002
}
  0
DIMENSION
  5
F10003
330
261
100
AcDbEntity
  8
Bemassung
100
AcDbDimension
  2
*D3
10
-89.0771147276422
20
0.890796820381283
30
0.000000000000000
11
-59.6847024362705
21
-23.1024615454906
31
0.000000000000000
 70
34
 1
60°
 71
     8
  3
BEM-ISBE
100
AcDb2LineAngularDimension
13
-89.0771147276422
23
0.890796820381283
33
0.000000000000000
14
-62.1983920447275
24
-25.8883856587839
34
0.000000000000000
15
-56.2184361101431
25
19.8617637654098
35
0.000000000000000
16
-51.1351808375852
26
0.890796820381283
36
0.000000000000000
1001
ACAD
1000
DSTYLE
1002
{
1070
284
1070
8
1070
79
1070
2
1070
147
1040
0.625
1070
 72
1070
 0
1070
 71
1070
 0
1002
}
  0
DIMENSION
  5
F10008
330
261
100
AcDbEntity
  8
Bemassung
100
AcDbDimension
  2
*D4
10
9.92288527235780
20
8.89079682038128
30
0.000000000000000
11
10.5895519390245
21
0.890796820381283
31
0.000000000000000
 70
32
 1
16h5
 71
     8
  3
BEM-ISBE
100
AcDbAlignedDimension
13
-0.577114727642197
23
-7.10920317961872
33
0.000000000000000
14
-0.577114727642197
24
8.89079682038128
34
0.000000000000000
50
90.0000000000000
100
AcDbRotatedDimension
1001
ACAD
1000
DSTYLE
1002
{
1070
284
1070
8
1070
78
1070
8
1070
144
1040
1.00000000000000
1070
147
1040
0.625
1070
 72
1070
 0
1070
 71
1070
 0
1002
}
  0
LINE
  5
F10040
330
F10041
100
AcDbEntity
8
Geo
100
AcDbLine
10
-89.0771147276422
20
0.890796820381283
30
0.000000000000000
11
-75.2207082670912
21
8.89079682038128
31
0.000000000000000
  0
LINE
  5
F10042
330
F10043
100
AcDbEntity
8
Geo
100
AcDbLine
10
-75.2207082670912
20
8.89079682038128
30
0.000000000000000
11
-75.2211147276422
21
8.89079682038128
31
0.000000000000000
  0
LINE
  5
F10044
330
F10045
100
AcDbEntity
8
Geo
100
AcDbLine
10
-75.2211147276422
20
8.89079682038128
30
0.000000000000000
11
-0.577114727642197
21
8.89079682038128
31
0.000000000000000
  0
LINE
  5
F10046
330
F10047
100
AcDbEntity
8
Geo
100
AcDbLine
10
-0.577114727642197
20
8.89079682038128
30
0.000000000000000
11
-0.0771147276421971
21
8.39079682038128
31
0.000000000000000
  0
LINE
  5
F10048
330
F10049
100
AcDbEntity
8
Geo
100
AcDbLine
10
-73.2771147276422
20
8.89079682038128
30
0.000000000000000
11
-73.1771147276422
21
8.89010114062808
31
0.000000000000000
  0
LINE
  5
F1004A
330
F1004B
100
AcDbEntity
8
Geo
100
AcDbLine
10
-73.1771147276422
20
8.89010114062808
30
0.000000000000000
11
-73.0771147276422
21
8.88653916260701
31
0.000000000000000
  0
LINE
  5
F1004C
330
F1004D
100
AcDbEntity
8
Geo
100
AcDbLine
10
-73.0771147276422
20
8.88653916260701
30
0.000000000000000
11
-72.9771147276422
21
8.87971383732556
31
0.000000000000000
  0
LINE
  5
F1004E
330
F1004F
100
AcDbEntity
8
Geo
100
AcDbLine
10
-72.9771147276422
20
8.87971383732556
30
0.000000000000000
11
-72.8771147276422
21
8.86935037771815
31
0.000000000000000
  0
LINE
  5
F10050
330
F10051
100
AcDbEntity
8
Geo
100
AcDbLine
10
-72.8771147276422
20
8.86935037771815
30
0.000000000000000
11
-72.7771147276422
21
8.85516795053681
31
0.000000000000000
  0
LINE
  5
F10052
330
F10053
100
AcDbEntity
8
Geo
100
AcDbLine
10
-72.7771147276422
20
8.85516795053681
30
0.000000000000000
11
-72.6771147276422
21
8.83688013036597
31
0.000000000000000
  0
LINE
  5
F10054
330
F10055
100
AcDbEntity
8
Geo
100
AcDbLine
10
-72.6771147276422
20
8.83688013036597
30
0.000000000000000
11
-72.5771147276422
21
8.81419540606961
31
0.000000000000000
  0
LINE
  5
F10056
330
F10057
100
AcDbEntity
8
Geo
100
AcDbLine
10
-72.5771147276422
20
8.81419540606961
30
0.000000000000000
11
-72.4771147276422
21
8.78681774245914
31
0.000000000000000
  0
LINE
  5
F10058
330
F10059
100
AcDbEntity
8
Geo
100
AcDbLine
10
-72.4771147276422
20
8.78681774245914
30
0.000000000000000
11
-72.3771147276422
21
8.75444719991779
31
0.000000000000000
  0
LINE
  5
F1005A
330
F1005B
100
AcDbEntity
8
Geo
100
AcDbLine
10
-72.3771147276422
20
8.75444719991779
30
0.000000000000000
11
-72.2771147276422
21
8.71678061464387
31
0.000000000000000
  0
LINE
  5
F1005C
330
F1005D
100
AcDbEntity
8
Geo
100
AcDbLine
10
-72.2771147276422
20
8.71678061464387
30
0.000000000000000
11
-72.1771147276422
21
8.67351234207916
31
0.000000000000000
  0
LINE
  5
F1005E
330
F1005F
100
AcDbEntity
8
Geo
100
AcDbLine
10
-72.1771147276422
20
8.67351234207916
30
0.000000000000000
11
-72.0771147276422
21
8.62433506596793
31
0.000000000000000
  0
LINE
  5
F10060
330
F10061
100
AcDbEntity
8
Geo
100
AcDbLine
10
-72.0771147276422
20
8.62433506596793
30
0.000000000000000
11
-71.9771147276422
21
8.56894067534473
31
0.000000000000000
  0
LINE
  5
F10062
330
F10063
100
AcDbEntity
8
Geo
100
AcDbLine
10
-71.9771147276422
20
8.56894067534473
30
0.000000000000000
11
-71.8771147276422
21
8.50702121157400
31
0.000000000000000
  0
LINE
  5
F10064
330
F10065
100
AcDbEntity
8
Geo
100
AcDbLine
10
-71.8771147276422
20
8.50702121157400
30
0.000000000000000
11
-71.7771147276422
21
8.43826988735845
31
0.000000000000000
  0
LINE
  5
F10066
330
F10067
100
AcDbEntity
8
Geo
100
AcDbLine
10
-71.7771147276422
20
8.43826988735845
30
0.000000000000000
11
-71.6771147276422
21
8.36238217939627
31
0.000000000000000
  0
LINE
  5
F10068
330
F10069
100
AcDbEntity
8
Geo
100
AcDbLine
10
-71.6771147276422
20
8.36238217939627
30
0.000000000000000
11
-71.5771147276422
21
8.27905699609520
31
0.000000000000000
  0
LINE
  5
F1006A
330
F1006B
100
AcDbEntity
8
Geo
100
AcDbLine
10
-71.5771147276422
20
8.27905699609520
30
0.000000000000000
11
-71.4771147276422
21
8.18799792144531
31
0.000000000000000
  0
LINE
  5
F1006C
330
F1006D
100
AcDbEntity
8
Geo
100
AcDbLine
10
-71.4771147276422
20
8.18799792144531
30
0.000000000000000
11
-71.3771147276422
21
8.08891453580780
31
0.000000000000000
  0
LINE
  5
F1006E
330
F1006F
100
AcDbEntity
8
Geo
100
AcDbLine
10
-71.3771147276422
20
8.08891453580780
30
0.000000000000000
11
-71.2771147276422
21
7.98152381399442
31
0.000000000000000
  0
LINE
  5
F10070
330
F10071
100
AcDbEntity
8
Geo
100
AcDbLine
10
-71.2771147276422
20
7.98152381399442
30
0.000000000000000
11
-71.1771147276422
21
7.86555160058908
31
0.000000000000000
  0
LINE
  5
F10072
330
F10073
100
AcDbEntity
8
Geo
100
AcDbLine
10
-71.1771147276422
20
7.86555160058908
30
0.000000000000000
11
-71.0771147276422
21
7.74073416199796
31
0.000000000000000
  0
LINE
  5
F10074
330
F10075
100
AcDbEntity
8
Geo
100
AcDbLine
10
-71.0771147276422
20
7.74073416199796
30
0.000000000000000
11
-70.9771147276422
21
7.60681981420761
31
0.000000000000000
  0
LINE
  5
F10076
330
F10077
100
AcDbEntity
8
Geo
100
AcDbLine
10
-70.9771147276422
20
7.60681981420761
30
0.000000000000000
11
-70.8771147276422
21
7.46357062467834
31
0.000000000000000
  0
LINE
  5
F10078
330
F10079
100
AcDbEntity
8
Geo
100
AcDbLine
10
-70.8771147276422
20
7.46357062467834
30
0.000000000000000
11
-70.7771147276422
21
7.31076418620538
31
0.000000000000000
  0
LINE
  5
F1007A
330
F1007B
100
AcDbEntity
8
Geo
100
AcDbLine
10
-70.7771147276422
20
7.31076418620538
30
0.000000000000000
11
-70.6771147276422
21
7.14819545993908
31
0.000000000000000
  0
LINE
  5
F1007C
330
F1007D
100
AcDbEntity
8
Geo
100
AcDbLine
10
-70.6771147276422
20
7.14819545993908
30
0.000000000000000
11
-70.5771147276422
21
6.97567868407030
31
0.000000000000000
  0
LINE
  5
F1007E
330
F1007F
100
AcDbEntity
8
Geo
100
AcDbLine
10
-70.5771147276422
20
6.97567868407030
30
0.000000000000000
11
-70.4771147276422
21
6.79304934395668
31
0.000000000000000
  0
LINE
  5
F10080
330
F10081
100
AcDbEntity
8
Geo
100
AcDbLine
10
-70.4771147276422
20
6.79304934395668
30
0.000000000000000
11
-70.3771147276422
21
6.60016619869130
31
0.000000000000000
  0
LINE
  5
F10082
330
F10083
100
AcDbEntity
8
Geo
100
AcDbLine
10
-70.3771147276422
20
6.60016619869130
30
0.000000000000000
11
-70.2771147276422
21
6.39691335829768
31
0.000000000000000
  0
LINE
  5
F10084
330
F10085
100
AcDbEntity
8
Geo
100
AcDbLine
10
-70.2771147276422
20
6.39691335829768
30
0.000000000000000
11
-70.1771147276422
21
6.18320240487627
31
0.000000000000000
  0
LINE
  5
F10086
330
F10087
100
AcDbEntity
8
Geo
100
AcDbLine
10
-70.1771147276422
20
6.18320240487627
30
0.000000000000000
11
-70.0771147276422
21
5.95897455012926
31
0.000000000000000
  0
LINE
  5
F10088
330
F10089
100
AcDbEntity
8
Geo
100
AcDbLine
10
-89.0771147276422
20
0.890796820381283
30
0.000000000000000
11
-88.9771147276422
21
0.948530343790445
31
0.000000000000000
  0
LINE
  5
F1008A
330
F1008B
100
AcDbEntity
8
Geo
100
AcDbLine
10
-88.9771147276422
20
0.948530343790445
30
0.000000000000000
11
-88.8771147276422
21
1.00625484629742
31
0.000000000000000
  0
LINE
  5
F1008C
330
F1008D
100
AcDbEntity
8
Geo
100
AcDbLine
10
-88.8771147276422
20
1.00625484629742
30
0.000000000000000
11
-88.7771147276422
21
1.06396130778308
31
0.000000000000000
  0
LINE
  5
F1008E
330
F1008F
100
AcDbEntity
8
Geo
100
AcDbLine
10
-88.7771147276422
20
1.06396130778308
30
0.000000000000000
11
-88.6771147276422
21
1.12164070969438
31
0.000000000000000
  0
LINE
  5
F10090
330
F10091
100
AcDbEntity
8
Geo
100
AcDbLine
10
-88.6771147276422
20
1.12164070969438
30
0.000000000000000
11
-88.5771147276422
21
1.17928403582720
31
0.000000000000000
  0
LINE
  5
F10092
330
F10093
100
AcDbEntity
8
Geo
100
AcDbLine
10
-88.5771147276422
20
1.17928403582720
30
0.000000000000000
11
-88.4771147276422
21
1.23688227310914
31
0.000000000000000
  0
LINE
  5
F10094
330
F10095
100
AcDbEntity
8
Geo
100
AcDbLine
10
-88.4771147276422
20
1.23688227310914
30
0.000000000000000
11
-88.3771147276422
21
1.29442641238195
31
0.000000000000000
  0
LINE
  5
F10096
330
F10097
100
AcDbEntity
8
Geo
100
AcDbLine
10
-88.3771147276422
20
1.29442641238195
30
0.000000000000000
11
-88.2771147276422
21
1.35190744918374
31
0.000000000000000
  0
LINE
  5
F10098
330
F10099
100
AcDbEntity
8
Geo
100
AcDbLine
10
-88.2771147276422
20
1.35190744918374
30
0.000000000000000
11
-88.1771147276422
21
1.40931638453089
31
0.000000000000000
  0
LINE
  5
F1009A
330
F1009B
100
AcDbEntity
8
Geo
100
AcDbLine
10
-88.1771147276422
20
1.40931638453089
30
0.000000000000000
11
-88.0771147276422
21
1.46664422569946
31
0.000000000000000
  0
LINE
  5
F1009C
330
F1009D
100
AcDbEntity
8
Geo
100
AcDbLine
10
-88.0771147276422
20
1.46664422569946
30
0.000000000000000
11
-87.9771147276422
21
1.52388198700624
31
0.000000000000000
  0
LINE
  5
F1009E
330
F1009F
100
AcDbEntity
8
Geo
100
AcDbLine
10
-87.9771147276422
20
1.52388198700624
30
0.000000000000000
11
-87.8771147276422
21
1.58102069058922
31
0.000000000000000
  0
LINE
  5
F100A0
330
F100A1
100
AcDbEntity
8
Geo
100
AcDbLine
10
-87.8771147276422
20
1.58102069058922
30
0.000000000000000
11
-87.7771147276422
21
1.63805136718751
31
0.000000000000000
  0
LINE
  5
F100A2
330
F100A3
100
AcDbEntity
8
Geo
100
AcDbLine
10
-87.7771147276422
20
1.63805136718751
30
0.000000000000000
11
-87.6771147276422
21
1.69496505692065
31
0.000000000000000
  0
LINE
  5
F100A4
330
F100A5
100
AcDbEntity
8
Geo
100
AcDbLine
10
-87.6771147276422
20
1.69496505692065
30
0.000000000000000
11
-87.5771147276422
21
1.75175281006722
31
0.000000000000000
  0
LINE
  5
F100A6
330
F100A7
100
AcDbEntity
8
Geo
100
AcDbLine
10
-87.5771147276422
20
1.75175281006722
30
0.000000000000000
11
-87.4771147276422
21
1.80840568784273
31
0.000000000000000
  0
LINE
  5
F100A8
330
F100A9
100
AcDbEntity
8
Geo
100
AcDbLine
10
-87.4771147276422
20
1.80840568784273
30
0.000000000000000
11
-87.3771147276422
21
1.86491476317663
31
0.000000000000000
  0
LINE
  5
F100AA
330
F100AB
100
AcDbEntity
8
Geo
100
AcDbLine
10
-87.3771147276422
20
1.86491476317663
30
0.000000000000000
11
-87.2771147276422
21
1.92127112148863
31
0.000000000000000
  0
LINE
  5
F100AC
330
F100AD
100
AcDbEntity
8
Geo
100
AcDbLine
10
-87.2771147276422
20
1.92127112148863
30
0.000000000000000
11
-87.1771147276422
21
1.97746586146390
31
0.000000000000000
  0
LINE
  5
F100AE
330
F100AF
100
AcDbEntity
8
Geo
100
AcDbLine
10
-87.1771147276422
20
1.97746586146390
30
0.000000000000000
11
-87.0771147276422
21
2.03349009582750
31
0.000000000000000
  0
LINE
  5
F100B0
330
F100B1
100
AcDbEntity
8
Geo
100
AcDbLine
10
-87.0771147276422
20
2.03349009582750
30
0.000000000000000
11
-86.9771147276422
21
2.08933495211765
31
0.000000000000000
  0
LINE
  5
F100B2
330
F100B3
100
AcDbEntity
8
Geo
100
AcDbLine
10
-86.9771147276422
20
2.08933495211765
30
0.000000000000000
11
-86.8771147276422
21
2.14499157345797
31
0.000000000000000
  0
LINE
  5
F100B4
330
F100B5
100
AcDbEntity
8
Geo
100
AcDbLine
10
-86.8771147276422
20
2.14499157345797
30
0.000000000000000
11
-86.7771147276422
21
2.20045111932860
31
0.000000000000000
  0
LINE
  5
F100B6
330
F100B7
100
AcDbEntity
8
Geo
100
AcDbLine
10
-86.7771147276422
20
2.20045111932860
30
0.000000000000000
11
-86.6771147276422
21
2.25570476633609
31
0.000000000000000
  0
LINE
  5
F100B8
330
F100B9
100
AcDbEntity
8
Geo
100
AcDbLine
10
-86.6771147276422
20
2.25570476633609
30
0.000000000000000
11
-86.5771147276422
21
2.31074370898206
31
0.000000000000000
  0
LINE
  5
F100BA
330
F100BB
100
AcDbEntity
8
Geo
100
AcDbLine
10
-86.5771147276422
20
2.31074370898206
30
0.000000000000000
11
-86.4771147276422
21
2.36555916043055
31
0.000000000000000
  0
LINE
  5
F100BC
330
F100BD
100
AcDbEntity
8
Geo
100
AcDbLine
10
-86.4771147276422
20
2.36555916043055
30
0.000000000000000
11
-86.3771147276422
21
2.42014235327402
31
0.000000000000000
  0
LINE
  5
F100BE
330
F100BF
100
AcDbEntity
8
Geo
100
AcDbLine
10
-86.3771147276422
20
2.42014235327402
30
0.000000000000000
11
-86.2771147276422
21
2.47448454029791
31
0.000000000000000
  0
LINE
  5
F100C0
330
F100C1
100
AcDbEntity
8
Geo
100
AcDbLine
10
-86.2771147276422
20
2.47448454029791
30
0.000000000000000
11
-86.1771147276422
21
2.52857699524375
31
0.000000000000000
  0
LINE
  5
F100C2
330
F100C3
100
AcDbEntity
8
Geo
100
AcDbLine
10
-86.1771147276422
20
2.52857699524375
30
0.000000000000000
11
-86.0771147276422
21
2.58241101357071
31
0.000000000000000
  0
LINE
  5
F100C4
330
F100C5
100
AcDbEntity
8
Geo
100
AcDbLine
10
-86.0771147276422
20
2.58241101357071
30
0.000000000000000
11
-85.9771147276422
21
2.63597791321563
31
0.000000000000000
  0
LINE
  5
F100C6
330
F100C7
100
AcDbEntity
8
Geo
100
AcDbLine
10
-85.9771147276422
20
2.63597791321563
30
0.000000000000000
11
-85.8771147276422
21
2.68926903535130
31
0.000000000000000
  0
LINE
  5
F100C8
330
F100C9
100
AcDbEntity
8
Geo
100
AcDbLine
10
-85.8771147276422
20
2.68926903535130
30
0.000000000000000
11
-85.7771147276422
21
2.74227574514316
31
0.000000000000000
  0
LINE
  5
F100CA
330
F100CB
100
AcDbEntity
8
Geo
100
AcDbLine
10
-85.7771147276422
20
2.74227574514316
30
0.000000000000000
11
-85.6771147276422
21
2.79498943250419
31
0.000000000000000
  0
LINE
  5
F100CC
330
F100CD
100
AcDbEntity
8
Geo
100
AcDbLine
10
-85.6771147276422
20
2.79498943250419
30
0.000000000000000
11
-85.5771147276422
21
2.84740151284798
31
0.000000000000000
  0
LINE
  5
F100CE
330
F100CF
100
AcDbEntity
8
Geo
100
AcDbLine
10
-85.5771147276422
20
2.84740151284798
30
0.000000000000000
11
-85.4771147276422
21
2.89950342783997
31
0.000000000000000
  0
LINE
  5
F100D0
330
F100D1
100
AcDbEntity
8
Geo
100
AcDbLine
10
-85.4771147276422
20
2.89950342783997
30
0.000000000000000
11
-85.3771147276422
21
2.95128664614679
31
0.000000000000000
  0
LINE
  5
F100D2
330
F100D3
100
AcDbEntity
8
Geo
100
AcDbLine
10
-85.3771147276422
20
2.95128664614679
30
0.000000000000000
11
-85.2771147276422
21
3.00274266418354
31
0.000000000000000
  0
LINE
  5
F100D4
330
F100D5
100
AcDbEntity
8
Geo
100
AcDbLine
10
-85.2771147276422
20
3.00274266418354
30
0.000000000000000
11
-85.1771147276422
21
3.05386300685918
31
0.000000000000000
  0
LINE
  5
F100D6
330
F100D7
100
AcDbEntity
8
Geo
100
AcDbLine
10
-85.1771147276422
20
3.05386300685918
30
0.000000000000000
11
-85.0771147276422
21
3.10463922831972
31
0.000000000000000
  0
LINE
  5
F100D8
330
F100D9
100
AcDbEntity
8
Geo
100
AcDbLine
10
-85.0771147276422
20
3.10463922831972
30
0.000000000000000
11
-84.9771147276422
21
3.15506291268934
31
0.000000000000000
  0
LINE
  5
F100DA
330
F100DB
100
AcDbEntity
8
Geo
100
AcDbLine
10
-84.9771147276422
20
3.15506291268934
30
0.000000000000000
11
-84.8771147276422
21
3.20512567480927
31
0.000000000000000
  0
LINE
  5
F100DC
330
F100DD
100
AcDbEntity
8
Geo
100
AcDbLine
10
-84.8771147276422
20
3.20512567480927
30
0.000000000000000
11
-84.7771147276422
21
3.25481916097452
31
0.000000000000000
  0
LINE
  5
F100DE
330
F100DF
100
AcDbEntity
8
Geo
100
AcDbLine
10
-84.7771147276422
20
3.25481916097452
30
0.000000000000000
11
-84.6771147276422
21
3.30413504966818
31
0.000000000000000
  0
LINE
  5
F100E0
330
F100E1
100
AcDbEntity
8
Geo
100
AcDbLine
10
-84.6771147276422
20
3.30413504966818
30
0.000000000000000
11
-84.5771147276422
21
3.35306505229348
31
0.000000000000000
  0
LINE
  5
F100E2
330
F100E3
100
AcDbEntity
8
Geo
100
AcDbLine
10
-84.5771147276422
20
3.35306505229348
30
0.000000000000000
11
-84.4771147276422
21
3.40160091390343
31
0.000000000000000
  0
LINE
  5
F100E4
330
F100E5
100
AcDbEntity
8
Geo
100
AcDbLine
10
-84.4771147276422
20
3.40160091390343
30
0.000000000000000
11
-84.3771147276422
21
3.44973441392791
31
0.000000000000000
  0
LINE
  5
F100E6
330
F100E7
100
AcDbEntity
8
Geo
100
AcDbLine
10
-84.3771147276422
20
3.44973441392791
30
0.000000000000000
11
-84.2771147276422
21
3.49745736689836
31
0.000000000000000
  0
LINE
  5
F100E8
330
F100E9
100
AcDbEntity
8
Geo
100
AcDbLine
10
-84.2771147276422
20
3.49745736689836
30
0.000000000000000
11
-84.1771147276422
21
3.54476162316986
31
0.000000000000000
  0
LINE
  5
F100EA
330
F100EB
100
AcDbEntity
8
Geo
100
AcDbLine
10
-84.1771147276422
20
3.54476162316986
30
0.000000000000000
11
-84.0771147276422
21
3.59163906964057
31
0.000000000000000
  0
LINE
  5
F100EC
330
F100ED
100
AcDbEntity
8
Geo
100
AcDbLine
10
-84.0771147276422
20
3.59163906964057
30
0.000000000000000
11
-83.9771147276422
21
3.63808163046855
31
0.000000000000000
  0
LINE
  5
F100EE
330
F100EF
100
AcDbEntity
8
Geo
100
AcDbLine
10
-83.9771147276422
20
3.63808163046855
30
0.000000000000000
11
-83.8771147276422
21
3.68408126778578
31
0.000000000000000
  0
LINE
  5
F100F0
330
F100F1
100
AcDbEntity
8
Geo
100
AcDbLine
10
-83.8771147276422
20
3.68408126778578
30
0.000000000000000
11
-83.7771147276422
21
3.72962998240952
31
0.000000000000000
  0
LINE
  5
F100F2
330
F100F3
100
AcDbEntity
8
Geo
100
AcDbLine
10
-83.7771147276422
20
3.72962998240952
30
0.000000000000000
11
-83.6771147276422
21
3.77471981455071
31
0.000000000000000
  0
LINE
  5
F100F4
330
F100F5
100
AcDbEntity
8
Geo
100
AcDbLine
10
-83.6771147276422
20
3.77471981455071
30
0.000000000000000
11
-83.5771147276422
21
3.81934284451959
31
0.000000000000000
  0
LINE
  5
F100F6
330
F100F7
100
AcDbEntity
8
Geo
100
AcDbLine
10
-83.5771147276422
20
3.81934284451959
30
0.000000000000000
11
-83.4771147276422
21
3.86349119342836
31
0.000000000000000
  0
LINE
  5
F100F8
330
F100F9
100
AcDbEntity
8
Geo
100
AcDbLine
10
-83.4771147276422
20
3.86349119342836
30
0.000000000000000
11
-83.3771147276422
21
3.90715702389078
31
0.000000000000000
  0
LINE
  5
F100FA
330
F100FB
100
AcDbEntity
8
Geo
100
AcDbLine
10
-83.3771147276422
20
3.90715702389078
30
0.000000000000000
11
-83.2771147276422
21
3.95033254071891
31
0.000000000000000
  0
LINE
  5
F100FC
330
F100FD
100
AcDbEntity
8
Geo
100
AcDbLine
10
-83.2771147276422
20
3.95033254071891
30
0.000000000000000
11
-83.1771147276422
21
3.99300999161654
31
0.000000000000000
  0
LINE
  5
F100FE
330
F100FF
100
AcDbEntity
8
Geo
100
AcDbLine
10
-83.1771147276422
20
3.99300999161654
30
0.000000000000000
11
-83.0771147276422
21
4.03518166786970
31
0.000000000000000
  0
LINE
  5
F10100
330
F10101
100
AcDbEntity
8
Geo
100
AcDbLine
10
-83.0771147276422
20
4.03518166786970
30
0.000000000000000
11
-82.9771147276422
21
4.07683990503380
31
0.000000000000000
  0
LINE
  5
F10102
330
F10103
100
AcDbEntity
8
Geo
100
AcDbLine
10
-82.9771147276422
20
4.07683990503380
30
0.000000000000000
11
-82.8771147276422
21
4.11797708361766
31
0.000000000000000
  0
LINE
  5
F10104
330
F10105
100
AcDbEntity
8
Geo
100
AcDbLine
10
-82.8771147276422
20
4.11797708361766
30
0.000000000000000
11
-82.7771147276422
21
4.15858562976415
31
0.000000000000000
  0
LINE
  5
F10106
330
F10107
100
AcDbEntity
8
Geo
100
AcDbLine
10
-82.7771147276422
20
4.15858562976415
30
0.000000000000000
11
-82.6771147276422
21
4.19865801592761
31
0.000000000000000
  0
LINE
  5
F10108
330
F10109
100
AcDbEntity
8
Geo
100
AcDbLine
10
-82.6771147276422
20
4.19865801592761
30
0.000000000000000
11
-82.5771147276422
21
4.23818676154774
31
0.000000000000000
  0
LINE
  5
F1010A
330
F1010B
100
AcDbEntity
8
Geo
100
AcDbLine
10
-82.5771147276422
20
4.23818676154774
30
0.000000000000000
11
-82.4771147276422
21
4.27716443372016
31
0.000000000000000
  0
LINE
  5
F1010C
330
F1010D
100
AcDbEntity
8
Geo
100
AcDbLine
10
-82.4771147276422
20
4.27716443372016
30
0.000000000000000
11
-82.3771147276422
21
4.31558364786342
31
0.000000000000000
  0
LINE
  5
F1010E
330
F1010F
100
AcDbEntity
8
Geo
100
AcDbLine
10
-82.3771147276422
20
4.31558364786342
30
0.000000000000000
11
-82.2771147276422
21
4.35343706838250
31
0.000000000000000
  0
LINE
  5
F10110
330
F10111
100
AcDbEntity
8
Geo
100
AcDbLine
10
-82.2771147276422
20
4.35343706838250
30
0.000000000000000
11
-82.1771147276422
21
4.39071740932872
31
0.000000000000000
  0
LINE
  5
F10112
330
F10113
100
AcDbEntity
8
Geo
100
AcDbLine
10
-82.1771147276422
20
4.39071740932872
30
0.000000000000000
11
-82.0771147276422
21
4.42741743505598
31
0.000000000000000
  0
LINE
  5
F10114
330
F10115
100
AcDbEntity
8
Geo
100
AcDbLine
10
-82.0771147276422
20
4.42741743505598
30
0.000000000000000
11
-81.9771147276422
21
4.46352996087338
31
0.000000000000000
  0
LINE
  5
F10116
330
F10117
100
AcDbEntity
8
Geo
100
AcDbLine
10
-81.9771147276422
20
4.46352996087338
30
0.000000000000000
11
-81.8771147276422
21
4.49904785369404
31
0.000000000000000
  0
LINE
  5
F10118
330
F10119
100
AcDbEntity
8
Geo
100
AcDbLine
10
-81.8771147276422
20
4.49904785369404
30
0.000000000000000
11
-81.7771147276422
21
4.53396403268018
31
0.000000000000000
  0
LINE
  5
F1011A
330
F1011B
100
AcDbEntity
8
Geo
100
AcDbLine
10
-81.7771147276422
20
4.53396403268018
30
0.000000000000000
11
-81.6771147276422
21
4.56827146988433
31
0.000000000000000
  0
LINE
  5
F1011C
330
F1011D
100
AcDbEntity
8
Geo
100
AcDbLine
10
-81.6771147276422
20
4.56827146988433
30
0.000000000000000
11
-81.5771147276422
21
4.60196319088673
31
0.000000000000000
  0
LINE
  5
F1011E
330
F1011F
100
AcDbEntity
8
Geo
100
AcDbLine
10
-81.5771147276422
20
4.60196319088673
30
0.000000000000000
11
-81.4771147276422
21
4.63503227542873
31
0.000000000000000
  0
LINE
  5
F10120
330
F10121
100
AcDbEntity
8
Geo
100
AcDbLine
10
-81.4771147276422
20
4.63503227542873
30
0.000000000000000
11
-81.3771147276422
21
4.66747185804227
31
0.000000000000000
  0
LINE
  5
F10122
330
F10123
100
AcDbEntity
8
Geo
100
AcDbLine
10
-81.3771147276422
20
4.66747185804227
30
0.000000000000000
11
-81.2771147276422
21
4.69927512867534
31
0.000000000000000
  0
LINE
  5
F10124
330
F10125
100
AcDbEntity
8
Geo
100
AcDbLine
10
-81.2771147276422
20
4.69927512867534
30
0.000000000000000
11
-81.1771147276422
21
4.73043533331333
31
0.000000000000000
  0
LINE
  5
F10126
330
F10127
100
AcDbEntity
8
Geo
100
AcDbLine
10
-81.1771147276422
20
4.73043533331333
30
0.000000000000000
11
-81.0771147276422
21
4.76094577459629
31
0.000000000000000
  0
LINE
  5
F10128
330
F10129
100
AcDbEntity
8
Geo
100
AcDbLine
10
-81.0771147276422
20
4.76094577459629
30
0.000000000000000
11
-80.9771147276422
21
4.79079981243211
31
0.000000000000000
  0
LINE
  5
F1012A
330
F1012B
100
AcDbEntity
8
Geo
100
AcDbLine
10
-80.9771147276422
20
4.79079981243211
30
0.000000000000000
11
-80.8771147276422
21
4.81999086460533
31
0.000000000000000
  0
LINE
  5
F1012C
330
F1012D
100
AcDbEntity
8
Geo
100
AcDbLine
10
-80.8771147276422
20
4.81999086460533
30
0.000000000000000
11
-80.7771147276422
21
4.84851240738189
31
0.000000000000000
  0
LINE
  5
F1012E
330
F1012F
100
AcDbEntity
8
Geo
100
AcDbLine
10
-80.7771147276422
20
4.84851240738189
30
0.000000000000000
11
-80.6771147276422
21
4.87635797610946
31
0.000000000000000
  0
LINE
  5
F10130
330
F10131
100
AcDbEntity
8
Geo
100
AcDbLine
10
-80.6771147276422
20
4.87635797610946
30
0.000000000000000
11
-80.5771147276422
21
4.90352116581345
31
0.000000000000000
  0
LINE
  5
F10132
330
F10133
100
AcDbEntity
8
Geo
100
AcDbLine
10
-80.5771147276422
20
4.90352116581345
30
0.000000000000000
11
-80.4771147276422
21
4.92999563178870
31
0.000000000000000
  0
LINE
  5
F10134
330
F10135
100
AcDbEntity
8
Geo
100
AcDbLine
10
-80.4771147276422
20
4.92999563178870
30
0.000000000000000
11
-80.3771147276422
21
4.95577509018664
31
0.000000000000000
  0
LINE
  5
F10136
330
F10137
100
AcDbEntity
8
Geo
100
AcDbLine
10
-80.3771147276422
20
4.95577509018664
30
0.000000000000000
11
-80.2771147276422
21
4.98085331859812
31
0.000000000000000
  0
LINE
  5
F10138
330
F10139
100
AcDbEntity
8
Geo
100
AcDbLine
10
-80.2771147276422
20
4.98085331859812
30
0.000000000000000
11
-80.1771147276422
21
5.00522415663158
31
0.000000000000000
  0
LINE
  5
F1013A
330
F1013B
100
AcDbEntity
8
Geo
100
AcDbLine
10
-80.1771147276422
20
5.00522415663158
30
0.000000000000000
11
-80.0771147276422
21
5.02888150648674
31
0.000000000000000
  0
LINE
  5
F1013C
330
F1013D
100
AcDbEntity
8
Geo
100
AcDbLine
10
-80.0771147276422
20
5.02888150648674
30
0.000000000000000
11
-79.9771147276422
21
5.05181933352369
31
0.000000000000000
  0
LINE
  5
F1013E
330
F1013F
100
AcDbEntity
8
Geo
100
AcDbLine
10
-79.9771147276422
20
5.05181933352369
30
0.000000000000000
11
-79.8771147276422
21
5.07403166682730
31
0.000000000000000
  0
LINE
  5
F10140
330
F10141
100
AcDbEntity
8
Geo
100
AcDbLine
10
-79.8771147276422
20
5.07403166682730
30
0.000000000000000
11
-79.7771147276422
21
5.09551259976700
31
0.000000000000000
  0
LINE
  5
F10142
330
F10143
100
AcDbEntity
8
Geo
100
AcDbLine
10
-79.7771147276422
20
5.09551259976700
30
0.000000000000000
11
-79.6771147276422
21
5.11625629055176
31
0.000000000000000
  0
LINE
  5
F10144
330
F10145
100
AcDbEntity
8
Geo
100
AcDbLine
10
-79.6771147276422
20
5.11625629055176
30
0.000000000000000
11
-79.5771147276422
21
5.13625696278035
31
0.000000000000000
  0
LINE
  5
F10146
330
F10147
100
AcDbEntity
8
Geo
100
AcDbLine
10
-79.5771147276422
20
5.13625696278035
30
0.000000000000000
11
-79.4771147276422
21
5.15550890598678
31
0.000000000000000
  0
LINE
  5
F10148
330
F10149
100
AcDbEntity
8
Geo
100
AcDbLine
10
-79.4771147276422
20
5.15550890598678
30
0.000000000000000
11
-79.3771147276422
21
5.17400647618088
31
0.000000000000000
  0
LINE
  5
F1014A
330
F1014B
100
AcDbEntity
8
Geo
100
AcDbLine
10
-79.3771147276422
20
5.17400647618088
30
0.000000000000000
11
-79.2771147276422
21
5.19174409638400
31
0.000000000000000
  0
LINE
  5
F1014C
330
F1014D
100
AcDbEntity
8
Geo
100
AcDbLine
10
-79.2771147276422
20
5.19174409638400
30
0.000000000000000
11
-79.1771147276422
21
5.20871625715974
31
0.000000000000000
  0
LINE
  5
F1014E
330
F1014F
100
AcDbEntity
8
Geo
100
AcDbLine
10
-79.1771147276422
20
5.20871625715974
30
0.000000000000000
11
-79.0771147276422
21
5.22491751713976
31
0.000000000000000
  0
LINE
  5
F10150
330
F10151
100
AcDbEntity
8
Geo
100
AcDbLine
10
-79.0771147276422
20
5.22491751713976
30
0.000000000000000
11
-78.9771147276422
21
5.24034250354452
31
0.000000000000000
  0
LINE
  5
F10152
330
F10153
100
AcDbEntity
8
Geo
100
AcDbLine
10
-78.9771147276422
20
5.24034250354452
30
0.000000000000000
11
-78.8771147276422
21
5.25498591269901
31
0.000000000000000
  0
LINE
  5
F10154
330
F10155
100
AcDbEntity
8
Geo
100
AcDbLine
10
-78.8771147276422
20
5.25498591269901
30
0.000000000000000
11
-78.7771147276422
21
5.26884251054337
31
0.000000000000000
  0
LINE
  5
F10156
330
F10157
100
AcDbEntity
8
Geo
100
AcDbLine
10
-78.7771147276422
20
5.26884251054337
30
0.000000000000000
11
-78.6771147276422
21
5.28190713313839
31
0.000000000000000
  0
LINE
  5
F10158
330
F10159
100
AcDbEntity
8
Geo
100
AcDbLine
10
-78.6771147276422
20
5.28190713313839
30
0.000000000000000
11
-78.5771147276422
21
5.29417468716579
31
0.000000000000000
  0
LINE
  5
F1015A
330
F1015B
100
AcDbEntity
8
Geo
100
AcDbLine
10
-78.5771147276422
20
5.29417468716579
30
0.000000000000000
11
-78.4771147276422
21
5.30564015042339
31
0.000000000000000
  0
LINE
  5
F1015C
330
F1015D
100
AcDbEntity
8
Geo
100
AcDbLine
10
-78.4771147276422
20
5.30564015042339
30
0.000000000000000
11
-78.3771147276422
21
5.31629857231492
31
0.000000000000000
  0
LINE
  5
F1015E
330
F1015F
100
AcDbEntity
8
Geo
100
AcDbLine
10
-78.3771147276422
20
5.31629857231492
30
0.000000000000000
11
-78.2771147276422
21
5.32614507433466
31
0.000000000000000
  0
LINE
  5
F10160
330
F10161
100
AcDbEntity
8
Geo
100
AcDbLine
10
-78.2771147276422
20
5.32614507433466
30
0.000000000000000
11
-78.1771147276422
21
5.33517485054663
31
0.000000000000000
  0
LINE
  5
F10162
330
F10163
100
AcDbEntity
8
Geo
100
AcDbLine
10
-78.1771147276422
20
5.33517485054663
30
0.000000000000000
11
-78.0771147276422
21
5.34338316805858
31
0.000000000000000
  0
LINE
  5
F10164
330
F10165
100
AcDbEntity
8
Geo
100
AcDbLine
10
-78.0771147276422
20
5.34338316805858
30
0.000000000000000
11
-77.9771147276422
21
5.35076536749043
31
0.000000000000000
  0
LINE
  5
F10166
330
F10167
100
AcDbEntity
8
Geo
100
AcDbLine
10
-77.9771147276422
20
5.35076536749043
30
0.000000000000000
11
-77.8771147276422
21
5.35731686343741
31
0.000000000000000
  0
LINE
  5
F10168
330
F10169
100
AcDbEntity
8
Geo
100
AcDbLine
10
-77.8771147276422
20
5.35731686343741
30
0.000000000000000
11
-77.7771147276422
21
5.36303314492762
31
0.000000000000000
  0
LINE
  5
F1016A
330
F1016B
100
AcDbEntity
8
Geo
100
AcDbLine
10
-77.7771147276422
20
5.36303314492762
30
0.000000000000000
11
-77.6771147276422
21
5.36790977587422
31
0.000000000000000
  0
LINE
  5
F1016C
330
F1016D
100
AcDbEntity
8
Geo
100
AcDbLine
10
-77.6771147276422
20
5.36790977587422
30
0.000000000000000
11
-77.5771147276422
21
5.37194239552196
31
0.000000000000000
  0
LINE
  5
F1016E
330
F1016F
100
AcDbEntity
8
Geo
100
AcDbLine
10
-77.5771147276422
20
5.37194239552196
30
0.000000000000000
11
-77.4771147276422
21
5.37512671888820
31
0.000000000000000
  0
LINE
  5
F10170
330
F10171
100
AcDbEntity
8
Geo
100
AcDbLine
10
-77.4771147276422
20
5.37512671888820
30
0.000000000000000
11
-77.3771147276422
21
5.37745853719834
31
0.000000000000000
  0
LINE
  5
F10172
330
F10173
100
AcDbEntity
8
Geo
100
AcDbLine
10
-77.3771147276422
20
5.37745853719834
30
0.000000000000000
11
-77.2771147276422
21
5.37893371831560
31
0.000000000000000
  0
LINE
  5
F10174
330
F10175
100
AcDbEntity
8
Geo
100
AcDbLine
10
-77.2771147276422
20
5.37893371831560
30
0.000000000000000
11
-77.1771147276422
21
5.37954820716510
31
0.000000000000000
  0
LINE
  5
F10176
330
F10177
100
AcDbEntity
8
Geo
100
AcDbLine
10
-77.1771147276422
20
5.37954820716510
30
0.000000000000000
11
-77.0771147276422
21
5.37929802615226
31
0.000000000000000
  0
LINE
  5
F10178
330
F10179
100
AcDbEntity
8
Geo
100
AcDbLine
10
-77.0771147276422
20
5.37929802615226
30
0.000000000000000
11
-76.9771147276422
21
5.37817927557550
31
0.000000000000000
  0
LINE
  5
F1017A
330
F1017B
100
AcDbEntity
8
Geo
100
AcDbLine
10
-76.9771147276422
20
5.37817927557550
30
0.000000000000000
11
-76.8771147276422
21
5.37618813403308
31
0.000000000000000
  0
LINE
  5
F1017C
330
F1017D
100
AcDbEntity
8
Geo
100
AcDbLine
10
-76.8771147276422
20
5.37618813403308
30
0.000000000000000
11
-76.7771147276422
21
5.37332085882426
31
0.000000000000000
  0
LINE
  5
F1017E
330
F1017F
100
AcDbEntity
8
Geo
100
AcDbLine
10
-76.7771147276422
20
5.37332085882426
30
0.000000000000000
11
-76.6771147276422
21
5.36957378634450
31
0.000000000000000
  0
LINE
  5
F10180
330
F10181
100
AcDbEntity
8
Geo
100
AcDbLine
10
-76.6771147276422
20
5.36957378634450
30
0.000000000000000
11
-76.5771147276422
21
5.36494333247491
31
0.000000000000000
  0
LINE
  5
F10182
330
F10183
100
AcDbEntity
8
Geo
100
AcDbLine
10
-76.5771147276422
20
5.36494333247491
30
0.000000000000000
11
-76.4771147276422
21
5.35942599296573
31
0.000000000000000
  0
LINE
  5
F10184
330
F10185
100
AcDbEntity
8
Geo
100
AcDbLine
10
-76.4771147276422
20
5.35942599296573
30
0.000000000000000
11
-76.3771147276422
21
5.35301834381394
31
0.000000000000000
  0
LINE
  5
F10186
330
F10187
100
AcDbEntity
8
Geo
100
AcDbLine
10
-76.3771147276422
20
5.35301834381394
30
0.000000000000000
11
-76.2771147276422
21
5.34571704163486
31
0.000000000000000
  0
LINE
  5
F10188
330
F10189
100
AcDbEntity
8
Geo
100
AcDbLine
10
-76.2771147276422
20
5.34571704163486
30
0.000000000000000
11
-76.1771147276422
21
5.33751882402783
31
0.000000000000000
  0
LINE
  5
F1018A
330
F1018B
100
AcDbEntity
8
Geo
100
AcDbLine
10
-76.1771147276422
20
5.33751882402783
30
0.000000000000000
11
-76.0771147276422
21
5.32842050993584
31
0.000000000000000
  0
LINE
  5
F1018C
330
F1018D
100
AcDbEntity
8
Geo
100
AcDbLine
10
-76.0771147276422
20
5.32842050993584
30
0.000000000000000
11
-75.9771147276422
21
5.31841899999911
31
0.000000000000000
  0
LINE
  5
F1018E
330
F1018F
100
AcDbEntity
8
Geo
100
AcDbLine
10
-75.9771147276422
20
5.31841899999911
30
0.000000000000000
11
-75.8771147276422
21
5.30751127690264
31
0.000000000000000
  0
LINE
  5
F10190
330
F10191
100
AcDbEntity
8
Geo
100
AcDbLine
10
-75.8771147276422
20
5.30751127690264
30
0.000000000000000
11
-75.7771147276422
21
5.29569440571762
31
0.000000000000000
  0
LINE
  5
F10192
330
F10193
100
AcDbEntity
8
Geo
100
AcDbLine
10
-75.7771147276422
20
5.29569440571762
30
0.000000000000000
11
-75.6771147276422
21
5.28296553423678
31
0.000000000000000
  0
LINE
  5
F10194
330
F10195
100
AcDbEntity
8
Geo
100
AcDbLine
10
-75.6771147276422
20
5.28296553423678
30
0.000000000000000
11
-75.5771147276422
21
5.26932189330350
31
0.000000000000000
  0
LINE
  5
F10196
330
F10197
100
AcDbEntity
8
Geo
100
AcDbLine
10
-75.5771147276422
20
5.26932189330350
30
0.000000000000000
11
-75.4771147276422
21
5.25476079713483
31
0.000000000000000
  0
LINE
  5
F10198
330
F10199
100
AcDbEntity
8
Geo
100
AcDbLine
10
-75.4771147276422
20
5.25476079713483
30
0.000000000000000
11
-75.3771147276422
21
5.23927964363824
31
0.000000000000000
  0
LINE
  5
F1019A
330
F1019B
100
AcDbEntity
8
Geo
100
AcDbLine
10
-75.3771147276422
20
5.23927964363824
30
0.000000000000000
11
-75.2771147276422
21
5.22287591472219
31
0.000000000000000
  0
LINE
  5
F1019C
330
F1019D
100
AcDbEntity
8
Geo
100
AcDbLine
10
-75.2771147276422
20
5.22287591472219
30
0.000000000000000
11
-75.1771147276422
21
5.19201514495535
31
0.000000000000000
  0
LINE
  5
F1019E
330
F1019F
100
AcDbEntity
8
Geo
100
AcDbLine
10
-75.1771147276422
20
5.19201514495535
30
0.000000000000000
11
-75.0771147276422
21
5.14322330737751
31
0.000000000000000
  0
LINE
  5
F101A0
330
F101A1
100
AcDbEntity
8
Geo
100
AcDbLine
10
-75.0771147276422
20
5.14322330737751
30
0.000000000000000
11
-74.9771147276422
21
5.14958446631254
31
0.000000000000000
  0
LINE
  5
F101A2
330
F101A3
100
AcDbEntity
8
Geo
100
AcDbLine
10
-74.9771147276422
20
5.14958446631254
30
0.000000000000000
11
-74.8771147276422
21
5.15637675173327
31
0.000000000000000
  0
LINE
  5
F101A4
330
F101A5
100
AcDbEntity
8
Geo
100
AcDbLine
10
-74.8771147276422
20
5.15637675173327
30
0.000000000000000
11
-74.7771147276422
21
5.16359933246470
31
0.000000000000000
  0
LINE
  5
F101A6
330
F101A7
100
AcDbEntity
8
Geo
100
AcDbLine
10
-74.7771147276422
20
5.16359933246470
30
0.000000000000000
11
-74.6771147276422
21
5.17125132170119
31
0.000000000000000
  0
LINE
  5
F101A8
330
F101A9
100
AcDbEntity
8
Geo
100
AcDbLine
10
-74.6771147276422
20
5.17125132170119
30
0.000000000000000
11
-74.5771147276422
21
5.17933177656250
31
0.000000000000000
  0
LINE
  5
F101AA
330
F101AB
100
AcDbEntity
8
Geo
100
AcDbLine
10
-74.5771147276422
20
5.17933177656250
30
0.000000000000000
11
-74.4771147276422
21
5.18783969762392
31
0.000000000000000
  0
LINE
  5
F101AC
330
F101AD
100
AcDbEntity
8
Geo
100
AcDbLine
10
-74.4771147276422
20
5.18783969762392
30
0.000000000000000
11
-74.3771147276422
21
5.19677402842063
31
0.000000000000000
  0
LINE
  5
F101AE
330
F101AF
100
AcDbEntity
8
Geo
100
AcDbLine
10
-74.3771147276422
20
5.19677402842063
30
0.000000000000000
11
-74.2771147276422
21
5.20613365492634
31
0.000000000000000
  0
LINE
  5
F101B0
330
F101B1
100
AcDbEntity
8
Geo
100
AcDbLine
10
-74.2771147276422
20
5.20613365492634
30
0.000000000000000
11
-74.1771147276422
21
5.21591740500647
31
0.000000000000000
  0
LINE
  5
F101B2
330
F101B3
100
AcDbEntity
8
Geo
100
AcDbLine
10
-74.1771147276422
20
5.21591740500647
30
0.000000000000000
11
-74.0771147276422
21
5.22612404784602
31
0.000000000000000
  0
LINE
  5
F101B4
330
F101B5
100
AcDbEntity
8
Geo
100
AcDbLine
10
-74.0771147276422
20
5.22612404784602
30
0.000000000000000
11
-73.9771147276422
21
5.23675229335220
31
0.000000000000000
  0
LINE
  5
F101B6
330
F101B7
100
AcDbEntity
8
Geo
100
AcDbLine
10
-73.9771147276422
20
5.23675229335220
30
0.000000000000000
11
-73.8771147276422
21
5.24780079153218
31
0.000000000000000
  0
LINE
  5
F101B8
330
F101B9
100
AcDbEntity
8
Geo
100
AcDbLine
10
-73.8771147276422
20
5.24780079153218
30
0.000000000000000
11
-73.7771147276422
21
5.25926813184600
31
0.000000000000000
  0
LINE
  5
F101BA
330
F101BB
100
AcDbEntity
8
Geo
100
AcDbLine
10
-73.7771147276422
20
5.25926813184600
30
0.000000000000000
11
-73.6771147276422
21
5.27115284253494
31
0.000000000000000
  0
LINE
  5
F101BC
330
F101BD
100
AcDbEntity
8
Geo
100
AcDbLine
10
-73.6771147276422
20
5.27115284253494
30
0.000000000000000
11
-73.5771147276422
21
5.28345338992546
31
0.000000000000000
  0
LINE
  5
F101BE
330
F101BF
100
AcDbEntity
8
Geo
100
AcDbLine
10
-73.5771147276422
20
5.28345338992546
30
0.000000000000000
11
-73.4771147276422
21
5.29616817770906
31
0.000000000000000
  0
LINE
  5
F101C0
330
F101C1
100
AcDbEntity
8
Geo
100
AcDbLine
10
-73.4771147276422
20
5.29616817770906
30
0.000000000000000
11
-73.3771147276422
21
5.30929554619821
31
0.000000000000000
  0
LINE
  5
F101C2
330
F101C3
100
AcDbEntity
8
Geo
100
AcDbLine
10
-73.3771147276422
20
5.30929554619821
30
0.000000000000000
11
-73.2771147276422
21
5.32283377155860
31
0.000000000000000
  0
LINE
  5
F101C4
330
F101C5
100
AcDbEntity
8
Geo
100
AcDbLine
10
-73.2771147276422
20
5.32283377155860
30
0.000000000000000
11
-73.1771147276422
21
5.33678106501797
31
0.000000000000000
  0
LINE
  5
F101C6
330
F101C7
100
AcDbEntity
8
Geo
100
AcDbLine
10
-73.1771147276422
20
5.33678106501797
30
0.000000000000000
11
-73.0771147276422
21
5.35113557205184
31
0.000000000000000
  0
LINE
  5
F101C8
330
F101C9
100
AcDbEntity
8
Geo
100
AcDbLine
10
-73.0771147276422
20
5.35113557205184
30
0.000000000000000
11
-72.9771147276422
21
5.36589537154624
31
0.000000000000000
  0
LINE
  5
F101CA
330
F101CB
100
AcDbEntity
8
Geo
100
AcDbLine
10
-72.9771147276422
20
5.36589537154624
30
0.000000000000000
11
-72.8771147276422
21
5.38105847493803
31
0.000000000000000
  0
LINE
  5
F101CC
330
F101CD
100
AcDbEntity
8
Geo
100
AcDbLine
10
-72.8771147276422
20
5.38105847493803
30
0.000000000000000
11
-72.7771147276422
21
5.39662282533272
31
0.000000000000000
  0
LINE
  5
F101CE
330
F101CF
100
AcDbEntity
8
Geo
100
AcDbLine
10
-72.7771147276422
20
5.39662282533272
30
0.000000000000000
11
-72.6771147276422
21
5.41258629660048
31
0.000000000000000
  0
LINE
  5
F101D0
330
F101D1
100
AcDbEntity
8
Geo
100
AcDbLine
10
-72.6771147276422
20
5.41258629660048
30
0.000000000000000
11
-72.5771147276422
21
5.42894669245037
31
0.000000000000000
  0
LINE
  5
F101D2
330
F101D3
100
AcDbEntity
8
Geo
100
AcDbLine
10
-72.5771147276422
20
5.42894669245037
30
0.000000000000000
11
-72.4771147276422
21
5.44570174548328
31
0.000000000000000
  0
LINE
  5
F101D4
330
F101D5
100
AcDbEntity
8
Geo
100
AcDbLine
10
-72.4771147276422
20
5.44570174548328
30
0.000000000000000
11
-72.3771147276422
21
5.46284911622389
31
0.000000000000000
  0
LINE
  5
F101D6
330
F101D7
100
AcDbEntity
8
Geo
100
AcDbLine
10
-72.3771147276422
20
5.46284911622389
30
0.000000000000000
11
-72.2771147276422
21
5.48038639213191
31
0.000000000000000
  0
LINE
  5
F101D8
330
F101D9
100
AcDbEntity
8
Geo
100
AcDbLine
10
-72.2771147276422
20
5.48038639213191
30
0.000000000000000
11
-72.1771147276422
21
5.49831108659320
31
0.000000000000000
  0
LINE
  5
F101DA
330
F101DB
100
AcDbEntity
8
Geo
100
AcDbLine
10
-72.1771147276422
20
5.49831108659320
30
0.000000000000000
11
-72.0771147276422
21
5.51662063789085
31
0.000000000000000
  0
LINE
  5
F101DC
330
F101DD
100
AcDbEntity
8
Geo
100
AcDbLine
10
-72.0771147276422
20
5.51662063789085
30
0.000000000000000
11
-71.9771147276422
21
5.53531240815688
31
0.000000000000000
  0
LINE
  5
F101DE
330
F101DF
100
AcDbEntity
8
Geo
100
AcDbLine
10
-71.9771147276422
20
5.53531240815688
30
0.000000000000000
11
-71.8771147276422
21
5.55438368230481
31
0.000000000000000
  0
LINE
  5
F101E0
330
F101E1
100
AcDbEntity
8
Geo
100
AcDbLine
10
-71.8771147276422
20
5.55438368230481
30
0.000000000000000
11
-71.7771147276422
21
5.57383166694357
31
0.000000000000000
  0
LINE
  5
F101E2
330
F101E3
100
AcDbEntity
8
Geo
100
AcDbLine
10
-71.7771147276422
20
5.57383166694357
30
0.000000000000000
11
-71.6771147276422
21
5.59365348927320
31
0.000000000000000
  0
LINE
  5
F101E4
330
F101E5
100
AcDbEntity
8
Geo
100
AcDbLine
10
-71.6771147276422
20
5.59365348927320
30
0.000000000000000
11
-71.5771147276422
21
5.61384619596275
31
0.000000000000000
  0
LINE
  5
F101E6
330
F101E7
100
AcDbEntity
8
Geo
100
AcDbLine
10
-71.5771147276422
20
5.61384619596275
30
0.000000000000000
11
-71.4771147276422
21
5.63440675201091
31
0.000000000000000
  0
LINE
  5
F101E8
330
F101E9
100
AcDbEntity
8
Geo
100
AcDbLine
10
-71.4771147276422
20
5.63440675201091
30
0.000000000000000
11
-71.3771147276422
21
5.65533203958978
31
0.000000000000000
  0
LINE
  5
F101EA
330
F101EB
100
AcDbEntity
8
Geo
100
AcDbLine
10
-71.3771147276422
20
5.65533203958978
30
0.000000000000000
11
-71.2771147276422
21
5.67661885687226
31
0.000000000000000
  0
LINE
  5
F101EC
330
F101ED
100
AcDbEntity
8
Geo
100
AcDbLine
10
-71.2771147276422
20
5.67661885687226
30
0.000000000000000
11
-71.1771147276422
21
5.69826391684371
31
0.000000000000000
  0
LINE
  5
F101EE
330
F101EF
100
AcDbEntity
8
Geo
100
AcDbLine
10
-71.1771147276422
20
5.69826391684371
30
0.000000000000000
11
-71.0771147276422
21
5.72026384609824
31
0.000000000000000
  0
LINE
  5
F101F0
330
F101F1
100
AcDbEntity
8
Geo
100
AcDbLine
10
-71.0771147276422
20
5.72026384609824
30
0.000000000000000
11
-70.9771147276422
21
5.74261518362019
31
0.000000000000000
  0
LINE
  5
F101F2
330
F101F3
100
AcDbEntity
8
Geo
100
AcDbLine
10
-70.9771147276422
20
5.74261518362019
30
0.000000000000000
11
-70.8771147276422
21
5.76531437955152
31
0.000000000000000
  0
LINE
  5
F101F4
330
F101F5
100
AcDbEntity
8
Geo
100
AcDbLine
10
-70.8771147276422
20
5.76531437955152
30
0.000000000000000
11
-70.7771147276422
21
5.78835779394545
31
0.000000000000000
  0
LINE
  5
F101F6
330
F101F7
100
AcDbEntity
8
Geo
100
AcDbLine
10
-70.7771147276422
20
5.78835779394545
30
0.000000000000000
11
-70.6771147276422
21
5.81174169550711
31
0.000000000000000
  0
LINE
  5
F101F8
330
F101F9
100
AcDbEntity
8
Geo
100
AcDbLine
10
-70.6771147276422
20
5.81174169550711
30
0.000000000000000
11
-70.5771147276422
21
5.83546226032176
31
0.000000000000000
  0
LINE
  5
F101FA
330
F101FB
100
AcDbEntity
8
Geo
100
AcDbLine
10
-70.5771147276422
20
5.83546226032176
30
0.000000000000000
11
-70.4771147276422
21
5.85951557057113
31
0.000000000000000
  0
LINE
  5
F101FC
330
F101FD
100
AcDbEntity
8
Geo
100
AcDbLine
10
-70.4771147276422
20
5.85951557057113
30
0.000000000000000
11
-70.3771147276422
21
5.88389761323862
31
0.000000000000000
  0
LINE
  5
F101FE
330
F101FF
100
AcDbEntity
8
Geo
100
AcDbLine
10
-70.3771147276422
20
5.88389761323862
30
0.000000000000000
11
-70.2771147276422
21
5.90860427880401
31
0.000000000000000
  0
LINE
  5
F10200
330
F10201
100
AcDbEntity
8
Geo
100
AcDbLine
10
-70.2771147276422
20
5.90860427880401
30
0.000000000000000
11
-70.1771147276422
21
5.93363135992828
31
0.000000000000000
  0
LINE
  5
F10202
330
F10203
100
AcDbEntity
8
Geo
100
AcDbLine
10
-70.1771147276422
20
5.93363135992828
30
0.000000000000000
11
-70.0771147276422
21
5.95897455012926
31
0.000000000000000
  0
LINE
  5
F10204
330
F10205
100
AcDbEntity
8
Geo
100
AcDbLine
10
-89.0771147276422
20
0.890796820381283
30
0.000000000000000
11
-88.9771147276422
21
0.945575908064936
31
0.000000000000000
  0
LINE
  5
F10206
330
F10207
100
AcDbEntity
8
Geo
100
AcDbLine
10
-88.9771147276422
20
0.945575908064936
30
0.000000000000000
11
-88.8771147276422
21
1.00008891784618
31
0.000000000000000
  0
LINE
  5
F10208
330
F10209
100
AcDbEntity
8
Geo
100
AcDbLine
10
-88.8771147276422
20
1.00008891784618
30
0.000000000000000
11
-88.7771147276422
21
1.05432731131697
31
0.000000000000000
  0
LINE
  5
F1020A
330
F1020B
100
AcDbEntity
8
Geo
100
AcDbLine
10
-88.7771147276422
20
1.05432731131697
30
0.000000000000000
11
-88.6771147276422
21
1.10828257837851
31
0.000000000000000
  0
LINE
  5
F1020C
330
F1020D
100
AcDbEntity
8
Geo
100
AcDbLine
10
-88.6771147276422
20
1.10828257837851
30
0.000000000000000
11
-88.5771147276422
21
1.16194623798063
31
0.000000000000000
  0
LINE
  5
F1020E
330
F1020F
100
AcDbEntity
8
Geo
100
AcDbLine
10
-88.5771147276422
20
1.16194623798063
30
0.000000000000000
11
-88.4771147276422
21
1.21530983885882
31
0.000000000000000
  0
LINE
  5
F10210
330
F10211
100
AcDbEntity
8
Geo
100
AcDbLine
10
-88.4771147276422
20
1.21530983885882
30
0.000000000000000
11
-88.3771147276422
21
1.26836496026904
31
0.000000000000000
  0
LINE
  5
F10212
330
F10213
100
AcDbEntity
8
Geo
100
AcDbLine
10
-88.3771147276422
20
1.26836496026904
30
0.000000000000000
11
-88.2771147276422
21
1.32110321272009
31
0.000000000000000
  0
LINE
  5
F10214
330
F10215
100
AcDbEntity
8
Geo
100
AcDbLine
10
-88.2771147276422
20
1.32110321272009
30
0.000000000000000
11
-88.1771147276422
21
1.37351623870359
31
0.000000000000000
  0
LINE
  5
F10216
330
F10217
100
AcDbEntity
8
Geo
100
AcDbLine
10
-88.1771147276422
20
1.37351623870359
30
0.000000000000000
11
-88.0771147276422
21
1.42559571342151
31
0.000000000000000
  0
LINE
  5
F10218
330
F10219
100
AcDbEntity
8
Geo
100
AcDbLine
10
-88.0771147276422
20
1.42559571342151
30
0.000000000000000
11
-87.9771147276422
21
1.47733334551115
31
0.000000000000000
  0
LINE
  5
F1021A
330
F1021B
100
AcDbEntity
8
Geo
100
AcDbLine
10
-87.9771147276422
20
1.47733334551115
30
0.000000000000000
11
-87.8771147276422
21
1.52872087776753
31
0.000000000000000
  0
LINE
  5
F1021C
330
F1021D
100
AcDbEntity
8
Geo
100
AcDbLine
10
-87.8771147276422
20
1.52872087776753
30
0.000000000000000
11
-87.7771147276422
21
1.57975008786317
31
0.000000000000000
  0
LINE
  5
F1021E
330
F1021F
100
AcDbEntity
8
Geo
100
AcDbLine
10
-87.7771147276422
20
1.57975008786317
30
0.000000000000000
11
-87.6771147276422
21
1.63041278906521
31
0.000000000000000
  0
LINE
  5
F10220
330
F10221
100
AcDbEntity
8
Geo
100
AcDbLine
10
-87.6771147276422
20
1.63041278906521
30
0.000000000000000
11
-87.5771147276422
21
1.68070083094971
31
0.000000000000000
  0
LINE
  5
F10222
330
F10223
100
AcDbEntity
8
Geo
100
AcDbLine
10
-87.5771147276422
20
1.68070083094971
30
0.000000000000000
11
-87.4771147276422
21
1.73060610011330
31
0.000000000000000
  0
LINE
  5
F10224
330
F10225
100
AcDbEntity
8
Geo
100
AcDbLine
10
-87.4771147276422
20
1.73060610011330
30
0.000000000000000
11
-87.3771147276422
21
1.78012052088182
31
0.000000000000000
  0
LINE
  5
F10226
330
F10227
100
AcDbEntity
8
Geo
100
AcDbLine
10
-87.3771147276422
20
1.78012052088182
30
0.000000000000000
11
-87.2771147276422
21
1.82923605601622
31
0.000000000000000
  0
LINE
  5
F10228
330
F10229
100
AcDbEntity
8
Geo
100
AcDbLine
10
-87.2771147276422
20
1.82923605601622
30
0.000000000000000
11
-87.1771147276422
21
1.87794470741543
31
0.000000000000000
  0
LINE
  5
F1022A
330
F1022B
100
AcDbEntity
8
Geo
100
AcDbLine
10
-87.1771147276422
20
1.87794470741543
30
0.000000000000000
11
-87.0771147276422
21
1.92623851681626
31
0.000000000000000
  0
LINE
  5
F1022C
330
F1022D
100
AcDbEntity
8
Geo
100
AcDbLine
10
-87.0771147276422
20
1.92623851681626
30
0.000000000000000
11
-86.9771147276422
21
1.97410956649026
31
0.000000000000000
  0
LINE
  5
F1022E
330
F1022F
100
AcDbEntity
8
Geo
100
AcDbLine
10
-86.9771147276422
20
1.97410956649026
30
0.000000000000000
11
-86.8771147276422
21
2.02154997993745
31
0.000000000000000
  0
LINE
  5
F10230
330
F10231
100
AcDbEntity
8
Geo
100
AcDbLine
10
-86.8771147276422
20
2.02154997993745
30
0.000000000000000
11
-86.7771147276422
21
2.06855192257697
31
0.000000000000000
  0
LINE
  5
F10232
330
F10233
100
AcDbEntity
8
Geo
100
AcDbLine
10
-86.7771147276422
20
2.06855192257697
30
0.000000000000000
11
-86.6771147276422
21
2.11510760243445
31
0.000000000000000
  0
LINE
  5
F10234
330
F10235
100
AcDbEntity
8
Geo
100
AcDbLine
10
-86.6771147276422
20
2.11510760243445
30
0.000000000000000
11
-86.5771147276422
21
2.16120927082620
31
0.000000000000000
  0
LINE
  5
F10236
330
F10237
100
AcDbEntity
8
Geo
100
AcDbLine
10
-86.5771147276422
20
2.16120927082620
30
0.000000000000000
11
-86.4771147276422
21
2.20684922304005
31
0.000000000000000
  0
LINE
  5
F10238
330
F10239
100
AcDbEntity
8
Geo
100
AcDbLine
10
-86.4771147276422
20
2.20684922304005
30
0.000000000000000
11
-86.3771147276422
21
2.25201979901289
31
0.000000000000000
  0
LINE
  5
F1023A
330
F1023B
100
AcDbEntity
8
Geo
100
AcDbLine
10
-86.3771147276422
20
2.25201979901289
30
0.000000000000000
11
-86.2771147276422
21
2.29671338400473
31
0.000000000000000
  0
LINE
  5
F1023C
330
F1023D
100
AcDbEntity
8
Geo
100
AcDbLine
10
-86.2771147276422
20
2.29671338400473
30
0.000000000000000
11
-86.1771147276422
21
2.34092240926943
31
0.000000000000000
  0
LINE
  5
F1023E
330
F1023F
100
AcDbEntity
8
Geo
100
AcDbLine
10
-86.1771147276422
20
2.34092240926943
30
0.000000000000000
11
-86.0771147276422
21
2.38463935272185
31
0.000000000000000
  0
LINE
  5
F10240
330
F10241
100
AcDbEntity
8
Geo
100
AcDbLine
10
-86.0771147276422
20
2.38463935272185
30
0.000000000000000
11
-85.9771147276422
21
2.42785673960144
31
0.000000000000000
  0
LINE
  5
F10242
330
F10243
100
AcDbEntity
8
Geo
100
AcDbLine
10
-85.9771147276422
20
2.42785673960144
30
0.000000000000000
11
-85.8771147276422
21
2.47056714313232
31
0.000000000000000
  0
LINE
  5
F10244
330
F10245
100
AcDbEntity
8
Geo
100
AcDbLine
10
-85.8771147276422
20
2.47056714313232
30
0.000000000000000
11
-85.7771147276422
21
2.51276318517962
31
0.000000000000000
  0
LINE
  5
F10246
330
F10247
100
AcDbEntity
8
Geo
100
AcDbLine
10
-85.7771147276422
20
2.51276318517962
30
0.000000000000000
11
-85.6771147276422
21
2.55443753690222
31
0.000000000000000
  0
LINE
  5
F10248
330
F10249
100
AcDbEntity
8
Geo
100
AcDbLine
10
-85.6771147276422
20
2.55443753690222
30
0.000000000000000
11
-85.5771147276422
21
2.59558291940165
31
0.000000000000000
  0
LINE
  5
F1024A
330
F1024B
100
AcDbEntity
8
Geo
100
AcDbLine
10
-85.5771147276422
20
2.59558291940165
30
0.000000000000000
11
-85.4771147276422
21
2.63619210436731
31
0.000000000000000
  0
LINE
  5
F1024C
330
F1024D
100
AcDbEntity
8
Geo
100
AcDbLine
10
-85.4771147276422
20
2.63619210436731
30
0.000000000000000
11
-85.3771147276422
21
2.67625791471776
31
0.000000000000000
  0
LINE
  5
F1024E
330
F1024F
100
AcDbEntity
8
Geo
100
AcDbLine
10
-85.3771147276422
20
2.67625791471776
30
0.000000000000000
11
-85.2771147276422
21
2.71577322523821
31
0.000000000000000
  0
LINE
  5
F10250
330
F10251
100
AcDbEntity
8
Geo
100
AcDbLine
10
-85.2771147276422
20
2.71577322523821
30
0.000000000000000
11
-85.1771147276422
21
2.75473096321400
31
0.000000000000000
  0
LINE
  5
F10252
330
F10253
100
AcDbEntity
8
Geo
100
AcDbLine
10
-85.1771147276422
20
2.75473096321400
30
0.000000000000000
11
-85.0771147276422
21
2.79312410906019
31
0.000000000000000
  0
LINE
  5
F10254
330
F10255
100
AcDbEntity
8
Geo
100
AcDbLine
10
-85.0771147276422
20
2.79312410906019
30
0.000000000000000
11
-84.9771147276422
21
2.83094569694705
31
0.000000000000000
  0
LINE
  5
F10256
330
F10257
100
AcDbEntity
8
Geo
100
AcDbLine
10
-84.9771147276422
20
2.83094569694705
30
0.000000000000000
11
-84.8771147276422
21
2.86818881542154
31
0.000000000000000
  0
LINE
  5
F10258
330
F10259
100
AcDbEntity
8
Geo
100
AcDbLine
10
-84.8771147276422
20
2.86818881542154
30
0.000000000000000
11
-84.7771147276422
21
2.90484660802463
31
0.000000000000000
  0
LINE
  5
F1025A
330
F1025B
100
AcDbEntity
8
Geo
100
AcDbLine
10
-84.7771147276422
20
2.90484660802463
30
0.000000000000000
11
-84.6771147276422
21
2.94091227390452
31
0.000000000000000
  0
LINE
  5
F1025C
330
F1025D
100
AcDbEntity
8
Geo
100
AcDbLine
10
-84.6771147276422
20
2.94091227390452
30
0.000000000000000
11
-84.5771147276422
21
2.97637906842558
31
0.000000000000000
  0
LINE
  5
F1025E
330
F1025F
100
AcDbEntity
8
Geo
100
AcDbLine
10
-84.5771147276422
20
2.97637906842558
30
0.000000000000000
11
-84.4771147276422
21
3.01124030377310
31
0.000000000000000
  0
LINE
  5
F10260
330
F10261
100
AcDbEntity
8
Geo
100
AcDbLine
10
-84.4771147276422
20
3.01124030377310
30
0.000000000000000
11
-84.3771147276422
21
3.04548934955372
31
0.000000000000000
  0
LINE
  5
F10262
330
F10263
100
AcDbEntity
8
Geo
100
AcDbLine
10
-84.3771147276422
20
3.04548934955372
30
0.000000000000000
11
-84.2771147276422
21
3.07911963339153
31
0.000000000000000
  0
LINE
  5
F10264
330
F10265
100
AcDbEntity
8
Geo
100
AcDbLine
10
-84.2771147276422
20
3.07911963339153
30
0.000000000000000
11
-84.1771147276422
21
3.11212464151979
31
0.000000000000000
  0
LINE
  5
F10266
330
F10267
100
AcDbEntity
8
Geo
100
AcDbLine
10
-84.1771147276422
20
3.11212464151979
30
0.000000000000000
11
-84.0771147276422
21
3.14449791936821
31
0.000000000000000
  0
LINE
  5
F10268
330
F10269
100
AcDbEntity
8
Geo
100
AcDbLine
10
-84.0771147276422
20
3.14449791936821
30
0.000000000000000
11
-83.9771147276422
21
3.17623307214574
31
0.000000000000000
  0
LINE
  5
F1026A
330
F1026B
100
AcDbEntity
8
Geo
100
AcDbLine
10
-83.9771147276422
20
3.17623307214574
30
0.000000000000000
11
-83.8771147276422
21
3.20732376541894
31
0.000000000000000
  0
LINE
  5
F1026C
330
F1026D
100
AcDbEntity
8
Geo
100
AcDbLine
10
-83.8771147276422
20
3.20732376541894
30
0.000000000000000
11
-83.7771147276422
21
3.23776372568565
31
0.000000000000000
  0
LINE
  5
F1026E
330
F1026F
100
AcDbEntity
8
Geo
100
AcDbLine
10
-83.7771147276422
20
3.23776372568565
30
0.000000000000000
11
-83.6771147276422
21
3.26754674094422
31
0.000000000000000
  0
LINE
  5
F10270
330
F10271
100
AcDbEntity
8
Geo
100
AcDbLine
10
-83.6771147276422
20
3.26754674094422
30
0.000000000000000
11
-83.5771147276422
21
3.29666666125794
31
0.000000000000000
  0
LINE
  5
F10272
330
F10273
100
AcDbEntity
8
Geo
100
AcDbLine
10
-83.5771147276422
20
3.29666666125794
30
0.000000000000000
11
-83.4771147276422
21
3.32511739931490
31
0.000000000000000
  0
LINE
  5
F10274
330
F10275
100
AcDbEntity
8
Geo
100
AcDbLine
10
-83.4771147276422
20
3.32511739931490
30
0.000000000000000
11
-83.3771147276422
21
3.35289293098312
31
0.000000000000000
  0
LINE
  5
F10276
330
F10277
100
AcDbEntity
8
Geo
100
AcDbLine
10
-83.3771147276422
20
3.35289293098312
30
0.000000000000000
11
-83.2771147276422
21
3.37998729586082
31
0.000000000000000
  0
LINE
  5
F10278
330
F10279
100
AcDbEntity
8
Geo
100
AcDbLine
10
-83.2771147276422
20
3.37998729586082
30
0.000000000000000
11
-83.1771147276422
21
3.40639459782200
31
0.000000000000000
  0
LINE
  5
F1027A
330
F1027B
100
AcDbEntity
8
Geo
100
AcDbLine
10
-83.1771147276422
20
3.40639459782200
30
0.000000000000000
11
-83.0771147276422
21
3.43210900555709
31
0.000000000000000
  0
LINE
  5
F1027C
330
F1027D
100
AcDbEntity
8
Geo
100
AcDbLine
10
-83.0771147276422
20
3.43210900555709
30
0.000000000000000
11
-82.9771147276422
21
3.45712475310876
31
0.000000000000000
  0
LINE
  5
F1027E
330
F1027F
100
AcDbEntity
8
Geo
100
AcDbLine
10
-82.9771147276422
20
3.45712475310876
30
0.000000000000000
11
-82.8771147276422
21
3.48143614040278
31
0.000000000000000
  0
LINE
  5
F10280
330
F10281
100
AcDbEntity
8
Geo
100
AcDbLine
10
-82.8771147276422
20
3.48143614040278
30
0.000000000000000
11
-82.7771147276422
21
3.50503753377389
31
0.000000000000000
  0
LINE
  5
F10282
330
F10283
100
AcDbEntity
8
Geo
100
AcDbLine
10
-82.7771147276422
20
3.50503753377389
30
0.000000000000000
11
-82.6771147276422
21
3.52792336648674
31
0.000000000000000
  0
LINE
  5
F10284
330
F10285
100
AcDbEntity
8
Geo
100
AcDbLine
10
-82.6771147276422
20
3.52792336648674
30
0.000000000000000
11
-82.5771147276422
21
3.55008813925169
31
0.000000000000000
  0
LINE
  5
F10286
330
F10287
100
AcDbEntity
8
Geo
100
AcDbLine
10
-82.5771147276422
20
3.55008813925169
30
0.000000000000000
11
-82.4771147276422
21
3.57152642073558
31
0.000000000000000
  0
LINE
  5
F10288
330
F10289
100
AcDbEntity
8
Geo
100
AcDbLine
10
-82.4771147276422
20
3.57152642073558
30
0.000000000000000
11
-82.3771147276422
21
3.59223284806738
31
0.000000000000000
  0
LINE
  5
F1028A
330
F1028B
100
AcDbEntity
8
Geo
100
AcDbLine
10
-82.3771147276422
20
3.59223284806738
30
0.000000000000000
11
-82.2771147276422
21
3.61220212733864
31
0.000000000000000
  0
LINE
  5
F1028C
330
F1028D
100
AcDbEntity
8
Geo
100
AcDbLine
10
-82.2771147276422
20
3.61220212733864
30
0.000000000000000
11
-82.1771147276422
21
3.63142903409881
31
0.000000000000000
  0
LINE
  5
F1028E
330
F1028F
100
AcDbEntity
8
Geo
100
AcDbLine
10
-82.1771147276422
20
3.63142903409881
30
0.000000000000000
11
-82.0771147276422
21
3.64990841384523
31
0.000000000000000
  0
LINE
  5
F10290
330
F10291
100
AcDbEntity
8
Geo
100
AcDbLine
10
-82.0771147276422
20
3.64990841384523
30
0.000000000000000
11
-81.9771147276422
21
3.66763518250792
31
0.000000000000000
  0
LINE
  5
F10292
330
F10293
100
AcDbEntity
8
Geo
100
AcDbLine
10
-81.9771147276422
20
3.66763518250792
30
0.000000000000000
11
-81.8771147276422
21
3.68460432692906
31
0.000000000000000
  0
LINE
  5
F10294
330
F10295
100
AcDbEntity
8
Geo
100
AcDbLine
10
-81.8771147276422
20
3.68460432692906
30
0.000000000000000
11
-81.7771147276422
21
3.70081090533709
31
0.000000000000000
  0
LINE
  5
F10296
330
F10297
100
AcDbEntity
8
Geo
100
AcDbLine
10
-81.7771147276422
20
3.70081090533709
30
0.000000000000000
11
-81.6771147276422
21
3.71625004781542
31
0.000000000000000
  0
LINE
  5
F10298
330
F10299
100
AcDbEntity
8
Geo
100
AcDbLine
10
-81.6771147276422
20
3.71625004781542
30
0.000000000000000
11
-81.5771147276422
21
3.73091695676579
31
0.000000000000000
  0
LINE
  5
F1029A
330
F1029B
100
AcDbEntity
8
Geo
100
AcDbLine
10
-81.5771147276422
20
3.73091695676579
30
0.000000000000000
11
-81.4771147276422
21
3.74480690736613
31
0.000000000000000
  0
LINE
  5
F1029C
330
F1029D
100
AcDbEntity
8
Geo
100
AcDbLine
10
-81.4771147276422
20
3.74480690736613
30
0.000000000000000
11
-81.3771147276422
21
3.75791524802288
31
0.000000000000000
  0
LINE
  5
F1029E
330
F1029F
100
AcDbEntity
8
Geo
100
AcDbLine
10
-81.3771147276422
20
3.75791524802288
30
0.000000000000000
11
-81.2771147276422
21
3.77023740081796
31
0.000000000000000
  0
LINE
  5
F102A0
330
F102A1
100
AcDbEntity
8
Geo
100
AcDbLine
10
-81.2771147276422
20
3.77023740081796
30
0.000000000000000
11
-81.1771147276422
21
3.78176886194997
31
0.000000000000000
  0
LINE
  5
F102A2
330
F102A3
100
AcDbEntity
8
Geo
100
AcDbLine
10
-81.1771147276422
20
3.78176886194997
30
0.000000000000000
11
-81.0771147276422
21
3.79250520216996
31
0.000000000000000
  0
LINE
  5
F102A4
330
F102A5
100
AcDbEntity
8
Geo
100
AcDbLine
10
-81.0771147276422
20
3.79250520216996
30
0.000000000000000
11
-80.9771147276422
21
3.80244206721154
31
0.000000000000000
  0
LINE
  5
F102A6
330
F102A7
100
AcDbEntity
8
Geo
100
AcDbLine
10
-80.9771147276422
20
3.80244206721154
30
0.000000000000000
11
-80.8771147276422
21
3.81157517821528
31
0.000000000000000
  0
LINE
  5
F102A8
330
F102A9
100
AcDbEntity
8
Geo
100
AcDbLine
10
-80.8771147276422
20
3.81157517821528
30
0.000000000000000
11
-80.7771147276422
21
3.81990033214751
31
0.000000000000000
  0
LINE
  5
F102AA
330
F102AB
100
AcDbEntity
8
Geo
100
AcDbLine
10
-80.7771147276422
20
3.81990033214751
30
0.000000000000000
11
-80.6771147276422
21
3.82741340221333
31
0.000000000000000
  0
LINE
  5
F102AC
330
F102AD
100
AcDbEntity
8
Geo
100
AcDbLine
10
-80.6771147276422
20
3.82741340221333
30
0.000000000000000
11
-80.5771147276422
21
3.83411033826391
31
0.000000000000000
  0
LINE
  5
F102AE
330
F102AF
100
AcDbEntity
8
Geo
100
AcDbLine
10
-80.5771147276422
20
3.83411033826391
30
0.000000000000000
11
-80.4771147276422
21
3.83998716719799
31
0.000000000000000
  0
LINE
  5
F102B0
330
F102B1
100
AcDbEntity
8
Geo
100
AcDbLine
10
-80.4771147276422
20
3.83998716719799
30
0.000000000000000
11
-80.3771147276422
21
3.84503999335760
31
0.000000000000000
  0
LINE
  5
F102B2
330
F102B3
100
AcDbEntity
8
Geo
100
AcDbLine
10
-80.3771147276422
20
3.84503999335760
30
0.000000000000000
11
-80.2771147276422
21
3.84926499891789
31
0.000000000000000
  0
LINE
  5
F102B4
330
F102B5
100
AcDbEntity
8
Geo
100
AcDbLine
10
-80.2771147276422
20
3.84926499891789
30
0.000000000000000
11
-80.1771147276422
21
3.85265844427113
31
0.000000000000000
  0
LINE
  5
F102B6
330
F102B7
100
AcDbEntity
8
Geo
100
AcDbLine
10
-80.1771147276422
20
3.85265844427113
30
0.000000000000000
11
-80.0771147276422
21
3.85521666840476
31
0.000000000000000
  0
LINE
  5
F102B8
330
F102B9
100
AcDbEntity
8
Geo
100
AcDbLine
10
-80.0771147276422
20
3.85521666840476
30
0.000000000000000
11
-79.9771147276422
21
3.85693608927357
31
0.000000000000000
  0
LINE
  5
F102BA
330
F102BB
100
AcDbEntity
8
Geo
100
AcDbLine
10
-79.9771147276422
20
3.85693608927357
30
0.000000000000000
11
-79.8771147276422
21
3.85781320416588
31
0.000000000000000
  0
LINE
  5
F102BC
330
F102BD
100
AcDbEntity
8
Geo
100
AcDbLine
10
-79.8771147276422
20
3.85781320416588
30
0.000000000000000
11
-79.7771147276422
21
3.85784459006374
31
0.000000000000000
  0
LINE
  5
F102BE
330
F102BF
100
AcDbEntity
8
Geo
100
AcDbLine
10
-79.7771147276422
20
3.85784459006374
30
0.000000000000000
11
-79.6771147276422
21
3.85702690399711
31
0.000000000000000
  0
LINE
  5
F102C0
330
F102C1
100
AcDbEntity
8
Geo
100
AcDbLine
10
-79.6771147276422
20
3.85702690399711
30
0.000000000000000
11
-79.5771147276422
21
3.85535688339197
31
0.000000000000000
  0
LINE
  5
F102C2
330
F102C3
100
AcDbEntity
8
Geo
100
AcDbLine
10
-79.5771147276422
20
3.85535688339197
30
0.000000000000000
11
-79.4771147276422
21
3.85283134641247
31
0.000000000000000
  0
LINE
  5
F102C4
330
F102C5
100
AcDbEntity
8
Geo
100
AcDbLine
10
-79.4771147276422
20
3.85283134641247
30
0.000000000000000
11
-79.3771147276422
21
3.84944719229681
31
0.000000000000000
  0
LINE
  5
F102C6
330
F102C7
100
AcDbEntity
8
Geo
100
AcDbLine
10
-79.3771147276422
20
3.84944719229681
30
0.000000000000000
11
-79.2771147276422
21
3.84520140168713
31
0.000000000000000
  0
LINE
  5
F102C8
330
F102C9
100
AcDbEntity
8
Geo
100
AcDbLine
10
-79.2771147276422
20
3.84520140168713
30
0.000000000000000
11
-79.1771147276422
21
3.84009103695322
31
0.000000000000000
  0
LINE
  5
F102CA
330
F102CB
100
AcDbEntity
8
Geo
100
AcDbLine
10
-79.1771147276422
20
3.84009103695322
30
0.000000000000000
11
-79.0771147276422
21
3.83411324250999
31
0.000000000000000
  0
LINE
  5
F102CC
330
F102CD
100
AcDbEntity
8
Geo
100
AcDbLine
10
-79.0771147276422
20
3.83411324250999
30
0.000000000000000
11
-78.9771147276422
21
3.82726524512883
31
0.000000000000000
  0
LINE
  5
F102CE
330
F102CF
100
AcDbEntity
8
Geo
100
AcDbLine
10
-78.9771147276422
20
3.82726524512883
30
0.000000000000000
11
-78.8771147276422
21
3.81954435424269
31
0.000000000000000
  0
LINE
  5
F102D0
330
F102D1
100
AcDbEntity
8
Geo
100
AcDbLine
10
-78.8771147276422
20
3.81954435424269
30
0.000000000000000
11
-78.7771147276422
21
3.81094796224492
31
0.000000000000000
  0
LINE
  5
F102D2
330
F102D3
100
AcDbEntity
8
Geo
100
AcDbLine
10
-78.7771147276422
20
3.81094796224492
30
0.000000000000000
11
-78.6771147276422
21
3.80147354478182
31
0.000000000000000
  0
LINE
  5
F102D4
330
F102D5
100
AcDbEntity
8
Geo
100
AcDbLine
10
-78.6771147276422
20
3.80147354478182
30
0.000000000000000
11
-78.5771147276422
21
3.79111866103897
31
0.000000000000000
  0
LINE
  5
F102D6
330
F102D7
100
AcDbEntity
8
Geo
100
AcDbLine
10
-78.5771147276422
20
3.79111866103897
30
0.000000000000000
11
-78.4771147276422
21
3.77988095402110
31
0.000000000000000
  0
LINE
  5
F102D8
330
F102D9
100
AcDbEntity
8
Geo
100
AcDbLine
10
-78.4771147276422
20
3.77988095402110
30
0.000000000000000
11
-78.3771147276422
21
3.76775815082578
31
0.000000000000000
  0
LINE
  5
F102DA
330
F102DB
100
AcDbEntity
8
Geo
100
AcDbLine
10
-78.3771147276422
20
3.76775815082578
30
0.000000000000000
11
-78.2771147276422
21
3.75474806291059
31
0.000000000000000
  0
LINE
  5
F102DC
330
F102DD
100
AcDbEntity
8
Geo
100
AcDbLine
10
-78.2771147276422
20
3.75474806291059
30
0.000000000000000
11
-78.1771147276422
21
3.74084858635403
31
0.000000000000000
  0
LINE
  5
F102DE
330
F102DF
100
AcDbEntity
8
Geo
100
AcDbLine
10
-78.1771147276422
20
3.74084858635403
30
0.000000000000000
11
-78.0771147276422
21
3.72605770210995
31
0.000000000000000
  0
LINE
  5
F102E0
330
F102E1
100
AcDbEntity
8
Geo
100
AcDbLine
10
-78.0771147276422
20
3.72605770210995
30
0.000000000000000
11
-77.9771147276422
21
3.71037347625556
31
0.000000000000000
  0
LINE
  5
F102E2
330
F102E3
100
AcDbEntity
8
Geo
100
AcDbLine
10
-77.9771147276422
20
3.71037347625556
30
0.000000000000000
11
-77.8771147276422
21
3.69379406023302
31
0.000000000000000
  0
LINE
  5
F102E4
330
F102E5
100
AcDbEntity
8
Geo
100
AcDbLine
10
-77.8771147276422
20
3.69379406023302
30
0.000000000000000
11
-77.7771147276422
21
3.67631769108454
31
0.000000000000000
  0
LINE
  5
F102E6
330
F102E7
100
AcDbEntity
8
Geo
100
AcDbLine
10
-77.7771147276422
20
3.67631769108454
30
0.000000000000000
11
-77.6771147276422
21
3.65794269168099
31
0.000000000000000
  0
LINE
  5
F102E8
330
F102E9
100
AcDbEntity
8
Geo
100
AcDbLine
10
-77.6771147276422
20
3.65794269168099
30
0.000000000000000
11
-77.5771147276422
21
3.63866747094401
31
0.000000000000000
  0
LINE
  5
F102EA
330
F102EB
100
AcDbEntity
8
Geo
100
AcDbLine
10
-77.5771147276422
20
3.63866747094401
30
0.000000000000000
11
-77.4771147276422
21
3.61849052406157
31
0.000000000000000
  0
LINE
  5
F102EC
330
F102ED
100
AcDbEntity
8
Geo
100
AcDbLine
10
-77.4771147276422
20
3.61849052406157
30
0.000000000000000
11
-77.3771147276422
21
3.59741043269707
31
0.000000000000000
  0
LINE
  5
F102EE
330
F102EF
100
AcDbEntity
8
Geo
100
AcDbLine
10
-77.3771147276422
20
3.59741043269707
30
0.000000000000000
11
-77.2771147276422
21
3.57542586519172
31
0.000000000000000
  0
LINE
  5
F102F0
330
F102F1
100
AcDbEntity
8
Geo
100
AcDbLine
10
-77.2771147276422
20
3.57542586519172
30
0.000000000000000
11
-77.1771147276422
21
3.55253557676054
31
0.000000000000000
  0
LINE
  5
F102F2
330
F102F3
100
AcDbEntity
8
Geo
100
AcDbLine
10
-77.1771147276422
20
3.55253557676054
30
0.000000000000000
11
-77.0771147276422
21
3.52873840968158
31
0.000000000000000
  0
LINE
  5
F102F4
330
F102F5
100
AcDbEntity
8
Geo
100
AcDbLine
10
-77.0771147276422
20
3.52873840968158
30
0.000000000000000
11
-76.9771147276422
21
3.50403329347865
31
0.000000000000000
  0
LINE
  5
F102F6
330
F102F7
100
AcDbEntity
8
Geo
100
AcDbLine
10
-76.9771147276422
20
3.50403329347865
30
0.000000000000000
11
-76.8771147276422
21
3.47841924509737
31
0.000000000000000
  0
LINE
  5
F102F8
330
F102F9
100
AcDbEntity
8
Geo
100
AcDbLine
10
-76.8771147276422
20
3.47841924509737
30
0.000000000000000
11
-76.7771147276422
21
3.45189536907458
31
0.000000000000000
  0
LINE
  5
F102FA
330
F102FB
100
AcDbEntity
8
Geo
100
AcDbLine
10
-76.7771147276422
20
3.45189536907458
30
0.000000000000000
11
-76.6771147276422
21
3.42446085770113
31
0.000000000000000
  0
LINE
  5
F102FC
330
F102FD
100
AcDbEntity
8
Geo
100
AcDbLine
10
-76.6771147276422
20
3.42446085770113
30
0.000000000000000
11
-76.5771147276422
21
3.39611499117792
31
0.000000000000000
  0
LINE
  5
F102FE
330
F102FF
100
AcDbEntity
8
Geo
100
AcDbLine
10
-76.5771147276422
20
3.39611499117792
30
0.000000000000000
11
-76.4771147276422
21
3.36685713776533
31
0.000000000000000
  0
LINE
  5
F10300
330
F10301
100
AcDbEntity
8
Geo
100
AcDbLine
10
-76.4771147276422
20
3.36685713776533
30
0.000000000000000
11
-76.3771147276422
21
3.33668675392592
31
0.000000000000000
  0
LINE
  5
F10302
330
F10303
100
AcDbEntity
8
Geo
100
AcDbLine
10
-76.3771147276422
20
3.33668675392592
30
0.000000000000000
11
-76.2771147276422
21
3.30560338446038
31
0.000000000000000
  0
LINE
  5
F10304
330
F10305
100
AcDbEntity
8
Geo
100
AcDbLine
10
-76.2771147276422
20
3.30560338446038
30
0.000000000000000
11
-76.1771147276422
21
3.27360666263684
31
0.000000000000000
  0
LINE
  5
F10306
330
F10307
100
AcDbEntity
8
Geo
100
AcDbLine
10
-76.1771147276422
20
3.27360666263684
30
0.000000000000000
11
-76.0771147276422
21
3.24069631031335
31
0.000000000000000
  0
LINE
  5
F10308
330
F10309
100
AcDbEntity
8
Geo
100
AcDbLine
10
-76.0771147276422
20
3.24069631031335
30
0.000000000000000
11
-75.9771147276422
21
3.20687213805367
31
0.000000000000000
  0
LINE
  5
F1030A
330
F1030B
100
AcDbEntity
8
Geo
100
AcDbLine
10
-75.9771147276422
20
3.20687213805367
30
0.000000000000000
11
-75.8771147276422
21
3.17213404523625
31
0.000000000000000
  0
LINE
  5
F1030C
330
F1030D
100
AcDbEntity
8
Geo
100
AcDbLine
10
-75.8771147276422
20
3.17213404523625
30
0.000000000000000
11
-75.7771147276422
21
3.13648202015650
31
0.000000000000000
  0
LINE
  5
F1030E
330
F1030F
100
AcDbEntity
8
Geo
100
AcDbLine
10
-75.7771147276422
20
3.13648202015650
30
0.000000000000000
11
-75.6771147276422
21
3.09991614012222
31
0.000000000000000
  0
LINE
  5
F10310
330
F10311
100
AcDbEntity
8
Geo
100
AcDbLine
10
-75.6771147276422
20
3.09991614012222
30
0.000000000000000
11
-75.5771147276422
21
3.06243657154226
31
0.000000000000000
  0
LINE
  5
F10312
330
F10313
100
AcDbEntity
8
Geo
100
AcDbLine
10
-75.5771147276422
20
3.06243657154226
30
0.000000000000000
11
-75.4771147276422
21
3.02404357000838
31
0.000000000000000
  0
LINE
  5
F10314
330
F10315
100
AcDbEntity
8
Geo
100
AcDbLine
10
-75.4771147276422
20
3.02404357000838
30
0.000000000000000
11
-75.3771147276422
21
2.98473748037031
31
0.000000000000000
  0
LINE
  5
F10316
330
F10317
100
AcDbEntity
8
Geo
100
AcDbLine
10
-75.3771147276422
20
2.98473748037031
30
0.000000000000000
11
-75.2771147276422
21
2.94451873680393
31
0.000000000000000
  0
LINE
  5
F10318
330
F10319
100
AcDbEntity
8
Geo
100
AcDbLine
10
-75.2771147276422
20
2.94451873680393
30
0.000000000000000
11
-75.1771147276422
21
2.89707592280038
31
0.000000000000000
  0
LINE
  5
F1031A
330
F1031B
100
AcDbEntity
8
Geo
100
AcDbLine
10
-75.1771147276422
20
2.89707592280038
30
0.000000000000000
11
-75.0771147276422
21
2.84113418190495
31
0.000000000000000
  0
LINE
  5
F1031C
330
F1031D
100
AcDbEntity
8
Geo
100
AcDbLine
10
-75.0771147276422
20
2.84113418190495
30
0.000000000000000
11
-74.9771147276422
21
2.77549531803254
31
0.000000000000000
  0
LINE
  5
F1031E
330
F1031F
100
AcDbEntity
8
Geo
100
AcDbLine
10
-74.9771147276422
20
2.77549531803254
30
0.000000000000000
11
-74.8771147276422
21
2.70521634765657
31
0.000000000000000
  0
LINE
  5
F10320
330
F10321
100
AcDbEntity
8
Geo
100
AcDbLine
10
-74.8771147276422
20
2.70521634765657
30
0.000000000000000
11
-74.7771147276422
21
2.63027406288512
31
0.000000000000000
  0
LINE
  5
F10322
330
F10323
100
AcDbEntity
8
Geo
100
AcDbLine
10
-74.7771147276422
20
2.63027406288512
30
0.000000000000000
11
-74.6771147276422
21
2.55064580086958
31
0.000000000000000
  0
LINE
  5
F10324
330
F10325
100
AcDbEntity
8
Geo
100
AcDbLine
10
-74.6771147276422
20
2.55064580086958
30
0.000000000000000
11
-74.5771147276422
21
2.46630982823768
31
0.000000000000000
  0
LINE
  5
F10326
330
F10327
100
AcDbEntity
8
Geo
100
AcDbLine
10
-74.5771147276422
20
2.46630982823768
30
0.000000000000000
11
-74.4771147276422
21
2.37724575008082
31
0.000000000000000
  0
LINE
  5
F10328
330
F10329
100
AcDbEntity
8
Geo
100
AcDbLine
10
-74.4771147276422
20
2.37724575008082
30
0.000000000000000
11
-74.3771147276422
21
2.28343494355233
31
0.000000000000000
  0
LINE
  5
F1032A
330
F1032B
100
AcDbEntity
8
Geo
100
AcDbLine
10
-74.3771147276422
20
2.28343494355233
30
0.000000000000000
11
-74.2771147276422
21
2.18486101608199
31
0.000000000000000
  0
LINE
  5
F1032C
330
F1032D
100
AcDbEntity
8
Geo
100
AcDbLine
10
-74.2771147276422
20
2.18486101608199
30
0.000000000000000
11
-74.1771147276422
21
2.08151028815108
31
0.000000000000000
  0
LINE
  5
F1032E
330
F1032F
100
AcDbEntity
8
Geo
100
AcDbLine
10
-74.1771147276422
20
2.08151028815108
30
0.000000000000000
11
-74.0771147276422
21
1.97337230050137
31
0.000000000000000
  0
LINE
  5
F10330
330
F10331
100
AcDbEntity
8
Geo
100
AcDbLine
10
-74.0771147276422
20
1.97337230050137
30
0.000000000000000
11
-73.9771147276422
21
1.86044034557082
31
0.000000000000000
  0
LINE
  5
F10332
330
F10333
100
AcDbEntity
8
Geo
100
AcDbLine
10
-73.9771147276422
20
1.86044034557082
30
0.000000000000000
11
-73.8771147276422
21
1.74271202285681
31
0.000000000000000
  0
LINE
  5
F10334
330
F10335
100
AcDbEntity
8
Geo
100
AcDbLine
10
-73.8771147276422
20
1.74271202285681
30
0.000000000000000
11
-73.7771147276422
21
1.62018981780484
31
0.000000000000000
  0
LINE
  5
F10336
330
F10337
100
AcDbEntity
8
Geo
100
AcDbLine
10
-73.7771147276422
20
1.62018981780484
30
0.000000000000000
11
-73.6771147276422
21
1.49288170370626
31
0.000000000000000
  0
LINE
  5
F10338
330
F10339
100
AcDbEntity
8
Geo
100
AcDbLine
10
-73.6771147276422
20
1.49288170370626
30
0.000000000000000
11
-73.5771147276422
21
1.36080176596170
31
0.000000000000000
  0
LINE
  5
F1033A
330
F1033B
100
AcDbEntity
8
Geo
100
AcDbLine
10
-73.5771147276422
20
1.36080176596170
30
0.000000000000000
11
-73.4771147276422
21
1.22397084792816
31
0.000000000000000
  0
LINE
  5
F1033C
330
F1033D
100
AcDbEntity
8
Geo
100
AcDbLine
10
-73.4771147276422
20
1.22397084792816
30
0.000000000000000
11
-73.3771147276422
21
1.08241721741551
31
0.000000000000000
  0
LINE
  5
F1033E
330
F1033F
100
AcDbEntity
8
Geo
100
AcDbLine
10
-73.3771147276422
20
1.08241721741551
30
0.000000000000000
11
-73.2771147276422
21
0.936177252733746
31
0.000000000000000
  0
LINE
  5
F10340
330
F10341
100
AcDbEntity
8
Geo
100
AcDbLine
10
-73.2771147276422
20
0.936177252733746
30
0.000000000000000
11
-73.1771147276422
21
0.785296147013842
31
0.000000000000000
  0
LINE
  5
F10342
330
F10343
100
AcDbEntity
8
Geo
100
AcDbLine
10
-73.1771147276422
20
0.785296147013842
30
0.000000000000000
11
-73.0771147276422
21
0.629828629333749
31
0.000000000000000
  0
LINE
  5
F10344
330
F10345
100
AcDbEntity
8
Geo
100
AcDbLine
10
-73.0771147276422
20
0.629828629333749
30
0.000000000000000
11
-72.9771147276422
21
0.469839700975829
31
0.000000000000000
  0
LINE
  5
F10346
330
F10347
100
AcDbEntity
8
Geo
100
AcDbLine
10
-72.9771147276422
20
0.469839700975829
30
0.000000000000000
11
-72.8771147276422
21
0.305405384923527
31
0.000000000000000
  0
LINE
  5
F10348
330
F10349
100
AcDbEntity
8
Geo
100
AcDbLine
10
-72.8771147276422
20
0.305405384923527
30
0.000000000000000
11
-72.7771147276422
21
0.136613486472900
31
0.000000000000000
  0
LINE
  5
F1034A
330
F1034B
100
AcDbEntity
8
Geo
100
AcDbLine
10
-72.7771147276422
20
0.136613486472900
30
0.000000000000000
11
-72.6771147276422
21
-0.0364356374106134
31
0.000000000000000
  0
LINE
  5
F1034C
330
F1034D
100
AcDbEntity
8
Geo
100
AcDbLine
10
-72.6771147276422
20
-0.0364356374106134
30
0.000000000000000
11
-72.5771147276422
21
-0.213628302618150
31
0.000000000000000
  0
LINE
  5
F1034E
330
F1034F
100
AcDbEntity
8
Geo
100
AcDbLine
10
-72.5771147276422
20
-0.213628302618150
30
0.000000000000000
11
-72.4771147276422
21
-0.394836719204888
31
0.000000000000000
  0
LINE
  5
F10350
330
F10351
100
AcDbEntity
8
Geo
100
AcDbLine
10
-72.4771147276422
20
-0.394836719204888
30
0.000000000000000
11
-72.3771147276422
21
-0.579918212660627
31
0.000000000000000
  0
LINE
  5
F10352
330
F10353
100
AcDbEntity
8
Geo
100
AcDbLine
10
-72.3771147276422
20
-0.579918212660627
30
0.000000000000000
11
-72.2771147276422
21
-0.768714448619169
31
0.000000000000000
  0
LINE
  5
F10354
330
F10355
100
AcDbEntity
8
Geo
100
AcDbLine
10
-72.2771147276422
20
-0.768714448619169
30
0.000000000000000
11
-72.1771147276422
21
-0.961050664786699
31
0.000000000000000
  0
LINE
  5
F10356
330
F10357
100
AcDbEntity
8
Geo
100
AcDbLine
10
-72.1771147276422
20
-0.961050664786699
30
0.000000000000000
11
-72.0771147276422
21
-1.15673491418322
31
0.000000000000000
  0
LINE
  5
F10358
330
F10359
100
AcDbEntity
8
Geo
100
AcDbLine
10
-72.0771147276422
20
-1.15673491418322
30
0.000000000000000
11
-71.9771147276422
21
-1.35555732411310
31
0.000000000000000
  0
LINE
  5
F1035A
330
F1035B
100
AcDbEntity
8
Geo
100
AcDbLine
10
-71.9771147276422
20
-1.35555732411310
30
0.000000000000000
11
-71.8771147276422
21
-1.55728937560964
31
0.000000000000000
  0
LINE
  5
F1035C
330
F1035D
100
AcDbEntity
8
Geo
100
AcDbLine
10
-71.8771147276422
20
-1.55728937560964
30
0.000000000000000
11
-71.7771147276422
21
-1.76168320843220
31
0.000000000000000
  0
LINE
  5
F1035E
330
F1035F
100
AcDbEntity
8
Geo
100
AcDbLine
10
-71.7771147276422
20
-1.76168320843220
30
0.000000000000000
11
-71.6771147276422
21
-1.96847095703186
31
0.000000000000000
  0
LINE
  5
F10360
330
F10361
100
AcDbEntity
8
Geo
100
AcDbLine
10
-71.6771147276422
20
-1.96847095703186
30
0.000000000000000
11
-71.5771147276422
21
-2.17736412323950
31
0.000000000000000
  0
LINE
  5
F10362
330
F10363
100
AcDbEntity
8
Geo
100
AcDbLine
10
-71.5771147276422
20
-2.17736412323950
30
0.000000000000000
11
-71.4771147276422
21
-2.38805299176781
31
0.000000000000000
  0
LINE
  5
F10364
330
F10365
100
AcDbEntity
8
Geo
100
AcDbLine
10
-71.4771147276422
20
-2.38805299176781
30
0.000000000000000
11
-71.3771147276422
21
-2.60020609495167
31
0.000000000000000
  0
LINE
  5
F10366
330
F10367
100
AcDbEntity
8
Geo
100
AcDbLine
10
-71.3771147276422
20
-2.60020609495167
30
0.000000000000000
11
-71.2771147276422
21
-2.81346973347875
31
0.000000000000000
  0
LINE
  5
F10368
330
F10369
100
AcDbEntity
8
Geo
100
AcDbLine
10
-71.2771147276422
20
-2.81346973347875
30
0.000000000000000
11
-71.1771147276422
21
-3.02746756017916
31
0.000000000000000
  0
LINE
  5
F1036A
330
F1036B
100
AcDbEntity
8
Geo
100
AcDbLine
10
-71.1771147276422
20
-3.02746756017916
30
0.000000000000000
11
-71.0771147276422
21
-3.24180023424739
31
0.000000000000000
  0
LINE
  5
F1036C
330
F1036D
100
AcDbEntity
8
Geo
100
AcDbLine
10
-71.0771147276422
20
-3.24180023424739
30
0.000000000000000
11
-70.9771147276422
21
-3.45604515355753
31
0.000000000000000
  0
LINE
  5
F1036E
330
F1036F
100
AcDbEntity
8
Geo
100
AcDbLine
10
-70.9771147276422
20
-3.45604515355753
30
0.000000000000000
11
-70.8771147276422
21
-3.66975627299968
31
0.000000000000000
  0
LINE
  5
F10370
330
F10371
100
AcDbEntity
8
Geo
100
AcDbLine
10
-70.8771147276422
20
-3.66975627299968
30
0.000000000000000
11
-70.7771147276422
21
-3.88246401700796
31
0.000000000000000
  0
LINE
  5
F10372
330
F10373
100
AcDbEntity
8
Geo
100
AcDbLine
10
-70.7771147276422
20
-3.88246401700796
30
0.000000000000000
11
-70.6771147276422
21
-4.09367529466365
31
0.000000000000000
  0
LINE
  5
F10374
330
F10375
100
AcDbEntity
8
Geo
100
AcDbLine
10
-70.6771147276422
20
-4.09367529466365
30
0.000000000000000
11
-70.5771147276422
21
-4.30287362593592
31
0.000000000000000
  0
LINE
  5
F10376
330
F10377
100
AcDbEntity
8
Geo
100
AcDbLine
10
-70.5771147276422
20
-4.30287362593592
30
0.000000000000000
11
-70.4771147276422
21
-4.50951938776321
31
0.000000000000000
  0
LINE
  5
F10378
330
F10379
100
AcDbEntity
8
Geo
100
AcDbLine
10
-70.4771147276422
20
-4.50951938776321
30
0.000000000000000
11
-70.3771147276422
21
-4.71305018877378
31
0.000000000000000
  0
LINE
  5
F1037A
330
F1037B
100
AcDbEntity
8
Geo
100
AcDbLine
10
-70.3771147276422
20
-4.71305018877378
30
0.000000000000000
11
-70.2771147276422
21
-4.91288138149068
31
0.000000000000000
  0
LINE
  5
F1037C
330
F1037D
100
AcDbEntity
8
Geo
100
AcDbLine
10
-70.2771147276422
20
-4.91288138149068
30
0.000000000000000
11
-70.1771147276422
21
-5.10840672085704
31
0.000000000000000
  0
LINE
  5
F1037E
330
F1037F
100
AcDbEntity
8
Geo
100
AcDbLine
10
-70.1771147276422
20
-5.10840672085704
30
0.000000000000000
11
-70.0771147276422
21
-5.29899917784732
31
0.000000000000000
  0
LINE
  5
F10380
330
F10381
100
AcDbEntity
8
Geo
100
AcDbLine
10
-89.0771147276422
20
0.890796820381283
30
0.000000000000000
11
-88.9771147276422
21
0.890380157331505
31
0.000000000000000
  0
LINE
  5
F10382
330
F10383
100
AcDbEntity
8
Geo
100
AcDbLine
10
-88.9771147276422
20
0.890380157331505
30
0.000000000000000
11
-88.8771147276422
21
0.889130211584383
31
0.000000000000000
  0
LINE
  5
F10384
330
F10385
100
AcDbEntity
8
Geo
100
AcDbLine
10
-88.8771147276422
20
0.889130211584383
30
0.000000000000000
11
-88.7771147276422
21
0.887047113343166
31
0.000000000000000
  0
LINE
  5
F10386
330
F10387
100
AcDbEntity
8
Geo
100
AcDbLine
10
-88.7771147276422
20
0.887047113343166
30
0.000000000000000
11
-88.6771147276422
21
0.884131079601962
31
0.000000000000000
  0
LINE
  5
F10388
330
F10389
100
AcDbEntity
8
Geo
100
AcDbLine
10
-88.6771147276422
20
0.884131079601962
30
0.000000000000000
11
-88.5771147276422
21
0.880382414128790
31
0.000000000000000
  0
LINE
  5
F1038A
330
F1038B
100
AcDbEntity
8
Geo
100
AcDbLine
10
-88.5771147276422
20
0.880382414128790
30
0.000000000000000
11
-88.4771147276422
21
0.875801507441848
31
0.000000000000000
  0
LINE
  5
F1038C
330
F1038D
100
AcDbEntity
8
Geo
100
AcDbLine
10
-88.4771147276422
20
0.875801507441848
30
0.000000000000000
11
-88.3771147276422
21
0.870388836778999
31
0.000000000000000
  0
LINE
  5
F1038E
330
F1038F
100
AcDbEntity
8
Geo
100
AcDbLine
10
-88.3771147276422
20
0.870388836778999
30
0.000000000000000
11
-88.2771147276422
21
0.864144966060490
31
0.000000000000000
  0
LINE
  5
F10390
330
F10391
100
AcDbEntity
8
Geo
100
AcDbLine
10
-88.2771147276422
20
0.864144966060490
30
0.000000000000000
11
-88.1771147276422
21
0.857070545844888
31
0.000000000000000
  0
LINE
  5
F10392
330
F10393
100
AcDbEntity
8
Geo
100
AcDbLine
10
-88.1771147276422
20
0.857070545844888
30
0.000000000000000
11
-88.0771147276422
21
0.849166313278258
31
0.000000000000000
  0
LINE
  5
F10394
330
F10395
100
AcDbEntity
8
Geo
100
AcDbLine
10
-88.0771147276422
20
0.849166313278258
30
0.000000000000000
11
-87.9771147276422
21
0.840433092036561
31
0.000000000000000
  0
LINE
  5
F10396
330
F10397
100
AcDbEntity
8
Geo
100
AcDbLine
10
-87.9771147276422
20
0.840433092036561
30
0.000000000000000
11
-87.8771147276422
21
0.830871792261302
31
0.000000000000000
  0
LINE
  5
F10398
330
F10399
100
AcDbEntity
8
Geo
100
AcDbLine
10
-87.8771147276422
20
0.830871792261302
30
0.000000000000000
11
-87.7771147276422
21
0.820483410488409
31
0.000000000000000
  0
LINE
  5
F1039A
330
F1039B
100
AcDbEntity
8
Geo
100
AcDbLine
10
-87.7771147276422
20
0.820483410488409
30
0.000000000000000
11
-87.6771147276422
21
0.809269029570366
31
0.000000000000000
  0
LINE
  5
F1039C
330
F1039D
100
AcDbEntity
8
Geo
100
AcDbLine
10
-87.6771147276422
20
0.809269029570366
30
0.000000000000000
11
-87.5771147276422
21
0.797229818591599
31
0.000000000000000
  0
LINE
  5
F1039E
330
F1039F
100
AcDbEntity
8
Geo
100
AcDbLine
10
-87.5771147276422
20
0.797229818591599
30
0.000000000000000
11
-87.4771147276422
21
0.784367032777116
31
0.000000000000000
  0
LINE
  5
F103A0
330
F103A1
100
AcDbEntity
8
Geo
100
AcDbLine
10
-87.4771147276422
20
0.784367032777116
30
0.000000000000000
11
-87.3771147276422
21
0.770682013394408
31
0.000000000000000
  0
LINE
  5
F103A2
330
F103A3
100
AcDbEntity
8
Geo
100
AcDbLine
10
-87.3771147276422
20
0.770682013394408
30
0.000000000000000
11
-87.2771147276422
21
0.756176187648637
31
0.000000000000000
  0
LINE
  5
F103A4
330
F103A5
100
AcDbEntity
8
Geo
100
AcDbLine
10
-87.2771147276422
20
0.756176187648637
30
0.000000000000000
11
-87.1771147276422
21
0.740851068571082
31
0.000000000000000
  0
LINE
  5
F103A6
330
F103A7
100
AcDbEntity
8
Geo
100
AcDbLine
10
-87.1771147276422
20
0.740851068571082
30
0.000000000000000
11
-87.0771147276422
21
0.724708254900887
31
0.000000000000000
  0
LINE
  5
F103A8
330
F103A9
100
AcDbEntity
8
Geo
100
AcDbLine
10
-87.0771147276422
20
0.724708254900887
30
0.000000000000000
11
-86.9771147276422
21
0.707749430960097
31
0.000000000000000
  0
LINE
  5
F103AA
330
F103AB
100
AcDbEntity
8
Geo
100
AcDbLine
10
-86.9771147276422
20
0.707749430960097
30
0.000000000000000
11
-86.8771147276422
21
0.689976366521997
31
0.000000000000000
  0
LINE
  5
F103AC
330
F103AD
100
AcDbEntity
8
Geo
100
AcDbLine
10
-86.8771147276422
20
0.689976366521997
30
0.000000000000000
11
-86.7771147276422
21
0.671390916672767
31
0.000000000000000
  0
LINE
  5
F103AE
330
F103AF
100
AcDbEntity
8
Geo
100
AcDbLine
10
-86.7771147276422
20
0.671390916672767
30
0.000000000000000
11
-86.6771147276422
21
0.651995021666456
31
0.000000000000000
  0
LINE
  5
F103B0
330
F103B1
100
AcDbEntity
8
Geo
100
AcDbLine
10
-86.6771147276422
20
0.651995021666456
30
0.000000000000000
11
-86.5771147276422
21
0.631790706773287
31
0.000000000000000
  0
LINE
  5
F103B2
330
F103B3
100
AcDbEntity
8
Geo
100
AcDbLine
10
-86.5771147276422
20
0.631790706773287
30
0.000000000000000
11
-86.4771147276422
21
0.610780082121309
31
0.000000000000000
  0
LINE
  5
F103B4
330
F103B5
100
AcDbEntity
8
Geo
100
AcDbLine
10
-86.4771147276422
20
0.610780082121309
30
0.000000000000000
11
-86.3771147276422
21
0.588965342531400
31
0.000000000000000
  0
LINE
  5
F103B6
330
F103B7
100
AcDbEntity
8
Geo
100
AcDbLine
10
-86.3771147276422
20
0.588965342531400
30
0.000000000000000
11
-86.2771147276422
21
0.566348767345633
31
0.000000000000000
  0
LINE
  5
F103B8
330
F103B9
100
AcDbEntity
8
Geo
100
AcDbLine
10
-86.2771147276422
20
0.566348767345633
30
0.000000000000000
11
-86.1771147276422
21
0.542932720249024
31
0.000000000000000
  0
LINE
  5
F103BA
330
F103BB
100
AcDbEntity
8
Geo
100
AcDbLine
10
-86.1771147276422
20
0.542932720249024
30
0.000000000000000
11
-86.0771147276422
21
0.518719649084665
31
0.000000000000000
  0
LINE
  5
F103BC
330
F103BD
100
AcDbEntity
8
Geo
100
AcDbLine
10
-86.0771147276422
20
0.518719649084665
30
0.000000000000000
11
-85.9771147276422
21
0.493712085662262
31
0.000000000000000
  0
LINE
  5
F103BE
330
F103BF
100
AcDbEntity
8
Geo
100
AcDbLine
10
-85.9771147276422
20
0.493712085662262
30
0.000000000000000
11
-85.8771147276422
21
0.467912645560087
31
0.000000000000000
  0
LINE
  5
F103C0
330
F103C1
100
AcDbEntity
8
Geo
100
AcDbLine
10
-85.8771147276422
20
0.467912645560087
30
0.000000000000000
11
-85.7771147276422
21
0.441324027920361
31
0.000000000000000
  0
LINE
  5
F103C2
330
F103C3
100
AcDbEntity
8
Geo
100
AcDbLine
10
-85.7771147276422
20
0.441324027920361
30
0.000000000000000
11
-85.6771147276422
21
0.413949015238077
31
0.000000000000000
  0
LINE
  5
F103C4
330
F103C5
100
AcDbEntity
8
Geo
100
AcDbLine
10
-85.6771147276422
20
0.413949015238077
30
0.000000000000000
11
-85.5771147276422
21
0.385790473143285
31
0.000000000000000
  0
LINE
  5
F103C6
330
F103C7
100
AcDbEntity
8
Geo
100
AcDbLine
10
-85.5771147276422
20
0.385790473143285
30
0.000000000000000
11
-85.4771147276422
21
0.356851350176852
31
0.000000000000000
  0
LINE
  5
F103C8
330
F103C9
100
AcDbEntity
8
Geo
100
AcDbLine
10
-85.4771147276422
20
0.356851350176852
30
0.000000000000000
11
-85.3771147276422
21
0.327134677559700
31
0.000000000000000
  0
LINE
  5
F103CA
330
F103CB
100
AcDbEntity
8
Geo
100
AcDbLine
10
-85.3771147276422
20
0.327134677559700
30
0.000000000000000
11
-85.2771147276422
21
0.296643568955568
31
0.000000000000000
  0
LINE
  5
F103CC
330
F103CD
100
AcDbEntity
8
Geo
100
AcDbLine
10
-85.2771147276422
20
0.296643568955568
30
0.000000000000000
11
-85.1771147276422
21
0.265381220227274
31
0.000000000000000
  0
LINE
  5
F103CE
330
F103CF
100
AcDbEntity
8
Geo
100
AcDbLine
10
-85.1771147276422
20
0.265381220227274
30
0.000000000000000
11
-85.0771147276422
21
0.233350909186530
31
0.000000000000000
  0
LINE
  5
F103D0
330
F103D1
100
AcDbEntity
8
Geo
100
AcDbLine
10
-85.0771147276422
20
0.233350909186530
30
0.000000000000000
11
-84.9771147276422
21
0.200555995337312
31
0.000000000000000
  0
LINE
  5
F103D2
330
F103D3
100
AcDbEntity
8
Geo
100
AcDbLine
10
-84.9771147276422
20
0.200555995337312
30
0.000000000000000
11
-84.8771147276422
21
0.166999919612794
31
0.000000000000000
  0
LINE
  5
F103D4
330
F103D5
100
AcDbEntity
8
Geo
100
AcDbLine
10
-84.8771147276422
20
0.166999919612794
30
0.000000000000000
11
-84.7771147276422
21
0.132686204105884
31
0.000000000000000
  0
LINE
  5
F103D6
330
F103D7
100
AcDbEntity
8
Geo
100
AcDbLine
10
-84.7771147276422
20
0.132686204105884
30
0.000000000000000
11
-84.6771147276422
21
0.0976184517933660
31
0.000000000000000
  0
LINE
  5
F103D8
330
F103D9
100
AcDbEntity
8
Geo
100
AcDbLine
10
-84.6771147276422
20
0.0976184517933660
30
0.000000000000000
11
-84.5771147276422
21
0.0618003462536719
31
0.000000000000000
  0
LINE
  5
F103DA
330
F103DB
100
AcDbEntity
8
Geo
100
AcDbLine
10
-84.5771147276422
20
0.0618003462536719
30
0.000000000000000
11
-84.4771147276422
21
0.0252356513783046
31
0.000000000000000
  0
LINE
  5
F103DC
330
F103DD
100
AcDbEntity
8
Geo
100
AcDbLine
10
-84.4771147276422
20
0.0252356513783046
30
0.000000000000000
11
-84.3771147276422
21
-0.0120717889230704
31
0.000000000000000
  0
LINE
  5
F103DE
330
F103DF
100
AcDbEntity
8
Geo
100
AcDbLine
10
-84.3771147276422
20
-0.0120717889230704
30
0.000000000000000
11
-84.2771147276422
21
-0.0501180510238451
31
0.000000000000000
  0
LINE
  5
F103E0
330
F103E1
100
AcDbEntity
8
Geo
100
AcDbLine
10
-84.2771147276422
20
-0.0501180510238451
30
0.000000000000000
11
-84.1771147276422
21
-0.0888991318879724
31
0.000000000000000
  0
LINE
  5
F103E2
330
F103E3
100
AcDbEntity
8
Geo
100
AcDbLine
10
-84.1771147276422
20
-0.0888991318879724
30
0.000000000000000
11
-84.0771147276422
21
-0.128410949383745
31
0.000000000000000
  0
LINE
  5
F103E4
330
F103E5
100
AcDbEntity
8
Geo
100
AcDbLine
10
-84.0771147276422
20
-0.128410949383745
30
0.000000000000000
11
-83.9771147276422
21
-0.168649342603815
31
0.000000000000000
  0
LINE
  5
F103E6
330
F103E7
100
AcDbEntity
8
Geo
100
AcDbLine
10
-83.9771147276422
20
-0.168649342603815
30
0.000000000000000
11
-83.8771147276422
21
-0.209610072191436
31
0.000000000000000
  0
LINE
  5
F103E8
330
F103E9
100
AcDbEntity
8
Geo
100
AcDbLine
10
-83.8771147276422
20
-0.209610072191436
30
0.000000000000000
11
-83.7771147276422
21
-0.251288820672912
31
0.000000000000000
  0
LINE
  5
F103EA
330
F103EB
100
AcDbEntity
8
Geo
100
AcDbLine
10
-83.7771147276422
20
-0.251288820672912
30
0.000000000000000
11
-83.6771147276422
21
-0.293681192796217
31
0.000000000000000
  0
LINE
  5
F103EC
330
F103ED
100
AcDbEntity
8
Geo
100
AcDbLine
10
-83.6771147276422
20
-0.293681192796217
30
0.000000000000000
11
-83.5771147276422
21
-0.336782715875772
31
0.000000000000000
  0
LINE
  5
F103EE
330
F103EF
100
AcDbEntity
8
Geo
100
AcDbLine
10
-83.5771147276422
20
-0.336782715875772
30
0.000000000000000
11
-83.4771147276422
21
-0.380588840143354
31
0.000000000000000
  0
LINE
  5
F103F0
330
F103F1
100
AcDbEntity
8
Geo
100
AcDbLine
10
-83.4771147276422
20
-0.380588840143354
30
0.000000000000000
11
-83.3771147276422
21
-0.425094939105108
31
0.000000000000000
  0
LINE
  5
F103F2
330
F103F3
100
AcDbEntity
8
Geo
100
AcDbLine
10
-83.3771147276422
20
-0.425094939105108
30
0.000000000000000
11
-83.2771147276422
21
-0.470296309904640
31
0.000000000000000
  0
LINE
  5
F103F4
330
F103F5
100
AcDbEntity
8
Geo
100
AcDbLine
10
-83.2771147276422
20
-0.470296309904640
30
0.000000000000000
11
-83.1771147276422
21
-0.516188173692166
31
0.000000000000000
  0
LINE
  5
F103F6
330
F103F7
100
AcDbEntity
8
Geo
100
AcDbLine
10
-83.1771147276422
20
-0.516188173692166
30
0.000000000000000
11
-83.0771147276422
21
-0.562765675999694
31
0.000000000000000
  0
LINE
  5
F103F8
330
F103F9
100
AcDbEntity
8
Geo
100
AcDbLine
10
-83.0771147276422
20
-0.562765675999694
30
0.000000000000000
11
-82.9771147276422
21
-0.610023887122202
31
0.000000000000000
  0
LINE
  5
F103FA
330
F103FB
100
AcDbEntity
8
Geo
100
AcDbLine
10
-82.9771147276422
20
-0.610023887122202
30
0.000000000000000
11
-82.8771147276422
21
-0.657957802504803
31
0.000000000000000
  0
LINE
  5
F103FC
330
F103FD
100
AcDbEntity
8
Geo
100
AcDbLine
10
-82.8771147276422
20
-0.657957802504803
30
0.000000000000000
11
-82.7771147276422
21
-0.706562343135854
31
0.000000000000000
  0
LINE
  5
F103FE
330
F103FF
100
AcDbEntity
8
Geo
100
AcDbLine
10
-82.7771147276422
20
-0.706562343135854
30
0.000000000000000
11
-82.6771147276422
21
-0.755832355945987
31
0.000000000000000
  0
LINE
  5
F10400
330
F10401
100
AcDbEntity
8
Geo
100
AcDbLine
10
-82.6771147276422
20
-0.755832355945987
30
0.000000000000000
11
-82.5771147276422
21
-0.805762614213044
31
0.000000000000000
  0
LINE
  5
F10402
330
F10403
100
AcDbEntity
8
Geo
100
AcDbLine
10
-82.5771147276422
20
-0.805762614213044
30
0.000000000000000
11
-82.4771147276422
21
-0.856347817972863
31
0.000000000000000
  0
LINE
  5
F10404
330
F10405
100
AcDbEntity
8
Geo
100
AcDbLine
10
-82.4771147276422
20
-0.856347817972863
30
0.000000000000000
11
-82.3771147276422
21
-0.907582594435921
31
0.000000000000000
  0
LINE
  5
F10406
330
F10407
100
AcDbEntity
8
Geo
100
AcDbLine
10
-82.3771147276422
20
-0.907582594435921
30
0.000000000000000
11
-82.2771147276422
21
-0.959461498409772
31
0.000000000000000
  0
LINE
  5
F10408
330
F10409
100
AcDbEntity
8
Geo
100
AcDbLine
10
-82.2771147276422
20
-0.959461498409772
30
0.000000000000000
11
-82.1771147276422
21
-1.01197901272727
31
0.000000000000000
  0
LINE
  5
F1040A
330
F1040B
100
AcDbEntity
8
Geo
100
AcDbLine
10
-82.1771147276422
20
-1.01197901272727
30
0.000000000000000
11
-82.0771147276422
21
-1.06512954868055
31
0.000000000000000
  0
LINE
  5
F1040C
330
F1040D
100
AcDbEntity
8
Geo
100
AcDbLine
10
-82.0771147276422
20
-1.06512954868055
30
0.000000000000000
11
-81.9771147276422
21
-1.11890744646070
31
0.000000000000000
  0
LINE
  5
F1040E
330
F1040F
100
AcDbEntity
8
Geo
100
AcDbLine
10
-81.9771147276422
20
-1.11890744646070
30
0.000000000000000
11
-81.8771147276422
21
-1.17330697560318
31
0.000000000000000
  0
LINE
  5
F10410
330
F10411
100
AcDbEntity
8
Geo
100
AcDbLine
10
-81.8771147276422
20
-1.17330697560318
30
0.000000000000000
11
-81.7771147276422
21
-1.22832233543882
31
0.000000000000000
  0
LINE
  5
F10412
330
F10413
100
AcDbEntity
8
Geo
100
AcDbLine
10
-81.7771147276422
20
-1.22832233543882
30
0.000000000000000
11
-81.6771147276422
21
-1.28394765555052
31
0.000000000000000
  0
LINE
  5
F10414
330
F10415
100
AcDbEntity
8
Geo
100
AcDbLine
10
-81.6771147276422
20
-1.28394765555052
30
0.000000000000000
11
-81.5771147276422
21
-1.34017699623548
31
0.000000000000000
  0
LINE
  5
F10416
330
F10417
100
AcDbEntity
8
Geo
100
AcDbLine
10
-81.5771147276422
20
-1.34017699623548
30
0.000000000000000
11
-81.4771147276422
21
-1.39700434897306
31
0.000000000000000
  0
LINE
  5
F10418
330
F10419
100
AcDbEntity
8
Geo
100
AcDbLine
10
-81.4771147276422
20
-1.39700434897306
30
0.000000000000000
11
-81.3771147276422
21
-1.45442363689812
31
0.000000000000000
  0
LINE
  5
F1041A
330
F1041B
100
AcDbEntity
8
Geo
100
AcDbLine
10
-81.3771147276422
20
-1.45442363689812
30
0.000000000000000
11
-81.2771147276422
21
-1.51242871527985
31
0.000000000000000
  0
LINE
  5
F1041C
330
F1041D
100
AcDbEntity
8
Geo
100
AcDbLine
10
-81.2771147276422
20
-1.51242871527985
30
0.000000000000000
11
-81.1771147276422
21
-1.57101337200611
31
0.000000000000000
  0
LINE
  5
F1041E
330
F1041F
100
AcDbEntity
8
Geo
100
AcDbLine
10
-81.1771147276422
20
-1.57101337200611
30
0.000000000000000
11
-81.0771147276422
21
-1.63017132807318
31
0.000000000000000
  0
LINE
  5
F10420
330
F10421
100
AcDbEntity
8
Geo
100
AcDbLine
10
-81.0771147276422
20
-1.63017132807318
30
0.000000000000000
11
-80.9771147276422
21
-1.68989623808087
31
0.000000000000000
  0
LINE
  5
F10422
330
F10423
100
AcDbEntity
8
Geo
100
AcDbLine
10
-80.9771147276422
20
-1.68989623808087
30
0.000000000000000
11
-80.8771147276422
21
-1.75018169073306
31
0.000000000000000
  0
LINE
  5
F10424
330
F10425
100
AcDbEntity
8
Geo
100
AcDbLine
10
-80.8771147276422
20
-1.75018169073306
30
0.000000000000000
11
-80.7771147276422
21
-1.81102120934349
31
0.000000000000000
  0
LINE
  5
F10426
330
F10427
100
AcDbEntity
8
Geo
100
AcDbLine
10
-80.7771147276422
20
-1.81102120934349
30
0.000000000000000
11
-80.6771147276422
21
-1.87240825234690
31
0.000000000000000
  0
LINE
  5
F10428
330
F10429
100
AcDbEntity
8
Geo
100
AcDbLine
10
-80.6771147276422
20
-1.87240825234690
30
0.000000000000000
11
-80.5771147276422
21
-1.93433621381541
31
0.000000000000000
  0
LINE
  5
F1042A
330
F1042B
100
AcDbEntity
8
Geo
100
AcDbLine
10
-80.5771147276422
20
-1.93433621381541
30
0.000000000000000
11
-80.4771147276422
21
-1.99679842398009
31
0.000000000000000
  0
LINE
  5
F1042C
330
F1042D
100
AcDbEntity
8
Geo
100
AcDbLine
10
-80.4771147276422
20
-1.99679842398009
30
0.000000000000000
11
-80.3771147276422
21
-2.05978814975775
31
0.000000000000000
  0
LINE
  5
F1042E
330
F1042F
100
AcDbEntity
8
Geo
100
AcDbLine
10
-80.3771147276422
20
-2.05978814975775
30
0.000000000000000
11
-80.2771147276422
21
-2.12329859528287
31
0.000000000000000
  0
LINE
  5
F10430
330
F10431
100
AcDbEntity
8
Geo
100
AcDbLine
10
-80.2771147276422
20
-2.12329859528287
30
0.000000000000000
11
-80.1771147276422
21
-2.18732290244461
31
0.000000000000000
  0
LINE
  5
F10432
330
F10433
100
AcDbEntity
8
Geo
100
AcDbLine
10
-80.1771147276422
20
-2.18732290244461
30
0.000000000000000
11
-80.0771147276422
21
-2.25185415142892
31
0.000000000000000
  0
LINE
  5
F10434
330
F10435
100
AcDbEntity
8
Geo
100
AcDbLine
10
-80.0771147276422
20
-2.25185415142892
30
0.000000000000000
11
-79.9771147276422
21
-2.31688536126570
31
0.000000000000000
  0
LINE
  5
F10436
330
F10437
100
AcDbEntity
8
Geo
100
AcDbLine
10
-79.9771147276422
20
-2.31688536126570
30
0.000000000000000
11
-79.8771147276422
21
-2.38240949038087
31
0.000000000000000
  0
LINE
  5
F10438
330
F10439
100
AcDbEntity
8
Geo
100
AcDbLine
10
-79.8771147276422
20
-2.38240949038087
30
0.000000000000000
11
-79.7771147276422
21
-2.44841943715354
31
0.000000000000000
  0
LINE
  5
F1043A
330
F1043B
100
AcDbEntity
8
Geo
100
AcDbLine
10
-79.7771147276422
20
-2.44841943715354
30
0.000000000000000
11
-79.6771147276422
21
-2.51490804047794
31
0.000000000000000
  0
LINE
  5
F1043C
330
F1043D
100
AcDbEntity
8
Geo
100
AcDbLine
10
-79.6771147276422
20
-2.51490804047794
30
0.000000000000000
11
-79.5771147276422
21
-2.58186808033033
31
0.000000000000000
  0
LINE
  5
F1043E
330
F1043F
100
AcDbEntity
8
Geo
100
AcDbLine
10
-79.5771147276422
20
-2.58186808033033
30
0.000000000000000
11
-79.4771147276422
21
-2.64929227834075
31
0.000000000000000
  0
LINE
  5
F10440
330
F10441
100
AcDbEntity
8
Geo
100
AcDbLine
10
-79.4771147276422
20
-2.64929227834075
30
0.000000000000000
11
-79.3771147276422
21
-2.71717329836951
31
0.000000000000000
  0
LINE
  5
F10442
330
F10443
100
AcDbEntity
8
Geo
100
AcDbLine
10
-79.3771147276422
20
-2.71717329836951
30
0.000000000000000
11
-79.2771147276422
21
-2.78550374708845
31
0.000000000000000
  0
LINE
  5
F10444
330
F10445
100
AcDbEntity
8
Geo
100
AcDbLine
10
-79.2771147276422
20
-2.78550374708845
30
0.000000000000000
11
-79.1771147276422
21
-2.85427617456700
31
0.000000000000000
  0
LINE
  5
F10446
330
F10447
100
AcDbEntity
8
Geo
100
AcDbLine
10
-79.1771147276422
20
-2.85427617456700
30
0.000000000000000
11
-79.0771147276422
21
-2.92348307486281
31
0.000000000000000
  0
LINE
  5
F10448
330
F10449
100
AcDbEntity
8
Geo
100
AcDbLine
10
-79.0771147276422
20
-2.92348307486281
30
0.000000000000000
11
-78.9771147276422
21
-2.99311688661705
31
0.000000000000000
  0
LINE
  5
F1044A
330
F1044B
100
AcDbEntity
8
Geo
100
AcDbLine
10
-78.9771147276422
20
-2.99311688661705
30
0.000000000000000
11
-78.8771147276422
21
-3.06316999365436
31
0.000000000000000
  0
LINE
  5
F1044C
330
F1044D
100
AcDbEntity
8
Geo
100
AcDbLine
10
-78.8771147276422
20
-3.06316999365436
30
0.000000000000000
11
-78.7771147276422
21
-3.13363472558725
31
0.000000000000000
  0
LINE
  5
F1044E
330
F1044F
100
AcDbEntity
8
Geo
100
AcDbLine
10
-78.7771147276422
20
-3.13363472558725
30
0.000000000000000
11
-78.6771147276422
21
-3.20450335842512
31
0.000000000000000
  0
LINE
  5
F10450
330
F10451
100
AcDbEntity
8
Geo
100
AcDbLine
10
-78.6771147276422
20
-3.20450335842512
30
0.000000000000000
11
-78.5771147276422
21
-3.27576811518764
31
0.000000000000000
  0
LINE
  5
F10452
330
F10453
100
AcDbEntity
8
Geo
100
AcDbLine
10
-78.5771147276422
20
-3.27576811518764
30
0.000000000000000
11
-78.4771147276422
21
-3.34742116652268
31
0.000000000000000
  0
LINE
  5
F10454
330
F10455
100
AcDbEntity
8
Geo
100
AcDbLine
10
-78.4771147276422
20
-3.34742116652268
30
0.000000000000000
11
-78.3771147276422
21
-3.41945463132844
31
0.000000000000000
  0
LINE
  5
F10456
330
F10457
100
AcDbEntity
8
Geo
100
AcDbLine
10
-78.3771147276422
20
-3.41945463132844
30
0.000000000000000
11
-78.2771147276422
21
-3.49186057738014
31
0.000000000000000
  0
LINE
  5
F10458
330
F10459
100
AcDbEntity
8
Geo
100
AcDbLine
10
-78.2771147276422
20
-3.49186057738014
30
0.000000000000000
11
-78.1771147276422
21
-3.56463102196081
31
0.000000000000000
  0
LINE
  5
F1045A
330
F1045B
100
AcDbEntity
8
Geo
100
AcDbLine
10
-78.1771147276422
20
-3.56463102196081
30
0.000000000000000
11
-78.0771147276422
21
-3.63775793249642
31
0.000000000000000
  0
LINE
  5
F1045C
330
F1045D
100
AcDbEntity
8
Geo
100
AcDbLine
10
-78.0771147276422
20
-3.63775793249642
30
0.000000000000000
11
-77.9771147276422
21
-3.71123322719525
31
0.000000000000000
  0
LINE
  5
F1045E
330
F1045F
100
AcDbEntity
8
Geo
100
AcDbLine
10
-77.9771147276422
20
-3.71123322719525
30
0.000000000000000
11
-77.8771147276422
21
-3.78504877569131
31
0.000000000000000
  0
LINE
  5
F10460
330
F10461
100
AcDbEntity
8
Geo
100
AcDbLine
10
-77.8771147276422
20
-3.78504877569131
30
0.000000000000000
11
-77.7771147276422
21
-3.85919639969196
31
0.000000000000000
  0
LINE
  5
F10462
330
F10463
100
AcDbEntity
8
Geo
100
AcDbLine
10
-77.7771147276422
20
-3.85919639969196
30
0.000000000000000
11
-77.6771147276422
21
-3.93366787362959
31
0.000000000000000
  0
LINE
  5
F10464
330
F10465
100
AcDbEntity
8
Geo
100
AcDbLine
10
-77.6771147276422
20
-3.93366787362959
30
0.000000000000000
11
-77.5771147276422
21
-4.00845492531731
31
0.000000000000000
  0
LINE
  5
F10466
330
F10467
100
AcDbEntity
8
Geo
100
AcDbLine
10
-77.5771147276422
20
-4.00845492531731
30
0.000000000000000
11
-77.4771147276422
21
-4.08354923660857
31
0.000000000000000
  0
LINE
  5
F10468
330
F10469
100
AcDbEntity
8
Geo
100
AcDbLine
10
-77.4771147276422
20
-4.08354923660857
30
0.000000000000000
11
-77.3771147276422
21
-4.15894244406083
31
0.000000000000000
  0
LINE
  5
F1046A
330
F1046B
100
AcDbEntity
8
Geo
100
AcDbLine
10
-77.3771147276422
20
-4.15894244406083
30
0.000000000000000
11
-77.2771147276422
21
-4.23462613960300
31
0.000000000000000
  0
LINE
  5
F1046C
330
F1046D
100
AcDbEntity
8
Geo
100
AcDbLine
10
-77.2771147276422
20
-4.23462613960300
30
0.000000000000000
11
-77.1771147276422
21
-4.31059187120676
31
0.000000000000000
  0
LINE
  5
F1046E
330
F1046F
100
AcDbEntity
8
Geo
100
AcDbLine
10
-77.1771147276422
20
-4.31059187120676
30
0.000000000000000
11
-77.0771147276422
21
-4.38683114356167
31
0.000000000000000
  0
LINE
  5
F10470
330
F10471
100
AcDbEntity
8
Geo
100
AcDbLine
10
-77.0771147276422
20
-4.38683114356167
30
0.000000000000000
11
-76.9771147276422
21
-4.46333541875408
31
0.000000000000000
  0
LINE
  5
F10472
330
F10473
100
AcDbEntity
8
Geo
100
AcDbLine
10
-76.9771147276422
20
-4.46333541875408
30
0.000000000000000
11
-76.8771147276422
21
-4.54009611694960
31
0.000000000000000
  0
LINE
  5
F10474
330
F10475
100
AcDbEntity
8
Geo
100
AcDbLine
10
-76.8771147276422
20
-4.54009611694960
30
0.000000000000000
11
-76.7771147276422
21
-4.61710461707936
31
0.000000000000000
  0
LINE
  5
F10476
330
F10477
100
AcDbEntity
8
Geo
100
AcDbLine
10
-76.7771147276422
20
-4.61710461707936
30
0.000000000000000
11
-76.6771147276422
21
-4.69435225752979
31
0.000000000000000
  0
LINE
  5
F10478
330
F10479
100
AcDbEntity
8
Geo
100
AcDbLine
10
-76.6771147276422
20
-4.69435225752979
30
0.000000000000000
11
-76.5771147276422
21
-4.77183033683594
31
0.000000000000000
  0
LINE
  5
F1047A
330
F1047B
100
AcDbEntity
8
Geo
100
AcDbLine
10
-76.5771147276422
20
-4.77183033683594
30
0.000000000000000
11
-76.4771147276422
21
-4.84953011437840
31
0.000000000000000
  0
LINE
  5
F1047C
330
F1047D
100
AcDbEntity
8
Geo
100
AcDbLine
10
-76.4771147276422
20
-4.84953011437840
30
0.000000000000000
11
-76.3771147276422
21
-4.92744281108354
31
0.000000000000000
  0
LINE
  5
F1047E
330
F1047F
100
AcDbEntity
8
Geo
100
AcDbLine
10
-76.3771147276422
20
-4.92744281108354
30
0.000000000000000
11
-76.2771147276422
21
-5.00555961012727
31
0.000000000000000
  0
LINE
  5
F10480
330
F10481
100
AcDbEntity
8
Geo
100
AcDbLine
10
-76.2771147276422
20
-5.00555961012727
30
0.000000000000000
11
-76.1771147276422
21
-5.08387165764206
31
0.000000000000000
  0
LINE
  5
F10482
330
F10483
100
AcDbEntity
8
Geo
100
AcDbLine
10
-76.1771147276422
20
-5.08387165764206
30
0.000000000000000
11
-76.0771147276422
21
-5.16237006342737
31
0.000000000000000
  0
LINE
  5
F10484
330
F10485
100
AcDbEntity
8
Geo
100
AcDbLine
10
-76.0771147276422
20
-5.16237006342737
30
0.000000000000000
11
-75.9771147276422
21
-5.24104590166319
31
0.000000000000000
  0
LINE
  5
F10486
330
F10487
100
AcDbEntity
8
Geo
100
AcDbLine
10
-75.9771147276422
20
-5.24104590166319
30
0.000000000000000
11
-75.8771147276422
21
-5.31989021162697
31
0.000000000000000
  0
LINE
  5
F10488
330
F10489
100
AcDbEntity
8
Geo
100
AcDbLine
10
-75.8771147276422
20
-5.31989021162697
30
0.000000000000000
11
-75.7771147276422
21
-5.39889399841352
31
0.000000000000000
  0
LINE
  5
F1048A
330
F1048B
100
AcDbEntity
8
Geo
100
AcDbLine
10
-75.7771147276422
20
-5.39889399841352
30
0.000000000000000
11
-75.6771147276422
21
-5.47804823365815
31
0.000000000000000
  0
LINE
  5
F1048C
330
F1048D
100
AcDbEntity
8
Geo
100
AcDbLine
10
-75.6771147276422
20
-5.47804823365815
30
0.000000000000000
11
-75.5771147276422
21
-5.55734385626278
31
0.000000000000000
  0
LINE
  5
F1048E
330
F1048F
100
AcDbEntity
8
Geo
100
AcDbLine
10
-75.5771147276422
20
-5.55734385626278
30
0.000000000000000
11
-75.4771147276422
21
-5.63677177312511
31
0.000000000000000
  0
LINE
  5
F10490
330
F10491
100
AcDbEntity
8
Geo
100
AcDbLine
10
-75.4771147276422
20
-5.63677177312511
30
0.000000000000000
11
-75.3771147276422
21
-5.71632285987068
31
0.000000000000000
  0
LINE
  5
F10492
330
F10493
100
AcDbEntity
8
Geo
100
AcDbLine
10
-75.3771147276422
20
-5.71632285987068
30
0.000000000000000
11
-75.2771147276422
21
-5.79598796158790
31
0.000000000000000
  0
LINE
  5
F10494
330
F10495
100
AcDbEntity
8
Geo
100
AcDbLine
10
-75.2771147276422
20
-5.79598796158790
30
0.000000000000000
11
-75.1771147276422
21
-5.85453644969133
31
0.000000000000000
  0
LINE
  5
F10496
330
F10497
100
AcDbEntity
8
Geo
100
AcDbLine
10
-75.1771147276422
20
-5.85453644969133
30
0.000000000000000
11
-75.0771147276422
21
-5.88540189074674
31
0.000000000000000
  0
LINE
  5
F10498
330
F10499
100
AcDbEntity
8
Geo
100
AcDbLine
10
-75.0771147276422
20
-5.88540189074674
30
0.000000000000000
11
-74.9771147276422
21
-5.88140575978888
31
0.000000000000000
  0
LINE
  5
F1049A
330
F1049B
100
AcDbEntity
8
Geo
100
AcDbLine
10
-74.9771147276422
20
-5.88140575978888
30
0.000000000000000
11
-74.8771147276422
21
-5.87712958652116
31
0.000000000000000
  0
LINE
  5
F1049C
330
F1049D
100
AcDbEntity
8
Geo
100
AcDbLine
10
-74.8771147276422
20
-5.87712958652116
30
0.000000000000000
11
-74.7771147276422
21
-5.87257206596033
31
0.000000000000000
  0
LINE
  5
F1049E
330
F1049F
100
AcDbEntity
8
Geo
100
AcDbLine
10
-74.7771147276422
20
-5.87257206596033
30
0.000000000000000
11
-74.6771147276422
21
-5.86773181106879
31
0.000000000000000
  0
LINE
  5
F104A0
330
F104A1
100
AcDbEntity
8
Geo
100
AcDbLine
10
-74.6771147276422
20
-5.86773181106879
30
0.000000000000000
11
-74.5771147276422
21
-5.86260735304207
31
0.000000000000000
  0
LINE
  5
F104A2
330
F104A3
100
AcDbEntity
8
Geo
100
AcDbLine
10
-74.5771147276422
20
-5.86260735304207
30
0.000000000000000
11
-74.4771147276422
21
-5.85719714161502
31
0.000000000000000
  0
LINE
  5
F104A4
330
F104A5
100
AcDbEntity
8
Geo
100
AcDbLine
10
-74.4771147276422
20
-5.85719714161502
30
0.000000000000000
11
-74.3771147276422
21
-5.85149954538653
31
0.000000000000000
  0
LINE
  5
F104A6
330
F104A7
100
AcDbEntity
8
Geo
100
AcDbLine
10
-74.3771147276422
20
-5.85149954538653
30
0.000000000000000
11
-74.2771147276422
21
-5.84551285216339
31
0.000000000000000
  0
LINE
  5
F104A8
330
F104A9
100
AcDbEntity
8
Geo
100
AcDbLine
10
-74.2771147276422
20
-5.84551285216339
30
0.000000000000000
11
-74.1771147276422
21
-5.83923526932317
31
0.000000000000000
  0
LINE
  5
F104AA
330
F104AB
100
AcDbEntity
8
Geo
100
AcDbLine
10
-74.1771147276422
20
-5.83923526932317
30
0.000000000000000
11
-74.0771147276422
21
-5.83266492419666
31
0.000000000000000
  0
LINE
  5
F104AC
330
F104AD
100
AcDbEntity
8
Geo
100
AcDbLine
10
-74.0771147276422
20
-5.83266492419666
30
0.000000000000000
11
-73.9771147276422
21
-5.82579986446994
31
0.000000000000000
  0
LINE
  5
F104AE
330
F104AF
100
AcDbEntity
8
Geo
100
AcDbLine
10
-73.9771147276422
20
-5.82579986446994
30
0.000000000000000
11
-73.8771147276422
21
-5.81863805860633
31
0.000000000000000
  0
LINE
  5
F104B0
330
F104B1
100
AcDbEntity
8
Geo
100
AcDbLine
10
-73.8771147276422
20
-5.81863805860633
30
0.000000000000000
11
-73.7771147276422
21
-5.81117739628875
31
0.000000000000000
  0
LINE
  5
F104B2
330
F104B3
100
AcDbEntity
8
Geo
100
AcDbLine
10
-73.7771147276422
20
-5.81117739628875
30
0.000000000000000
11
-73.6771147276422
21
-5.80341568888240
31
0.000000000000000
  0
LINE
  5
F104B4
330
F104B5
100
AcDbEntity
8
Geo
100
AcDbLine
10
-73.6771147276422
20
-5.80341568888240
30
0.000000000000000
11
-73.5771147276422
21
-5.79535066991839
31
0.000000000000000
  0
LINE
  5
F104B6
330
F104B7
100
AcDbEntity
8
Geo
100
AcDbLine
10
-73.5771147276422
20
-5.79535066991839
30
0.000000000000000
11
-73.4771147276422
21
-5.78697999559844
31
0.000000000000000
  0
LINE
  5
F104B8
330
F104B9
100
AcDbEntity
8
Geo
100
AcDbLine
10
-73.4771147276422
20
-5.78697999559844
30
0.000000000000000
11
-73.3771147276422
21
-5.77830124532104
31
0.000000000000000
  0
LINE
  5
F104BA
330
F104BB
100
AcDbEntity
8
Geo
100
AcDbLine
10
-73.3771147276422
20
-5.77830124532104
30
0.000000000000000
11
-73.2771147276422
21
-5.76931192222939
31
0.000000000000000
  0
LINE
  5
F104BC
330
F104BD
100
AcDbEntity
8
Geo
100
AcDbLine
10
-73.2771147276422
20
-5.76931192222939
30
0.000000000000000
11
-73.1771147276422
21
-5.76000945378146
31
0.000000000000000
  0
LINE
  5
F104BE
330
F104BF
100
AcDbEntity
8
Geo
100
AcDbLine
10
-73.1771147276422
20
-5.76000945378146
30
0.000000000000000
11
-73.0771147276422
21
-5.75039119234251
31
0.000000000000000
  0
LINE
  5
F104C0
330
F104C1
100
AcDbEntity
8
Geo
100
AcDbLine
10
-73.0771147276422
20
-5.75039119234251
30
0.000000000000000
11
-72.9771147276422
21
-5.74045441580043
31
0.000000000000000
  0
LINE
  5
F104C2
330
F104C3
100
AcDbEntity
8
Geo
100
AcDbLine
10
-72.9771147276422
20
-5.74045441580043
30
0.000000000000000
11
-72.8771147276422
21
-5.73019632820432
31
0.000000000000000
  0
LINE
  5
F104C4
330
F104C5
100
AcDbEntity
8
Geo
100
AcDbLine
10
-72.8771147276422
20
-5.73019632820432
30
0.000000000000000
11
-72.7771147276422
21
-5.71961406042663
31
0.000000000000000
  0
LINE
  5
F104C6
330
F104C7
100
AcDbEntity
8
Geo
100
AcDbLine
10
-72.7771147276422
20
-5.71961406042663
30
0.000000000000000
11
-72.6771147276422
21
-5.70870467084922
31
0.000000000000000
  0
LINE
  5
F104C8
330
F104C9
100
AcDbEntity
8
Geo
100
AcDbLine
10
-72.6771147276422
20
-5.70870467084922
30
0.000000000000000
11
-72.5771147276422
21
-5.69746514607387
31
0.000000000000000
  0
LINE
  5
F104CA
330
F104CB
100
AcDbEntity
8
Geo
100
AcDbLine
10
-72.5771147276422
20
-5.69746514607387
30
0.000000000000000
11
-72.4771147276422
21
-5.68589240165755
31
0.000000000000000
  0
LINE
  5
F104CC
330
F104CD
100
AcDbEntity
8
Geo
100
AcDbLine
10
-72.4771147276422
20
-5.68589240165755
30
0.000000000000000
11
-72.3771147276422
21
-5.67398328287279
31
0.000000000000000
  0
LINE
  5
F104CE
330
F104CF
100
AcDbEntity
8
Geo
100
AcDbLine
10
-72.3771147276422
20
-5.67398328287279
30
0.000000000000000
11
-72.2771147276422
21
-5.66173456549381
31
0.000000000000000
  0
LINE
  5
F104D0
330
F104D1
100
AcDbEntity
8
Geo
100
AcDbLine
10
-72.2771147276422
20
-5.66173456549381
30
0.000000000000000
11
-72.1771147276422
21
-5.64914295660856
31
0.000000000000000
  0
LINE
  5
F104D2
330
F104D3
100
AcDbEntity
8
Geo
100
AcDbLine
10
-72.1771147276422
20
-5.64914295660856
30
0.000000000000000
11
-72.0771147276422
21
-5.63620509545737
31
0.000000000000000
  0
LINE
  5
F104D4
330
F104D5
100
AcDbEntity
8
Geo
100
AcDbLine
10
-72.0771147276422
20
-5.63620509545737
30
0.000000000000000
11
-71.9771147276422
21
-5.62291755429848
31
0.000000000000000
  0
LINE
  5
F104D6
330
F104D7
100
AcDbEntity
8
Geo
100
AcDbLine
10
-71.9771147276422
20
-5.62291755429848
30
0.000000000000000
11
-71.8771147276422
21
-5.60927683930093
31
0.000000000000000
  0
LINE
  5
F104D8
330
F104D9
100
AcDbEntity
8
Geo
100
AcDbLine
10
-71.8771147276422
20
-5.60927683930093
30
0.000000000000000
11
-71.7771147276422
21
-5.59527939146541
31
0.000000000000000
  0
LINE
  5
F104DA
330
F104DB
100
AcDbEntity
8
Geo
100
AcDbLine
10
-71.7771147276422
20
-5.59527939146541
30
0.000000000000000
11
-71.6771147276422
21
-5.58092158757337
31
0.000000000000000
  0
LINE
  5
F104DC
330
F104DD
100
AcDbEntity
8
Geo
100
AcDbLine
10
-71.6771147276422
20
-5.58092158757337
30
0.000000000000000
11
-71.5771147276422
21
-5.56619974116494
31
0.000000000000000
  0
LINE
  5
F104DE
330
F104DF
100
AcDbEntity
8
Geo
100
AcDbLine
10
-71.5771147276422
20
-5.56619974116494
30
0.000000000000000
11
-71.4771147276422
21
-5.55111010354621
31
0.000000000000000
  0
LINE
  5
F104E0
330
F104E1
100
AcDbEntity
8
Geo
100
AcDbLine
10
-71.4771147276422
20
-5.55111010354621
30
0.000000000000000
11
-71.3771147276422
21
-5.53564886482622
31
0.000000000000000
  0
LINE
  5
F104E2
330
F104E3
100
AcDbEntity
8
Geo
100
AcDbLine
10
-71.3771147276422
20
-5.53564886482622
30
0.000000000000000
11
-71.2771147276422
21
-5.51981215498429
31
0.000000000000000
  0
LINE
  5
F104E4
330
F104E5
100
AcDbEntity
8
Geo
100
AcDbLine
10
-71.2771147276422
20
-5.51981215498429
30
0.000000000000000
11
-71.1771147276422
21
-5.50359604496812
31
0.000000000000000
  0
LINE
  5
F104E6
330
F104E7
100
AcDbEntity
8
Geo
100
AcDbLine
10
-71.1771147276422
20
-5.50359604496812
30
0.000000000000000
11
-71.0771147276422
21
-5.48699654782318
31
0.000000000000000
  0
LINE
  5
F104E8
330
F104E9
100
AcDbEntity
8
Geo
100
AcDbLine
10
-71.0771147276422
20
-5.48699654782318
30
0.000000000000000
11
-70.9771147276422
21
-5.47000961985395
31
0.000000000000000
  0
LINE
  5
F104EA
330
F104EB
100
AcDbEntity
8
Geo
100
AcDbLine
10
-70.9771147276422
20
-5.47000961985395
30
0.000000000000000
11
-70.8771147276422
21
-5.45263116181740
31
0.000000000000000
  0
LINE
  5
F104EC
330
F104ED
100
AcDbEntity
8
Geo
100
AcDbLine
10
-70.8771147276422
20
-5.45263116181740
30
0.000000000000000
11
-70.7771147276422
21
-5.43485702014947
31
0.000000000000000
  0
LINE
  5
F104EE
330
F104EF
100
AcDbEntity
8
Geo
100
AcDbLine
10
-70.7771147276422
20
-5.43485702014947
30
0.000000000000000
11
-70.6771147276422
21
-5.41668298822477
31
0.000000000000000
  0
LINE
  5
F104F0
330
F104F1
100
AcDbEntity
8
Geo
100
AcDbLine
10
-70.6771147276422
20
-5.41668298822477
30
0.000000000000000
11
-70.5771147276422
21
-5.39810480765031
31
0.000000000000000
  0
LINE
  5
F104F2
330
F104F3
100
AcDbEntity
8
Geo
100
AcDbLine
10
-70.5771147276422
20
-5.39810480765031
30
0.000000000000000
11
-70.4771147276422
21
-5.37911816959363
31
0.000000000000000
  0
LINE
  5
F104F4
330
F104F5
100
AcDbEntity
8
Geo
100
AcDbLine
10
-70.4771147276422
20
-5.37911816959363
30
0.000000000000000
11
-70.3771147276422
21
-5.35971871614590
31
0.000000000000000
  0
LINE
  5
F104F6
330
F104F7
100
AcDbEntity
8
Geo
100
AcDbLine
10
-70.3771147276422
20
-5.35971871614590
30
0.000000000000000
11
-70.2771147276422
21
-5.33990204172058
31
0.000000000000000
  0
LINE
  5
F104F8
330
F104F9
100
AcDbEntity
8
Geo
100
AcDbLine
10
-70.2771147276422
20
-5.33990204172058
30
0.000000000000000
11
-70.1771147276422
21
-5.31966369448813
31
0.000000000000000
  0
LINE
  5
F104FA
330
F104FB
100
AcDbEntity
8
Geo
100
AcDbLine
10
-70.1771147276422
20
-5.31966369448813
30
0.000000000000000
11
-70.0771147276422
21
-5.29899917784732
31
0.000000000000000
  0
LINE
  5
F104FC
330
F104FD
100
AcDbEntity
8
Geo
100
AcDbLine
10
-89.0771147276422
20
0.890796820381283
30
0.000000000000000
11
-88.9771147276422
21
0.872559910394117
31
0.000000000000000
  0
LINE
  5
F104FE
330
F104FF
100
AcDbEntity
8
Geo
100
AcDbLine
10
-88.9771147276422
20
0.872559910394117
30
0.000000000000000
11
-88.8771147276422
21
0.853533289079808
31
0.000000000000000
  0
LINE
  5
F10500
330
F10501
100
AcDbEntity
8
Geo
100
AcDbLine
10
-88.8771147276422
20
0.853533289079808
30
0.000000000000000
11
-88.7771147276422
21
0.833719867639102
31
0.000000000000000
  0
LINE
  5
F10502
330
F10503
100
AcDbEntity
8
Geo
100
AcDbLine
10
-88.7771147276422
20
0.833719867639102
30
0.000000000000000
11
-88.6771147276422
21
0.813122639331821
31
0.000000000000000
  0
LINE
  5
F10504
330
F10505
100
AcDbEntity
8
Geo
100
AcDbLine
10
-88.6771147276422
20
0.813122639331821
30
0.000000000000000
11
-88.5771147276422
21
0.791744679218810
31
0.000000000000000
  0
LINE
  5
F10506
330
F10507
100
AcDbEntity
8
Geo
100
AcDbLine
10
-88.5771147276422
20
0.791744679218810
30
0.000000000000000
11
-88.4771147276422
21
0.769589143897494
31
0.000000000000000
  0
LINE
  5
F10508
330
F10509
100
AcDbEntity
8
Geo
100
AcDbLine
10
-88.4771147276422
20
0.769589143897494
30
0.000000000000000
11
-88.3771147276422
21
0.746659271231057
31
0.000000000000000
  0
LINE
  5
F1050A
330
F1050B
100
AcDbEntity
8
Geo
100
AcDbLine
10
-88.3771147276422
20
0.746659271231057
30
0.000000000000000
11
-88.2771147276422
21
0.722958380071269
31
0.000000000000000
  0
LINE
  5
F1050C
330
F1050D
100
AcDbEntity
8
Geo
100
AcDbLine
10
-88.2771147276422
20
0.722958380071269
30
0.000000000000000
11
-88.1771147276422
21
0.698489869974969
31
0.000000000000000
  0
LINE
  5
F1050E
330
F1050F
100
AcDbEntity
8
Geo
100
AcDbLine
10
-88.1771147276422
20
0.698489869974969
30
0.000000000000000
11
-88.0771147276422
21
0.673257220914247
31
0.000000000000000
  0
LINE
  5
F10510
330
F10511
100
AcDbEntity
8
Geo
100
AcDbLine
10
-88.0771147276422
20
0.673257220914247
30
0.000000000000000
11
-87.9771147276422
21
0.647263992980312
31
0.000000000000000
  0
LINE
  5
F10512
330
F10513
100
AcDbEntity
8
Geo
100
AcDbLine
10
-87.9771147276422
20
0.647263992980312
30
0.000000000000000
11
-87.8771147276422
21
0.620513826081109
31
0.000000000000000
  0
LINE
  5
F10514
330
F10515
100
AcDbEntity
8
Geo
100
AcDbLine
10
-87.8771147276422
20
0.620513826081109
30
0.000000000000000
11
-87.7771147276422
21
0.593010439632665
31
0.000000000000000
  0
LINE
  5
F10516
330
F10517
100
AcDbEntity
8
Geo
100
AcDbLine
10
-87.7771147276422
20
0.593010439632665
30
0.000000000000000
11
-87.6771147276422
21
0.564757632244221
31
0.000000000000000
  0
LINE
  5
F10518
330
F10519
100
AcDbEntity
8
Geo
100
AcDbLine
10
-87.6771147276422
20
0.564757632244221
30
0.000000000000000
11
-87.5771147276422
21
0.535759281397153
31
0.000000000000000
  0
LINE
  5
F1051A
330
F1051B
100
AcDbEntity
8
Geo
100
AcDbLine
10
-87.5771147276422
20
0.535759281397153
30
0.000000000000000
11
-87.4771147276422
21
0.506019343117702
31
0.000000000000000
  0
LINE
  5
F1051C
330
F1051D
100
AcDbEntity
8
Geo
100
AcDbLine
10
-87.4771147276422
20
0.506019343117702
30
0.000000000000000
11
-87.3771147276422
21
0.475541851643561
31
0.000000000000000
  0
LINE
  5
F1051E
330
F1051F
100
AcDbEntity
8
Geo
100
AcDbLine
10
-87.3771147276422
20
0.475541851643561
30
0.000000000000000
11
-87.2771147276422
21
0.444330919084314
31
0.000000000000000
  0
LINE
  5
F10520
330
F10521
100
AcDbEntity
8
Geo
100
AcDbLine
10
-87.2771147276422
20
0.444330919084314
30
0.000000000000000
11
-87.1771147276422
21
0.412390735075765
31
0.000000000000000
  0
LINE
  5
F10522
330
F10523
100
AcDbEntity
8
Geo
100
AcDbLine
10
-87.1771147276422
20
0.412390735075765
30
0.000000000000000
11
-87.0771147276422
21
0.379725566428191
31
0.000000000000000
  0
LINE
  5
F10524
330
F10525
100
AcDbEntity
8
Geo
100
AcDbLine
10
-87.0771147276422
20
0.379725566428191
30
0.000000000000000
11
-86.9771147276422
21
0.346339756768518
31
0.000000000000000
  0
LINE
  5
F10526
330
F10527
100
AcDbEntity
8
Geo
100
AcDbLine
10
-86.9771147276422
20
0.346339756768518
30
0.000000000000000
11
-86.8771147276422
21
0.312237726176479
31
0.000000000000000
  0
LINE
  5
F10528
330
F10529
100
AcDbEntity
8
Geo
100
AcDbLine
10
-86.8771147276422
20
0.312237726176479
30
0.000000000000000
11
-86.7771147276422
21
0.277423970814751
31
0.000000000000000
  0
LINE
  5
F1052A
330
F1052B
100
AcDbEntity
8
Geo
100
AcDbLine
10
-86.7771147276422
20
0.277423970814751
30
0.000000000000000
11
-86.6771147276422
21
0.241903062553113
31
0.000000000000000
  0
LINE
  5
F1052C
330
F1052D
100
AcDbEntity
8
Geo
100
AcDbLine
10
-86.6771147276422
20
0.241903062553113
30
0.000000000000000
11
-86.5771147276422
21
0.205679648586653
31
0.000000000000000
  0
LINE
  5
F1052E
330
F1052F
100
AcDbEntity
8
Geo
100
AcDbLine
10
-86.5771147276422
20
0.205679648586653
30
0.000000000000000
11
-86.4771147276422
21
0.168758451048040
31
0.000000000000000
  0
LINE
  5
F10530
330
F10531
100
AcDbEntity
8
Geo
100
AcDbLine
10
-86.4771147276422
20
0.168758451048040
30
0.000000000000000
11
-86.3771147276422
21
0.131144266613898
31
0.000000000000000
  0
LINE
  5
F10532
330
F10533
100
AcDbEntity
8
Geo
100
AcDbLine
10
-86.3771147276422
20
0.131144266613898
30
0.000000000000000
11
-86.2771147276422
21
0.0928419661053119
31
0.000000000000000
  0
LINE
  5
F10534
330
F10535
100
AcDbEntity
8
Geo
100
AcDbLine
10
-86.2771147276422
20
0.0928419661053119
30
0.000000000000000
11
-86.1771147276422
21
0.0538564940824831
31
0.000000000000000
  0
LINE
  5
F10536
330
F10537
100
AcDbEntity
8
Geo
100
AcDbLine
10
-86.1771147276422
20
0.0538564940824831
30
0.000000000000000
11
-86.0771147276422
21
0.0141928684335767
31
0.000000000000000
  0
LINE
  5
F10538
330
F10539
100
AcDbEntity
8
Geo
100
AcDbLine
10
-86.0771147276422
20
0.0141928684335767
30
0.000000000000000
11
-85.9771147276422
21
-0.0261438200422197
31
0.000000000000000
  0
LINE
  5
F1053A
330
F1053B
100
AcDbEntity
8
Geo
100
AcDbLine
10
-85.9771147276422
20
-0.0261438200422197
30
0.000000000000000
11
-85.8771147276422
21
-0.0671484080573919
31
0.000000000000000
  0
LINE
  5
F1053C
330
F1053D
100
AcDbEntity
8
Geo
100
AcDbLine
10
-85.8771147276422
20
-0.0671484080573919
30
0.000000000000000
11
-85.7771147276422
21
-0.108815660264520
31
0.000000000000000
  0
LINE
  5
F1053E
330
F1053F
100
AcDbEntity
8
Geo
100
AcDbLine
10
-85.7771147276422
20
-0.108815660264520
30
0.000000000000000
11
-85.6771147276422
21
-0.151140269690395
31
0.000000000000000
  0
LINE
  5
F10540
330
F10541
100
AcDbEntity
8
Geo
100
AcDbLine
10
-85.6771147276422
20
-0.151140269690395
30
0.000000000000000
11
-85.5771147276422
21
-0.194116858175793
31
0.000000000000000
  0
LINE
  5
F10542
330
F10543
100
AcDbEntity
8
Geo
100
AcDbLine
10
-85.5771147276422
20
-0.194116858175793
30
0.000000000000000
11
-85.4771147276422
21
-0.237739976820891
31
0.000000000000000
  0
LINE
  5
F10544
330
F10545
100
AcDbEntity
8
Geo
100
AcDbLine
10
-85.4771147276422
20
-0.237739976820891
30
0.000000000000000
11
-85.3771147276422
21
-0.282004106436275
31
0.000000000000000
  0
LINE
  5
F10546
330
F10547
100
AcDbEntity
8
Geo
100
AcDbLine
10
-85.3771147276422
20
-0.282004106436275
30
0.000000000000000
11
-85.2771147276422
21
-0.326903657999518
31
0.000000000000000
  0
LINE
  5
F10548
330
F10549
100
AcDbEntity
8
Geo
100
AcDbLine
10
-85.2771147276422
20
-0.326903657999518
30
0.000000000000000
11
-85.1771147276422
21
-0.372432973117299
31
0.000000000000000
  0
LINE
  5
F1054A
330
F1054B
100
AcDbEntity
8
Geo
100
AcDbLine
10
-85.1771147276422
20
-0.372432973117299
30
0.000000000000000
11
-85.0771147276422
21
-0.418586324493011
31
0.000000000000000
  0
LINE
  5
F1054C
330
F1054D
100
AcDbEntity
8
Geo
100
AcDbLine
10
-85.0771147276422
20
-0.418586324493011
30
0.000000000000000
11
-84.9771147276422
21
-0.465357916399858
31
0.000000000000000
  0
LINE
  5
F1054E
330
F1054F
100
AcDbEntity
8
Geo
100
AcDbLine
10
-84.9771147276422
20
-0.465357916399858
30
0.000000000000000
11
-84.8771147276422
21
-0.512741885159364
31
0.000000000000000
  0
LINE
  5
F10550
330
F10551
100
AcDbEntity
8
Geo
100
AcDbLine
10
-84.8771147276422
20
-0.512741885159364
30
0.000000000000000
11
-84.7771147276422
21
-0.560732299625305
31
0.000000000000000
  0
LINE
  5
F10552
330
F10553
100
AcDbEntity
8
Geo
100
AcDbLine
10
-84.7771147276422
20
-0.560732299625305
30
0.000000000000000
11
-84.6771147276422
21
-0.609323161672993
31
0.000000000000000
  0
LINE
  5
F10554
330
F10555
100
AcDbEntity
8
Geo
100
AcDbLine
10
-84.6771147276422
20
-0.609323161672993
30
0.000000000000000
11
-84.5771147276422
21
-0.658508406693898
31
0.000000000000000
  0
LINE
  5
F10556
330
F10557
100
AcDbEntity
8
Geo
100
AcDbLine
10
-84.5771147276422
20
-0.658508406693898
30
0.000000000000000
11
-84.4771147276422
21
-0.708281904095564
31
0.000000000000000
  0
LINE
  5
F10558
330
F10559
100
AcDbEntity
8
Geo
100
AcDbLine
10
-84.4771147276422
20
-0.708281904095564
30
0.000000000000000
11
-84.3771147276422
21
-0.758637457806790
31
0.000000000000000
  0
LINE
  5
F1055A
330
F1055B
100
AcDbEntity
8
Geo
100
AcDbLine
10
-84.3771147276422
20
-0.758637457806790
30
0.000000000000000
11
-84.2771147276422
21
-0.809568806788030
31
0.000000000000000
  0
LINE
  5
F1055C
330
F1055D
100
AcDbEntity
8
Geo
100
AcDbLine
10
-84.2771147276422
20
-0.809568806788030
30
0.000000000000000
11
-84.1771147276422
21
-0.861069625546989
31
0.000000000000000
  0
LINE
  5
F1055E
330
F1055F
100
AcDbEntity
8
Geo
100
AcDbLine
10
-84.1771147276422
20
-0.861069625546989
30
0.000000000000000
11
-84.0771147276422
21
-0.913133524659360
31
0.000000000000000
  0
LINE
  5
F10560
330
F10561
100
AcDbEntity
8
Geo
100
AcDbLine
10
-84.0771147276422
20
-0.913133524659360
30
0.000000000000000
11
-83.9771147276422
21
-0.965754051294689
31
0.000000000000000
  0
LINE
  5
F10562
330
F10563
100
AcDbEntity
8
Geo
100
AcDbLine
10
-83.9771147276422
20
-0.965754051294689
30
0.000000000000000
11
-83.8771147276422
21
-1.01892468974731
31
0.000000000000000
  0
LINE
  5
F10564
330
F10565
100
AcDbEntity
8
Geo
100
AcDbLine
10
-83.8771147276422
20
-1.01892468974731
30
0.000000000000000
11
-83.7771147276422
21
-1.07263886197231
31
0.000000000000000
  0
LINE
  5
F10566
330
F10567
100
AcDbEntity
8
Geo
100
AcDbLine
10
-83.7771147276422
20
-1.07263886197231
30
0.000000000000000
11
-83.6771147276422
21
-1.12688992812653
31
0.000000000000000
  0
LINE
  5
F10568
330
F10569
100
AcDbEntity
8
Geo
100
AcDbLine
10
-83.6771147276422
20
-1.12688992812653
30
0.000000000000000
11
-83.5771147276422
21
-1.18167118711448
31
0.000000000000000
  0
LINE
  5
F1056A
330
F1056B
100
AcDbEntity
8
Geo
100
AcDbLine
10
-83.5771147276422
20
-1.18167118711448
30
0.000000000000000
11
-83.4771147276422
21
-1.23697587713920
31
0.000000000000000
  0
LINE
  5
F1056C
330
F1056D
100
AcDbEntity
8
Geo
100
AcDbLine
10
-83.4771147276422
20
-1.23697587713920
30
0.000000000000000
11
-83.3771147276422
21
-1.29279717625804
31
0.000000000000000
  0
LINE
  5
F1056E
330
F1056F
100
AcDbEntity
8
Geo
100
AcDbLine
10
-83.3771147276422
20
-1.29279717625804
30
0.000000000000000
11
-83.2771147276422
21
-1.34912820294322
31
0.000000000000000
  0
LINE
  5
F10570
330
F10571
100
AcDbEntity
8
Geo
100
AcDbLine
10
-83.2771147276422
20
-1.34912820294322
30
0.000000000000000
11
-83.1771147276422
21
-1.40596201664725
31
0.000000000000000
  0
LINE
  5
F10572
330
F10573
100
AcDbEntity
8
Geo
100
AcDbLine
10
-83.1771147276422
20
-1.40596201664725
30
0.000000000000000
11
-83.0771147276422
21
-1.46329161837308
31
0.000000000000000
  0
LINE
  5
F10574
330
F10575
100
AcDbEntity
8
Geo
100
AcDbLine
10
-83.0771147276422
20
-1.46329161837308
30
0.000000000000000
11
-82.9771147276422
21
-1.52110995124900
31
0.000000000000000
  0
LINE
  5
F10576
330
F10577
100
AcDbEntity
8
Geo
100
AcDbLine
10
-82.9771147276422
20
-1.52110995124900
30
0.000000000000000
11
-82.8771147276422
21
-1.57940990110821
31
0.000000000000000
  0
LINE
  5
F10578
330
F10579
100
AcDbEntity
8
Geo
100
AcDbLine
10
-82.8771147276422
20
-1.57940990110821
30
0.000000000000000
11
-82.7771147276422
21
-1.63818429707303
31
0.000000000000000
  0
LINE
  5
F1057A
330
F1057B
100
AcDbEntity
8
Geo
100
AcDbLine
10
-82.7771147276422
20
-1.63818429707303
30
0.000000000000000
11
-82.6771147276422
21
-1.69742591214372
31
0.000000000000000
  0
LINE
  5
F1057C
330
F1057D
100
AcDbEntity
8
Geo
100
AcDbLine
10
-82.6771147276422
20
-1.69742591214372
30
0.000000000000000
11
-82.5771147276422
21
-1.75712746379185
31
0.000000000000000
  0
LINE
  5
F1057E
330
F1057F
100
AcDbEntity
8
Geo
100
AcDbLine
10
-82.5771147276422
20
-1.75712746379185
30
0.000000000000000
11
-82.4771147276422
21
-1.81728161455819
31
0.000000000000000
  0
LINE
  5
F10580
330
F10581
100
AcDbEntity
8
Geo
100
AcDbLine
10
-82.4771147276422
20
-1.81728161455819
30
0.000000000000000
11
-82.3771147276422
21
-1.87788097265510
31
0.000000000000000
  0
LINE
  5
F10582
330
F10583
100
AcDbEntity
8
Geo
100
AcDbLine
10
-82.3771147276422
20
-1.87788097265510
30
0.000000000000000
11
-82.2771147276422
21
-1.93891809257330
31
0.000000000000000
  0
LINE
  5
F10584
330
F10585
100
AcDbEntity
8
Geo
100
AcDbLine
10
-82.2771147276422
20
-1.93891809257330
30
0.000000000000000
11
-82.1771147276422
21
-2.00038547569306
31
0.000000000000000
  0
LINE
  5
F10586
330
F10587
100
AcDbEntity
8
Geo
100
AcDbLine
10
-82.1771147276422
20
-2.00038547569306
30
0.000000000000000
11
-82.0771147276422
21
-2.06227557089972
31
0.000000000000000
  0
LINE
  5
F10588
330
F10589
100
AcDbEntity
8
Geo
100
AcDbLine
10
-82.0771147276422
20
-2.06227557089972
30
0.000000000000000
11
-81.9771147276422
21
-2.12458077520358
31
0.000000000000000
  0
LINE
  5
F1058A
330
F1058B
100
AcDbEntity
8
Geo
100
AcDbLine
10
-81.9771147276422
20
-2.12458077520358
30
0.000000000000000
11
-81.8771147276422
21
-2.18729343436389
31
0.000000000000000
  0
LINE
  5
F1058C
330
F1058D
100
AcDbEntity
8
Geo
100
AcDbLine
10
-81.8771147276422
20
-2.18729343436389
30
0.000000000000000
11
-81.7771147276422
21
-2.25040584351725
31
0.000000000000000
  0
LINE
  5
F1058E
330
F1058F
100
AcDbEntity
8
Geo
100
AcDbLine
10
-81.7771147276422
20
-2.25040584351725
30
0.000000000000000
11
-81.6771147276422
21
-2.31391024781002
31
0.000000000000000
  0
LINE
  5
F10590
330
F10591
100
AcDbEntity
8
Geo
100
AcDbLine
10
-81.6771147276422
20
-2.31391024781002
30
0.000000000000000
11
-81.5771147276422
21
-2.37779884303491
31
0.000000000000000
  0
LINE
  5
F10592
330
F10593
100
AcDbEntity
8
Geo
100
AcDbLine
10
-81.5771147276422
20
-2.37779884303491
30
0.000000000000000
11
-81.4771147276422
21
-2.44206377627169
31
0.000000000000000
  0
LINE
  5
F10594
330
F10595
100
AcDbEntity
8
Geo
100
AcDbLine
10
-81.4771147276422
20
-2.44206377627169
30
0.000000000000000
11
-81.3771147276422
21
-2.50669714653186
31
0.000000000000000
  0
LINE
  5
F10596
330
F10597
100
AcDbEntity
8
Geo
100
AcDbLine
10
-81.3771147276422
20
-2.50669714653186
30
0.000000000000000
11
-81.2771147276422
21
-2.57169100540734
31
0.000000000000000
  0
LINE
  5
F10598
330
F10599
100
AcDbEntity
8
Geo
100
AcDbLine
10
-81.2771147276422
20
-2.57169100540734
30
0.000000000000000
11
-81.1771147276422
21
-2.63703735772310
31
0.000000000000000
  0
LINE
  5
F1059A
330
F1059B
100
AcDbEntity
8
Geo
100
AcDbLine
10
-81.1771147276422
20
-2.63703735772310
30
0.000000000000000
11
-81.0771147276422
21
-2.70272816219370
31
0.000000000000000
  0
LINE
  5
F1059C
330
F1059D
100
AcDbEntity
8
Geo
100
AcDbLine
10
-81.0771147276422
20
-2.70272816219370
30
0.000000000000000
11
-80.9771147276422
21
-2.76875533208364
31
0.000000000000000
  0
LINE
  5
F1059E
330
F1059F
100
AcDbEntity
8
Geo
100
AcDbLine
10
-80.9771147276422
20
-2.76875533208364
30
0.000000000000000
11
-80.8771147276422
21
-2.83511073587152
31
0.000000000000000
  0
LINE
  5
F105A0
330
F105A1
100
AcDbEntity
8
Geo
100
AcDbLine
10
-80.8771147276422
20
-2.83511073587152
30
0.000000000000000
11
-80.7771147276422
21
-2.90178619791798
31
0.000000000000000
  0
LINE
  5
F105A2
330
F105A3
100
AcDbEntity
8
Geo
100
AcDbLine
10
-80.7771147276422
20
-2.90178619791798
30
0.000000000000000
11
-80.6771147276422
21
-2.96877349913732
31
0.000000000000000
  0
LINE
  5
F105A4
330
F105A5
100
AcDbEntity
8
Geo
100
AcDbLine
10
-80.6771147276422
20
-2.96877349913732
30
0.000000000000000
11
-80.5771147276422
21
-3.03606437767279
31
0.000000000000000
  0
LINE
  5
F105A6
330
F105A7
100
AcDbEntity
8
Geo
100
AcDbLine
10
-80.5771147276422
20
-3.03606437767279
30
0.000000000000000
11
-80.4771147276422
21
-3.10365052957545
31
0.000000000000000
  0
LINE
  5
F105A8
330
F105A9
100
AcDbEntity
8
Geo
100
AcDbLine
10
-80.4771147276422
20
-3.10365052957545
30
0.000000000000000
11
-80.3771147276422
21
-3.17152360948669
31
0.000000000000000
  0
LINE
  5
F105AA
330
F105AB
100
AcDbEntity
8
Geo
100
AcDbLine
10
-80.3771147276422
20
-3.17152360948669
30
0.000000000000000
11
-80.2771147276422
21
-3.23967523132413
31
0.000000000000000
  0
LINE
  5
F105AC
330
F105AD
100
AcDbEntity
8
Geo
100
AcDbLine
10
-80.2771147276422
20
-3.23967523132413
30
0.000000000000000
11
-80.1771147276422
21
-3.30809696897108
31
0.000000000000000
  0
LINE
  5
F105AE
330
F105AF
100
AcDbEntity
8
Geo
100
AcDbLine
10
-80.1771147276422
20
-3.30809696897108
30
0.000000000000000
11
-80.0771147276422
21
-3.37678035696939
31
0.000000000000000
  0
LINE
  5
F105B0
330
F105B1
100
AcDbEntity
8
Geo
100
AcDbLine
10
-80.0771147276422
20
-3.37678035696939
30
0.000000000000000
11
-79.9771147276422
21
-3.44571689121566
31
0.000000000000000
  0
LINE
  5
F105B2
330
F105B3
100
AcDbEntity
8
Geo
100
AcDbLine
10
-79.9771147276422
20
-3.44571689121566
30
0.000000000000000
11
-79.8771147276422
21
-3.51489802966076
31
0.000000000000000
  0
LINE
  5
F105B4
330
F105B5
100
AcDbEntity
8
Geo
100
AcDbLine
10
-79.8771147276422
20
-3.51489802966076
30
0.000000000000000
11
-79.7771147276422
21
-3.58431519301259
31
0.000000000000000
  0
LINE
  5
F105B6
330
F105B7
100
AcDbEntity
8
Geo
100
AcDbLine
10
-79.7771147276422
20
-3.58431519301259
30
0.000000000000000
11
-79.6771147276422
21
-3.65395976544217
31
0.000000000000000
  0
LINE
  5
F105B8
330
F105B9
100
AcDbEntity
8
Geo
100
AcDbLine
10
-79.6771147276422
20
-3.65395976544217
30
0.000000000000000
11
-79.5771147276422
21
-3.72382309529273
31
0.000000000000000
  0
LINE
  5
F105BA
330
F105BB
100
AcDbEntity
8
Geo
100
AcDbLine
10
-79.5771147276422
20
-3.72382309529273
30
0.000000000000000
11
-79.4771147276422
21
-3.79389649579205
31
0.000000000000000
  0
LINE
  5
F105BC
330
F105BD
100
AcDbEntity
8
Geo
100
AcDbLine
10
-79.4771147276422
20
-3.79389649579205
30
0.000000000000000
11
-79.3771147276422
21
-3.86417124576777
31
0.000000000000000
  0
LINE
  5
F105BE
330
F105BF
100
AcDbEntity
8
Geo
100
AcDbLine
10
-79.3771147276422
20
-3.86417124576777
30
0.000000000000000
11
-79.2771147276422
21
-3.93463859036583
31
0.000000000000000
  0
LINE
  5
F105C0
330
F105C1
100
AcDbEntity
8
Geo
100
AcDbLine
10
-79.2771147276422
20
-3.93463859036583
30
0.000000000000000
11
-79.1771147276422
21
-4.00528974177171
31
0.000000000000000
  0
LINE
  5
F105C2
330
F105C3
100
AcDbEntity
8
Geo
100
AcDbLine
10
-79.1771147276422
20
-4.00528974177171
30
0.000000000000000
11
-79.0771147276422
21
-4.07611587993474
31
0.000000000000000
  0
LINE
  5
F105C4
330
F105C5
100
AcDbEntity
8
Geo
100
AcDbLine
10
-79.0771147276422
20
-4.07611587993474
30
0.000000000000000
11
-78.9771147276422
21
-4.14710815329516
31
0.000000000000000
  0
LINE
  5
F105C6
330
F105C7
100
AcDbEntity
8
Geo
100
AcDbLine
10
-78.9771147276422
20
-4.14710815329516
30
0.000000000000000
11
-78.8771147276422
21
-4.21825767951403
31
0.000000000000000
  0
LINE
  5
F105C8
330
F105C9
100
AcDbEntity
8
Geo
100
AcDbLine
10
-78.8771147276422
20
-4.21825767951403
30
0.000000000000000
11
-78.7771147276422
21
-4.28955554620593
31
0.000000000000000
  0
LINE
  5
F105CA
330
F105CB
100
AcDbEntity
8
Geo
100
AcDbLine
10
-78.7771147276422
20
-4.28955554620593
30
0.000000000000000
11
-78.6771147276422
21
-4.36099281167426
31
0.000000000000000
  0
LINE
  5
F105CC
330
F105CD
100
AcDbEntity
8
Geo
100
AcDbLine
10
-78.6771147276422
20
-4.36099281167426
30
0.000000000000000
11
-78.5771147276422
21
-4.43256050564934
31
0.000000000000000
  0
LINE
  5
F105CE
330
F105CF
100
AcDbEntity
8
Geo
100
AcDbLine
10
-78.5771147276422
20
-4.43256050564934
30
0.000000000000000
11
-78.4771147276422
21
-4.50424963002893
31
0.000000000000000
  0
LINE
  5
F105D0
330
F105D1
100
AcDbEntity
8
Geo
100
AcDbLine
10
-78.4771147276422
20
-4.50424963002893
30
0.000000000000000
11
-78.3771147276422
21
-4.57605115962147
31
0.000000000000000
  0
LINE
  5
F105D2
330
F105D3
100
AcDbEntity
8
Geo
100
AcDbLine
10
-78.3771147276422
20
-4.57605115962147
30
0.000000000000000
11
-78.2771147276422
21
-4.64795604289170
31
0.000000000000000
  0
LINE
  5
F105D4
330
F105D5
100
AcDbEntity
8
Geo
100
AcDbLine
10
-78.2771147276422
20
-4.64795604289170
30
0.000000000000000
11
-78.1771147276422
21
-4.71995520270874
31
0.000000000000000
  0
LINE
  5
F105D6
330
F105D7
100
AcDbEntity
8
Geo
100
AcDbLine
10
-78.1771147276422
20
-4.71995520270874
30
0.000000000000000
11
-78.0771147276422
21
-4.79203953709659
31
0.000000000000000
  0
LINE
  5
F105D8
330
F105D9
100
AcDbEntity
8
Geo
100
AcDbLine
10
-78.0771147276422
20
-4.79203953709659
30
0.000000000000000
11
-77.9771147276422
21
-4.86419991998692
31
0.000000000000000
  0
LINE
  5
F105DA
330
F105DB
100
AcDbEntity
8
Geo
100
AcDbLine
10
-77.9771147276422
20
-4.86419991998692
30
0.000000000000000
11
-77.8771147276422
21
-4.93642720197419
31
0.000000000000000
  0
LINE
  5
F105DC
330
F105DD
100
AcDbEntity
8
Geo
100
AcDbLine
10
-77.8771147276422
20
-4.93642720197419
30
0.000000000000000
11
-77.7771147276422
21
-5.00871221107292
31
0.000000000000000
  0
LINE
  5
F105DE
330
F105DF
100
AcDbEntity
8
Geo
100
AcDbLine
10
-77.7771147276422
20
-5.00871221107292
30
0.000000000000000
11
-77.6771147276422
21
-5.08104575347721
31
0.000000000000000
  0
LINE
  5
F105E0
330
F105E1
100
AcDbEntity
8
Geo
100
AcDbLine
10
-77.6771147276422
20
-5.08104575347721
30
0.000000000000000
11
-77.5771147276422
21
-5.15341861432231
31
0.000000000000000
  0
LINE
  5
F105E2
330
F105E3
100
AcDbEntity
8
Geo
100
AcDbLine
10
-77.5771147276422
20
-5.15341861432231
30
0.000000000000000
11
-77.4771147276422
21
-5.22582155844832
31
0.000000000000000
  0
LINE
  5
F105E4
330
F105E5
100
AcDbEntity
8
Geo
100
AcDbLine
10
-77.4771147276422
20
-5.22582155844832
30
0.000000000000000
11
-77.3771147276422
21
-5.29824533116581
31
0.000000000000000
  0
LINE
  5
F105E6
330
F105E7
100
AcDbEntity
8
Geo
100
AcDbLine
10
-77.3771147276422
20
-5.29824533116581
30
0.000000000000000
11
-77.2771147276422
21
-5.37068065902350
31
0.000000000000000
  0
LINE
  5
F105E8
330
F105E9
100
AcDbEntity
8
Geo
100
AcDbLine
10
-77.2771147276422
20
-5.37068065902350
30
0.000000000000000
11
-77.1771147276422
21
-5.44311825057773
31
0.000000000000000
  0
LINE
  5
F105EA
330
F105EB
100
AcDbEntity
8
Geo
100
AcDbLine
10
-77.1771147276422
20
-5.44311825057773
30
0.000000000000000
11
-77.0771147276422
21
-5.51554879716384
31
0.000000000000000
  0
LINE
  5
F105EC
330
F105ED
100
AcDbEntity
8
Geo
100
AcDbLine
10
-77.0771147276422
20
-5.51554879716384
30
0.000000000000000
11
-76.9771147276422
21
-5.58796297366933
31
0.000000000000000
  0
LINE
  5
F105EE
330
F105EF
100
AcDbEntity
8
Geo
100
AcDbLine
10
-76.9771147276422
20
-5.58796297366933
30
0.000000000000000
11
-76.8771147276422
21
-5.66035143930874
31
0.000000000000000
  0
LINE
  5
F105F0
330
F105F1
100
AcDbEntity
8
Geo
100
AcDbLine
10
-76.8771147276422
20
-5.66035143930874
30
0.000000000000000
11
-76.7771147276422
21
-5.73270483840019
31
0.000000000000000
  0
LINE
  5
F105F2
330
F105F3
100
AcDbEntity
8
Geo
100
AcDbLine
10
-76.7771147276422
20
-5.73270483840019
30
0.000000000000000
11
-76.6771147276422
21
-5.80501380114358
31
0.000000000000000
  0
LINE
  5
F105F4
330
F105F5
100
AcDbEntity
8
Geo
100
AcDbLine
10
-76.6771147276422
20
-5.80501380114358
30
0.000000000000000
11
-76.5771147276422
21
-5.87726894440036
31
0.000000000000000
  0
LINE
  5
F105F6
330
F105F7
100
AcDbEntity
8
Geo
100
AcDbLine
10
-76.5771147276422
20
-5.87726894440036
30
0.000000000000000
11
-76.4771147276422
21
-5.94946087247473
31
0.000000000000000
  0
LINE
  5
F105F8
330
F105F9
100
AcDbEntity
8
Geo
100
AcDbLine
10
-76.4771147276422
20
-5.94946087247473
30
0.000000000000000
11
-76.3771147276422
21
-6.02158017789638
31
0.000000000000000
  0
LINE
  5
F105FA
330
F105FB
100
AcDbEntity
8
Geo
100
AcDbLine
10
-76.3771147276422
20
-6.02158017789638
30
0.000000000000000
11
-76.2771147276422
21
-6.09361744220464
31
0.000000000000000
  0
LINE
  5
F105FC
330
F105FD
100
AcDbEntity
8
Geo
100
AcDbLine
10
-76.2771147276422
20
-6.09361744220464
30
0.000000000000000
11
-76.1771147276422
21
-6.16556323673385
31
0.000000000000000
  0
LINE
  5
F105FE
330
F105FF
100
AcDbEntity
8
Geo
100
AcDbLine
10
-76.1771147276422
20
-6.16556323673385
30
0.000000000000000
11
-76.0771147276422
21
-6.23740812340016
31
0.000000000000000
  0
LINE
  5
F10600
330
F10601
100
AcDbEntity
8
Geo
100
AcDbLine
10
-76.0771147276422
20
-6.23740812340016
30
0.000000000000000
11
-75.9771147276422
21
-6.30914265548946
31
0.000000000000000
  0
LINE
  5
F10602
330
F10603
100
AcDbEntity
8
Geo
100
AcDbLine
10
-75.9771147276422
20
-6.30914265548946
30
0.000000000000000
11
-75.8771147276422
21
-6.38075737844656
31
0.000000000000000
  0
LINE
  5
F10604
330
F10605
100
AcDbEntity
8
Geo
100
AcDbLine
10
-75.8771147276422
20
-6.38075737844656
30
0.000000000000000
11
-75.7771147276422
21
-6.45224283066539
31
0.000000000000000
  0
LINE
  5
F10606
330
F10607
100
AcDbEntity
8
Geo
100
AcDbLine
10
-75.7771147276422
20
-6.45224283066539
30
0.000000000000000
11
-75.6771147276422
21
-6.52358954428036
31
0.000000000000000
  0
LINE
  5
F10608
330
F10609
100
AcDbEntity
8
Geo
100
AcDbLine
10
-75.6771147276422
20
-6.52358954428036
30
0.000000000000000
11
-75.5771147276422
21
-6.59478804595864
31
0.000000000000000
  0
LINE
  5
F1060A
330
F1060B
100
AcDbEntity
8
Geo
100
AcDbLine
10
-75.5771147276422
20
-6.59478804595864
30
0.000000000000000
11
-75.4771147276422
21
-6.66582885769346
31
0.000000000000000
  0
LINE
  5
F1060C
330
F1060D
100
AcDbEntity
8
Geo
100
AcDbLine
10
-75.4771147276422
20
-6.66582885769346
30
0.000000000000000
11
-75.3771147276422
21
-6.73670249759823
31
0.000000000000000
  0
LINE
  5
F1060E
330
F1060F
100
AcDbEntity
8
Geo
100
AcDbLine
10
-75.3771147276422
20
-6.73670249759823
30
0.000000000000000
11
-75.2771147276422
21
-6.80739948070153
31
0.000000000000000
  0
LINE
  5
F10610
330
F10611
100
AcDbEntity
8
Geo
100
AcDbLine
10
-75.2771147276422
20
-6.80739948070153
30
0.000000000000000
11
-75.1771147276422
21
-6.85354589951407
31
0.000000000000000
  0
LINE
  5
F10612
330
F10613
100
AcDbEntity
8
Geo
100
AcDbLine
10
-75.1771147276422
20
-6.85354589951407
30
0.000000000000000
11
-75.0771147276422
21
-6.86782317135982
31
0.000000000000000
  0
LINE
  5
F10614
330
F10615
100
AcDbEntity
8
Geo
100
AcDbLine
10
-75.0771147276422
20
-6.86782317135982
30
0.000000000000000
11
-74.9771147276422
21
-6.88402868074419
31
0.000000000000000
  0
LINE
  5
F10616
330
F10617
100
AcDbEntity
8
Geo
100
AcDbLine
10
-74.9771147276422
20
-6.88402868074419
30
0.000000000000000
11
-74.8771147276422
21
-6.90072946007506
31
0.000000000000000
  0
LINE
  5
F10618
330
F10619
100
AcDbEntity
8
Geo
100
AcDbLine
10
-74.8771147276422
20
-6.90072946007506
30
0.000000000000000
11
-74.7771147276422
21
-6.91780221675791
31
0.000000000000000
  0
LINE
  5
F1061A
330
F1061B
100
AcDbEntity
8
Geo
100
AcDbLine
10
-74.7771147276422
20
-6.91780221675791
30
0.000000000000000
11
-74.6771147276422
21
-6.93511535405383
31
0.000000000000000
  0
LINE
  5
F1061C
330
F1061D
100
AcDbEntity
8
Geo
100
AcDbLine
10
-74.6771147276422
20
-6.93511535405383
30
0.000000000000000
11
-74.5771147276422
21
-6.95252892588701
31
0.000000000000000
  0
LINE
  5
F1061E
330
F1061F
100
AcDbEntity
8
Geo
100
AcDbLine
10
-74.5771147276422
20
-6.95252892588701
30
0.000000000000000
11
-74.4771147276422
21
-6.96989459827872
31
0.000000000000000
  0
LINE
  5
F10620
330
F10621
100
AcDbEntity
8
Geo
100
AcDbLine
10
-74.4771147276422
20
-6.96989459827872
30
0.000000000000000
11
-74.3771147276422
21
-6.98705561907774
31
0.000000000000000
  0
LINE
  5
F10622
330
F10623
100
AcDbEntity
8
Geo
100
AcDbLine
10
-74.3771147276422
20
-6.98705561907774
30
0.000000000000000
11
-74.2771147276422
21
-7.00384679775661
31
0.000000000000000
  0
LINE
  5
F10624
330
F10625
100
AcDbEntity
8
Geo
100
AcDbLine
10
-74.2771147276422
20
-7.00384679775661
30
0.000000000000000
11
-74.1771147276422
21
-7.02009449714239
31
0.000000000000000
  0
LINE
  5
F10626
330
F10627
100
AcDbEntity
8
Geo
100
AcDbLine
10
-74.1771147276422
20
-7.02009449714239
30
0.000000000000000
11
-74.0771147276422
21
-7.03561663904932
31
0.000000000000000
  0
LINE
  5
F10628
330
F10629
100
AcDbEntity
8
Geo
100
AcDbLine
10
-74.0771147276422
20
-7.03561663904932
30
0.000000000000000
11
-73.9771147276422
21
-7.05022272587711
31
0.000000000000000
  0
LINE
  5
F1062A
330
F1062B
100
AcDbEntity
8
Geo
100
AcDbLine
10
-73.9771147276422
20
-7.05022272587711
30
0.000000000000000
11
-73.8771147276422
21
-7.06371388033381
31
0.000000000000000
  0
LINE
  5
F1062C
330
F1062D
100
AcDbEntity
8
Geo
100
AcDbLine
10
-73.8771147276422
20
-7.06371388033381
30
0.000000000000000
11
-73.7771147276422
21
-7.07588290553399
31
0.000000000000000
  0
LINE
  5
F1062E
330
F1062F
100
AcDbEntity
8
Geo
100
AcDbLine
10
-73.7771147276422
20
-7.07588290553399
30
0.000000000000000
11
-73.6771147276422
21
-7.08651436781186
31
0.000000000000000
  0
LINE
  5
F10630
330
F10631
100
AcDbEntity
8
Geo
100
AcDbLine
10
-73.6771147276422
20
-7.08651436781186
30
0.000000000000000
11
-73.5771147276422
21
-7.09538470467372
31
0.000000000000000
  0
LINE
  5
F10632
330
F10633
100
AcDbEntity
8
Geo
100
AcDbLine
10
-73.5771147276422
20
-7.09538470467372
30
0.000000000000000
11
-73.4771147276422
21
-7.10226236039351
31
0.000000000000000
  0
LINE
  5
F10634
330
F10635
100
AcDbEntity
8
Geo
100
AcDbLine
10
-73.4771147276422
20
-7.10226236039351
30
0.000000000000000
11
-73.3771147276422
21
-7.10690795182933
31
0.000000000000000
  0
LINE
  5
F10636
330
F10637
100
AcDbEntity
8
Geo
100
AcDbLine
10
-73.3771147276422
20
-7.10690795182933
30
0.000000000000000
11
-73.2771147276422
21
-7.10907446710575
31
0.000000000000000
  0
LINE
  5
F10638
330
F10639
100
AcDbEntity
8
Geo
100
AcDbLine
10
-73.2771147276422
20
-7.10907446710575
30
0.000000000000000
11
-73.1771147276422
21
-7.10920317961872
31
0.000000000000000
  0
LINE
  5
F1063A
330
F1063B
100
AcDbEntity
8
Geo
100
AcDbLine
10
-85.1771147276422
20
2.70158105690948
30
0.000000000000000
11
-85.0771147276422
21
2.74746791067674
31
0.000000000000000
  0
LINE
  5
F1063C
330
F1063D
100
AcDbEntity
8
Geo
100
AcDbLine
10
-85.1771147276422
20
-0.452878779869927
30
0.000000000000000
11
-85.0771147276422
21
-0.482558849426961
31
0.000000000000000
  0
LINE
  5
F1063E
330
F1063F
100
AcDbEntity
8
Geo
100
AcDbLine
10
-85.0771147276422
20
2.74718290228063
30
0.000000000000000
11
-84.9771147276422
21
2.79245082799703
31
0.000000000000000
  0
LINE
  5
F10640
330
F10641
100
AcDbEntity
8
Geo
100
AcDbLine
10
-85.0771147276422
20
-0.482348032390603
30
0.000000000000000
11
-84.9771147276422
21
-0.512544611895001
31
0.000000000000000
  0
LINE
  5
F10642
330
F10643
100
AcDbEntity
8
Geo
100
AcDbLine
10
-84.9771147276422
20
2.79245082799703
30
0.000000000000000
11
-84.8771147276422
21
2.83737671742786
31
0.000000000000000
  0
LINE
  5
F10644
330
F10645
100
AcDbEntity
8
Geo
100
AcDbLine
10
-84.9771147276422
20
-0.512544611895001
30
0.000000000000000
11
-84.8771147276422
21
-0.543465212779274
31
0.000000000000000
  0
LINE
  5
F10646
330
F10647
100
AcDbEntity
8
Geo
100
AcDbLine
10
-84.8771147276422
20
2.83737671742786
30
0.000000000000000
11
-84.7771147276422
21
2.88195248441239
31
0.000000000000000
  0
LINE
  5
F10648
330
F10649
100
AcDbEntity
8
Geo
100
AcDbLine
10
-84.8771147276422
20
-0.543465212779274
30
0.000000000000000
11
-84.7771147276422
21
-0.575106450214230
31
0.000000000000000
  0
LINE
  5
F1064A
330
F1064B
100
AcDbEntity
8
Geo
100
AcDbLine
10
-84.7771147276422
20
2.88195248441239
30
0.000000000000000
11
-84.6771147276422
21
2.92617007398046
31
0.000000000000000
  0
LINE
  5
F1064C
330
F1064D
100
AcDbEntity
8
Geo
100
AcDbLine
10
-84.7771147276422
20
-0.575106450214230
30
0.000000000000000
11
-84.6771147276422
21
-0.607464860414050
31
0.000000000000000
  0
LINE
  5
F1064E
330
F1064F
100
AcDbEntity
8
Geo
100
AcDbLine
10
-84.6771147276422
20
2.92617007398046
30
0.000000000000000
11
-84.5771147276422
21
2.97002146307055
31
0.000000000000000
  0
LINE
  5
F10650
330
F10651
100
AcDbEntity
8
Geo
100
AcDbLine
10
-84.6771147276422
20
-0.607464860414050
30
0.000000000000000
11
-84.5771147276422
21
-0.640536900911257
31
0.000000000000000
  0
LINE
  5
F10652
330
F10653
100
AcDbEntity
8
Geo
100
AcDbLine
10
-84.5771147276422
20
2.97002146307055
30
0.000000000000000
11
-84.4771147276422
21
3.01349866124563
31
0.000000000000000
  0
LINE
  5
F10654
330
F10655
100
AcDbEntity
8
Geo
100
AcDbLine
10
-84.5771147276422
20
-0.640536900911257
30
0.000000000000000
11
-84.4771147276422
21
-0.674318950837947
31
0.000000000000000
  0
LINE
  5
F10656
330
F10657
100
AcDbEntity
8
Geo
100
AcDbLine
10
-84.4771147276422
20
3.01349866124563
30
0.000000000000000
11
-84.3771147276422
21
3.05659371140650
31
0.000000000000000
  0
LINE
  5
F10658
330
F10659
100
AcDbEntity
8
Geo
100
AcDbLine
10
-84.4771147276422
20
-0.674318950837947
30
0.000000000000000
11
-84.3771147276422
21
-0.708807311213251
31
0.000000000000000
  0
LINE
  5
F1065A
330
F1065B
100
AcDbEntity
8
Geo
100
AcDbLine
10
-84.3771147276422
20
3.05659371140650
30
0.000000000000000
11
-84.2771147276422
21
3.09929869050273
31
0.000000000000000
  0
LINE
  5
F1065C
330
F1065D
100
AcDbEntity
8
Geo
100
AcDbLine
10
-84.3771147276422
20
-0.708807311213251
30
0.000000000000000
11
-84.2771147276422
21
-0.743998205237004
31
0.000000000000000
  0
LINE
  5
F1065E
330
F1065F
100
AcDbEntity
8
Geo
100
AcDbLine
10
-84.2771147276422
20
3.09929869050273
30
0.000000000000000
11
-84.1771147276422
21
3.14160571024106
31
0.000000000000000
  0
LINE
  5
F10660
330
F10661
100
AcDbEntity
8
Geo
100
AcDbLine
10
-84.2771147276422
20
-0.743998205237004
30
0.000000000000000
11
-84.1771147276422
21
-0.779887778589599
31
0.000000000000000
  0
LINE
  5
F10662
330
F10663
100
AcDbEntity
8
Geo
100
AcDbLine
10
-84.1771147276422
20
3.14160571024106
30
0.000000000000000
11
-84.0771147276422
21
3.18350691779127
31
0.000000000000000
  0
LINE
  5
F10664
330
F10665
100
AcDbEntity
8
Geo
100
AcDbLine
10
-84.1771147276422
20
-0.779887778589599
30
0.000000000000000
11
-84.0771147276422
21
-0.816472099738026
31
0.000000000000000
  0
LINE
  5
F10666
330
F10667
100
AcDbEntity
8
Geo
100
AcDbLine
10
-84.0771147276422
20
3.18350691779127
30
0.000000000000000
11
-83.9771147276422
21
3.22499449648939
31
0.000000000000000
  0
LINE
  5
F10668
330
F10669
100
AcDbEntity
8
Geo
100
AcDbLine
10
-84.0771147276422
20
-0.816472099738026
30
0.000000000000000
11
-83.9771147276422
21
-0.853747160248043
31
0.000000000000000
  0
LINE
  5
F1066A
330
F1066B
100
AcDbEntity
8
Geo
100
AcDbLine
10
-83.9771147276422
20
3.22499449648939
30
0.000000000000000
11
-83.8771147276422
21
3.26606066653828
31
0.000000000000000
  0
LINE
  5
F1066C
330
F1066D
100
AcDbEntity
8
Geo
100
AcDbLine
10
-83.9771147276422
20
-0.853747160248043
30
0.000000000000000
11
-83.8771147276422
21
-0.891708875102479
31
0.000000000000000
  0
LINE
  5
F1066E
330
F1066F
100
AcDbEntity
8
Geo
100
AcDbLine
10
-83.8771147276422
20
3.26606066653828
30
0.000000000000000
11
-83.7771147276422
21
3.30669768570550
31
0.000000000000000
  0
LINE
  5
F10670
330
F10671
100
AcDbEntity
8
Geo
100
AcDbLine
10
-83.8771147276422
20
-0.891708875102479
30
0.000000000000000
11
-83.7771147276422
21
-0.930353083025644
31
0.000000000000000
  0
LINE
  5
F10672
330
F10673
100
AcDbEntity
8
Geo
100
AcDbLine
10
-83.7771147276422
20
3.30669768570550
30
0.000000000000000
11
-83.6771147276422
21
3.34689785001835
31
0.000000000000000
  0
LINE
  5
F10674
330
F10675
100
AcDbEntity
8
Geo
100
AcDbLine
10
-83.7771147276422
20
-0.930353083025644
30
0.000000000000000
11
-83.6771147276422
21
-0.969675546813813
31
0.000000000000000
  0
LINE
  5
F10676
330
F10677
100
AcDbEntity
8
Geo
100
AcDbLine
10
-83.6771147276422
20
3.34689785001835
30
0.000000000000000
11
-83.5771147276422
21
3.38665349445616
31
0.000000000000000
  0
LINE
  5
F10678
330
F10679
100
AcDbEntity
8
Geo
100
AcDbLine
10
-83.6771147276422
20
-0.969675546813813
30
0.000000000000000
11
-83.5771147276422
21
-1.00967195367177
31
0.000000000000000
  0
LINE
  5
F1067A
330
F1067B
100
AcDbEntity
8
Geo
100
AcDbLine
10
-83.5771147276422
20
3.38665349445616
30
0.000000000000000
11
-83.4771147276422
21
3.42595699363969
31
0.000000000000000
  0
LINE
  5
F1067C
330
F1067D
100
AcDbEntity
8
Geo
100
AcDbLine
10
-83.5771147276422
20
-1.00967195367177
30
0.000000000000000
11
-83.4771147276422
21
-1.05033791555540
31
0.000000000000000
  0
LINE
  5
F1067E
330
F1067F
100
AcDbEntity
8
Geo
100
AcDbLine
10
-83.4771147276422
20
3.42595699363969
30
0.000000000000000
11
-83.3771147276422
21
3.46480076251756
31
0.000000000000000
  0
LINE
  5
F10680
330
F10681
100
AcDbEntity
8
Geo
100
AcDbLine
10
-83.4771147276422
20
-1.05033791555540
30
0.000000000000000
11
-83.3771147276422
21
-1.09166896952026
31
0.000000000000000
  0
LINE
  5
F10682
330
F10683
100
AcDbEntity
8
Geo
100
AcDbLine
10
-83.3771147276422
20
3.46480076251756
30
0.000000000000000
11
-83.2771147276422
21
3.50317725704973
31
0.000000000000000
  0
LINE
  5
F10684
330
F10685
100
AcDbEntity
8
Geo
100
AcDbLine
10
-83.3771147276422
20
-1.09166896952026
30
0.000000000000000
11
-83.2771147276422
21
-1.13366057807616
31
0.000000000000000
  0
LINE
  5
F10686
330
F10687
100
AcDbEntity
8
Geo
100
AcDbLine
10
-83.2771147276422
20
3.50317725704973
30
0.000000000000000
11
-83.1771147276422
21
3.54107897488803
31
0.000000000000000
  0
LINE
  5
F10688
330
F10689
100
AcDbEntity
8
Geo
100
AcDbLine
10
-83.2771147276422
20
-1.13366057807616
30
0.000000000000000
11
-83.1771147276422
21
-1.17630812954771
31
0.000000000000000
  0
LINE
  5
F1068A
330
F1068B
100
AcDbEntity
8
Geo
100
AcDbLine
10
-83.1771147276422
20
3.54107897488803
30
0.000000000000000
11
-83.0771147276422
21
3.57849845605347
31
0.000000000000000
  0
LINE
  5
F1068C
330
F1068D
100
AcDbEntity
8
Geo
100
AcDbLine
10
-83.1771147276422
20
-1.17630812954771
30
0.000000000000000
11
-83.0771147276422
21
-1.21960693844079
31
0.000000000000000
  0
LINE
  5
F1068E
330
F1068F
100
AcDbEntity
8
Geo
100
AcDbLine
10
-83.0771147276422
20
3.57849845605347
30
0.000000000000000
11
-82.9771147276422
21
3.61542828361057
31
0.000000000000000
  0
LINE
  5
F10690
330
F10691
100
AcDbEntity
8
Geo
100
AcDbLine
10
-83.0771147276422
20
-1.21960693844079
30
0.000000000000000
11
-82.9771147276422
21
-1.26355224581491
31
0.000000000000000
  0
LINE
  5
F10692
330
F10693
100
AcDbEntity
8
Geo
100
AcDbLine
10
-82.9771147276422
20
3.61542828361057
30
0.000000000000000
11
-82.8771147276422
21
3.65186108433840
31
0.000000000000000
  0
LINE
  5
F10694
330
F10695
100
AcDbEntity
8
Geo
100
AcDbLine
10
-82.9771147276422
20
-1.26355224581491
30
0.000000000000000
11
-82.8771147276422
21
-1.30813921966151
31
0.000000000000000
  0
LINE
  5
F10696
330
F10697
100
AcDbEntity
8
Geo
100
AcDbLine
10
-82.8771147276422
20
3.65186108433840
30
0.000000000000000
11
-82.7771147276422
21
3.68778952939847
31
0.000000000000000
  0
LINE
  5
F10698
330
F10699
100
AcDbEntity
8
Geo
100
AcDbLine
10
-82.8771147276422
20
-1.30813921966151
30
0.000000000000000
11
-82.7771147276422
21
-1.35336295528806
31
0.000000000000000
  0
LINE
  5
F1069A
330
F1069B
100
AcDbEntity
8
Geo
100
AcDbLine
10
-82.7771147276422
20
3.68778952939847
30
0.000000000000000
11
-82.6771147276422
21
3.72320633499930
31
0.000000000000000
  0
LINE
  5
F1069C
330
F1069D
100
AcDbEntity
8
Geo
100
AcDbLine
10
-82.7771147276422
20
-1.35336295528806
30
0.000000000000000
11
-82.6771147276422
21
-1.39921847570802
31
0.000000000000000
  0
LINE
  5
F1069E
330
F1069F
100
AcDbEntity
8
Geo
100
AcDbLine
10
-82.6771147276422
20
3.72320633499930
30
0.000000000000000
11
-82.5771147276422
21
3.75810426305771
31
0.000000000000000
  0
LINE
  5
F106A0
330
F106A1
100
AcDbEntity
8
Geo
100
AcDbLine
10
-82.6771147276422
20
-1.39921847570802
30
0.000000000000000
11
-82.5771147276422
21
-1.44570073203661
31
0.000000000000000
  0
LINE
  5
F106A2
330
F106A3
100
AcDbEntity
8
Geo
100
AcDbLine
10
-82.5771147276422
20
3.75810426305771
30
0.000000000000000
11
-82.4771147276422
21
3.79247612185667
31
0.000000000000000
  0
LINE
  5
F106A4
330
F106A5
100
AcDbEntity
8
Geo
100
AcDbLine
10
-82.5771147276422
20
-1.44570073203661
30
0.000000000000000
11
-82.4771147276422
21
-1.49280460389232
31
0.000000000000000
  0
LINE
  5
F106A6
330
F106A7
100
AcDbEntity
8
Geo
100
AcDbLine
10
-82.4771147276422
20
3.79247612185667
30
0.000000000000000
11
-82.3771147276422
21
3.82631476669982
31
0.000000000000000
  0
LINE
  5
F106A8
330
F106A9
100
AcDbEntity
8
Geo
100
AcDbLine
10
-82.4771147276422
20
-1.49280460389232
30
0.000000000000000
11
-82.3771147276422
21
-1.54052489980420
31
0.000000000000000
  0
LINE
  5
F106AA
330
F106AB
100
AcDbEntity
8
Geo
100
AcDbLine
10
-82.3771147276422
20
3.82631476669982
30
0.000000000000000
11
-82.2771147276422
21
3.85961310056241
31
0.000000000000000
  0
LINE
  5
F106AC
330
F106AD
100
AcDbEntity
8
Geo
100
AcDbLine
10
-82.3771147276422
20
-1.54052489980420
30
0.000000000000000
11
-82.2771147276422
21
-1.58885635762490
31
0.000000000000000
  0
LINE
  5
F106AE
330
F106AF
100
AcDbEntity
8
Geo
100
AcDbLine
10
-82.2771147276422
20
3.85961310056241
30
0.000000000000000
11
-82.1771147276422
21
3.89236407473884
31
0.000000000000000
  0
LINE
  5
F106B0
330
F106B1
100
AcDbEntity
8
Geo
100
AcDbLine
10
-82.2771147276422
20
-1.58885635762490
30
0.000000000000000
11
-82.1771147276422
21
-1.63779364494926
31
0.000000000000000
  0
LINE
  5
F106B2
330
F106B3
100
AcDbEntity
8
Geo
100
AcDbLine
10
-82.1771147276422
20
3.89236407473884
30
0.000000000000000
11
-82.0771147276422
21
3.92456068948650
31
0.000000000000000
  0
LINE
  5
F106B4
330
F106B5
100
AcDbEntity
8
Geo
100
AcDbLine
10
-82.1771147276422
20
-1.63779364494926
30
0.000000000000000
11
-82.0771147276422
21
-1.68733135953878
31
0.000000000000000
  0
LINE
  5
F106B6
330
F106B7
100
AcDbEntity
8
Geo
100
AcDbLine
10
-82.0771147276422
20
3.92456068948650
30
0.000000000000000
11
-81.9771147276422
21
3.95619599466612
31
0.000000000000000
  0
LINE
  5
F106B8
330
F106B9
100
AcDbEntity
8
Geo
100
AcDbLine
10
-82.0771147276422
20
-1.68733135953878
30
0.000000000000000
11
-81.9771147276422
21
-1.73746402975152
31
0.000000000000000
  0
LINE
  5
F106BA
330
F106BB
100
AcDbEntity
8
Geo
100
AcDbLine
10
-81.9771147276422
20
3.95619599466612
30
0.000000000000000
11
-81.8771147276422
21
3.98726309037839
31
0.000000000000000
  0
LINE
  5
F106BC
330
F106BD
100
AcDbEntity
8
Geo
100
AcDbLine
10
-81.9771147276422
20
-1.73746402975152
30
0.000000000000000
11
-81.8771147276422
21
-1.78818611497769
31
0.000000000000000
  0
LINE
  5
F106BE
330
F106BF
100
AcDbEntity
8
Geo
100
AcDbLine
10
-81.8771147276422
20
3.98726309037839
30
0.000000000000000
11
-81.7771147276422
21
4.01775512759686
31
0.000000000000000
  0
LINE
  5
F106C0
330
F106C1
100
AcDbEntity
8
Geo
100
AcDbLine
10
-81.8771147276422
20
-1.78818611497769
30
0.000000000000000
11
-81.7771147276422
21
-1.83949200608085
31
0.000000000000000
  0
LINE
  5
F106C2
330
F106C3
100
AcDbEntity
8
Geo
100
AcDbLine
10
-81.7771147276422
20
4.01775512759686
30
0.000000000000000
11
-81.6771147276422
21
4.04766530879713
31
0.000000000000000
  0
LINE
  5
F106C4
330
F106C5
100
AcDbEntity
8
Geo
100
AcDbLine
10
-81.7771147276422
20
-1.83949200608085
30
0.000000000000000
11
-81.6771147276422
21
-1.89137602584453
31
0.000000000000000
  0
LINE
  5
F106C6
330
F106C7
100
AcDbEntity
8
Geo
100
AcDbLine
10
-81.6771147276422
20
4.04766530879713
30
0.000000000000000
11
-81.5771147276422
21
4.07698688858218
31
0.000000000000000
  0
LINE
  5
F106C8
330
F106C9
100
AcDbEntity
8
Geo
100
AcDbLine
10
-81.6771147276422
20
-1.89137602584453
30
0.000000000000000
11
-81.5771147276422
21
-1.94383242942452
31
0.000000000000000
  0
LINE
  5
F106CA
330
F106CB
100
AcDbEntity
8
Geo
100
AcDbLine
10
-81.5771147276422
20
4.07698688858218
30
0.000000000000000
11
-81.4771147276422
21
4.10571317430391
31
0.000000000000000
  0
LINE
  5
F106CC
330
F106CD
100
AcDbEntity
8
Geo
100
AcDbLine
10
-81.5771147276422
20
-1.94383242942452
30
0.000000000000000
11
-81.4771147276422
21
-1.99685540480643
31
0.000000000000000
  0
LINE
  5
F106CE
330
F106CF
100
AcDbEntity
8
Geo
100
AcDbLine
10
-81.4771147276422
20
4.10571317430391
30
0.000000000000000
11
-81.3771147276422
21
4.13383752668071
31
0.000000000000000
  0
LINE
  5
F106D0
330
F106D1
100
AcDbEntity
8
Geo
100
AcDbLine
10
-81.4771147276422
20
-1.99685540480643
30
0.000000000000000
11
-81.3771147276422
21
-2.05043907326893
31
0.000000000000000
  0
LINE
  5
F106D2
330
F106D3
100
AcDbEntity
8
Geo
100
AcDbLine
10
-81.3771147276422
20
4.13383752668071
30
0.000000000000000
11
-81.2771147276422
21
4.16135336041116
31
0.000000000000000
  0
LINE
  5
F106D4
330
F106D5
100
AcDbEntity
8
Geo
100
AcDbLine
10
-81.3771147276422
20
-2.05043907326893
30
0.000000000000000
11
-81.2771147276422
21
-2.10457748985219
31
0.000000000000000
  0
LINE
  5
F106D6
330
F106D7
100
AcDbEntity
8
Geo
100
AcDbLine
10
-81.2771147276422
20
4.16135336041116
30
0.000000000000000
11
-81.1771147276422
21
4.18825414478369
31
0.000000000000000
  0
LINE
  5
F106D8
330
F106D9
100
AcDbEntity
8
Geo
100
AcDbLine
10
-81.2771147276422
20
-2.10457748985219
30
0.000000000000000
11
-81.1771147276422
21
-2.15926464383184
31
0.000000000000000
  0
LINE
  5
F106DA
330
F106DB
100
AcDbEntity
8
Geo
100
AcDbLine
10
-81.1771147276422
20
4.18825414478369
30
0.000000000000000
11
-81.0771147276422
21
4.21453340428221
31
0.000000000000000
  0
LINE
  5
F106DC
330
F106DD
100
AcDbEntity
8
Geo
100
AcDbLine
10
-81.1771147276422
20
-2.15926464383184
30
0.000000000000000
11
-81.0771147276422
21
-2.21449445919819
31
0.000000000000000
  0
LINE
  5
F106DE
330
F106DF
100
AcDbEntity
8
Geo
100
AcDbLine
10
-81.0771147276422
20
4.21453340428221
30
0.000000000000000
11
-80.9771147276422
21
4.24018471918767
31
0.000000000000000
  0
LINE
  5
F106E0
330
F106E1
100
AcDbEntity
8
Geo
100
AcDbLine
10
-81.0771147276422
20
-2.21449445919819
30
0.000000000000000
11
-80.9771147276422
21
-2.27026079514085
31
0.000000000000000
  0
LINE
  5
F106E2
330
F106E3
100
AcDbEntity
8
Geo
100
AcDbLine
10
-80.9771147276422
20
4.24018471918767
30
0.000000000000000
11
-80.8771147276422
21
4.26520172617552
31
0.000000000000000
  0
LINE
  5
F106E4
330
F106E5
100
AcDbEntity
8
Geo
100
AcDbLine
10
-80.9771147276422
20
-2.27026079514085
30
0.000000000000000
11
-80.8771147276422
21
-2.32655744653851
31
0.000000000000000
  0
LINE
  5
F106E6
330
F106E7
100
AcDbEntity
8
Geo
100
AcDbLine
10
-80.8771147276422
20
4.26520172617552
30
0.000000000000000
11
-80.7771147276422
21
4.28957811890892
31
0.000000000000000
  0
LINE
  5
F106E8
330
F106E9
100
AcDbEntity
8
Geo
100
AcDbLine
10
-80.8771147276422
20
-2.32655744653851
30
0.000000000000000
11
-80.7771147276422
21
-2.38337814445410
31
0.000000000000000
  0
LINE
  5
F106EA
330
F106EB
100
AcDbEntity
8
Geo
100
AcDbLine
10
-80.7771147276422
20
4.28957811890892
30
0.000000000000000
11
-80.6771147276422
21
4.31330764862783
31
0.000000000000000
  0
LINE
  5
F106EC
330
F106ED
100
AcDbEntity
8
Geo
100
AcDbLine
10
-80.7771147276422
20
-2.38337814445410
30
0.000000000000000
11
-80.6771147276422
21
-2.44071655663501
31
0.000000000000000
  0
LINE
  5
F106EE
330
F106EF
100
AcDbEntity
8
Geo
100
AcDbLine
10
-80.6771147276422
20
4.31330764862783
30
0.000000000000000
11
-80.5771147276422
21
4.33638412473378
31
0.000000000000000
  0
LINE
  5
F106F0
330
F106F1
100
AcDbEntity
8
Geo
100
AcDbLine
10
-80.6771147276422
20
-2.44071655663501
30
0.000000000000000
11
-80.5771147276422
21
-2.49856628801865
31
0.000000000000000
  0
LINE
  5
F106F2
330
F106F3
100
AcDbEntity
8
Geo
100
AcDbLine
10
-80.5771147276422
20
4.33638412473378
30
0.000000000000000
11
-80.4771147276422
21
4.35880141537032
31
0.000000000000000
  0
LINE
  5
F106F4
330
F106F5
100
AcDbEntity
8
Geo
100
AcDbLine
10
-80.5771147276422
20
-2.49856628801865
30
0.000000000000000
11
-80.4771147276422
21
-2.55692088124296
31
0.000000000000000
  0
LINE
  5
F106F6
330
F106F7
100
AcDbEntity
8
Geo
100
AcDbLine
10
-80.4771147276422
20
4.35880141537032
30
0.000000000000000
11
-80.3771147276422
21
4.38055344799922
31
0.000000000000000
  0
LINE
  5
F106F8
330
F106F9
100
AcDbEntity
8
Geo
100
AcDbLine
10
-80.4771147276422
20
-2.55692088124296
30
0.000000000000000
11
-80.3771147276422
21
-2.61577381716223
31
0.000000000000000
  0
LINE
  5
F106FA
330
F106FB
100
AcDbEntity
8
Geo
100
AcDbLine
10
-80.3771147276422
20
4.38055344799922
30
0.000000000000000
11
-80.2771147276422
21
4.40163420997216
31
0.000000000000000
  0
LINE
  5
F106FC
330
F106FD
100
AcDbEntity
8
Geo
100
AcDbLine
10
-80.3771147276422
20
-2.61577381716223
30
0.000000000000000
11
-80.2771147276422
21
-2.67511851536780
31
0.000000000000000
  0
LINE
  5
F106FE
330
F106FF
100
AcDbEntity
8
Geo
100
AcDbLine
10
-80.2771147276422
20
4.40163420997216
30
0.000000000000000
11
-80.1771147276422
21
4.42203774909804
31
0.000000000000000
  0
LINE
  5
F10700
330
F10701
100
AcDbEntity
8
Geo
100
AcDbLine
10
-80.2771147276422
20
-2.67511851536780
30
0.000000000000000
11
-80.1771147276422
21
-2.73494833471389
31
0.000000000000000
  0
LINE
  5
F10702
330
F10703
100
AcDbEntity
8
Geo
100
AcDbLine
10
-80.1771147276422
20
4.42203774909804
30
0.000000000000000
11
-80.0771147276422
21
4.44175817420585
31
0.000000000000000
  0
LINE
  5
F10704
330
F10705
100
AcDbEntity
8
Geo
100
AcDbLine
10
-80.1771147276422
20
-2.73494833471389
30
0.000000000000000
11
-80.0771147276422
21
-2.79525657384842
31
0.000000000000000
  0
LINE
  5
F10706
330
F10707
100
AcDbEntity
8
Geo
100
AcDbLine
10
-80.0771147276422
20
4.44175817420585
30
0.000000000000000
11
-79.9771147276422
21
4.46078965570295
31
0.000000000000000
  0
LINE
  5
F10708
330
F10709
100
AcDbEntity
8
Geo
100
AcDbLine
10
-80.0771147276422
20
-2.79525657384842
30
0.000000000000000
11
-79.9771147276422
21
-2.85603647174875
31
0.000000000000000
  0
LINE
  5
F1070A
330
F1070B
100
AcDbEntity
8
Geo
100
AcDbLine
10
-79.9771147276422
20
4.46078965570295
30
0.000000000000000
11
-79.8771147276422
21
4.47912642612883
31
0.000000000000000
  0
LINE
  5
F1070C
330
F1070D
100
AcDbEntity
8
Geo
100
AcDbLine
10
-79.9771147276422
20
-2.85603647174875
30
0.000000000000000
11
-79.8771147276422
21
-2.91728120826236
31
0.000000000000000
  0
LINE
  5
F1070E
330
F1070F
100
AcDbEntity
8
Geo
100
AcDbLine
10
-79.8771147276422
20
4.47912642612883
30
0.000000000000000
11
-79.7771147276422
21
4.49676278070427
31
0.000000000000000
  0
LINE
  5
F10710
330
F10711
100
AcDbEntity
8
Geo
100
AcDbLine
10
-79.8771147276422
20
-2.91728120826236
30
0.000000000000000
11
-79.7771147276422
21
-2.97898390465239
31
0.000000000000000
  0
LINE
  5
F10712
330
F10713
100
AcDbEntity
8
Geo
100
AcDbLine
10
-79.7771147276422
20
4.49676278070427
30
0.000000000000000
11
-79.6771147276422
21
4.51369307787582
31
0.000000000000000
  0
LINE
  5
F10714
330
F10715
100
AcDbEntity
8
Geo
100
AcDbLine
10
-79.7771147276422
20
-2.97898390465239
30
0.000000000000000
11
-79.6771147276422
21
-3.04113762414808
31
0.000000000000000
  0
LINE
  5
F10716
330
F10717
100
AcDbEntity
8
Geo
100
AcDbLine
10
-79.6771147276422
20
4.51369307787582
30
0.000000000000000
11
-79.5771147276422
21
4.52991173985565
31
0.000000000000000
  0
LINE
  5
F10718
330
F10719
100
AcDbEntity
8
Geo
100
AcDbLine
10
-79.6771147276422
20
-3.04113762414808
30
0.000000000000000
11
-79.5771147276422
21
-3.10373537249990
31
0.000000000000000
  0
LINE
  5
F1071A
330
F1071B
100
AcDbEntity
8
Geo
100
AcDbLine
10
-79.5771147276422
20
4.52991173985565
30
0.000000000000000
11
-79.4771147276422
21
4.54541325315661
31
0.000000000000000
  0
LINE
  5
F1071C
330
F1071D
100
AcDbEntity
8
Geo
100
AcDbLine
10
-79.5771147276422
20
-3.10373537249990
30
0.000000000000000
11
-79.4771147276422
21
-3.16677009853959
31
0.000000000000000
  0
LINE
  5
F1071E
330
F1071F
100
AcDbEntity
8
Geo
100
AcDbLine
10
-79.4771147276422
20
4.54541325315661
30
0.000000000000000
11
-79.3771147276422
21
4.56019216912259
31
0.000000000000000
  0
LINE
  5
F10720
330
F10721
100
AcDbEntity
8
Geo
100
AcDbLine
10
-79.4771147276422
20
-3.16677009853959
30
0.000000000000000
11
-79.3771147276422
21
-3.23023469474478
31
0.000000000000000
  0
LINE
  5
F10722
330
F10723
100
AcDbEntity
8
Geo
100
AcDbLine
10
-79.3771147276422
20
4.56019216912259
30
0.000000000000000
11
-79.2771147276422
21
4.57424310445399
31
0.000000000000000
  0
LINE
  5
F10724
330
F10725
100
AcDbEntity
8
Geo
100
AcDbLine
10
-79.3771147276422
20
-3.23023469474478
30
0.000000000000000
11
-79.2771147276422
21
-3.29412199780842
31
0.000000000000000
  0
LINE
  5
F10726
330
F10727
100
AcDbEntity
8
Geo
100
AcDbLine
10
-79.2771147276422
20
4.57424310445399
30
0.000000000000000
11
-79.1771147276422
21
4.58756074172841
31
0.000000000000000
  0
LINE
  5
F10728
330
F10729
100
AcDbEntity
8
Geo
100
AcDbLine
10
-79.2771147276422
20
-3.29412199780842
30
0.000000000000000
11
-79.1771147276422
21
-3.35842478921276
31
0.000000000000000
  0
LINE
  5
F1072A
330
F1072B
100
AcDbEntity
8
Geo
100
AcDbLine
10
-79.1771147276422
20
4.58756074172841
30
0.000000000000000
11
-79.0771147276422
21
4.60013982991645
31
0.000000000000000
  0
LINE
  5
F1072C
330
F1072D
100
AcDbEntity
8
Geo
100
AcDbLine
10
-79.1771147276422
20
-3.35842478921276
30
0.000000000000000
11
-79.0771147276422
21
-3.42313579580796
31
0.000000000000000
  0
LINE
  5
F1072E
330
F1072F
100
AcDbEntity
8
Geo
100
AcDbLine
10
-79.0771147276422
20
4.60013982991645
30
0.000000000000000
11
-78.9771147276422
21
4.61197518489255
31
0.000000000000000
  0
LINE
  5
F10730
330
F10731
100
AcDbEntity
8
Geo
100
AcDbLine
10
-79.0771147276422
20
-3.42313579580796
30
0.000000000000000
11
-78.9771147276422
21
-3.48824769039534
31
0.000000000000000
  0
LINE
  5
F10732
330
F10733
100
AcDbEntity
8
Geo
100
AcDbLine
10
-78.9771147276422
20
4.61197518489255
30
0.000000000000000
11
-78.8771147276422
21
4.62306168994084
31
0.000000000000000
  0
LINE
  5
F10734
330
F10735
100
AcDbEntity
8
Geo
100
AcDbLine
10
-78.9771147276422
20
-3.48824769039534
30
0.000000000000000
11
-78.8771147276422
21
-3.55375309231501
31
0.000000000000000
  0
LINE
  5
F10736
330
F10737
100
AcDbEntity
8
Geo
100
AcDbLine
10
-78.8771147276422
20
4.62306168994084
30
0.000000000000000
11
-78.7771147276422
21
4.63339429625609
31
0.000000000000000
  0
LINE
  5
F10738
330
F10739
100
AcDbEntity
8
Geo
100
AcDbLine
10
-78.8771147276422
20
-3.55375309231501
30
0.000000000000000
11
-78.7771147276422
21
-3.61964456803811
31
0.000000000000000
  0
LINE
  5
F1073A
330
F1073B
100
AcDbEntity
8
Geo
100
AcDbLine
10
-78.7771147276422
20
4.63339429625609
30
0.000000000000000
11
-78.6771147276422
21
4.64296802343951
31
0.000000000000000
  0
LINE
  5
F1073C
330
F1073D
100
AcDbEntity
8
Geo
100
AcDbLine
10
-78.7771147276422
20
-3.61964456803811
30
0.000000000000000
11
-78.6771147276422
21
-3.68591463176342
31
0.000000000000000
  0
LINE
  5
F1073E
330
F1073F
100
AcDbEntity
8
Geo
100
AcDbLine
10
-78.6771147276422
20
4.64296802343951
30
0.000000000000000
11
-78.5771147276422
21
4.65177795998951
31
0.000000000000000
  0
LINE
  5
F10740
330
F10741
100
AcDbEntity
8
Geo
100
AcDbLine
10
-78.6771147276422
20
-3.68591463176342
30
0.000000000000000
11
-78.5771147276422
21
-3.75255574601840
31
0.000000000000000
  0
LINE
  5
F10742
330
F10743
100
AcDbEntity
8
Geo
100
AcDbLine
10
-78.5771147276422
20
4.65177795998951
30
0.000000000000000
11
-78.4771147276422
21
4.65981926378736
31
0.000000000000000
  0
LINE
  5
F10744
330
F10745
100
AcDbEntity
8
Geo
100
AcDbLine
10
-78.5771147276422
20
-3.75255574601840
30
0.000000000000000
11
-78.4771147276422
21
-3.81956032226455
31
0.000000000000000
  0
LINE
  5
F10746
330
F10747
100
AcDbEntity
8
Geo
100
AcDbLine
10
-78.4771147276422
20
4.65981926378736
30
0.000000000000000
11
-78.3771147276422
21
4.66708716257767
31
0.000000000000000
  0
LINE
  5
F10748
330
F10749
100
AcDbEntity
8
Geo
100
AcDbLine
10
-78.4771147276422
20
-3.81956032226455
30
0.000000000000000
11
-78.3771147276422
21
-3.88692072150715
31
0.000000000000000
  0
LINE
  5
F1074A
330
F1074B
100
AcDbEntity
8
Geo
100
AcDbLine
10
-78.3771147276422
20
4.66708716257767
30
0.000000000000000
11
-78.2771147276422
21
4.67357695444367
31
0.000000000000000
  0
LINE
  5
F1074C
330
F1074D
100
AcDbEntity
8
Geo
100
AcDbLine
10
-78.3771147276422
20
-3.88692072150715
30
0.000000000000000
11
-78.2771147276422
21
-3.95462925490915
31
0.000000000000000
  0
LINE
  5
F1074E
330
F1074F
100
AcDbEntity
8
Geo
100
AcDbLine
10
-78.2771147276422
20
4.67357695444367
30
0.000000000000000
11
-78.1771147276422
21
4.67928400827732
31
0.000000000000000
  0
LINE
  5
F10750
330
F10751
100
AcDbEntity
8
Geo
100
AcDbLine
10
-78.2771147276422
20
-3.95462925490915
30
0.000000000000000
11
-78.1771147276422
21
-4.02267818440944
31
0.000000000000000
  0
LINE
  5
F10752
330
F10753
100
AcDbEntity
8
Geo
100
AcDbLine
10
-78.1771147276422
20
4.67928400827732
30
0.000000000000000
11
-78.0771147276422
21
4.68420376424403
31
0.000000000000000
  0
LINE
  5
F10754
330
F10755
100
AcDbEntity
8
Geo
100
AcDbLine
10
-78.1771147276422
20
-4.02267818440944
30
0.000000000000000
11
-78.0771147276422
21
-4.09105972334519
31
0.000000000000000
  0
LINE
  5
F10756
330
F10757
100
AcDbEntity
8
Geo
100
AcDbLine
10
-78.0771147276422
20
4.68420376424403
30
0.000000000000000
11
-77.9771147276422
21
4.68833173424226
31
0.000000000000000
  0
LINE
  5
F10758
330
F10759
100
AcDbEntity
8
Geo
100
AcDbLine
10
-78.0771147276422
20
-4.09105972334519
30
0.000000000000000
11
-77.9771147276422
21
-4.15976603707834
31
0.000000000000000
  0
LINE
  5
F1075A
330
F1075B
100
AcDbEntity
8
Geo
100
AcDbLine
10
-77.9771147276422
20
4.68833173424226
30
0.000000000000000
11
-77.8771147276422
21
4.69166350235759
31
0.000000000000000
  0
LINE
  5
F1075C
330
F1075D
100
AcDbEntity
8
Geo
100
AcDbLine
10
-77.9771147276422
20
-4.15976603707834
30
0.000000000000000
11
-77.8771147276422
21
-4.22878924362627
31
0.000000000000000
  0
LINE
  5
F1075E
330
F1075F
100
AcDbEntity
8
Geo
100
AcDbLine
10
-77.8771147276422
20
4.69166350235759
30
0.000000000000000
11
-77.7771147276422
21
4.69419472531158
31
0.000000000000000
  0
LINE
  5
F10760
330
F10761
100
AcDbEntity
8
Geo
100
AcDbLine
10
-77.8771147276422
20
-4.22878924362627
30
0.000000000000000
11
-77.7771147276422
21
-4.29812141429640
31
0.000000000000000
  0
LINE
  5
F10762
330
F10763
100
AcDbEntity
8
Geo
100
AcDbLine
10
-77.7771147276422
20
4.69419472531158
30
0.000000000000000
11
-77.6771147276422
21
4.69592113290511
31
0.000000000000000
  0
LINE
  5
F10764
330
F10765
100
AcDbEntity
8
Geo
100
AcDbLine
10
-77.7771147276422
20
-4.29812141429640
30
0.000000000000000
11
-77.6771147276422
21
-4.36775457432488
31
0.000000000000000
  0
LINE
  5
F10766
330
F10767
100
AcDbEntity
8
Geo
100
AcDbLine
10
-77.6771147276422
20
4.69592113290511
30
0.000000000000000
11
-77.5771147276422
21
4.69683852845635
31
0.000000000000000
  0
LINE
  5
F10768
330
F10769
100
AcDbEntity
8
Geo
100
AcDbLine
10
-77.6771147276422
20
-4.36775457432488
30
0.000000000000000
11
-77.5771147276422
21
-4.43768070351925
31
0.000000000000000
  0
LINE
  5
F1076A
330
F1076B
100
AcDbEntity
8
Geo
100
AcDbLine
10
-77.5771147276422
20
4.69683852845635
30
0.000000000000000
11
-77.4771147276422
21
4.69694278923324
31
0.000000000000000
  0
LINE
  5
F1076C
330
F1076D
100
AcDbEntity
8
Geo
100
AcDbLine
10
-77.5771147276422
20
-4.43768070351925
30
0.000000000000000
11
-77.4771147276422
21
-4.50789173690492
31
0.000000000000000
  0
LINE
  5
F1076E
330
F1076F
100
AcDbEntity
8
Geo
100
AcDbLine
10
-77.4771147276422
20
4.69694278923324
30
0.000000000000000
11
-77.3771147276422
21
4.69622986688039
31
0.000000000000000
  0
LINE
  5
F10770
330
F10771
100
AcDbEntity
8
Geo
100
AcDbLine
10
-77.4771147276422
20
-4.50789173690492
30
0.000000000000000
11
-77.3771147276422
21
-4.57837956537562
31
0.000000000000000
  0
LINE
  5
F10772
330
F10773
100
AcDbEntity
8
Geo
100
AcDbLine
10
-77.3771147276422
20
4.69622986688039
30
0.000000000000000
11
-77.2771147276422
21
4.69469578784057
31
0.000000000000000
  0
LINE
  5
F10774
330
F10775
100
AcDbEntity
8
Geo
100
AcDbLine
10
-77.3771147276422
20
-4.57837956537562
30
0.000000000000000
11
-77.2771147276422
21
-4.64913603634763
31
0.000000000000000
  0
LINE
  5
F10776
330
F10777
100
AcDbEntity
8
Geo
100
AcDbLine
10
-77.2771147276422
20
4.69469578784057
30
0.000000000000000
11
-77.1771147276422
21
4.69233665377052
31
0.000000000000000
  0
LINE
  5
F10778
330
F10779
100
AcDbEntity
8
Geo
100
AcDbLine
10
-77.2771147276422
20
-4.64913603634763
30
0.000000000000000
11
-77.1771147276422
21
-4.72015295441782
31
0.000000000000000
  0
LINE
  5
F1077A
330
F1077B
100
AcDbEntity
8
Geo
100
AcDbLine
10
-77.1771147276422
20
4.69233665377052
30
0.000000000000000
11
-77.0771147276422
21
4.68914864195121
31
0.000000000000000
  0
LINE
  5
F1077C
330
F1077D
100
AcDbEntity
8
Geo
100
AcDbLine
10
-77.1771147276422
20
-4.72015295441782
30
0.000000000000000
11
-77.0771147276422
21
-4.79142208202533
31
0.000000000000000
  0
LINE
  5
F1077E
330
F1077F
100
AcDbEntity
8
Geo
100
AcDbLine
10
-77.0771147276422
20
4.68914864195121
30
0.000000000000000
11
-76.9771147276422
21
4.68512800569238
31
0.000000000000000
  0
LINE
  5
F10780
330
F10781
100
AcDbEntity
8
Geo
100
AcDbLine
10
-77.0771147276422
20
-4.79142208202533
30
0.000000000000000
11
-76.9771147276422
21
-4.86293514011709
31
0.000000000000000
  0
LINE
  5
F10782
330
F10783
100
AcDbEntity
8
Geo
100
AcDbLine
10
-76.9771147276422
20
4.68512800569238
30
0.000000000000000
11
-76.8771147276422
21
4.68027107473153
31
0.000000000000000
  0
LINE
  5
F10784
330
F10785
100
AcDbEntity
8
Geo
100
AcDbLine
10
-76.9771147276422
20
-4.86293514011709
30
0.000000000000000
11
-76.8771147276422
21
-4.93468380881680
31
0.000000000000000
  0
LINE
  5
F10786
330
F10787
100
AcDbEntity
8
Geo
100
AcDbLine
10
-76.8771147276422
20
4.68027107473153
30
0.000000000000000
11
-76.7771147276422
21
4.67457425562714
31
0.000000000000000
  0
LINE
  5
F10788
330
F10789
100
AcDbEntity
8
Geo
100
AcDbLine
10
-76.8771147276422
20
-4.93468380881680
30
0.000000000000000
11
-76.7771147276422
21
-5.00665972809766
31
0.000000000000000
  0
LINE
  5
F1078A
330
F1078B
100
AcDbEntity
8
Geo
100
AcDbLine
10
-76.7771147276422
20
4.67457425562714
30
0.000000000000000
11
-76.6771147276422
21
4.66803403214610
31
0.000000000000000
  0
LINE
  5
F1078C
330
F1078D
100
AcDbEntity
8
Geo
100
AcDbLine
10
-76.7771147276422
20
-5.00665972809766
30
0.000000000000000
11
-76.6771147276422
21
-5.07885449845855
31
0.000000000000000
  0
LINE
  5
F1078E
330
F1078F
100
AcDbEntity
8
Geo
100
AcDbLine
10
-76.6771147276422
20
4.66803403214610
30
0.000000000000000
11
-76.5771147276422
21
4.66064696564550
31
0.000000000000000
  0
LINE
  5
F10790
330
F10791
100
AcDbEntity
8
Geo
100
AcDbLine
10
-76.6771147276422
20
-5.07885449845855
30
0.000000000000000
11
-76.5771147276422
21
-5.15125968160370
31
0.000000000000000
  0
LINE
  5
F10792
330
F10793
100
AcDbEntity
8
Geo
100
AcDbLine
10
-76.5771147276422
20
4.66064696564550
30
0.000000000000000
11
-76.4771147276422
21
4.65240969544855
31
0.000000000000000
  0
LINE
  5
F10794
330
F10795
100
AcDbEntity
8
Geo
100
AcDbLine
10
-76.5771147276422
20
-5.15125968160370
30
0.000000000000000
11
-76.4771147276422
21
-5.22386680112590
31
0.000000000000000
  0
LINE
  5
F10796
330
F10797
100
AcDbEntity
8
Geo
100
AcDbLine
10
-76.4771147276422
20
4.65240969544855
30
0.000000000000000
11
-76.3771147276422
21
4.64331893921466
31
0.000000000000000
  0
LINE
  5
F10798
330
F10799
100
AcDbEntity
8
Geo
100
AcDbLine
10
-76.4771147276422
20
-5.22386680112590
30
0.000000000000000
11
-76.3771147276422
21
-5.29666734319296
31
0.000000000000000
  0
LINE
  5
F1079A
330
F1079B
100
AcDbEntity
8
Geo
100
AcDbLine
10
-76.3771147276422
20
4.64331893921466
30
0.000000000000000
11
-76.2771147276422
21
4.63337149330370
31
0.000000000000000
  0
LINE
  5
F1079C
330
F1079D
100
AcDbEntity
8
Geo
100
AcDbLine
10
-76.3771147276422
20
-5.29666734319296
30
0.000000000000000
11
-76.2771147276422
21
-5.36965275723770
31
0.000000000000000
  0
LINE
  5
F1079E
330
F1079F
100
AcDbEntity
8
Geo
100
AcDbLine
10
-76.2771147276422
20
4.63337149330370
30
0.000000000000000
11
-76.1771147276422
21
4.62256423313441
31
0.000000000000000
  0
LINE
  5
F107A0
330
F107A1
100
AcDbEntity
8
Geo
100
AcDbLine
10
-76.2771147276422
20
-5.36965275723770
30
0.000000000000000
11
-76.1771147276422
21
-5.44281445665106
31
0.000000000000000
  0
LINE
  5
F107A2
330
F107A3
100
AcDbEntity
8
Geo
100
AcDbLine
10
-76.1771147276422
20
4.62256423313441
30
0.000000000000000
11
-76.0771147276422
21
4.61089411353681
31
0.000000000000000
  0
LINE
  5
F107A4
330
F107A5
100
AcDbEntity
8
Geo
100
AcDbLine
10
-76.1771147276422
20
-5.44281445665106
30
0.000000000000000
11
-76.0771147276422
21
-5.51614381947862
31
0.000000000000000
  0
LINE
  5
F107A6
330
F107A7
100
AcDbEntity
8
Geo
100
AcDbLine
10
-76.0771147276422
20
4.61089411353681
30
0.000000000000000
11
-75.9771147276422
21
4.59835816909875
31
0.000000000000000
  0
LINE
  5
F107A8
330
F107A9
100
AcDbEntity
8
Geo
100
AcDbLine
10
-76.0771147276422
20
-5.51614381947862
30
0.000000000000000
11
-75.9771147276422
21
-5.58963218912022
31
0.000000000000000
  0
LINE
  5
F107AA
330
F107AB
100
AcDbEntity
8
Geo
100
AcDbLine
10
-75.9771147276422
20
4.59835816909875
30
0.000000000000000
11
-75.8771147276422
21
4.58495351450644
31
0.000000000000000
  0
LINE
  5
F107AC
330
F107AD
100
AcDbEntity
8
Geo
100
AcDbLine
10
-75.9771147276422
20
-5.58963218912022
30
0.000000000000000
11
-75.8771147276422
21
-5.66327087503276
31
0.000000000000000
  0
LINE
  5
F107AE
330
F107AF
100
AcDbEntity
8
Geo
100
AcDbLine
10
-75.8771147276422
20
4.58495351450644
30
0.000000000000000
11
-75.7771147276422
21
4.57067734487905
31
0.000000000000000
  0
LINE
  5
F107B0
330
F107B1
100
AcDbEntity
8
Geo
100
AcDbLine
10
-75.8771147276422
20
-5.66327087503276
30
0.000000000000000
11
-75.7771147276422
21
-5.73705115343615
31
0.000000000000000
  0
LINE
  5
F107B2
330
F107B3
100
AcDbEntity
8
Geo
100
AcDbLine
10
-75.7771147276422
20
4.57067734487905
30
0.000000000000000
11
-75.6771147276422
21
4.55552693609719
31
0.000000000000000
  0
LINE
  5
F107B4
330
F107B5
100
AcDbEntity
8
Geo
100
AcDbLine
10
-75.7771147276422
20
-5.73705115343615
30
0.000000000000000
11
-75.6771147276422
21
-5.81096426802223
31
0.000000000000000
  0
LINE
  5
F107B6
330
F107B7
100
AcDbEntity
8
Geo
100
AcDbLine
10
-75.6771147276422
20
4.55552693609719
30
0.000000000000000
11
-75.5771147276422
21
4.53949964512543
31
0.000000000000000
  0
LINE
  5
F107B8
330
F107B9
100
AcDbEntity
8
Geo
100
AcDbLine
10
-75.6771147276422
20
-5.81096426802223
30
0.000000000000000
11
-75.5771147276422
21
-5.88500143066678
31
0.000000000000000
  0
LINE
  5
F107BA
330
F107BB
100
AcDbEntity
8
Geo
100
AcDbLine
10
-75.5771147276422
20
4.53949964512543
30
0.000000000000000
11
-75.4771147276422
21
4.52259291032873
31
0.000000000000000
  0
LINE
  5
F107BC
330
F107BD
100
AcDbEntity
8
Geo
100
AcDbLine
10
-75.5771147276422
20
-5.88500143066678
30
0.000000000000000
11
-75.4771147276422
21
-5.95915382214443
31
0.000000000000000
  0
LINE
  5
F107BE
330
F107BF
100
AcDbEntity
8
Geo
100
AcDbLine
10
-75.4771147276422
20
4.52259291032873
30
0.000000000000000
11
-75.3771147276422
21
4.50480425178271
31
0.000000000000000
  0
LINE
  5
F107C0
330
F107C1
100
AcDbEntity
8
Geo
100
AcDbLine
10
-75.4771147276422
20
-5.95915382214443
30
0.000000000000000
11
-75.3771147276422
21
-6.03341259284649
31
0.000000000000000
  0
LINE
  5
F107C2
330
F107C3
100
AcDbEntity
8
Geo
100
AcDbLine
10
-75.3771147276422
20
4.50480425178271
30
0.000000000000000
11
-75.2771147276422
21
4.48613127157785
31
0.000000000000000
  0
LINE
  5
F107C4
330
F107C5
100
AcDbEntity
8
Geo
100
AcDbLine
10
-75.3771147276422
20
-6.03341259284649
30
0.000000000000000
11
-75.2771147276422
21
-6.10776886350161
31
0.000000000000000
  0
LINE
  5
F107C6
330
F107C7
100
AcDbEntity
8
Geo
100
AcDbLine
10
-75.2771147276422
20
4.48613127157785
30
0.000000000000000
11
-75.1771147276422
21
4.45303962247249
31
0.000000000000000
  0
LINE
  5
F107C8
330
F107C9
100
AcDbEntity
8
Geo
100
AcDbLine
10
-75.2771147276422
20
-6.10776886350161
30
0.000000000000000
11
-75.1771147276422
21
-6.16099228202477
31
0.000000000000000
  0
LINE
  5
F107CA
330
F107CB
100
AcDbEntity
8
Geo
100
AcDbLine
10
-75.1771147276422
20
4.45303962247249
30
0.000000000000000
11
-75.0771147276422
21
4.40205539369756
31
0.000000000000000
  0
LINE
  5
F107CC
330
F107CD
100
AcDbEntity
8
Geo
100
AcDbLine
10
-75.1771147276422
20
-6.16099228202477
30
0.000000000000000
11
-75.0771147276422
21
-6.18651669232793
31
0.000000000000000
  0
LINE
  5
F107CE
330
F107CF
100
AcDbEntity
8
Geo
100
AcDbLine
10
-89.0771147276422
20
0.890796820381283
30
0.000000000000000
11
-89.0771147276422
21
0.890796820381283
31
0.000000000000000
  0
LINE
  5
F107D0
330
F107D1
100
AcDbEntity
8
Geo
100
AcDbLine
10
-89.0771147276422
20
0.890796820381283
30
0.000000000000000
11
-89.0771147276422
21
0.890796820381283
31
0.000000000000000
  0
LINE
  5
F107D2
330
F107D3
100
AcDbEntity
8
Geo
100
AcDbLine
10
-90.0771147276422
20
0.890796820381283
30
0.000000000000000
11
-89.7771147276422
21
0.890796820381283
31
0.000000000000000
  0
LINE
  5
F107D4
330
F107D5
100
AcDbEntity
8
Geo
100
AcDbLine
10
-89.6496147276422
20
0.890796820381283
30
0.000000000000000
11
-89.5646147276422
21
0.890796820381283
31
0.000000000000000
  0
LINE
  5
F107D6
330
F107D7
100
AcDbEntity
8
Geo
100
AcDbLine
10
-89.3521147276422
20
0.890796820381283
30
0.000000000000000
11
-88.9271147276422
21
0.890796820381283
31
0.000000000000000
  0
LINE
  5
F107D8
330
F107D9
100
AcDbEntity
8
Geo
100
AcDbLine
10
-88.7996147276422
20
0.890796820381283
30
0.000000000000000
11
-88.7146147276422
21
0.890796820381283
31
0.000000000000000
  0
LINE
  5
F107DA
330
F107DB
100
AcDbEntity
8
Geo
100
AcDbLine
10
-88.5021147276422
20
0.890796820381283
30
0.000000000000000
11
-88.0771147276422
21
0.890796820381283
31
0.000000000000000
  0
LINE
  5
F107DC
330
F107DD
100
AcDbEntity
8
Geo
100
AcDbLine
10
-0.0771147276421971
20
8.39079682038128
30
0.000000000000000
11
-0.0771147276421971
21
0.890796820381283
31
0.000000000000000
  0
LINE
  5
F107DE
330
F107DF
100
AcDbEntity
8
Geo
100
AcDbLine
10
-89.0771147276422
20
0.890796820381283
30
0.000000000000000
11
-75.2207082670912
21
-7.10920317961872
31
0.000000000000000
  0
LINE
  5
F107E0
330
F107E1
100
AcDbEntity
8
Geo
100
AcDbLine
10
-75.2207082670912
20
-7.10920317961872
30
0.000000000000000
11
-75.2211147276422
21
-7.10920317961872
31
0.000000000000000
  0
LINE
  5
F107E2
330
F107E3
100
AcDbEntity
8
Geo
100
AcDbLine
10
-75.2211147276422
20
-7.10920317961872
30
0.000000000000000
11
-0.577114727642197
21
-7.10920317961872
31
0.000000000000000
  0
LINE
  5
F107E4
330
F107E5
100
AcDbEntity
8
Geo
100
AcDbLine
10
-0.577114727642197
20
-7.10920317961872
30
0.000000000000000
11
-0.0771147276421971
21
-6.60920317961872
31
0.000000000000000
  0
LINE
  5
F107E6
330
F107E7
100
AcDbEntity
8
Geo
100
AcDbLine
10
-75.2207082670912
20
8.89079682038128
30
0.000000000000000
11
-75.2207082670912
21
-7.10920317961872
31
0.000000000000000
  0
LINE
  5
F107E8
330
F107E9
100
AcDbEntity
8
Geo
100
AcDbLine
10
-0.577114727642197
20
8.89079682038128
30
0.000000000000000
11
-0.577114727642197
21
-7.10920317961872
31
0.000000000000000
  0
LINE
  5
F107EA
330
F107EB
100
AcDbEntity
8
Geo
100
AcDbLine
10
-0.0771147276421971
20
8.39079682038128
30
0.000000000000000
11
-0.0771147276421971
21
-6.60920317961872
31
0.000000000000000
  0
LWPOLYLINE
  5
F107EC
330
F107ED
100
AcDbEntity
8
Rahmen
100
AcDbPolyline
90
   4
70
   1
43
   0.0
 10
-125.662921995338
 20
102.912810882491
 10
134.497640436625
 20
102.912810882491
 10
134.497640436625
 20
-103.151865370710
 10
-125.662921995338
 20
-103.151865370710
  0
TEXT
  5
F107EE
330
F107EF
 100
AcDbEntity
8
Text
100
AcDbText
10
-124.724843044261
20
-102.651865370710
30
0.000000000000000
40
1.00000000000000
1
ISBESketcher
100
AcDbText
  0
LWPOLYLINE
  5
F107F0
330
F107F1
100
AcDbEntity
8
Rahmen
100
AcDbPolyline
90
   4
70
   1
43
   0.0
 10
94.4729385240153
 20
-100.024935533787
 10
134.497640436625
 20
-100.024935533787
 10
134.497640436625
 20
-103.151865370710
 10
94.4729385240153
 20
-103.151865370710
  0
TEXT
  5
F107F2
330
F107F3
 100
AcDbEntity
8
Text
100
AcDbText
10
95.5000000000000
20
-102.031732459231
30
0.000000000000000
40
0.750000000000000
1
Created by:
100
AcDbText
  0
TEXT
  5
F107F4
330
F107F5
 100
AcDbEntity
8
Text
100
AcDbText
10
120.467495606000
20
-102.031732459231
30
0.000000000000000
40
0.750000000000000
1
nsarkol
100
AcDbText
  0
LWPOLYLINE
  5
F107F6
330
F107F7
100
AcDbEntity
8
Rahmen
100
AcDbPolyline
90
   4
70
   1
43
   0.0
 10
54.4482366114055
 20
-100.024935533787
 10
94.4729385240153
 20
-100.024935533787
 10
94.4729385240153
 20
-103.151865370710
 10
54.4482366114055
 20
-103.151865370710
  0
TEXT
  5
F107F8
330
F107F9
 100
AcDbEntity
8
Text
100
AcDbText
10
55.5000000000000
20
-102.031732459231
30
0.000000000000000
40
0.750000000000000
1
Created for:
100
AcDbText
  0
TEXT
  5
F107FA
330
F107FB
 100
AcDbEntity
8
Text
100
AcDbText
10
0.000000000000000
20
0.250000000000000
30
0.000000000000000
40
0.750000000000000
1

100
AcDbText
  0
LWPOLYLINE
  5
F107FC
330
F107FD
100
AcDbEntity
8
Rahmen
100
AcDbPolyline
90
   4
70
   1
43
   0.0
 10
121.051842137858
 20
-97.2106986805570
 10
134.497640436625
 20
-97.2106986805570
 10
134.497640436625
 20
-100.024935533787
 10
121.051842137858
 20
-100.024935533787
  0
TEXT
  5
F107FE
330
F107FF
 100
AcDbEntity
8
Text
100
AcDbText
10
122.166666666667
20
-99.0317324592307
30
0.000000000000000
40
0.750000000000000
1
Pages
100
AcDbText
  0
TEXT
  5
F10800
330
F10801
 100
AcDbEntity
8
Text
100
AcDbText
10
0.000000000000000
20
0.250000000000000
30
0.000000000000000
40
0.750000000000000
1

100
AcDbText
  0
LWPOLYLINE
  5
F10802
330
F10803
100
AcDbEntity
8
Rahmen
100
AcDbPolyline
90
   4
70
   1
43
   0.0
 10
121.051842137858
 20
-94.0837688436343
 10
134.497640436625
 20
-94.0837688436343
 10
134.497640436625
 20
-97.2106986805570
 10
121.051842137858
 20
-97.2106986805570
  0
TEXT
  5
F10804
330
F10805
 100
AcDbEntity
8
Text
100
AcDbText
10
122.166666666667
20
-96.0317324592307
30
0.000000000000000
40
0.750000000000000
1
Page
100
AcDbText
  0
TEXT
  5
F10806
330
F10807
 100
AcDbEntity
8
Text
100
AcDbText
10
0.000000000000000
20
0.250000000000000
30
0.000000000000000
40
0.750000000000000
1

100
AcDbText
  0
LWPOLYLINE
  5
F10808
330
F10809
100
AcDbEntity
8
Rahmen
100
AcDbPolyline
90
   4
70
   1
43
   0.0
 10
54.4482366114055
 20
-94.0837688436343
 10
121.051842137858
 20
-94.0837688436343
 10
121.051842137858
 20
-100.024935533787
 10
54.4482366114055
 20
-100.024935533787
  0
TEXT
  5
F1080A
330
F1080B
 100
AcDbEntity
8
Text
100
AcDbText
10
55.5000000000000
20
-96.0317324592307
30
0.000000000000000
40
0.750000000000000
1
Date:
100
AcDbText
  0
TEXT
  5
F1080C
330
F1080D
 100
AcDbEntity
8
Text
100
AcDbText
10
84.8627499882568
20
-99.0317324592307
30
0.000000000000000
40
0.750000000000000
1
27.09.2016
100
AcDbText
  0
LWPOLYLINE
  5
F1080E
330
F1080F
100
AcDbEntity
8
Rahmen
100
AcDbPolyline
90
   4
70
   1
43
   0.0
 10
54.4482366114055
 20
-88.1426021534813
 10
134.497640436625
 20
-88.1426021534813
 10
134.497640436625
 20
-94.0837688436343
 10
54.4482366114055
 20
-94.0837688436343
  0
TEXT
  5
F10810
330
F10811
 100
AcDbEntity
8
Text
100
AcDbText
10
0.000000000000000
20
0.500000000000000
30
0.000000000000000
40
1.50000000000000
1

100
AcDbText
  0
TEXT
  5
F10812
330
F10813
 100
AcDbEntity
8
Text
100
AcDbText
10
79.0216973072330
20
-92.6682105362048
30
0.000000000000000
40
2.50000000000000
1
CH6 16.0x89 60°
100
AcDbText
  0
LWPOLYLINE
  5
F10814
330
F10815
100
AcDbEntity
8
Rahmen
100
AcDbPolyline
90
   4
70
   1
43
   0.0
 10
94.4729385240153
 20
-82.2014354633284
 10
134.497640436625
 20
-82.2014354633284
 10
134.497640436625
 20
-88.1426021534813
 10
94.4729385240153
 20
-88.1426021534813
  0
TEXT
  5
F10816
330
F10817
 100
AcDbEntity
8
Text
100
AcDbText
10
95.5000000000000
20
-84.0317324592307
30
0.000000000000000
40
0.750000000000000
1
Work piece material:
100
AcDbText
  0
TEXT
  5
F10818
330
F10819
 100
AcDbEntity
8
Text
100
AcDbText
10
0.000000000000000
20
0.250000000000000
30
0.000000000000000
40
0.750000000000000
1

100
AcDbText
  0
LWPOLYLINE
  5
F1081A
330
F1081B
100
AcDbEntity
8
Rahmen
100
AcDbPolyline
90
   4
70
   1
43
   0.0
 10
54.4482366114055
 20
-82.2014354633284
 10
94.4729385240153
 20
-82.2014354633284
 10
94.4729385240153
 20
-88.1426021534813
 10
54.4482366114055
 20
-88.1426021534813
  0
TEXT
  5
F1081C
330
F1081D
 100
AcDbEntity
8
Text
100
AcDbText
10
55.5000000000000
20
-84.0317324592307
30
0.000000000000000
40
0.750000000000000
1
Tool material:
100
AcDbText
  0
TEXT
  5
F1081E
330
F1081F
 100
AcDbEntity
8
Text
100
AcDbText
10
0.000000000000000
20
0.250000000000000
30
0.000000000000000
40
0.750000000000000
1

100
AcDbText
  0
LWPOLYLINE
  5
F10820
330
F10821
100
AcDbEntity
8
Rahmen
100
AcDbPolyline
90
   4
70
   1
43
   0.0
 10
94.4729385240153
 20
-79.0745056264057
 10
134.497640436625
 20
-79.0745056264057
 10
134.497640436625
 20
-82.2014354633284
 10
94.4729385240153
 20
-82.2014354633284
  0
TEXT
  5
F10822
330
F10823
 100
AcDbEntity
8
Text
100
AcDbText
10
0.000000000000000
20
0.500000000000000
30
0.000000000000000
40
1.50000000000000
1

100
AcDbText
  0
TEXT
  5
F10824
330
F10825
 100
AcDbEntity
8
Text
100
AcDbText
10
0.000000000000000
20
0.250000000000000
30
0.000000000000000
40
0.750000000000000
1

100
AcDbText
  0
LWPOLYLINE
  5
F10826
330
F10827
100
AcDbEntity
8
Rahmen
100
AcDbPolyline
90
   4
70
   1
43
   0.0
 10
54.4482366114055
 20
-79.0745056264057
 10
94.4729385240153
 20
-79.0745056264057
 10
94.4729385240153
 20
-82.2014354633284
 10
54.4482366114055
 20
-82.2014354633284
  0
TEXT
  5
F10828
330
F10829
 100
AcDbEntity
8
Text
100
AcDbText
10
55.5000000000000
20
-81.0317324592307
30
0.000000000000000
40
0.750000000000000
1
Scale:
100
AcDbText
  0
TEXT
  5
F1082A
330
F1082B
 100
AcDbEntity
8
Text
100
AcDbText
10
81.2492280652310
20
-81.0317324592307
30
0.000000000000000
40
0.750000000000000
1
2 : 1
100
AcDbText
0
VIEWPORT
5
294
102
{ACAD_XDICTIONARY
360
58A
102
}
330
25D
100
AcDbEntity
67
1
8
0
60
1
100
AcDbViewport
10
0.0
20
0.0
30
0.0
40
10.0
41
10.0
68
-1
69
1
12
0.0
22
0.0
13
0.0
23
0.0
14
1.0
24
1.0
15
0.0
25
0.0
16
0.0
26
0.0
36
1.0
17
0.0
27
0.0
37
0.0
42
0.0
43
0.0
44
0.0
45
10.0
50
0.0
51
0.0000000000007958
72
100
90
32800
1

281
0
71
0
74
0
110
0.0
120
0.0
130
0.0
111
1.0
121
0.0
131
0.0
112
0.0
122
1.0
132
0.0
79
0
146
0.0
1001
VD_INVISIBLE_NOT_FOR_READ
1000
VD_INVISIBLE_NOT_FOR_READ
0
VIEWPORT
5
295
102
{ACAD_XDICTIONARY
360
58C
102
}
330
25D
100
AcDbEntity
67
1
8
0
60
1
100
AcDbViewport
10
0.0
20
0.0
30
0.0
40
10.0
41
10.0
68
0
69
2
12
0.0
22
0.0
13
0.0
23
0.0
14
1.0
24
1.0
15
0.0
25
0.0
16
0.0
26
0.0
36
1.0
17
0.0
27
0.0
37
0.0
42
0.0
43
0.0
44
0.0
45
10.0
50
0.0
51
0.0000000000007958
72
100
90
163872
1

281
0
71
0
74
0
110
0.0
120
0.0
130
0.0
111
1.0
121
0.0
131
0.0
112
0.0
122
1.0
132
0.0
79
0
146
0.0
1001
VD_INVISIBLE_NOT_FOR_READ
1000
VD_INVISIBLE_NOT_FOR_READ
0
ENDSEC
0
SECTION
2
OBJECTS
0
DICTIONARY
5
13
330
0
100
AcDbDictionary
281
1
3
ACAD_COLOR
350
FA7
3
ACAD_GROUP
350
14
3
ACAD_LAYOUT
350
FCF
3
ACAD_MATERIAL
350
F7A
3
ACAD_MLEADERSTYLE
350
FCD
3
ACAD_MLINESTYLE
350
16
3
ACAD_PLOTSETTINGS
350
17
3
ACAD_PLOTSTYLENAME
350
18
3
ACAD_SCALELIST
350
FAB
3
ACAD_TABLESTYLE
350
FA8
3
ACAD_VISUALSTYLE
350
F93
3
ACDB_RECOMPOSE_DATA
350
107E
3
AcDbVariableDictionary
350
FF0
3
DWGPROPS
350
107F
0
DICTIONARY
5
F1000F
330
F1000E
100
AcDbDictionary
280
1
281
1
3
ACAD_MTEXT_2008_RT
360
F10010
0
DICTIONARY
5
F10014
330
F10013
100
AcDbDictionary
280
1
281
1
3
ACAD_MTEXT_2008_RT
360
F10015
0
DICTIONARY
5
F10005
330
F10004
100
AcDbDictionary
280
1
281
1
3
ACAD_MTEXT_2008_RT
360
F10006
0
DICTIONARY
5
F1000A
330
F10009
100
AcDbDictionary
280
1
281
1
3
ACAD_MTEXT_2008_RT
360
F1000B
0
DICTIONARY
5
FA7
102
{ACAD_REACTORS
330
13
102
}
330
13
100
AcDbDictionary
281
1
0
DICTIONARY
5
14
330
13
100
AcDbDictionary
281
1
0
DICTIONARY
5
FCF
102
{ACAD_REACTORS
330
13
102
}
330
13
100
AcDbDictionary
281
1
3
Layout1
350
FD1
3
Model
350
FD0
0
DICTIONARY
5
F7A
102
{ACAD_REACTORS
330
13
102
}
330
13
100
AcDbDictionary
281
1
3
ByBlock
350
F83
3
ByLayer
350
F7B
3
Global
350
F8B
0
DICTIONARY
5
FCD
102
{ACAD_REACTORS
330
13
102
}
330
13
100
AcDbDictionary
281
1
3
Standard
350
FCE
0
DICTIONARY
5
16
330
13
100
AcDbDictionary
281
1
3
Standard
350
FAA
0
DICTIONARY
5
17
102
{ACAD_REACTORS
330
13
102
}
330
13
100
AcDbDictionary
281
1
0
ACDBDICTIONARYWDFLT
5
18
102
{ACAD_REACTORS
330
13
102
}
330
13
100
AcDbDictionary
281
1
3
Normal
350
19
100
AcDbDictionaryWithDefault
340
19
0
DICTIONARY
5
FAB
102
{ACAD_REACTORS
330
13
102
}
330
13
100
AcDbDictionary
281
1
3
A0
350
FAC
3
A1
350
FAD
3
A2
350
FAE
3
A3
350
FAF
3
A4
350
FB0
3
A5
350
FB1
3
A6
350
FB2
3
A7
350
FB3
3
A8
350
FB4
3
A9
350
FB5
3
B0
350
FB6
3
B1
350
FB7
3
B2
350
FB8
3
B3
350
FB9
3
B4
350
FBA
3
B5
350
FBB
3
B6
350
FBC
3
B7
350
FBD
3
B8
350
FBE
3
B9
350
FBF
3
C0
350
FC0
3
C1
350
FC1
3
C2
350
FC2
3
C3
350
FC3
3
C4
350
FC4
3
C5
350
FC5
3
C6
350
FC6
3
C7
350
FC7
3
C8
350
FC8
3
C9
350
FC9
3
D0
350
FCA
3
D1
350
FCB
3
D2
350
FCC
0
DICTIONARY
5
FA8
102
{ACAD_REACTORS
330
13
102
}
330
13
100
AcDbDictionary
281
1
3
Standard
350
FA9
0
DICTIONARY
5
F93
102
{ACAD_REACTORS
330
13
102
}
330
13
100
AcDbDictionary
281
1
3
2dWireframe
350
F99
3
3D Hidden
350
F9B
3
3dWireframe
350
F9A
3
Basic
350
F98
3
Brighten
350
F9F
3
ColorChange
350
FA3
3
Conceptual
350
F9C
3
Dim
350
F9E
3
EdgeColorOff
350
FA6
3
Facepattern
350
FA2
3
Flat
350
F94
3
FlatWithEdges
350
F95
3
Gouraud
350
F96
3
GouraudWithEdges
350
F97
3
JitterOff
350
FA4
3
Linepattern
350
FA1
3
OverhangOff
350
FA5
3
Realistic
350
F9D
3
Thicken
350
FA0
0
XRECORD
5
107E
102
{ACAD_REACTORS
330
13
102
}
330
13
100
AcDbXrecord
280
1
90
1
330
FA9
330
F1000E
330
F10013
330
F10004
330
F10009
0
XRECORD
5
F10010
102
{ACAD_REACTORS
330
F1000F
102
}
330
F1000F
100
AcDbXrecord
280
1
40
48458.0
1
89
0
XRECORD
5
F10015
102
{ACAD_REACTORS
330
F10014
102
}
330
F10014
100
AcDbXrecord
280
1
40
48458.0
1
13.8
0
XRECORD
5
F10006
102
{ACAD_REACTORS
330
F10005
102
}
330
F10005
100
AcDbXrecord
280
1
40
48458.0
1
60°
0
LAYOUT
5
FD1
102
{ACAD_XDICTIONARY
360
10A9
102
}
102
{ACAD_REACTORS
330
FCF
102
}
330
FCF
100
AcDbPlotSettings
1

2
Microsoft XPS Document Writer
4

6

40
0.0
41
0.0
42
0.0
43
0.0
44
0.0
45
0.0
46
0.0
47
0.0
48
0.0
49
0.0
140
0.0
141
0.0
142
1.0
143
1.0
70
688
72
0
73
0
74
5
7

75
16
147
1.0
148
0.0
149
0.0
100
AcDbLayout
1
Layout1
70
1
71
1
10
0.0
20
0.0
11
12.0
21
9.0
12
0.0
22
0.0
32
0.0
14
1.000000000000000E+20
24
1.000000000000000E+20
34
1.000000000000000E+20
15
-1.000000000000000E+20
25
-1.000000000000000E+20
35
-1.000000000000000E+20
146
0.0
13
0.0
23
0.0
33
0.0
16
1.0
26
0.0
36
0.0
17
0.0
27
1.0
37
0.0
76
0
330
25D
0
LAYOUT
5
FD0
102
{ACAD_XDICTIONARY
360
10A7
102
}
102
{ACAD_REACTORS
330
FCF
102
}
330
FCF
100
AcDbPlotSettings
1

2
Microsoft XPS Document Writer
4

6

40
0.0
41
0.0
42
0.0
43
0.0
44
0.0
45
0.0
46
0.0
47
0.0
48
0.0
49
0.0
140
0.0
141
0.0
142
1.0
143
1.0
70
1712
72
0
73
0
74
0
7

75
0
147
1.0
148
0.0
149
0.0
100
AcDbLayout
1
Model
70
1
71
0
10
0.0
20
0.0
11
12.0
21
9.0
12
0.0
22
0.0
32
0.0
14
0.0
24
0.0
34
0.0
15
0.0
25
0.0
35
0.0
146
0.0
13
0.0
23
0.0
33
0.0
16
1.0
26
0.0
36
0.0
17
0.0
27
1.0
37
0.0
76
0
330
261
331
26B
0
MATERIAL
5
F83
102
{ACAD_XDICTIONARY
360
F84
102
}
102
{ACAD_REACTORS
330
F7A
102
}
330
F7A
100
AcDbMaterial
1
ByBlock
72
0
43
0.0208333333333333
43
0.0
43
0.0
43
0.0
43
0.0
43
0.0208333333333333
43
0.0
43
0.0
43
0.0
43
0.0
43
1.0
43
0.0
43
0.0
43
0.0
43
0.0
43
1.0
77
0
47
0.0208333333333333
47
0.0
47
0.0
47
0.0
47
0.0
47
0.0208333333333333
47
0.0
47
0.0
47
0.0
47
0.0
47
1.0
47
0.0
47
0.0
47
0.0
47
0.0
47
1.0
171
0
49
0.0208333333333333
49
0.0
49
0.0
49
0.0
49
0.0
49
0.0208333333333333
49
0.0
49
0.0
49
0.0
49
0.0
49
1.0
49
0.0
49
0.0
49
0.0
49
0.0
49
1.0
175
0
142
0.0208333333333333
142
0.0
142
0.0
142
0.0
142
0.0
142
0.0208333333333333
142
0.0
142
0.0
142
0.0
142
0.0
142
1.0
142
0.0
142
0.0
142
0.0
142
0.0
142
1.0
179
0
144
0.0208333333333333
144
0.0
144
0.0
144
0.0
144
0.0
144
0.0208333333333333
144
0.0
144
0.0
144
0.0
144
0.0
144
1.0
144
0.0
144
0.0
144
0.0
144
0.0
144
1.0
147
0.0208333333333333
147
0.0
147
0.0
147
0.0
147
0.0
147
0.0208333333333333
147
0.0
147
0.0
147
0.0
147
0.0
147
1.0
147
0.0
147
0.0
147
0.0
147
0.0
147
1.0
0
MATERIAL
5
F7B
102
{ACAD_XDICTIONARY
360
F7C
102
}
102
{ACAD_REACTORS
330
F7A
102
}
330
F7A
100
AcDbMaterial
1
ByLayer
72
0
43
0.0208333333333333
43
0.0
43
0.0
43
0.0
43
0.0
43
0.0208333333333333
43
0.0
43
0.0
43
0.0
43
0.0
43
1.0
43
0.0
43
0.0
43
0.0
43
0.0
43
1.0
77
0
47
0.0208333333333333
47
0.0
47
0.0
47
0.0
47
0.0
47
0.0208333333333333
47
0.0
47
0.0
47
0.0
47
0.0
47
1.0
47
0.0
47
0.0
47
0.0
47
0.0
47
1.0
171
0
49
0.0208333333333333
49
0.0
49
0.0
49
0.0
49
0.0
49
0.0208333333333333
49
0.0
49
0.0
49
0.0
49
0.0
49
1.0
49
0.0
49
0.0
49
0.0
49
0.0
49
1.0
175
0
142
0.0208333333333333
142
0.0
142
0.0
142
0.0
142
0.0
142
0.0208333333333333
142
0.0
142
0.0
142
0.0
142
0.0
142
1.0
142
0.0
142
0.0
142
0.0
142
0.0
142
1.0
179
0
144
0.0208333333333333
144
0.0
144
0.0
144
0.0
144
0.0
144
0.0208333333333333
144
0.0
144
0.0
144
0.0
144
0.0
144
1.0
144
0.0
144
0.0
144
0.0
144
0.0
144
1.0
147
0.0208333333333333
147
0.0
147
0.0
147
0.0
147
0.0
147
0.0208333333333333
147
0.0
147
0.0
147
0.0
147
0.0
147
1.0
147
0.0
147
0.0
147
0.0
147
0.0
147
1.0
0
MATERIAL
5
F8B
102
{ACAD_XDICTIONARY
360
F8C
102
}
102
{ACAD_REACTORS
330
F7A
102
}
330
F7A
100
AcDbMaterial
1
Global
72
0
43
0.0208333333333333
43
0.0
43
0.0
43
0.0
43
0.0
43
0.0208333333333333
43
0.0
43
0.0
43
0.0
43
0.0
43
1.0
43
0.0
43
0.0
43
0.0
43
0.0
43
1.0
77
0
47
0.0208333333333333
47
0.0
47
0.0
47
0.0
47
0.0
47
0.0208333333333333
47
0.0
47
0.0
47
0.0
47
0.0
47
1.0
47
0.0
47
0.0
47
0.0
47
0.0
47
1.0
171
0
49
0.0208333333333333
49
0.0
49
0.0
49
0.0
49
0.0
49
0.0208333333333333
49
0.0
49
0.0
49
0.0
49
0.0
49
1.0
49
0.0
49
0.0
49
0.0
49
0.0
49
1.0
175
0
142
0.0208333333333333
142
0.0
142
0.0
142
0.0
142
0.0
142
0.0208333333333333
142
0.0
142
0.0
142
0.0
142
0.0
142
1.0
142
0.0
142
0.0
142
0.0
142
0.0
142
1.0
179
0
144
0.0208333333333333
144
0.0
144
0.0
144
0.0
144
0.0
144
0.0208333333333333
144
0.0
144
0.0
144
0.0
144
0.0
144
1.0
144
0.0
144
0.0
144
0.0
144
0.0
144
1.0
147
0.0208333333333333
147
0.0
147
0.0
147
0.0
147
0.0
147
0.0208333333333333
147
0.0
147
0.0
147
0.0
147
0.0
147
1.0
147
0.0
147
0.0
147
0.0
147
0.0
147
1.0
0
MLEADERSTYLE
5
FCE
102
{ACAD_REACTORS
330
FCD
102
}
330
FCD
100
AcDbMLeaderStyle
170
2
171
1
172
0
90
2
40
0.0
41
0.0
173
1
91
-1056964608
340
256
92
-2
290
1
42
0.09
291
1
43
0.36
3
Standard
44
0.18
300

342
253
174
1
178
6
175
1
176
0
93
-1056964608
45
0.18
292
0
297
0
46
0.18
94
-1056964608
47
1.0
49
1.0
140
1.0
293
1
141
0.0
294
1
177
0
142
1.0
295
0
296
0
143
0.125
1001
ACAD_MLEADERVER
1070
2
0
MLINESTYLE
5
FAA
102
{ACAD_REACTORS
330
16
102
}
330
16
100
AcDbMlineStyle
2
STANDARD
70
0
3

62
256
51
90.0
52
90.0
71
2
49
0.5
62
256
6
BYLAYER
49
-0.5
62
256
6
BYLAYER
0
ACDBPLACEHOLDER
5
19
102
{ACAD_REACTORS
330
18
102
}
330
18
0
SCALE
5
FAC
102
{ACAD_REACTORS
330
FAB
102
}
330
FAB
100
AcDbScale
70
0
300
1:1
140
1.0
141
1.0
290
1
0
SCALE
5
FAD
102
{ACAD_REACTORS
330
FAB
102
}
330
FAB
100
AcDbScale
70
0
300
1:2
140
1.0
141
2.0
290
0
0
SCALE
5
FAE
102
{ACAD_REACTORS
330
FAB
102
}
330
FAB
100
AcDbScale
70
0
300
1:4
140
1.0
141
4.0
290
0
0
SCALE
5
FAF
102
{ACAD_REACTORS
330
FAB
102
}
330
FAB
100
AcDbScale
70
0
300
1:5
140
1.0
141
5.0
290
0
0
SCALE
5
FB0
102
{ACAD_REACTORS
330
FAB
102
}
330
FAB
100
AcDbScale
70
0
300
1:8
140
1.0
141
8.0
290
0
0
SCALE
5
FB1
102
{ACAD_REACTORS
330
FAB
102
}
330
FAB
100
AcDbScale
70
0
300
1:10
140
1.0
141
10.0
290
0
0
SCALE
5
FB2
102
{ACAD_REACTORS
330
FAB
102
}
330
FAB
100
AcDbScale
70
0
300
1:16
140
1.0
141
16.0
290
0
0
SCALE
5
FB3
102
{ACAD_REACTORS
330
FAB
102
}
330
FAB
100
AcDbScale
70
0
300
1:20
140
1.0
141
20.0
290
0
0
SCALE
5
FB4
102
{ACAD_REACTORS
330
FAB
102
}
330
FAB
100
AcDbScale
70
0
300
1:30
140
1.0
141
30.0
290
0
0
SCALE
5
FB5
102
{ACAD_REACTORS
330
FAB
102
}
330
FAB
100
AcDbScale
70
0
300
1:40
140
1.0
141
40.0
290
0
0
SCALE
5
FB6
102
{ACAD_REACTORS
330
FAB
102
}
330
FAB
100
AcDbScale
70
0
300
1:50
140
1.0
141
50.0
290
0
0
SCALE
5
FB7
102
{ACAD_REACTORS
330
FAB
102
}
330
FAB
100
AcDbScale
70
0
300
1:100
140
1.0
141
100.0
290
0
0
SCALE
5
FB8
102
{ACAD_REACTORS
330
FAB
102
}
330
FAB
100
AcDbScale
70
0
300
2:1
140
2.0
141
1.0
290
0
0
SCALE
5
FB9
102
{ACAD_REACTORS
330
FAB
102
}
330
FAB
100
AcDbScale
70
0
300
4:1
140
4.0
141
1.0
290
0
0
SCALE
5
FBA
102
{ACAD_REACTORS
330
FAB
102
}
330
FAB
100
AcDbScale
70
0
300
8:1
140
8.0
141
1.0
290
0
0
SCALE
5
FBB
102
{ACAD_REACTORS
330
FAB
102
}
330
FAB
100
AcDbScale
70
0
300
10:1
140
10.0
141
1.0
290
0
0
SCALE
5
FBC
102
{ACAD_REACTORS
330
FAB
102
}
330
FAB
100
AcDbScale
70
0
300
100:1
140
100.0
141
1.0
290
0
0
SCALE
5
FBD
102
{ACAD_REACTORS
330
FAB
102
}
330
FAB
100
AcDbScale
70
0
300
1/128" = 1'-0"
140
0.0078125
141
12.0
290
0
0
SCALE
5
FBE
102
{ACAD_REACTORS
330
FAB
102
}
330
FAB
100
AcDbScale
70
0
300
1/64" = 1'-0"
140
0.015625
141
12.0
290
0
0
SCALE
5
FBF
102
{ACAD_REACTORS
330
FAB
102
}
330
FAB
100
AcDbScale
70
0
300
1/32" = 1'-0"
140
0.03125
141
12.0
290
0
0
SCALE
5
FC0
102
{ACAD_REACTORS
330
FAB
102
}
330
FAB
100
AcDbScale
70
0
300
1/16" = 1'-0"
140
0.0625
141
12.0
290
0
0
SCALE
5
FC1
102
{ACAD_REACTORS
330
FAB
102
}
330
FAB
100
AcDbScale
70
0
300
3/32" = 1'-0"
140
0.09375
141
12.0
290
0
0
SCALE
5
FC2
102
{ACAD_REACTORS
330
FAB
102
}
330
FAB
100
AcDbScale
70
0
300
1/8" = 1'-0"
140
0.125
141
12.0
290
0
0
SCALE
5
FC3
102
{ACAD_REACTORS
330
FAB
102
}
330
FAB
100
AcDbScale
70
0
300
3/16" = 1'-0"
140
0.1875
141
12.0
290
0
0
SCALE
5
FC4
102
{ACAD_REACTORS
330
FAB
102
}
330
FAB
100
AcDbScale
70
0
300
1/4" = 1'-0"
140
0.25
141
12.0
290
0
0
SCALE
5
FC5
102
{ACAD_REACTORS
330
FAB
102
}
330
FAB
100
AcDbScale
70
0
300
3/8" = 1'-0"
140
0.375
141
12.0
290
0
0
SCALE
5
FC6
102
{ACAD_REACTORS
330
FAB
102
}
330
FAB
100
AcDbScale
70
0
300
1/2" = 1'-0"
140
0.5
141
12.0
290
0
0
SCALE
5
FC7
102
{ACAD_REACTORS
330
FAB
102
}
330
FAB
100
AcDbScale
70
0
300
3/4" = 1'-0"
140
0.75
141
12.0
290
0
0
SCALE
5
FC8
102
{ACAD_REACTORS
330
FAB
102
}
330
FAB
100
AcDbScale
70
0
300
1" = 1'-0"
140
1.0
141
12.0
290
0
0
SCALE
5
FC9
102
{ACAD_REACTORS
330
FAB
102
}
330
FAB
100
AcDbScale
70
0
300
1-1/2" = 1'-0"
140
1.5
141
12.0
290
0
0
SCALE
5
FCA
102
{ACAD_REACTORS
330
FAB
102
}
330
FAB
100
AcDbScale
70
0
300
3" = 1'-0"
140
3.0
141
12.0
290
0
0
SCALE
5
FCB
102
{ACAD_REACTORS
330
FAB
102
}
330
FAB
100
AcDbScale
70
0
300
6" = 1'-0"
140
6.0
141
12.0
290
0
0
SCALE
5
FCC
102
{ACAD_REACTORS
330
FAB
102
}
330
FAB
100
AcDbScale
70
0
300
1'-0" = 1'-0"
140
12.0
141
12.0
290
0
0
TABLESTYLE
5
FA9
102
{ACAD_XDICTIONARY
360
FF8
102
}
102
{ACAD_REACTORS
330
FA8
102
}
330
FA8
100
AcDbTableStyle
3
Standard
70
0
71
0
40
0.06
41
0.06
280
0
281
0
7
Standard
140
0.18
170
2
62
0
63
7
283
0
274
-2
284
1
64
0
275
-2
285
1
65
0
276
-2
286
1
66
0
277
-2
287
1
67
0
278
-2
288
1
68
0
279
-2
289
1
69
0
7
Standard
140
0.25
170
5
62
0
63
7
283
0
274
-2
284
1
64
0
275
-2
285
1
65
0
276
-2
286
1
66
0
277
-2
287
1
67
0
278
-2
288
1
68
0
279
-2
289
1
69
0
7
Standard
140
0.18
170
5
62
0
63
7
283
0
274
-2
284
1
64
0
275
-2
285
1
65
0
276
-2
286
1
66
0
277
-2
287
1
67
0
278
-2
288
1
68
0
279
-2
289
1
69
0
0
VISUALSTYLE
5
F99
102
{ACAD_XDICTIONARY
360
108A
102
}
102
{ACAD_REACTORS
330
F93
102
}
330
F93
100
AcDbVisualStyle
2

70
4
71
0
72
2
73
0
90
0
40
-0.6
41
-30.0
62
5
63
7
74
1
91
4
64
7
65
257
75
1
175
1
42
1.0
92
0
66
257
43
1.0
76
1
77
6
78
2
67
7
79
5
170
0
171
0
290
0
174
0
93
1
44
0.0
173
0
291
0
45
0.0
1001
ACAD
1000
AcDbSavedByObjectVersion
1070
0
0
VISUALSTYLE
5
F9B
102
{ACAD_XDICTIONARY
360
108E
102
}
102
{ACAD_REACTORS
330
F93
102
}
330
F93
100
AcDbVisualStyle
2

70
6
71
1
72
2
73
2
90
0
40
-0.6
41
-30.0
62
5
63
7
74
2
91
2
64
7
65
257
75
2
175
1
42
179.0
92
0
66
257
43
1.0
76
1
77
6
78
2
67
7
79
3
170
0
171
0
290
0
174
0
93
1
44
0.0
173
0
291
0
45
0.0
1001
ACAD
1000
AcDbSavedByObjectVersion
1070
0
0
VISUALSTYLE
5
F9A
102
{ACAD_XDICTIONARY
360
108C
102
}
102
{ACAD_REACTORS
330
F93
102
}
330
F93
100
AcDbVisualStyle
2

70
5
71
0
72
2
73
0
90
0
40
-0.6
41
-30.0
62
5
63
7
74
1
91
4
64
7
65
257
75
1
175
1
42
1.0
92
0
66
257
43
1.0
76
1
77
6
78
2
67
7
79
5
170
0
171
0
290
0
174
0
93
1
44
0.0
173
0
291
0
45
0.0
1001
ACAD
1000
AcDbSavedByObjectVersion
1070
0
0
VISUALSTYLE
5
F98
102
{ACAD_XDICTIONARY
360
1088
102
}
102
{ACAD_REACTORS
330
F93
102
}
330
F93
100
AcDbVisualStyle
2

70
7
71
1
72
0
73
1
90
0
40
-0.6
41
-30.0
62
5
63
7
74
0
91
4
64
7
65
257
75
1
175
1
42
1.0
92
8
66
7
43
1.0
76
1
77
6
78
2
67
7
79
5
170
0
171
0
290
0
174
0
93
1
44
0.0
173
0
291
1
45
0.0
1001
ACAD
1000
AcDbSavedByObjectVersion
1070
0
0
VISUALSTYLE
5
F9F
102
{ACAD_XDICTIONARY
360
1096
102
}
102
{ACAD_REACTORS
330
F93
102
}
330
F93
100
AcDbVisualStyle
2

70
12
71
2
72
2
73
0
90
0
40
-0.6
41
-30.0
62
5
63
7
74
1
91
4
64
7
65
257
75
1
175
1
42
1.0
92
8
66
7
43
1.0
76
1
77
6
78
2
67
7
79
5
170
0
171
0
290
0
174
0
93
1
44
50.0
173
0
291
1
45
0.0
1001
ACAD
1000
AcDbSavedByObjectVersion
1070
0
0
VISUALSTYLE
5
FA3
102
{ACAD_XDICTIONARY
360
109E
102
}
102
{ACAD_REACTORS
330
F93
102
}
330
F93
100
AcDbVisualStyle
2

70
16
71
2
72
2
73
3
90
0
40
-0.6
41
-30.0
62
5
63
8
74
1
91
4
64
7
65
257
75
1
175
1
42
1.0
92
8
66
8
43
1.0
76
1
77
6
78
2
67
7
79
5
170
0
171
0
290
0
174
0
93
1
44
0.0
173
0
291
1
45
0.0
1001
ACAD
1000
AcDbSavedByObjectVersion
1070
0
0
VISUALSTYLE
5
F9C
102
{ACAD_XDICTIONARY
360
1090
102
}
102
{ACAD_REACTORS
330
F93
102
}
330
F93
100
AcDbVisualStyle
2

70
9
71
3
72
2
73
0
90
0
40
-0.6
41
-30.0
62
5
63
7
74
2
91
2
64
7
65
257
75
1
175
1
42
179.0
92
8
66
7
43
1.0
76
1
77
6
78
2
67
7
79
3
170
0
171
0
290
0
174
0
93
1
44
0.0
173
0
291
0
45
0.0
1001
ACAD
1000
AcDbSavedByObjectVersion
1070
0
0
VISUALSTYLE
5
F9E
102
{ACAD_XDICTIONARY
360
1094
102
}
102
{ACAD_REACTORS
330
F93
102
}
330
F93
100
AcDbVisualStyle
2

70
11
71
2
72
2
73
0
90
0
40
-0.6
41
-30.0
62
5
63
7
74
1
91
4
64
7
65
257
75
1
175
1
42
1.0
92
8
66
7
43
1.0
76
1
77
6
78
2
67
7
79
5
170
0
171
0
290
0
174
0
93
1
44
-50.0
173
0
291
1
45
0.0
1001
ACAD
1000
AcDbSavedByObjectVersion
1070
0
0
VISUALSTYLE
5
FA6
102
{ACAD_XDICTIONARY
360
10A4
102
}
102
{ACAD_REACTORS
330
F93
102
}
330
F93
100
AcDbVisualStyle
2

70
22
71
2
72
2
73
0
90
0
40
-0.6
41
-30.0
62
5
63
7
74
1
91
4
64
7
65
257
75
1
175
1
42
1.0
92
8
66
7
43
1.0
76
1
77
6
78
2
67
7
79
5
170
0
171
0
290
0
174
0
93
1
44
0.0
173
0
291
1
45
0.0
1001
ACAD
1000
AcDbSavedByObjectVersion
1070
0
0
VISUALSTYLE
5
FA2
102
{ACAD_XDICTIONARY
360
109C
102
}
102
{ACAD_REACTORS
330
F93
102
}
330
F93
100
AcDbVisualStyle
2

70
15
71
2
72
2
73
0
90
0
40
-0.6
41
-30.0
62
5
63
7
74
1
91
4
64
7
65
257
75
1
175
1
42
1.0
92
8
66
7
43
1.0
76
1
77
6
78
2
67
7
79
5
170
0
171
0
290
0
174
0
93
1
44
0.0
173
0
291
1
45
0.0
1001
ACAD
1000
AcDbSavedByObjectVersion
1070
0
0
VISUALSTYLE
5
F94
102
{ACAD_XDICTIONARY
360
1080
102
}
102
{ACAD_REACTORS
330
F93
102
}
330
F93
100
AcDbVisualStyle
2

70
0
71
2
72
1
73
1
90
2
40
-0.6
41
30.0
62
5
63
7
74
0
91
4
64
7
65
257
75
1
175
1
42
1.0
92
8
66
7
43
1.0
76
1
77
6
78
2
67
7
79
5
170
0
171
0
290
0
174
0
93
13
44
0.0
173
0
291
1
45
0.0
1001
ACAD
1000
AcDbSavedByObjectVersion
1070
0
0
VISUALSTYLE
5
F95
102
{ACAD_XDICTIONARY
360
1082
102
}
102
{ACAD_REACTORS
330
F93
102
}
330
F93
100
AcDbVisualStyle
2

70
1
71
2
72
1
73
1
90
2
40
-0.6
41
30.0
62
5
63
7
74
1
91
4
64
7
65
257
75
1
175
1
42
1.0
92
0
66
257
43
1.0
76
1
77
6
78
2
67
7
79
5
170
0
171
0
290
0
174
0
93
13
44
0.0
173
0
291
1
45
0.0
1001
ACAD
1000
AcDbSavedByObjectVersion
1070
0
0
VISUALSTYLE
5
F96
102
{ACAD_XDICTIONARY
360
1084
102
}
102
{ACAD_REACTORS
330
F93
102
}
330
F93
100
AcDbVisualStyle
2

70
2
71
2
72
2
73
1
90
2
40
-0.6
41
30.0
62
5
63
7
74
0
91
4
64
7
65
257
75
1
175
1
42
1.0
92
0
66
7
43
1.0
76
1
77
6
78
2
67
7
79
5
170
0
171
0
290
0
174
0
93
13
44
0.0
173
0
291
1
45
0.0
1001
ACAD
1000
AcDbSavedByObjectVersion
1070
0
0
VISUALSTYLE
5
F97
102
{ACAD_XDICTIONARY
360
1086
102
}
102
{ACAD_REACTORS
330
F93
102
}
330
F93
100
AcDbVisualStyle
2

70
3
71
2
72
2
73
1
90
2
40
-0.6
41
30.0
62
5
63
7
74
1
91
4
64
7
65
257
75
1
175
1
42
1.0
92
0
66
257
43
1.0
76
1
77
6
78
2
67
7
79
5
170
0
171
0
290
0
174
0
93
13
44
0.0
173
0
291
1
45
0.0
1001
ACAD
1000
AcDbSavedByObjectVersion
1070
0
0
VISUALSTYLE
5
FA4
102
{ACAD_XDICTIONARY
360
10A0
102
}
102
{ACAD_REACTORS
330
F93
102
}
330
F93
100
AcDbVisualStyle
2

70
20
71
2
72
2
73
0
90
0
40
-0.6
41
-30.0
62
5
63
7
74
1
91
4
64
7
65
257
75
1
175
1
42
1.0
92
10
66
7
43
1.0
76
1
77
6
78
2
67
7
79
5
170
0
171
0
290
0
174
0
93
1
44
0.0
173
0
291
1
45
0.0
1001
ACAD
1000
AcDbSavedByObjectVersion
1070
0
0
VISUALSTYLE
5
FA1
102
{ACAD_XDICTIONARY
360
109A
102
}
102
{ACAD_REACTORS
330
F93
102
}
330
F93
100
AcDbVisualStyle
2

70
14
71
2
72
2
73
0
90
0
40
-0.6
41
-30.0
62
5
63
7
74
1
91
4
64
7
65
257
75
7
175
7
42
1.0
92
8
66
7
43
1.0
76
1
77
6
78
2
67
7
79
5
170
0
171
0
290
0
174
0
93
1
44
0.0
173
0
291
1
45
0.0
1001
ACAD
1000
AcDbSavedByObjectVersion
1070
0
0
VISUALSTYLE
5
FA5
102
{ACAD_XDICTIONARY
360
10A2
102
}
102
{ACAD_REACTORS
330
F93
102
}
330
F93
100
AcDbVisualStyle
2

70
21
71
2
72
2
73
0
90
0
40
-0.6
41
-30.0
62
5
63
7
74
1
91
4
64
7
65
257
75
1
175
1
42
1.0
92
9
66
7
43
1.0
76
1
77
6
78
2
67
7
79
5
170
0
171
0
290
0
174
0
93
1
44
0.0
173
0
291
1
45
0.0
1001
ACAD
1000
AcDbSavedByObjectVersion
1070
0
0
VISUALSTYLE
5
F9D
102
{ACAD_XDICTIONARY
360
1092
102
}
102
{ACAD_REACTORS
330
F93
102
}
330
F93
100
AcDbVisualStyle
2

70
8
71
2
72
2
73
0
90
0
40
-0.6
41
-30.0
62
5
63
7
74
1
91
0
64
7
65
257
75
1
175
1
42
1.0
92
8
66
8
43
1.0
76
1
77
6
78
2
67
7
79
5
170
0
171
0
290
0
174
0
93
13
44
0.0
173
0
291
0
45
0.0
1001
ACAD
1000
AcDbSavedByObjectVersion
1070
0
0
VISUALSTYLE
5
FA0
102
{ACAD_XDICTIONARY
360
1098
102
}
102
{ACAD_REACTORS
330
F93
102
}
330
F93
100
AcDbVisualStyle
2

70
13
71
2
72
2
73
0
90
0
40
-0.6
41
-30.0
62
5
63
7
74
1
91
4
64
7
65
257
75
1
175
1
42
1.0
92
12
66
7
43
1.0
76
1
77
6
78
2
67
7
79
5
170
0
171
0
290
0
174
0
93
1
44
0.0
173
0
291
1
45
0.0
1001
ACAD
1000
AcDbSavedByObjectVersion
1070
0
0
DICTIONARYVAR
5
FF3
102
{ACAD_REACTORS
330
FF0
102
}
330
FF0
100
DictionaryVariables
280
0
1
1:1
0
DICTIONARYVAR
5
FF2
102
{ACAD_REACTORS
330
FF0
102
}
330
FF0
100
DictionaryVariables
280
0
1
STANDARD
0
DICTIONARYVAR
5
FF1
102
{ACAD_REACTORS
330
FF0
102
}
330
FF0
100
DictionaryVariables
280
0
1
STANDARD
0
DICTIONARYVAR
5
FF6
102
{ACAD_REACTORS
330
FF0
102
}
330
FF0
100
DictionaryVariables
280
0
1
1
0
DICTIONARYVAR
5
FF5
102
{ACAD_REACTORS
330
FF0
102
}
330
FF0
100
DictionaryVariables
280
0
1
0
0
DICTIONARYVAR
5
FF4
102
{ACAD_REACTORS
330
FF0
102
}
330
FF0
100
DictionaryVariables
280
0
1
127
0
DICTIONARYVAR
5
1078
102
{ACAD_REACTORS
330
FF0
102
}
330
FF0
100
DictionaryVariables
280
0
1
2
0
DICTIONARY
5
10A9
330
FD1
100
AcDbDictionary
280
1
281
1
3
ACAD_XREC_ROUNDTRIP
360
10AA
0
DICTIONARY
5
10A7
330
FD0
100
AcDbDictionary
280
1
281
1
3
ACAD_XREC_ROUNDTRIP
360
10A8
0
DICTIONARY
5
F84
330
F83
100
AcDbDictionary
280
1
281
1
3
ACAD_XREC_ROUNDTRIP
360
FFF
3
BUMPTILE
360
F86
3
DIFFUSETILE
360
F85
3
OPACITYTILE
360
F89
3
REFLECTIONTILE
360
F88
3
REFRACTIONTILE
360
F8A
3
SPECULARTILE
360
F87
0
DICTIONARY
5
F7C
330
F7B
100
AcDbDictionary
280
1
281
1
3
ACAD_XREC_ROUNDTRIP
360
FFE
3
BUMPTILE
360
F7E
3
DIFFUSETILE
360
F7D
3
OPACITYTILE
360
F81
3
REFLECTIONTILE
360
F80
3
REFRACTIONTILE
360
F82
3
SPECULARTILE
360
F7F
0
DICTIONARY
5
F8C
330
F8B
100
AcDbDictionary
280
1
281
1
3
ACAD_XREC_ROUNDTRIP
360
1000
3
BUMPTILE
360
F8E
3
DIFFUSETILE
360
F8D
3
OPACITYTILE
360
F91
3
REFLECTIONTILE
360
F90
3
REFRACTIONTILE
360
F92
3
SPECULARTILE
360
F8F
0
DICTIONARY
5
FF8
330
FA9
100
AcDbDictionary
280
1
281
1
3
ACAD_ROUNDTRIP_2008_TABLESTYLE_CELLSTYLEMAP
360
1079
3
ACAD_XREC_ROUNDTRIP
360
10A6
0
DICTIONARY
5
108A
330
F99
100
AcDbDictionary
280
1
281
1
3
ACAD_XREC_ROUNDTRIP
360
108B
0
DICTIONARY
5
108E
330
F9B
100
AcDbDictionary
280
1
281
1
3
ACAD_XREC_ROUNDTRIP
360
108F
0
DICTIONARY
5
108C
330
F9A
100
AcDbDictionary
280
1
281
1
3
ACAD_XREC_ROUNDTRIP
360
108D
0
DICTIONARY
5
1088
330
F98
100
AcDbDictionary
280
1
281
1
3
ACAD_XREC_ROUNDTRIP
360
1089
0
DICTIONARY
5
1096
330
F9F
100
AcDbDictionary
280
1
281
1
3
ACAD_XREC_ROUNDTRIP
360
1097
0
DICTIONARY
5
109E
330
FA3
100
AcDbDictionary
280
1
281
1
3
ACAD_XREC_ROUNDTRIP
360
109F
0
DICTIONARY
5
1090
330
F9C
100
AcDbDictionary
280
1
281
1
3
ACAD_XREC_ROUNDTRIP
360
1091
0
DICTIONARY
5
1094
330
F9E
100
AcDbDictionary
280
1
281
1
3
ACAD_XREC_ROUNDTRIP
360
1095
0
DICTIONARY
5
10A4
330
FA6
100
AcDbDictionary
280
1
281
1
3
ACAD_XREC_ROUNDTRIP
360
10A5
0
DICTIONARY
5
109C
330
FA2
100
AcDbDictionary
280
1
281
1
3
ACAD_XREC_ROUNDTRIP
360
109D
0
DICTIONARY
5
1080
330
F94
100
AcDbDictionary
280
1
281
1
3
ACAD_XREC_ROUNDTRIP
360
1081
0
DICTIONARY
5
1082
330
F95
100
AcDbDictionary
280
1
281
1
3
ACAD_XREC_ROUNDTRIP
360
1083
0
DICTIONARY
5
1084
330
F96
100
AcDbDictionary
280
1
281
1
3
ACAD_XREC_ROUNDTRIP
360
1085
0
DICTIONARY
5
1086
330
F97
100
AcDbDictionary
280
1
281
1
3
ACAD_XREC_ROUNDTRIP
360
1087
0
DICTIONARY
5
10A0
330
FA4
100
AcDbDictionary
280
1
281
1
3
ACAD_XREC_ROUNDTRIP
360
10A1
0
DICTIONARY
5
109A
330
FA1
100
AcDbDictionary
280
1
281
1
3
ACAD_XREC_ROUNDTRIP
360
109B
0
DICTIONARY
5
10A2
330
FA5
100
AcDbDictionary
280
1
281
1
3
ACAD_XREC_ROUNDTRIP
360
10A3
0
DICTIONARY
5
1092
330
F9D
100
AcDbDictionary
280
1
281
1
3
ACAD_XREC_ROUNDTRIP
360
1093
0
DICTIONARY
5
1098
330
FA0
100
AcDbDictionary
280
1
281
1
3
ACAD_XREC_ROUNDTRIP
360
1099
0
XRECORD
5
10AA
102
{ACAD_REACTORS
330
10A9
102
}
330
10A9
100
AcDbXrecord
280
1
102
SHADEPLOT
70
0
102
SHADEPLOTRESLEVEL
70
2
102
SHADEPLOTCUSTOMDPI
70
300
0
XRECORD
5
10A8
102
{ACAD_REACTORS
330
10A7
102
}
330
10A7
100
AcDbXrecord
280
1
102
SHADEPLOT
70
0
102
SHADEPLOTRESLEVEL
70
2
102
SHADEPLOTCUSTOMDPI
70
300
0
XRECORD
5
FFF
102
{ACAD_REACTORS
330
F84
102
}
330
F84
100
AcDbXrecord
280
1
102
MATERIAL
148
0.0
149
0.0
149
0.0
93
0
94
127
282
0
72
0
77
0
171
0
175
0
179
0
273
0
0
XRECORD
5
F86
102
{ACAD_REACTORS
330
F84
102
}
330
F84
100
AcDbXrecord
280
1
270
1
271
1
0
XRECORD
5
F85
102
{ACAD_REACTORS
330
F84
102
}
330
F84
100
AcDbXrecord
280
1
270
1
271
1
0
XRECORD
5
F89
102
{ACAD_REACTORS
330
F84
102
}
330
F84
100
AcDbXrecord
280
1
270
1
271
1
0
XRECORD
5
F88
102
{ACAD_REACTORS
330
F84
102
}
330
F84
100
AcDbXrecord
280
1
270
1
271
1
0
XRECORD
5
F8A
102
{ACAD_REACTORS
330
F84
102
}
330
F84
100
AcDbXrecord
280
1
270
1
271
1
0
XRECORD
5
F87
102
{ACAD_REACTORS
330
F84
102
}
330
F84
100
AcDbXrecord
280
1
270
1
271
1
0
XRECORD
5
FFE
102
{ACAD_REACTORS
330
F7C
102
}
330
F7C
100
AcDbXrecord
280
1
102
MATERIAL
148
0.0
149
0.0
149
0.0
93
0
94
127
282
0
72
0
77
0
171
0
175
0
179
0
273
0
0
XRECORD
5
F7E
102
{ACAD_REACTORS
330
F7C
102
}
330
F7C
100
AcDbXrecord
280
1
270
1
271
1
0
XRECORD
5
F7D
102
{ACAD_REACTORS
330
F7C
102
}
330
F7C
100
AcDbXrecord
280
1
270
1
271
1
0
XRECORD
5
F81
102
{ACAD_REACTORS
330
F7C
102
}
330
F7C
100
AcDbXrecord
280
1
270
1
271
1
0
XRECORD
5
F80
102
{ACAD_REACTORS
330
F7C
102
}
330
F7C
100
AcDbXrecord
280
1
270
1
271
1
0
XRECORD
5
F82
102
{ACAD_REACTORS
330
F7C
102
}
330
F7C
100
AcDbXrecord
280
1
270
1
271
1
0
XRECORD
5
F7F
102
{ACAD_REACTORS
330
F7C
102
}
330
F7C
100
AcDbXrecord
280
1
270
1
271
1
0
XRECORD
5
1000
102
{ACAD_REACTORS
330
F8C
102
}
330
F8C
100
AcDbXrecord
280
1
102
MATERIAL
148
0.0
149
0.0
149
0.0
93
0
94
127
282
0
72
0
77
0
171
0
175
0
179
0
273
0
0
XRECORD
5
F8E
102
{ACAD_REACTORS
330
F8C
102
}
330
F8C
100
AcDbXrecord
280
1
270
1
271
1
0
XRECORD
5
F8D
102
{ACAD_REACTORS
330
F8C
102
}
330
F8C
100
AcDbXrecord
280
1
270
1
271
1
0
XRECORD
5
F91
102
{ACAD_REACTORS
330
F8C
102
}
330
F8C
100
AcDbXrecord
280
1
270
1
271
1
0
XRECORD
5
F90
102
{ACAD_REACTORS
330
F8C
102
}
330
F8C
100
AcDbXrecord
280
1
270
1
271
1
0
XRECORD
5
F92
102
{ACAD_REACTORS
330
F8C
102
}
330
F8C
100
AcDbXrecord
280
1
270
1
271
1
0
XRECORD
5
F8F
102
{ACAD_REACTORS
330
F8C
102
}
330
F8C
100
AcDbXrecord
280
1
270
1
271
1
0
CELLSTYLEMAP
5
1079
102
{ACAD_REACTORS
330
FF8
102
}
330
FF8
100
AcDbCellStyleMap
90
3
300
CELLSTYLE
1
TABLEFORMAT_BEGIN
90
5
170
1
91
0
92
32768
62
257
93
1
300
CONTENTFORMAT
1
CONTENTFORMAT_BEGIN
90
0
91
0
92
512
93
0
300

40
0.0
140
1.0
94
5
62
0
340
253
144
0.25
309
CONTENTFORMAT_END
171
1
301
MARGIN
1
CELLMARGIN_BEGIN
40
0.06
40
0.06
40
0.06
40
0.06
40
0.18
40
0.18
309
CELLMARGIN_END
94
6
95
1
302
GRIDFORMAT
1
GRIDFORMAT_BEGIN
90
0
91
1
62
0
92
-2
340
0
93
0
40
0.045
309
GRIDFORMAT_END
95
2
302
GRIDFORMAT
1
GRIDFORMAT_BEGIN
90
0
91
1
62
0
92
-2
340
0
93
0
40
0.045
309
GRIDFORMAT_END
95
4
302
GRIDFORMAT
1
GRIDFORMAT_BEGIN
90
0
91
1
62
0
92
-2
340
0
93
0
40
0.045
309
GRIDFORMAT_END
95
8
302
GRIDFORMAT
1
GRIDFORMAT_BEGIN
90
0
91
1
62
0
92
-2
340
0
93
0
40
0.045
309
GRIDFORMAT_END
95
16
302
GRIDFORMAT
1
GRIDFORMAT_BEGIN
90
0
91
1
62
0
92
-2
340
0
93
0
40
0.045
309
GRIDFORMAT_END
95
32
302
GRIDFORMAT
1
GRIDFORMAT_BEGIN
90
0
91
1
62
0
92
-2
340
0
93
0
40
0.045
309
GRIDFORMAT_END
309
TABLEFORMAT_END
1
CELLSTYLE_BEGIN
90
1
91
1
300
_TITLE
309
CELLSTYLE_END
300
CELLSTYLE
1
TABLEFORMAT_BEGIN
90
5
170
1
91
0
92
0
62
257
93
1
300
CONTENTFORMAT
1
CONTENTFORMAT_BEGIN
90
0
91
0
92
512
93
0
300

40
0.0
140
1.0
94
5
62
0
340
253
144
0.18
309
CONTENTFORMAT_END
171
1
301
MARGIN
1
CELLMARGIN_BEGIN
40
0.06
40
0.06
40
0.06
40
0.06
40
0.18
40
0.18
309
CELLMARGIN_END
94
6
95
1
302
GRIDFORMAT
1
GRIDFORMAT_BEGIN
90
0
91
1
62
0
92
-2
340
0
93
0
40
0.045
309
GRIDFORMAT_END
95
2
302
GRIDFORMAT
1
GRIDFORMAT_BEGIN
90
0
91
1
62
0
92
-2
340
0
93
0
40
0.045
309
GRIDFORMAT_END
95
4
302
GRIDFORMAT
1
GRIDFORMAT_BEGIN
90
0
91
1
62
0
92
-2
340
0
93
0
40
0.045
309
GRIDFORMAT_END
95
8
302
GRIDFORMAT
1
GRIDFORMAT_BEGIN
90
0
91
1
62
0
92
-2
340
0
93
0
40
0.045
309
GRIDFORMAT_END
95
16
302
GRIDFORMAT
1
GRIDFORMAT_BEGIN
90
0
91
1
62
0
92
-2
340
0
93
0
40
0.045
309
GRIDFORMAT_END
95
32
302
GRIDFORMAT
1
GRIDFORMAT_BEGIN
90
0
91
1
62
0
92
-2
340
0
93
0
40
0.045
309
GRIDFORMAT_END
309
TABLEFORMAT_END
1
CELLSTYLE_BEGIN
90
2
91
1
300
_HEADER
309
CELLSTYLE_END
300
CELLSTYLE
1
TABLEFORMAT_BEGIN
90
5
170
1
91
0
92
0
62
257
93
1
300
CONTENTFORMAT
1
CONTENTFORMAT_BEGIN
90
0
91
0
92
512
93
0
300

40
0.0
140
1.0
94
2
62
0
340
253
144
0.18
309
CONTENTFORMAT_END
171
1
301
MARGIN
1
CELLMARGIN_BEGIN
40
0.06
40
0.06
40
0.06
40
0.06
40
0.18
40
0.18
309
CELLMARGIN_END
94
6
95
1
302
GRIDFORMAT
1
GRIDFORMAT_BEGIN
90
0
91
1
62
0
92
-2
340
0
93
0
40
0.045
309
GRIDFORMAT_END
95
2
302
GRIDFORMAT
1
GRIDFORMAT_BEGIN
90
0
91
1
62
0
92
-2
340
0
93
0
40
0.045
309
GRIDFORMAT_END
95
4
302
GRIDFORMAT
1
GRIDFORMAT_BEGIN
90
0
91
1
62
0
92
-2
340
0
93
0
40
0.045
309
GRIDFORMAT_END
95
8
302
GRIDFORMAT
1
GRIDFORMAT_BEGIN
90
0
91
1
62
0
92
-2
340
0
93
0
40
0.045
309
GRIDFORMAT_END
95
16
302
GRIDFORMAT
1
GRIDFORMAT_BEGIN
90
0
91
1
62
0
92
-2
340
0
93
0
40
0.045
309
GRIDFORMAT_END
95
32
302
GRIDFORMAT
1
GRIDFORMAT_BEGIN
90
0
91
1
62
0
92
-2
340
0
93
0
40
0.045
309
GRIDFORMAT_END
309
TABLEFORMAT_END
1
CELLSTYLE_BEGIN
90
3
91
2
300
_DATA
309
CELLSTYLE_END
0
XRECORD
5
10A6
102
{ACAD_REACTORS
330
FF8
102
}
330
FF8
100
AcDbXrecord
280
1
102
ACAD_ROUNDTRIP_PRE2007_TABLESTYLE
90
512
91
0
1

92
512
93
0
2

94
512
95
0
3

0
XRECORD
5
108B
102
{ACAD_REACTORS
330
108A
102
}
330
108A
100
AcDbXrecord
280
1
102
RTVSPropertyOp0
70
1
102
RTVSPropertyOp1
70
1
102
RTVSPropertyOp2
70
1
102
RTVSPropertyOp3
70
1
102
RTVSPropertyOp4
70
1
102
RTVSPropertyOp5
70
1
102
RTVSPropertyOp6
70
1
102
RTVSPropertyOp7
70
1
102
RTVSPropertyOp8
70
1
102
RTVSPropertyOp9
70
1
102
RTVSPropertyOp10
70
1
102
RTVSPropertyOp11
70
1
102
RTVSPropertyOp12
70
1
102
RTVSPropertyOp13
70
1
102
RTVSPropertyOp14
70
1
102
RTVSPropertyOp15
70
1
102
RTVSPropertyOp16
70
1
102
RTVSPropertyOp17
70
1
102
RTVSPropertyOp18
70
1
102
RTVSPropertyOp19
70
1
102
RTVSPropertyOp20
70
1
102
RTVSPropertyOp21
70
1
102
RTVSPropertyOp22
70
1
102
RTVSPropertyOp23
70
1
102
RTVSPropertyOp24
70
1
102
RTVSPropertyOp25
70
1
102
RTVSPropertyOp26
70
1
102
RTVSPropertyOp27
70
1
0
XRECORD
5
108F
102
{ACAD_REACTORS
330
108E
102
}
330
108E
100
AcDbXrecord
280
1
102
RTVSPropertyOp0
70
1
102
RTVSPropertyOp1
70
1
102
RTVSPropertyOp2
70
1
102
RTVSPropertyOp3
70
1
102
RTVSPropertyOp4
70
1
102
RTVSPropertyOp5
70
1
102
RTVSPropertyOp6
70
1
102
RTVSPropertyOp7
70
1
102
RTVSPropertyOp8
70
1
102
RTVSPropertyOp9
70
1
102
RTVSPropertyOp10
70
1
102
RTVSPropertyOp11
70
1
102
RTVSPropertyOp12
70
1
102
RTVSPropertyOp13
70
1
102
RTVSPropertyOp14
70
1
102
RTVSPropertyOp15
70
1
102
RTVSPropertyOp16
70
1
102
RTVSPropertyOp17
70
1
102
RTVSPropertyOp18
70
1
102
RTVSPropertyOp19
70
1
102
RTVSPropertyOp20
70
1
102
RTVSPropertyOp21
70
1
102
RTVSPropertyOp22
70
1
102
RTVSPropertyOp23
70
1
102
RTVSPropertyOp24
70
1
102
RTVSPropertyOp25
70
1
102
RTVSPropertyOp26
70
1
102
RTVSPropertyOp27
70
1
0
XRECORD
5
108D
102
{ACAD_REACTORS
330
108C
102
}
330
108C
100
AcDbXrecord
280
1
102
RTVSPropertyOp0
70
1
102
RTVSPropertyOp1
70
1
102
RTVSPropertyOp2
70
1
102
RTVSPropertyOp3
70
1
102
RTVSPropertyOp4
70
1
102
RTVSPropertyOp5
70
1
102
RTVSPropertyOp6
70
1
102
RTVSPropertyOp7
70
1
102
RTVSPropertyOp8
70
1
102
RTVSPropertyOp9
70
1
102
RTVSPropertyOp10
70
1
102
RTVSPropertyOp11
70
1
102
RTVSPropertyOp12
70
1
102
RTVSPropertyOp13
70
1
102
RTVSPropertyOp14
70
1
102
RTVSPropertyOp15
70
1
102
RTVSPropertyOp16
70
1
102
RTVSPropertyOp17
70
1
102
RTVSPropertyOp18
70
1
102
RTVSPropertyOp19
70
1
102
RTVSPropertyOp20
70
1
102
RTVSPropertyOp21
70
1
102
RTVSPropertyOp22
70
1
102
RTVSPropertyOp23
70
1
102
RTVSPropertyOp24
70
1
102
RTVSPropertyOp25
70
1
102
RTVSPropertyOp26
70
1
102
RTVSPropertyOp27
70
1
0
XRECORD
5
1089
102
{ACAD_REACTORS
330
1088
102
}
330
1088
100
AcDbXrecord
280
1
102
RTVSPropertyOp0
70
1
102
RTVSPropertyOp1
70
1
102
RTVSPropertyOp2
70
1
102
RTVSPropertyOp3
70
1
102
RTVSPropertyOp4
70
1
102
RTVSPropertyOp5
70
1
102
RTVSPropertyOp6
70
1
102
RTVSPropertyOp7
70
1
102
RTVSPropertyOp8
70
1
102
RTVSPropertyOp9
70
1
102
RTVSPropertyOp10
70
1
102
RTVSPropertyOp11
70
1
102
RTVSPropertyOp12
70
1
102
RTVSPropertyOp13
70
1
102
RTVSPropertyOp14
70
1
102
RTVSPropertyOp15
70
1
102
RTVSPropertyOp16
70
1
102
RTVSPropertyOp17
70
1
102
RTVSPropertyOp18
70
1
102
RTVSPropertyOp19
70
1
102
RTVSPropertyOp20
70
1
102
RTVSPropertyOp21
70
1
102
RTVSPropertyOp22
70
1
102
RTVSPropertyOp23
70
1
102
RTVSPropertyOp24
70
1
102
RTVSPropertyOp25
70
1
102
RTVSPropertyOp26
70
1
102
RTVSPropertyOp27
70
1
0
XRECORD
5
1097
102
{ACAD_REACTORS
330
1096
102
}
330
1096
100
AcDbXrecord
280
1
102
RTVSPropertyOp0
70
1
102
RTVSPropertyOp1
70
1
102
RTVSPropertyOp2
70
1
102
RTVSPropertyOp3
70
1
102
RTVSPropertyOp4
70
1
102
RTVSPropertyOp5
70
1
102
RTVSPropertyOp6
70
1
102
RTVSPropertyOp7
70
1
102
RTVSPropertyOp8
70
1
102
RTVSPropertyOp9
70
1
102
RTVSPropertyOp10
70
1
102
RTVSPropertyOp11
70
1
102
RTVSPropertyOp12
70
1
102
RTVSPropertyOp13
70
1
102
RTVSPropertyOp14
70
1
102
RTVSPropertyOp15
70
1
102
RTVSPropertyOp16
70
1
102
RTVSPropertyOp17
70
1
102
RTVSPropertyOp18
70
1
102
RTVSPropertyOp19
70
1
102
RTVSPropertyOp20
70
1
102
RTVSPropertyOp21
70
1
102
RTVSPropertyOp22
70
1
102
RTVSPropertyOp23
70
1
102
RTVSPropertyOp24
70
1
102
RTVSPropertyOp25
70
1
102
RTVSPropertyOp26
70
1
102
RTVSPropertyOp27
70
1
0
XRECORD
5
109F
102
{ACAD_REACTORS
330
109E
102
}
330
109E
100
AcDbXrecord
280
1
102
RTVSPropertyOp0
70
1
102
RTVSPropertyOp1
70
1
102
RTVSPropertyOp2
70
1
102
RTVSPropertyOp3
70
1
102
RTVSPropertyOp4
70
1
102
RTVSPropertyOp5
70
1
102
RTVSPropertyOp6
70
1
102
RTVSPropertyOp7
70
1
102
RTVSPropertyOp8
70
1
102
RTVSPropertyOp9
70
1
102
RTVSPropertyOp10
70
1
102
RTVSPropertyOp11
70
1
102
RTVSPropertyOp12
70
1
102
RTVSPropertyOp13
70
1
102
RTVSPropertyOp14
70
1
102
RTVSPropertyOp15
70
1
102
RTVSPropertyOp16
70
1
102
RTVSPropertyOp17
70
1
102
RTVSPropertyOp18
70
1
102
RTVSPropertyOp19
70
1
102
RTVSPropertyOp20
70
1
102
RTVSPropertyOp21
70
1
102
RTVSPropertyOp22
70
1
102
RTVSPropertyOp23
70
1
102
RTVSPropertyOp24
70
1
102
RTVSPropertyOp25
70
1
102
RTVSPropertyOp26
70
1
102
RTVSPropertyOp27
70
1
0
XRECORD
5
1091
102
{ACAD_REACTORS
330
1090
102
}
330
1090
100
AcDbXrecord
280
1
102
RTVSPropertyOp0
70
1
102
RTVSPropertyOp1
70
1
102
RTVSPropertyOp2
70
1
102
RTVSPropertyOp3
70
1
102
RTVSPropertyOp4
70
1
102
RTVSPropertyOp5
70
1
102
RTVSPropertyOp6
70
1
102
RTVSPropertyOp7
70
1
102
RTVSPropertyOp8
70
1
102
RTVSPropertyOp9
70
1
102
RTVSPropertyOp10
70
1
102
RTVSPropertyOp11
70
1
102
RTVSPropertyOp12
70
1
102
RTVSPropertyOp13
70
1
102
RTVSPropertyOp14
70
1
102
RTVSPropertyOp15
70
1
102
RTVSPropertyOp16
70
1
102
RTVSPropertyOp17
70
1
102
RTVSPropertyOp18
70
1
102
RTVSPropertyOp19
70
1
102
RTVSPropertyOp20
70
1
102
RTVSPropertyOp21
70
1
102
RTVSPropertyOp22
70
1
102
RTVSPropertyOp23
70
1
102
RTVSPropertyOp24
70
1
102
RTVSPropertyOp25
70
1
102
RTVSPropertyOp26
70
1
102
RTVSPropertyOp27
70
1
0
XRECORD
5
1095
102
{ACAD_REACTORS
330
1094
102
}
330
1094
100
AcDbXrecord
280
1
102
RTVSPropertyOp0
70
1
102
RTVSPropertyOp1
70
1
102
RTVSPropertyOp2
70
1
102
RTVSPropertyOp3
70
1
102
RTVSPropertyOp4
70
1
102
RTVSPropertyOp5
70
1
102
RTVSPropertyOp6
70
1
102
RTVSPropertyOp7
70
1
102
RTVSPropertyOp8
70
1
102
RTVSPropertyOp9
70
1
102
RTVSPropertyOp10
70
1
102
RTVSPropertyOp11
70
1
102
RTVSPropertyOp12
70
1
102
RTVSPropertyOp13
70
1
102
RTVSPropertyOp14
70
1
102
RTVSPropertyOp15
70
1
102
RTVSPropertyOp16
70
1
102
RTVSPropertyOp17
70
1
102
RTVSPropertyOp18
70
1
102
RTVSPropertyOp19
70
1
102
RTVSPropertyOp20
70
1
102
RTVSPropertyOp21
70
1
102
RTVSPropertyOp22
70
1
102
RTVSPropertyOp23
70
1
102
RTVSPropertyOp24
70
1
102
RTVSPropertyOp25
70
1
102
RTVSPropertyOp26
70
1
102
RTVSPropertyOp27
70
1
0
XRECORD
5
10A5
102
{ACAD_REACTORS
330
10A4
102
}
330
10A4
100
AcDbXrecord
280
1
102
RTVSPropertyOp0
70
0
102
RTVSPropertyOp1
70
0
102
RTVSPropertyOp2
70
0
102
RTVSPropertyOp3
70
0
102
RTVSPropertyOp4
70
0
102
RTVSPropertyOp5
70
0
102
RTVSPropertyOp6
70
0
102
RTVSPropertyOp7
70
0
102
RTVSPropertyOp8
70
0
102
RTVSPropertyOp9
70
0
102
RTVSPropertyOp10
70
0
102
RTVSPropertyOp11
70
0
102
RTVSPropertyOp12
70
0
102
RTVSPropertyOp13
70
0
102
RTVSPropertyOp14
70
2
102
RTVSPropertyOp15
70
0
102
RTVSPropertyOp16
70
0
102
RTVSPropertyOp17
70
0
102
RTVSPropertyOp18
70
0
102
RTVSPropertyOp19
70
0
102
RTVSPropertyOp20
70
0
102
RTVSPropertyOp21
70
0
102
RTVSPropertyOp22
70
0
102
RTVSPropertyOp23
70
0
102
RTVSPropertyOp24
70
0
102
RTVSPropertyOp25
70
0
102
RTVSPropertyOp26
70
0
102
RTVSPropertyOp27
70
0
0
XRECORD
5
109D
102
{ACAD_REACTORS
330
109C
102
}
330
109C
100
AcDbXrecord
280
1
102
RTVSPropertyOp0
70
1
102
RTVSPropertyOp1
70
1
102
RTVSPropertyOp2
70
1
102
RTVSPropertyOp3
70
1
102
RTVSPropertyOp4
70
1
102
RTVSPropertyOp5
70
1
102
RTVSPropertyOp6
70
1
102
RTVSPropertyOp7
70
1
102
RTVSPropertyOp8
70
1
102
RTVSPropertyOp9
70
1
102
RTVSPropertyOp10
70
1
102
RTVSPropertyOp11
70
1
102
RTVSPropertyOp12
70
1
102
RTVSPropertyOp13
70
1
102
RTVSPropertyOp14
70
1
102
RTVSPropertyOp15
70
1
102
RTVSPropertyOp16
70
1
102
RTVSPropertyOp17
70
1
102
RTVSPropertyOp18
70
1
102
RTVSPropertyOp19
70
1
102
RTVSPropertyOp20
70
1
102
RTVSPropertyOp21
70
1
102
RTVSPropertyOp22
70
1
102
RTVSPropertyOp23
70
1
102
RTVSPropertyOp24
70
1
102
RTVSPropertyOp25
70
1
102
RTVSPropertyOp26
70
1
102
RTVSPropertyOp27
70
1
0
XRECORD
5
1081
102
{ACAD_REACTORS
330
1080
102
}
330
1080
100
AcDbXrecord
280
1
102
RTVSPropertyOp0
70
1
102
RTVSPropertyOp1
70
1
102
RTVSPropertyOp2
70
1
102
RTVSPropertyOp3
70
1
102
RTVSPropertyOp4
70
1
102
RTVSPropertyOp5
70
1
102
RTVSPropertyOp6
70
1
102
RTVSPropertyOp7
70
1
102
RTVSPropertyOp8
70
1
102
RTVSPropertyOp9
70
1
102
RTVSPropertyOp10
70
1
102
RTVSPropertyOp11
70
1
102
RTVSPropertyOp12
70
1
102
RTVSPropertyOp13
70
1
102
RTVSPropertyOp14
70
1
102
RTVSPropertyOp15
70
1
102
RTVSPropertyOp16
70
1
102
RTVSPropertyOp17
70
1
102
RTVSPropertyOp18
70
1
102
RTVSPropertyOp19
70
1
102
RTVSPropertyOp20
70
1
102
RTVSPropertyOp21
70
1
102
RTVSPropertyOp22
70
1
102
RTVSPropertyOp23
70
1
102
RTVSPropertyOp24
70
1
102
RTVSPropertyOp25
70
1
102
RTVSPropertyOp26
70
1
102
RTVSPropertyOp27
70
1
0
XRECORD
5
1083
102
{ACAD_REACTORS
330
1082
102
}
330
1082
100
AcDbXrecord
280
1
102
RTVSPropertyOp0
70
1
102
RTVSPropertyOp1
70
1
102
RTVSPropertyOp2
70
1
102
RTVSPropertyOp3
70
1
102
RTVSPropertyOp4
70
1
102
RTVSPropertyOp5
70
1
102
RTVSPropertyOp6
70
1
102
RTVSPropertyOp7
70
1
102
RTVSPropertyOp8
70
1
102
RTVSPropertyOp9
70
1
102
RTVSPropertyOp10
70
1
102
RTVSPropertyOp11
70
1
102
RTVSPropertyOp12
70
1
102
RTVSPropertyOp13
70
1
102
RTVSPropertyOp14
70
1
102
RTVSPropertyOp15
70
1
102
RTVSPropertyOp16
70
1
102
RTVSPropertyOp17
70
1
102
RTVSPropertyOp18
70
1
102
RTVSPropertyOp19
70
1
102
RTVSPropertyOp20
70
1
102
RTVSPropertyOp21
70
1
102
RTVSPropertyOp22
70
1
102
RTVSPropertyOp23
70
1
102
RTVSPropertyOp24
70
1
102
RTVSPropertyOp25
70
1
102
RTVSPropertyOp26
70
1
102
RTVSPropertyOp27
70
1
0
XRECORD
5
1085
102
{ACAD_REACTORS
330
1084
102
}
330
1084
100
AcDbXrecord
280
1
102
RTVSPropertyOp0
70
1
102
RTVSPropertyOp1
70
1
102
RTVSPropertyOp2
70
1
102
RTVSPropertyOp3
70
1
102
RTVSPropertyOp4
70
1
102
RTVSPropertyOp5
70
1
102
RTVSPropertyOp6
70
1
102
RTVSPropertyOp7
70
1
102
RTVSPropertyOp8
70
1
102
RTVSPropertyOp9
70
1
102
RTVSPropertyOp10
70
1
102
RTVSPropertyOp11
70
1
102
RTVSPropertyOp12
70
1
102
RTVSPropertyOp13
70
1
102
RTVSPropertyOp14
70
1
102
RTVSPropertyOp15
70
1
102
RTVSPropertyOp16
70
1
102
RTVSPropertyOp17
70
1
102
RTVSPropertyOp18
70
1
102
RTVSPropertyOp19
70
1
102
RTVSPropertyOp20
70
1
102
RTVSPropertyOp21
70
1
102
RTVSPropertyOp22
70
1
102
RTVSPropertyOp23
70
1
102
RTVSPropertyOp24
70
1
102
RTVSPropertyOp25
70
1
102
RTVSPropertyOp26
70
1
102
RTVSPropertyOp27
70
1
0
XRECORD
5
1087
102
{ACAD_REACTORS
330
1086
102
}
330
1086
100
AcDbXrecord
280
1
102
RTVSPropertyOp0
70
1
102
RTVSPropertyOp1
70
1
102
RTVSPropertyOp2
70
1
102
RTVSPropertyOp3
70
1
102
RTVSPropertyOp4
70
1
102
RTVSPropertyOp5
70
1
102
RTVSPropertyOp6
70
1
102
RTVSPropertyOp7
70
1
102
RTVSPropertyOp8
70
1
102
RTVSPropertyOp9
70
1
102
RTVSPropertyOp10
70
1
102
RTVSPropertyOp11
70
1
102
RTVSPropertyOp12
70
1
102
RTVSPropertyOp13
70
1
102
RTVSPropertyOp14
70
1
102
RTVSPropertyOp15
70
1
102
RTVSPropertyOp16
70
1
102
RTVSPropertyOp17
70
1
102
RTVSPropertyOp18
70
1
102
RTVSPropertyOp19
70
1
102
RTVSPropertyOp20
70
1
102
RTVSPropertyOp21
70
1
102
RTVSPropertyOp22
70
1
102
RTVSPropertyOp23
70
1
102
RTVSPropertyOp24
70
1
102
RTVSPropertyOp25
70
1
102
RTVSPropertyOp26
70
1
102
RTVSPropertyOp27
70
1
0
XRECORD
5
10A1
102
{ACAD_REACTORS
330
10A0
102
}
330
10A0
100
AcDbXrecord
280
1
102
RTVSPropertyOp0
70
0
102
RTVSPropertyOp1
70
0
102
RTVSPropertyOp2
70
0
102
RTVSPropertyOp3
70
0
102
RTVSPropertyOp4
70
0
102
RTVSPropertyOp5
70
0
102
RTVSPropertyOp6
70
0
102
RTVSPropertyOp7
70
0
102
RTVSPropertyOp8
70
0
102
RTVSPropertyOp9
70
0
102
RTVSPropertyOp10
70
0
102
RTVSPropertyOp11
70
0
102
RTVSPropertyOp12
70
0
102
RTVSPropertyOp13
70
0
102
RTVSPropertyOp14
70
2
102
RTVSPropertyOp15
70
0
102
RTVSPropertyOp16
70
0
102
RTVSPropertyOp17
70
0
102
RTVSPropertyOp18
70
0
102
RTVSPropertyOp19
70
0
102
RTVSPropertyOp20
70
0
102
RTVSPropertyOp21
70
0
102
RTVSPropertyOp22
70
0
102
RTVSPropertyOp23
70
0
102
RTVSPropertyOp24
70
0
102
RTVSPropertyOp25
70
0
102
RTVSPropertyOp26
70
0
102
RTVSPropertyOp27
70
0
0
XRECORD
5
109B
102
{ACAD_REACTORS
330
109A
102
}
330
109A
100
AcDbXrecord
280
1
102
RTVSPropertyOp0
70
1
102
RTVSPropertyOp1
70
1
102
RTVSPropertyOp2
70
1
102
RTVSPropertyOp3
70
1
102
RTVSPropertyOp4
70
1
102
RTVSPropertyOp5
70
1
102
RTVSPropertyOp6
70
1
102
RTVSPropertyOp7
70
1
102
RTVSPropertyOp8
70
1
102
RTVSPropertyOp9
70
1
102
RTVSPropertyOp10
70
1
102
RTVSPropertyOp11
70
1
102
RTVSPropertyOp12
70
1
102
RTVSPropertyOp13
70
1
102
RTVSPropertyOp14
70
1
102
RTVSPropertyOp15
70
1
102
RTVSPropertyOp16
70
1
102
RTVSPropertyOp17
70
1
102
RTVSPropertyOp18
70
1
102
RTVSPropertyOp19
70
1
102
RTVSPropertyOp20
70
1
102
RTVSPropertyOp21
70
1
102
RTVSPropertyOp22
70
1
102
RTVSPropertyOp23
70
1
102
RTVSPropertyOp24
70
1
102
RTVSPropertyOp25
70
1
102
RTVSPropertyOp26
70
1
102
RTVSPropertyOp27
70
1
0
XRECORD
5
10A3
102
{ACAD_REACTORS
330
10A2
102
}
330
10A2
100
AcDbXrecord
280
1
102
RTVSPropertyOp0
70
0
102
RTVSPropertyOp1
70
0
102
RTVSPropertyOp2
70
0
102
RTVSPropertyOp3
70
0
102
RTVSPropertyOp4
70
0
102
RTVSPropertyOp5
70
0
102
RTVSPropertyOp6
70
0
102
RTVSPropertyOp7
70
0
102
RTVSPropertyOp8
70
0
102
RTVSPropertyOp9
70
0
102
RTVSPropertyOp10
70
0
102
RTVSPropertyOp11
70
0
102
RTVSPropertyOp12
70
0
102
RTVSPropertyOp13
70
0
102
RTVSPropertyOp14
70
2
102
RTVSPropertyOp15
70
0
102
RTVSPropertyOp16
70
0
102
RTVSPropertyOp17
70
0
102
RTVSPropertyOp18
70
0
102
RTVSPropertyOp19
70
0
102
RTVSPropertyOp20
70
0
102
RTVSPropertyOp21
70
0
102
RTVSPropertyOp22
70
0
102
RTVSPropertyOp23
70
0
102
RTVSPropertyOp24
70
0
102
RTVSPropertyOp25
70
0
102
RTVSPropertyOp26
70
0
102
RTVSPropertyOp27
70
0
0
XRECORD
5
1093
102
{ACAD_REACTORS
330
1092
102
}
330
1092
100
AcDbXrecord
280
1
102
RTVSPropertyOp0
70
1
102
RTVSPropertyOp1
70
1
102
RTVSPropertyOp2
70
1
102
RTVSPropertyOp3
70
1
102
RTVSPropertyOp4
70
1
102
RTVSPropertyOp5
70
1
102
RTVSPropertyOp6
70
1
102
RTVSPropertyOp7
70
1
102
RTVSPropertyOp8
70
1
102
RTVSPropertyOp9
70
1
102
RTVSPropertyOp10
70
1
102
RTVSPropertyOp11
70
1
102
RTVSPropertyOp12
70
1
102
RTVSPropertyOp13
70
1
102
RTVSPropertyOp14
70
1
102
RTVSPropertyOp15
70
1
102
RTVSPropertyOp16
70
1
102
RTVSPropertyOp17
70
1
102
RTVSPropertyOp18
70
1
102
RTVSPropertyOp19
70
1
102
RTVSPropertyOp20
70
1
102
RTVSPropertyOp21
70
1
102
RTVSPropertyOp22
70
1
102
RTVSPropertyOp23
70
1
102
RTVSPropertyOp24
70
1
102
RTVSPropertyOp25
70
1
102
RTVSPropertyOp26
70
1
102
RTVSPropertyOp27
70
1
0
XRECORD
5
1099
102
{ACAD_REACTORS
330
1098
102
}
330
1098
100
AcDbXrecord
280
1
102
RTVSPropertyOp0
70
1
102
RTVSPropertyOp1
70
1
102
RTVSPropertyOp2
70
1
102
RTVSPropertyOp3
70
1
102
RTVSPropertyOp4
70
1
102
RTVSPropertyOp5
70
1
102
RTVSPropertyOp6
70
1
102
RTVSPropertyOp7
70
1
102
RTVSPropertyOp8
70
1
102
RTVSPropertyOp9
70
1
102
RTVSPropertyOp10
70
1
102
RTVSPropertyOp11
70
1
102
RTVSPropertyOp12
70
1
102
RTVSPropertyOp13
70
1
102
RTVSPropertyOp14
70
1
102
RTVSPropertyOp15
70
1
102
RTVSPropertyOp16
70
1
102
RTVSPropertyOp17
70
1
102
RTVSPropertyOp18
70
1
102
RTVSPropertyOp19
70
1
102
RTVSPropertyOp20
70
1
102
RTVSPropertyOp21
70
1
102
RTVSPropertyOp22
70
1
102
RTVSPropertyOp23
70
1
102
RTVSPropertyOp24
70
1
102
RTVSPropertyOp25
70
1
102
RTVSPropertyOp26
70
1
102
RTVSPropertyOp27
70
1
0
ENDSEC
0
EOF
