0
SECTION
2
HEADER
9
$ACADVER
1
AC1015
9
$ACADMAINTVER
70
20
9
$DWGCODEPAGE
3
ANSI_1252
9
$INSBASE
10
0.0
20
0.0
30
0.0
9
$EXTMIN
10
-150.000000000000
20
-105.000000000000
30
0.0
9
$EXTMAX
10
150.000000000000
20
105.000000000000
30
0.0
9
$LIMMIN
10
0.0
20
0.0
9
$LIMMAX
10
12.0
20
9.0
9
$ORTHOMODE
70
0
9
$REGENMODE
70
1
9
$FILLMODE
70
1
9
$QTEXTMODE
70
0
9
$MIRRTEXT
70
1
9
$LTSCALE
40
1.0
9
$ATTMODE
70
1
9
$TEXTSIZE
40
0.2
9
$TRACEWID
40
0.05
9
$TEXTSTYLE
7
Standard
9
$CLAYER
8
0
9
$CELTYPE
6
ByLayer
9
$CECOLOR
62
256
9
$CELTSCALE
40
1.0
9
$DISPSILH
70
0
9
$DIMSCALE
40
1.0
9
$DIMASZ
40
2.5
9
$DIMEXO
40
0.625
9
$DIMDLI
40
0.38
9
$DIMRND
40
0.0
9
$DIMDLE
40
0.0
9
$DIMEXE
40
1.25
9
$DIMTP
40
0.0
9
$DIMTM
40
0.000000001
9
$DIMTXT
40
2.5
9
$DIMCEN
40
0.09
9
$DIMTSZ
40
0.0
9
$DIMTOL
70
1
9
$DIMLIM
70
0
9
$DIMTIH
70
0
9
$DIMTOH
70
0
9
$DIMSE1
70
0
9
$DIMSE2
70
0
9
$DIMTAD
70
1
9
$DIMZIN
70
0
9
$DIMBLK
1
VDDIM_DEFAULT
9
$DIMASO
70
1
9
$DIMSHO
70
1
9
$DIMPOST
1

9
$DIMAPOST
1

9
$DIMALT
70
0
9
$DIMALTD
70
2
9
$DIMALTF
40
25.4
9
$DIMLFAC
40
1.00000000000000
9
$DIMTOFL
70
0
9
$DIMTVP
40
0.0
9
$DIMTIX
70
0
9
$DIMSOXD
70
0
9
$DIMSAH
70
0
9
$DIMBLK1
1

9
$DIMBLK2
1

9
$DIMSTYLE
2
BEM-ISBE
9
$DIMCLRD
70
0
9
$DIMCLRE
70
0
9
$DIMCLRT
70
0
9
$DIMTFAC
40
0.5
9
$DIMGAP
40
0.625
9
$DIMJUST
70
0
9
$DIMSD1
70
0
9
$DIMSD2
70
0
9
$DIMTOLJ
70
1
9
$DIMTZIN
70
0
9
$DIMALTZ
70
0
9
$DIMALTTZ
70
0
9
$DIMUPT
70
0
9
$DIMDEC
70
3
9
$DIMTDEC
70
3
9
$DIMALTU
70
2
9
$DIMALTTD
70
2
9
$DIMTXSTY
7
Standard
9
$DIMAUNIT
70
0
9
$DIMADEC
70
3
9
$DIMALTRND
40
0.0
9
$DIMAZIN
70
0
9
$DIMDSEP
70
46
9
$DIMATFIT
70
3
9
$DIMFRAC
70
0
9
$DIMLDRBLK
1

9
$DIMLUNIT
70
2
9
$DIMLWD
70
-2
9
$DIMLWE
70
-2
9
$DIMTMOVE
70
0
9
$LUNITS
70
2
9
$LUPREC
70
4
9
$SKETCHINC
40
0.1
9
$FILLETRAD
40
0.5
9
$AUNITS
70
0
9
$AUPREC
70
0
9
$MENU
1
.
9
$ELEVATION
40
0.0
9
$PELEVATION
40
0.0
9
$THICKNESS
40
0.0
9
$LIMCHECK
70
0
9
$CHAMFERA
40
0.5
9
$CHAMFERB
40
0.5
9
$CHAMFERC
40
1.0
9
$CHAMFERD
40
0.0
9
$SKPOLY
70
0
9
$TDCREATE
40
0.0
9
$TDUCREATE
40
0.0
9
$TDUPDATE
40
0.0
9
$TDUUPDATE
40
0.0
9
$TDINDWG
40
0.0
9
$TDUSRTIMER
40
0.0
9
$USRTIMER
70
1
9
$ANGBASE
50
0.0
9
$ANGDIR
70
0
9
$PDMODE
70
0
9
$PDSIZE
40
0.0
9
$PLINEWID
40
0.0
9
$SPLFRAME
70
0
9
$SPLINETYPE
70
6
9
$SPLINESEGS
70
8
9
$HANDSEED
5
10AB
9
$SURFTAB1
70
6
9
$SURFTAB2
70
6
9
$SURFTYPE
70
6
9
$SURFU
70
6
9
$SURFV
70
6
9
$UCSBASE
2

9
$UCSNAME
2

9
$UCSORG
10
0.0
20
0.0
30
0.0
9
$UCSXDIR
10
1.0
20
0.0
30
0.0
9
$UCSYDIR
10
0.0
20
1.0
30
0.0
9
$UCSORTHOREF
2

9
$UCSORTHOVIEW
70
0
9
$UCSORGTOP
10
0.0
20
0.0
30
0.0
9
$UCSORGBOTTOM
10
0.0
20
0.0
30
0.0
9
$UCSORGLEFT
10
0.0
20
0.0
30
0.0
9
$UCSORGRIGHT
10
0.0
20
0.0
30
0.0
9
$UCSORGFRONT
10
0.0
20
0.0
30
0.0
9
$UCSORGBACK
10
0.0
20
0.0
30
0.0
9
$PUCSBASE
2

9
$PUCSNAME
2

9
$PUCSORG
10
0.0
20
0.0
30
0.0
9
$PUCSXDIR
10
1.0
20
0.0
30
0.0
9
$PUCSYDIR
10
0.0
20
1.0
30
0.0
9
$PUCSORTHOREF
2

9
$PUCSORTHOVIEW
70
0
9
$PUCSORGTOP
10
0.0
20
0.0
30
0.0
9
$PUCSORGBOTTOM
10
0.0
20
0.0
30
0.0
9
$PUCSORGLEFT
10
0.0
20
0.0
30
0.0
9
$PUCSORGRIGHT
10
0.0
20
0.0
30
0.0
9
$PUCSORGFRONT
10
0.0
20
0.0
30
0.0
9
$PUCSORGBACK
10
0.0
20
0.0
30
0.0
9
$USERI1
70
0
9
$USERI2
70
0
9
$USERI3
70
0
9
$USERI4
70
0
9
$USERI5
70
0
9
$USERR1
40
0.0
9
$USERR2
40
0.0
9
$USERR3
40
0.0
9
$USERR4
40
0.0
9
$USERR5
40
0.0
9
$WORLDVIEW
70
1
9
$SHADEDGE
70
3
9
$SHADEDIF
70
70
9
$TILEMODE
70
1
9
$MAXACTVP
70
64
9
$PINSBASE
10
0.0
20
0.0
30
0.0
9
$PLIMCHECK
70
0
9
$PEXTMIN
10
1.000000000000000E+20
20
1.000000000000000E+20
30
1.000000000000000E+20
9
$PEXTMAX
10
-1.000000000000000E+20
20
-1.000000000000000E+20
30
-1.000000000000000E+20
9
$PLIMMIN
10
0.0
20
0.0
9
$PLIMMAX
10
12.0
20
9.0
9
$UNITMODE
70
0
9
$VISRETAIN
70
1
9
$PLINEGEN
70
0
9
$PSLTSCALE
70
1
9
$TREEDEPTH
70
3020
9
$CMLSTYLE
2
Standard
9
$CMLJUST
70
0
9
$CMLSCALE
40
1.0
9
$PROXYGRAPHICS
70
1
9
$MEASUREMENT
70
0
9
$CELWEIGHT
370
-1
9
$ENDCAPS
280
0
9
$JOINSTYLE
280
0
9
$LWDISPLAY
290
0
9
$INSUNITS
70
4
9
$HYPERLINKBASE
1

9
$STYLESHEET
1

9
$XEDIT
290
1
9
$CEPSNTYPE
380
0
9
$PSTYLEMODE
290
0
9
$FINGERPRINTGUID
2
{FAEB1C30-E019-11D5-929B-00C0DF256EC4}
9
$VERSIONGUID
2
{04C5C4E4-4947-4D90-8812-D401569E61F7}
9
$EXTNAMES
290
1
9
$PSVPSCALE
40
0.0
9
$OLESTARTUP
290
0
0
ENDSEC
0
SECTION
2
TABLES
0
TABLE
2
VPORT
5
24A
330
0
100
AcDbSymbolTable
70
1
0
VPORT
5
26B
330
24A
100
AcDbSymbolTableRecord
100
AcDbViewportTableRecord
2
*Active
70
0
10
0.0
20
0.0
11
1.0
21
1.0
12
0.000000000000000
22
0.000000000000000
13
0.0
23
0.0
14
10.0
24
10.0
15
10.0
25
10.0
16
0.0
26
0.0
36
1.0
17
0.0
27
0.0
37
0.0
40
210.000000000000
41
1.42857142857143
42
1.0
43
0.0
44
0.0
50
0.0
51
0.0000000000007958
71
0
72
100
73
1
74
3
75
0
76
0
77
0
78
1
281
0
65
1
110
0.0
120
0.0
130
0.0
111
1.0
121
0.0
131
0.0
112
0.0
122
1.0
132
0.0
79
0
146
0.0
0
ENDTAB
0
TABLE
2
LTYPE
5
247
330
0
100
AcDbSymbolTable
70
25
0
LTYPE
5
256
330
247
100
AcDbSymbolTableRecord
100
AcDbLinetypeTableRecord
2
ByBlock
70
0
3

72
65
73
0
40
0.0
0
LTYPE
5
257
330
247
100
AcDbSymbolTableRecord
100
AcDbLinetypeTableRecord
2
ByLayer
70
0
3

72
65
73
0
40
0.0
0
LTYPE
5
258
330
247
100
AcDbSymbolTableRecord
100
AcDbLinetypeTableRecord
2
Continuous
70
0
3
Solid line
72
65
73
0
40
0.0
0
LTYPE
5
273
330
247
100
AcDbSymbolTableRecord
100
AcDbLinetypeTableRecord
2
CENTER
70
0
3
Center ____ _ ____ _ ____ _ ____ _ ____ _ ____
72
65
73
4
40
2.0
49
1.25
74
0
49
-0.25
74
0
49
0.25
74
0
49
-0.25
74
0
0
LTYPE
5
274
330
247
100
AcDbSymbolTableRecord
100
AcDbLinetypeTableRecord
2
DASHDOT
70
0
3
Dashdot __ . __ . __ . __ . __ . __ . __ . __
72
65
73
4
40
1.0
49
0.5
74
0
49
-0.25
74
0
49
0.0
74
0
49
-0.25
74
0
0
LTYPE
5
275
330
247
100
AcDbSymbolTableRecord
100
AcDbLinetypeTableRecord
2
DASHED
70
0
3
Dashed __ __ __ __ __ __ __ __ __ __ __ __ __ _
72
65
73
2
40
0.75
49
0.5
74
0
49
-0.25
74
0
0
LTYPE
5
276
330
247
100
AcDbSymbolTableRecord
100
AcDbLinetypeTableRecord
2
HIDDEN
70
0
3
Hidden __ __ __ __ __ __ __ __ __ __ __ __ __ __
72
65
73
2
40
0.375
49
0.25
74
0
49
-0.125
74
0
0
LTYPE
5
277
330
247
100
AcDbSymbolTableRecord
100
AcDbLinetypeTableRecord
2
HIDDEN2
70
0
3
Hidden2 _ _ _ _ _ _ _ _ _ _ _ _ _ _ _ _ _
72
65
73
2
40
0.1875
49
0.125
74
0
49
-0.0625
74
0
0
LTYPE
5
278
330
247
100
AcDbSymbolTableRecord
100
AcDbLinetypeTableRecord
2
BORDER
70
0
3
Border __ __ . __ __ . __ __ . __ __ . __ __ .
72
65
73
6
40
1.75
49
0.5
74
0
49
-0.25
74
0
49
0.5
74
0
49
-0.25
74
0
49
0.0
74
0
49
-0.25
74
0
0
LTYPE
5
279
330
247
100
AcDbSymbolTableRecord
100
AcDbLinetypeTableRecord
2
BORDER2
70
0
3
Border2 __.__.__.__.__.__.__.__.__.__.__.
72
65
73
6
40
0.875
49
0.25
74
0
49
-0.125
74
0
49
0.25
74
0
49
-0.125
74
0
49
0.0
74
0
49
-0.125
74
0
0
LTYPE
5
27A
330
247
100
AcDbSymbolTableRecord
100
AcDbLinetypeTableRecord
2
BORDERX2
70
0
3
Borderx2  ____  ____  .  ____  ____  .  ___
72
65
73
6
40
3.5
49
1.0
74
0
49
-0.5
74
0
49
1.0
74
0
49
-0.5
74
0
49
0.0
74
0
49
-0.5
74
0
0
LTYPE
5
27B
330
247
100
AcDbSymbolTableRecord
100
AcDbLinetypeTableRecord
2
CENTER2
70
0
3
Center2  ___ _ ___ _ ___ _ ___ _ ___ _ ___
72
65
73
4
40
1.125
49
0.75
74
0
49
-0.125
74
0
49
0.125
74
0
49
-0.125
74
0
0
LTYPE
5
27C
330
247
100
AcDbSymbolTableRecord
100
AcDbLinetypeTableRecord
2
CENTERX2
70
0
3
Centerx2  ________  __  ________  __  _____
72
65
73
4
40
4.0
49
2.5
74
0
49
-0.5
74
0
49
0.5
74
0
49
-0.5
74
0
0
LTYPE
5
27D
330
247
100
AcDbSymbolTableRecord
100
AcDbLinetypeTableRecord
2
DASHDOT2
70
0
3
Dashdot2  _._._._._._._._._._._._._._._.
72
65
73
4
40
0.5
49
0.25
74
0
49
-0.125
74
0
49
0.0
74
0
49
-0.125
74
0
0
LTYPE
5
27E
330
247
100
AcDbSymbolTableRecord
100
AcDbLinetypeTableRecord
2
DASHDOTX2
70
0
3
Dashdotx2 ____  .  ____  .  ____  .  ___
72
65
73
4
40
2.0
49
1.0
74
0
49
-0.5
74
0
49
0.0
74
0
49
-0.5
74
0
0
LTYPE
5
27F
330
247
100
AcDbSymbolTableRecord
100
AcDbLinetypeTableRecord
2
DASHED2
70
0
3
Dashed2 _ _ _ _ _ _ _ _ _ _ _ _ _ _ _ _ _
72
65
73
2
40
0.375
49
0.25
74
0
49
-0.125
74
0
0
LTYPE
5
280
330
247
100
AcDbSymbolTableRecord
100
AcDbLinetypeTableRecord
2
DASHEDX2
70
0
3
Dashedx2 ____  ____  ____  ____  ____  ___
72
65
73
2
40
1.5
49
1.0
74
0
49
-0.5
74
0
0
LTYPE
5
281
330
247
100
AcDbSymbolTableRecord
100
AcDbLinetypeTableRecord
2
DIVIDE
70
0
3
Divide ____ . . ____ . . ____ . . ____ . . ____
72
65
73
6
40
1.25
49
0.5
74
0
49
-0.25
74
0
49
0.0
74
0
49
-0.25
74
0
49
0.0
74
0
49
-0.25
74
0
0
LTYPE
5
282
330
247
100
AcDbSymbolTableRecord
100
AcDbLinetypeTableRecord
2
DIVIDE2
70
0
3
Divide2 __..__..__..__..__..__..__..__.._
72
65
73
6
40
0.625
49
0.25
74
0
49
-0.125
74
0
49
0.0
74
0
49
-0.125
74
0
49
0.0
74
0
49
-0.125
74
0
0
LTYPE
5
283
330
247
100
AcDbSymbolTableRecord
100
AcDbLinetypeTableRecord
2
DIVIDEX2
70
0
3
Dividex2 ________  .  .  ________  .  .  _
72
65
73
6
40
2.5
49
1.0
74
0
49
-0.5
74
0
49
0.0
74
0
49
-0.5
74
0
49
0.0
74
0
49
-0.5
74
0
0
LTYPE
5
284
330
247
100
AcDbSymbolTableRecord
100
AcDbLinetypeTableRecord
2
DOT
70
0
3
Dot . . . . . . . . . . . . . . . . . . . . . . . .
72
65
73
2
40
0.25
49
0.0
74
0
49
-0.25
74
0
0
LTYPE
5
285
330
247
100
AcDbSymbolTableRecord
100
AcDbLinetypeTableRecord
2
DOT2
70
0
3
Dot2 ........................................
72
65
73
2
40
0.125
49
0.0
74
0
49
-0.125
74
0
0
LTYPE
5
286
330
247
100
AcDbSymbolTableRecord
100
AcDbLinetypeTableRecord
2
DOTX2
70
0
3
Dotx2 .  .  .  .  .  .  .  .  .  .  .  .  .  .
72
65
73
2
40
0.5
49
0.0
74
0
49
-0.5
74
0
0
LTYPE
5
287
330
247
100
AcDbSymbolTableRecord
100
AcDbLinetypeTableRecord
2
HIDDENX2
70
0
3
Hiddenx2 ____ ____ ____ ____ ____ ____ ____
72
65
73
2
40
0.75
49
0.5
74
0
49
-0.25
74
0
0
LTYPE
5
288
330
247
100
AcDbSymbolTableRecord
100
AcDbLinetypeTableRecord
2
PHANTOM
70
0
3
Phantom ______  __  __  ______  __  __  ______
72
65
73
6
40
2.5
49
1.25
74
0
49
-0.25
74
0
49
0.25
74
0
49
-0.25
74
0
49
0.25
74
0
49
-0.25
74
0
0
LTYPE
5
289
330
247
100
AcDbSymbolTableRecord
100
AcDbLinetypeTableRecord
2
PHANTOM2
70
0
3
Phantom2 ___ _ _ ___ _ _ ___ _ _ ___ _ _
72
65
73
6
40
1.25
49
0.625
74
0
49
-0.125
74
0
49
0.125
74
0
49
-0.125
74
0
49
0.125
74
0
49
-0.125
74
0
0
LTYPE
5
28A
330
247
100
AcDbSymbolTableRecord
100
AcDbLinetypeTableRecord
2
PHANTOMX2
70
0
3
Phantomx2 ____________    ____    ____   _
72
65
73
6
40
5.0
49
2.5
74
0
49
-0.5
74
0
49
0.5
74
0
49
-0.5
74
0
49
0.5
74
0
49
-0.5
74
0
0
ENDTAB
0
TABLE
2
LAYER
5
244
330
0
100
AcDbSymbolTable
70
6
0
LAYER
5
252
330
244
100
AcDbSymbolTableRecord
100
AcDbLayerTableRecord
2
0
70
0
62
7
6
Continuous
370
0
390
251
0
LAYER
5
23F
330
244
100
AcDbSymbolTableRecord
100
AcDbLayerTableRecord
2
Bemassung
70
0
 62
   7
6
Continuous
370
0
390
251
0
LAYER
5
240
330
244
100
AcDbSymbolTableRecord
100
AcDbLayerTableRecord
2
Rahmen
70
0
 62
   7
6
Continuous
370
0
390
251
0
LAYER
5
241
330
244
100
AcDbSymbolTableRecord
100
AcDbLayerTableRecord
2
Geo
70
0
 62
   7
6
Continuous
370
0
390
251
0
LAYER
5
33A
330
244
100
AcDbSymbolTableRecord
100
AcDbLayerTableRecord
2
Defpoints
70
0
62
7
6
Continuous
290
0
370
-3
390
251
0
LAYER
5
57E
330
244
100
AcDbSymbolTableRecord
100
AcDbLayerTableRecord
2
Text
70
0
 62
   7
6
Continuous
370
0
390
251
1001
AcAecLayerStandard
1000

1000

0
ENDTAB
0
TABLE
2
STYLE
5
245
330
0
100
AcDbSymbolTable
70
2
0
STYLE
5
253
330
245
100
AcDbSymbolTableRecord
100
AcDbTextStyleTableRecord
2
Standard
70
0
40
0.0
41
1.0
50
0.0
71
0
42
0.2
3
Arial
4

1001
ACAD
1000
Arial
1071
0
0
STYLE
5
132
330
245
100
AcDbSymbolTableRecord
100
AcDbTextStyleTableRecord
2
Beschriftung
70
0
40
0.0
41
1.0
50
0.0
71
0
42
0.2
3
Arial
4

1001
ACAD
1000
Arial
1071
0
1001
AcadAnnotative
1000
AnnotativeData
1070
1
1070
1
0
ENDTAB
0
TABLE
2
VIEW
5
248
330
0
100
AcDbSymbolTable
70
0
0
ENDTAB
0
TABLE
2
UCS
5
249
330
0
100
AcDbSymbolTable
70
0
0
ENDTAB
0
TABLE
2
APPID
5
24B
330
0
100
AcDbSymbolTable
70
13
0
APPID
5
254
330
24B
100
AcDbSymbolTableRecord
100
AcDbRegAppTableRecord
2
ACAD
70
0
0
APPID
5
26C
330
24B
100
AcDbSymbolTableRecord
100
AcDbRegAppTableRecord
2
VD_INVISIBLE_NOT_FOR_READ
70
0
0
APPID
5
26D
330
24B
100
AcDbSymbolTableRecord
100
AcDbRegAppTableRecord
2
VD_TEMPHATCH
70
0
0
APPID
5
26E
330
24B
100
AcDbSymbolTableRecord
100
AcDbRegAppTableRecord
2
VDEXTRAPARAM
70
0
0
APPID
5
26F
330
24B
100
AcDbSymbolTableRecord
100
AcDbRegAppTableRecord
2
PE_URL
70
0
0
APPID
5
270
330
24B
100
AcDbSymbolTableRecord
100
AcDbRegAppTableRecord
2
VD_UNKNOWN
70
0
0
APPID
5
28F
330
24B
100
AcDbSymbolTableRecord
100
AcDbRegAppTableRecord
2
AcadAnnotative
70
0
0
APPID
5
290
330
24B
100
AcDbSymbolTableRecord
100
AcDbRegAppTableRecord
2
ACAD_DSTYLE_DIMJAG
70
0
0
APPID
5
291
330
24B
100
AcDbSymbolTableRecord
100
AcDbRegAppTableRecord
2
ACAD_DSTYLE_DIMTALN
70
0
0
APPID
5
293
330
24B
100
AcDbSymbolTableRecord
100
AcDbRegAppTableRecord
2
ACAD_PSEXT
70
0
0
APPID
5
42A
330
24B
100
AcDbSymbolTableRecord
100
AcDbRegAppTableRecord
2
ACAD_MLEADERVER
70
0
0
APPID
5
532
330
24B
100
AcDbSymbolTableRecord
100
AcDbRegAppTableRecord
2
ACAD_EXEMPT_FROM_CAD_STANDARDS
70
0
0
APPID
5
57F
330
24B
100
AcDbSymbolTableRecord
100
AcDbRegAppTableRecord
2
AcAecLayerStandard
70
0
0
ENDTAB
0
TABLE
2
DIMSTYLE
5
24C
330
0
100
AcDbSymbolTable
70
3
100
AcDbDimStyleTable
71
2
340
27
340
269
0
DIMSTYLE
105
269
330
24C
100
AcDbSymbolTableRecord
100
AcDbDimStyleTableRecord
2
Standard
70
0
172
1
174
1
288
1
340
253
342
23C
0
DIMSTYLE
105
137
330
24C
100
AcDbSymbolTableRecord
100
AcDbDimStyleTableRecord
2
Beschriftung
70
0
41
2.5
42
0.625
44
1.25
73
0
74
0
77
1
140
2.5
147
0.625
172
1
174
1
271
2
288
1
340
253
342
23C
1001
AcadAnnotative
1000
AnnotativeData
1070
1
1070
1
1001
ACAD_DSTYLE_DIMJAG
1070
388
1040
1.5
1001
ACAD_DSTYLE_DIMTALN
1070
392
1070
0
0
DIMSTYLE
105
27
102
{ACAD_REACTORS
330
F10017
330
F1001C
330
F10026
330
F1002B
330
F10003
330
F1000D
330
F10008
330
F10012
330
F10021
102
}
330
24C
100
AcDbSymbolTableRecord
100
AcDbDimStyleTableRecord
2
BEM-ISBE
70
0
41
2.5
42
0.625
44
1.25
48
0.000000001
71
1
73
0
74
0
77
1
140
2.5
144
1.00000000000000
146
0.5
147
0.625
171
 3
172
 1
179
 3
271
 3
272
 3
274
 3
340
253
342
23C
1001
ACAD_DSTYLE_DIMJAG
1070
388
1040
1.5
1001
ACAD_DSTYLE_DIMTALN
1070
392
1070
1
0
ENDTAB
0
TABLE
2
BLOCK_RECORD
5
243
330
0
100
AcDbSymbolTable
70
5
0
BLOCK_RECORD
5
261
330
243
100
AcDbSymbolTableRecord
100
AcDbBlockTableRecord
2
*Model_Space
340
FD0
0
BLOCK_RECORD
5
25D
330
243
100
AcDbSymbolTableRecord
100
AcDbBlockTableRecord
2
*Paper_Space
340
FD1
0
BLOCK_RECORD
5
265
330
243
100
AcDbSymbolTableRecord
100
AcDbBlockTableRecord
2
*Paper_Space0
340
0
0
BLOCK_RECORD
5
23C
330
243
100
AcDbSymbolTableRecord
100
AcDbBlockTableRecord
2
VDDIM_DEFAULT
340
0
102
{BLKREFS
102
}
0
BLOCK_RECORD
5
23E
330
243
100
AcDbSymbolTableRecord
100
AcDbBlockTableRecord
2
VDDIM_NONE
340
0
0
BLOCK_RECORD
5
F10016
330
243
100
AcDbSymbolTableRecord
100
AcDbBlockTableRecord
2
*D7
340
0
0
BLOCK_RECORD
5
F1001B
330
243
100
AcDbSymbolTableRecord
100
AcDbBlockTableRecord
2
*D8
340
0
0
BLOCK_RECORD
5
F10025
330
243
100
AcDbSymbolTableRecord
100
AcDbBlockTableRecord
2
*D10
340
0
0
BLOCK_RECORD
5
F1002A
330
243
100
AcDbSymbolTableRecord
100
AcDbBlockTableRecord
2
*D11
340
0
0
BLOCK_RECORD
5
F10002
330
243
100
AcDbSymbolTableRecord
100
AcDbBlockTableRecord
2
*D3
340
0
0
BLOCK_RECORD
5
F1000C
330
243
100
AcDbSymbolTableRecord
100
AcDbBlockTableRecord
2
*D5
340
0
0
BLOCK_RECORD
5
F10007
330
243
100
AcDbSymbolTableRecord
100
AcDbBlockTableRecord
2
*D4
340
0
0
BLOCK_RECORD
5
F10011
330
243
100
AcDbSymbolTableRecord
100
AcDbBlockTableRecord
2
*D6
340
0
0
BLOCK_RECORD
5
F10020
330
243
100
AcDbSymbolTableRecord
100
AcDbBlockTableRecord
2
*D9
340
0
0
ENDTAB
0
ENDSEC
0
SECTION
2
BLOCKS
0
BLOCK
5
262
330
261
100
AcDbEntity
8
0
100
AcDbBlockBegin
2
*Model_Space
70
0
10
0.0
20
0.0
30
0.0
3
*Model_Space
1

0
ENDBLK
5
263
330
261
100
AcDbEntity
8
0
100
AcDbBlockEnd
0
BLOCK
5
25E
330
25D
100
AcDbEntity
67
1
8
0
100
AcDbBlockBegin
2
*Paper_Space
70
0
10
0.0
20
0.0
30
0.0
3
*Paper_Space
1

0
ENDBLK
5
25F
330
25D
100
AcDbEntity
67
1
8
0
100
AcDbBlockEnd
0
BLOCK
5
266
330
265
100
AcDbEntity
8
0
100
AcDbBlockBegin
2
*Paper_Space0
70
0
10
0.0
20
0.0
30
0.0
3
*Paper_Space0
1

0
VIEWPORT
5
296
102
{ACAD_XDICTIONARY
360
58E
102
}
330
265
100
AcDbEntity
8
0
60
1
100
AcDbViewport
10
0.0
20
0.0
30
0.0
40
10.0
41
10.0
69
0
12
0.0
22
0.0
13
0.0
23
0.0
14
1.0
24
1.0
15
0.0
25
0.0
16
0.0
26
0.0
36
1.0
17
0.0
27
0.0
37
0.0
42
0.0
43
0.0
44
0.0
45
10.0
50
0.0
51
0.0000000000007958
72
100
90
163872
1

281
0
71
0
74
0
110
0.0
120
0.0
130
0.0
111
1.0
121
0.0
131
0.0
112
0.0
122
1.0
132
0.0
79
0
146
0.0
1001
VD_INVISIBLE_NOT_FOR_READ
1000
VD_INVISIBLE_NOT_FOR_READ
0
VIEWPORT
5
297
102
{ACAD_XDICTIONARY
360
590
102
}
330
265
100
AcDbEntity
8
0
60
1
100
AcDbViewport
10
0.0
20
0.0
30
0.0
40
10.0
41
10.0
69
0
12
0.0
22
0.0
13
0.0
23
0.0
14
1.0
24
1.0
15
0.0
25
0.0
16
0.0
26
0.0
36
1.0
17
0.0
27
0.0
37
0.0
42
0.0
43
0.0
44
0.0
45
10.0
50
0.0
51
0.0000000000007958
72
100
90
163872
1

281
0
71
0
74
0
110
0.0
120
0.0
130
0.0
111
1.0
121
0.0
131
0.0
112
0.0
122
1.0
132
0.0
79
0
146
0.0
1001
VD_INVISIBLE_NOT_FOR_READ
1000
VD_INVISIBLE_NOT_FOR_READ
0
ENDBLK
5
267
330
265
100
AcDbEntity
8
0
100
AcDbBlockEnd
0
BLOCK
5
28B
330
23C
100
AcDbEntity
8
0
100
AcDbBlockBegin
2
VDDIM_DEFAULT
70
0
10
0.0
20
0.0
30
0.0
3
VDDIM_DEFAULT
1

0
LWPOLYLINE
5
23D
330
23C
100
AcDbEntity
8
0
6
Continuous
62
0
100
AcDbPolyline
90
4
70
0
43
0.0
10
0.0
20
0.0
10
-1.0
20
-0.1665
10
-1.0
20
0.1665
10
0.0
20
0.0
1001
VDEXTRAPARAM
1071
1
1071
0
1071
0
1040
1.0
1000

1000

1040
0.0
1040
0.0
0
HATCH
5
292
330
23C
100
AcDbEntity
8
0
6
Continuous
62
0
100
AcDbHatch
10
0.0
20
0.0
30
0.0
210
0.0
220
0.0
230
1.0
2
SOLID
70
1
71
0
91
1
92
2
72
0
73
1
93
3
10
0.0
20
0.0
10
-1.0
20
-0.1665
10
-1.0
20
0.1665
97
0
75
0
76
1
98
1
10
0.0
20
0.0
1001
VDEXTRAPARAM
1071
1
1071
0
1071
0
1040
1.0
1000

1000

1040
0.0
1040
0.0
1001
VD_TEMPHATCH
1000
VD_TEMPHATCH
0
ENDBLK
5
28C
330
23C
100
AcDbEntity
8
0
100
AcDbBlockEnd
0
BLOCK
5
28D
330
23E
100
AcDbEntity
8
0
100
AcDbBlockBegin
2
VDDIM_NONE
70
0
10
0.0
20
0.0
30
0.0
3
VDDIM_NONE
1

0
ENDBLK
5
28E
330
23E
100
AcDbEntity
8
0
100
AcDbBlockEnd
  0
BLOCK
  5
F1002F
330
F10016
100
AcDbEntity
  8
0
100
AcDbBlockBegin
  2
*D7
 70
     1
 10
0.0
 20
0.0
 30
0.0
  3
*D7
  1

  0
LINE
  5
F10030
330
F10016
100
AcDbEntity
  8
Bemassung
 62
     0
370
    -2
100
AcDbLine
10
-96.1302982848285
20
-11.7606840658620
30
0.000000000000000
11
-96.1302982848285
21
27.2393159341380
31
0.000000000000000
  0
LINE
  5
F10031
330
F10016
100
AcDbEntity
  8
Bemassung
 62
     0
370
    -2
100
AcDbLine
10
-66.1302982848285
20
4.93931593413799
30
0.000000000000000
11
-66.1302982848285
21
17.2393159341380
31
0.000000000000000
  0
LINE
  5
F10032
330
F10016
100
AcDbEntity
  8
Bemassung
 62
     0
370
    -2
100
AcDbLine
10
-96.1302982848285
20
15.2393159341380
30
0.000000000000000
11
-50.3029248088336
21
15.2393159341380
31
0.000000000000000
  0
INSERT
  5
F10033
330
F10016
100
AcDbEntity
  8
Bemassung
 62
     0
370
    -2
100
AcDbBlockReference
  2
VDDIM_DEFAULT
10
-96.1302982848285
20
15.2393159341380
30
0.000000000000000
 41
2.50000000000000
 42
2.50000000000000
 43
2.50000000000000
 50
180.000000000000
  0
INSERT
  5
F10034
330
F10016
100
AcDbEntity
  8
Bemassung
 62
     0
370
    -2
100
AcDbBlockReference
  2
VDDIM_DEFAULT
10
-66.1302982848285
20
15.2393159341380
30
0.000000000000000
 41
2.50000000000000
 42
2.50000000000000
 43
2.50000000000000
  0
MTEXT
  5
F10035
330
F10016
100
AcDbEntity
  8
Bemassung
 62
     0
100
AcDbMText
10
-81.1302982848285
20
15.9059826008047
30
0.000000000000000
 40
2.50000000000000
 41
0.0
 71
     8
 72
     1
  1
30
 11
1.00000000000000
 21
0.000000000000000
 31
0.0
 73
     1
 44
1.0
1001
ACAD
1000
MTEXTBEGIN
1070
73
1070
1
1070
44
1040
1.0
1070
74
1070
0
1000
MTEXTEND
  0
POINT
  5
F10036
330
F10016
100
AcDbEntity
  8
Bemassung
 62
     0
100
AcDbPoint
10
-96.1302982848285
20
-11.7606840658620
30
0.000000000000000
  0
POINT
  5
F10037
330
F10016
100
AcDbEntity
  8
Bemassung
 62
     0
100
AcDbPoint
10
-66.1302982848285
20
4.93931593413799
30
0.000000000000000
  0
ENDBLK
  5
F10038
330
F10016
100
AcDbEntity
  8
0
100
AcDbBlockEnd
  0
BLOCK
  5
F10039
330
F1001B
100
AcDbEntity
  8
0
100
AcDbBlockBegin
  2
*D8
 70
     1
 10
0.0
 20
0.0
 30
0.0
  3
*D8
  1

  0
LINE
  5
F1003A
330
F1001B
100
AcDbEntity
  8
Bemassung
 62
     0
370
    -2
100
AcDbLine
10
-66.1302982848285
20
4.93931593413799
30
0.000000000000000
11
-66.1302982848285
21
22.2393159341380
31
0.000000000000000
  0
LINE
  5
F1003B
330
F1001B
100
AcDbEntity
  8
Bemassung
 62
     0
370
    -2
100
AcDbLine
10
-26.1302982848285
20
4.23931593413799
30
0.000000000000000
11
-26.1302982848285
21
27.2393159341380
31
0.000000000000000
  0
LINE
  5
F1003C
330
F1001B
100
AcDbEntity
  8
Bemassung
 62
     0
370
    -2
100
AcDbLine
10
-66.1302982848285
20
20.2393159341380
30
0.000000000000000
11
54.7206586041883
21
20.2393159341380
31
0.000000000000000
  0
INSERT
  5
F1003D
330
F1001B
100
AcDbEntity
  8
Bemassung
 62
     0
370
    -2
100
AcDbBlockReference
  2
VDDIM_DEFAULT
10
-66.1302982848285
20
20.2393159341380
30
0.000000000000000
 41
2.50000000000000
 42
2.50000000000000
 43
2.50000000000000
 50
180.000000000000
  0
INSERT
  5
F1003E
330
F1001B
100
AcDbEntity
  8
Bemassung
 62
     0
370
    -2
100
AcDbBlockReference
  2
VDDIM_DEFAULT
10
-26.1302982848285
20
20.2393159341380
30
0.000000000000000
 41
2.50000000000000
 42
2.50000000000000
 43
2.50000000000000
  0
MTEXT
  5
F1003F
330
F1001B
100
AcDbEntity
  8
Bemassung
 62
     0
100
AcDbMText
10
-46.1302982848285
20
20.9059826008047
30
0.000000000000000
 40
2.50000000000000
 41
0.0
 71
     8
 72
     1
  1
40
 11
1.00000000000000
 21
0.000000000000000
 31
0.0
 73
     1
 44
1.0
1001
ACAD
1000
MTEXTBEGIN
1070
73
1070
1
1070
44
1040
1.0
1070
74
1070
0
1000
MTEXTEND
  0
POINT
  5
F10040
330
F1001B
100
AcDbEntity
  8
Bemassung
 62
     0
100
AcDbPoint
10
-66.1302982848285
20
4.93931593413799
30
0.000000000000000
  0
POINT
  5
F10041
330
F1001B
100
AcDbEntity
  8
Bemassung
 62
     0
100
AcDbPoint
10
-26.1302982848285
20
4.23931593413799
30
0.000000000000000
  0
ENDBLK
  5
F10042
330
F1001B
100
AcDbEntity
  8
0
100
AcDbBlockEnd
  0
BLOCK
  5
F10043
330
F10025
100
AcDbEntity
  8
0
100
AcDbBlockBegin
  2
*D10
 70
     1
 10
0.0
 20
0.0
 30
0.0
  3
*D10
  1

  0
LINE
  5
F10044
330
F10025
100
AcDbEntity
  8
Bemassung
 62
     0
370
    -2
100
AcDbLine
10
-74.1302982848285
20
-4.46068406586201
30
0.000000000000000
11
-74.1302982848285
21
-11.7606840658620
31
0.000000000000000
  0
LINE
  5
F10045
330
F10025
100
AcDbEntity
  8
Bemassung
 62
     0
370
    -2
100
AcDbLine
10
-96.1302982848285
20
-11.7606840658620
30
0.000000000000000
11
-96.1302982848285
21
27.2393159341380
31
0.000000000000000
  0
LINE
  5
F10046
330
F10025
100
AcDbEntity
  8
Bemassung
 62
     0
370
    -2
100
AcDbLine
10
-62.2833928426153
20
-9.76068406586201
30
0.000000000000000
11
-96.1302982848285
21
-9.76068406586201
31
0.000000000000000
  0
INSERT
  5
F10047
330
F10025
100
AcDbEntity
  8
Bemassung
 62
     0
370
    -2
100
AcDbBlockReference
  2
VDDIM_DEFAULT
10
-74.1302982848285
20
-9.76068406586201
30
0.000000000000000
 41
2.50000000000000
 42
2.50000000000000
 43
2.50000000000000
  0
INSERT
  5
F10048
330
F10025
100
AcDbEntity
  8
Bemassung
 62
     0
370
    -2
100
AcDbBlockReference
  2
VDDIM_DEFAULT
10
-96.1302982848285
20
-9.76068406586201
30
0.000000000000000
 41
2.50000000000000
 42
2.50000000000000
 43
2.50000000000000
 50
180.000000000000
  0
MTEXT
  5
F10049
330
F10025
100
AcDbEntity
  8
Bemassung
 62
     0
100
AcDbMText
10
-85.1302982848285
20
-9.09401739919534
30
0.000000000000000
 40
2.50000000000000
 41
0.0
 71
     8
 72
     1
  1
22
 11
1.00000000000000
 21
0.000000000000000
 31
0.0
 73
     1
 44
1.0
1001
ACAD
1000
MTEXTBEGIN
1070
73
1070
1
1070
44
1040
1.0
1070
74
1070
0
1000
MTEXTEND
  0
POINT
  5
F1004A
330
F10025
100
AcDbEntity
  8
Bemassung
 62
     0
100
AcDbPoint
10
-74.1302982848285
20
-4.46068406586201
30
0.000000000000000
  0
POINT
  5
F1004B
330
F10025
100
AcDbEntity
  8
Bemassung
 62
     0
100
AcDbPoint
10
-96.1302982848285
20
-11.7606840658620
30
0.000000000000000
  0
ENDBLK
  5
F1004C
330
F10025
100
AcDbEntity
  8
0
100
AcDbBlockEnd
  0
BLOCK
  5
F1004D
330
F1002A
100
AcDbEntity
  8
0
100
AcDbBlockBegin
  2
*D11
 70
     1
 10
0.0
 20
0.0
 30
0.0
  3
*D11
  1

  0
LINE
  5
F1004E
330
F1002A
100
AcDbEntity
  8
Bemassung
 62
     0
370
    -2
100
AcDbLine
10
-26.1302982848285
20
4.23931593413799
30
0.000000000000000
11
-26.1302982848285
21
27.2393159341380
31
0.000000000000000
  0
LINE
  5
F1004F
330
F1002A
100
AcDbEntity
  8
Bemassung
 62
     0
370
    -2
100
AcDbLine
10
-96.1302982848285
20
-11.7606840658620
30
0.000000000000000
11
-96.1302982848285
21
27.2393159341380
31
0.000000000000000
  0
LINE
  5
F10050
330
F1002A
100
AcDbEntity
  8
Bemassung
 62
     0
370
    -2
100
AcDbLine
10
9.75500585402042
20
25.2393159341380
30
0.000000000000000
11
-96.1302982848285
21
25.2393159341380
31
0.000000000000000
  0
INSERT
  5
F10051
330
F1002A
100
AcDbEntity
  8
Bemassung
 62
     0
370
    -2
100
AcDbBlockReference
  2
VDDIM_DEFAULT
10
-26.1302982848285
20
25.2393159341380
30
0.000000000000000
 41
2.50000000000000
 42
2.50000000000000
 43
2.50000000000000
  0
INSERT
  5
F10052
330
F1002A
100
AcDbEntity
  8
Bemassung
 62
     0
370
    -2
100
AcDbBlockReference
  2
VDDIM_DEFAULT
10
-96.1302982848285
20
25.2393159341380
30
0.000000000000000
 41
2.50000000000000
 42
2.50000000000000
 43
2.50000000000000
 50
180.000000000000
  0
MTEXT
  5
F10053
330
F1002A
100
AcDbEntity
  8
Bemassung
 62
     0
100
AcDbMText
10
-61.1302982848285
20
25.9059826008047
30
0.000000000000000
 40
2.50000000000000
 41
0.0
 71
     8
 72
     1
  1
70
 11
1.00000000000000
 21
0.000000000000000
 31
0.0
 73
     1
 44
1.0
1001
ACAD
1000
MTEXTBEGIN
1070
73
1070
1
1070
44
1040
1.0
1070
74
1070
0
1000
MTEXTEND
  0
POINT
  5
F10054
330
F1002A
100
AcDbEntity
  8
Bemassung
 62
     0
100
AcDbPoint
10
-26.1302982848285
20
4.23931593413799
30
0.000000000000000
  0
POINT
  5
F10055
330
F1002A
100
AcDbEntity
  8
Bemassung
 62
     0
100
AcDbPoint
10
-96.1302982848285
20
-11.7606840658620
30
0.000000000000000
  0
ENDBLK
  5
F10056
330
F1002A
100
AcDbEntity
  8
0
100
AcDbBlockEnd
  0
BLOCK
  5
F10057
330
F10002
100
AcDbEntity
  8
0
100
AcDbBlockBegin
  2
*D3
 70
     1
 10
0.0
 20
0.0
 30
0.0
  3
*D3
  1

 0
ARC
  5
F10058
330
F10002
100
AcDbEntity
  8
Bemassung
 62
     0
370
   -2
100
AcDbCircle
10
-96.1299936983380
20
4.72186618578674
30
0.000000000000000
 40
18.9091232513799
100
AcDbArc
 50
90.0000000000000
 51
101.476756562940
  0
LINE
  5
F10059
330
F10002
100
AcDbEntity
  8
Bemassung
 62
     0
370
    -2
100
AcDbLine
10
-96.1299936983380
20
4.72186618578674
30
0.000000000000000
11
-96.1299936983380
21
25.6309894371666
31
0.000000000000000
  0
LINE
  5
F1005A
330
F10002
100
AcDbEntity
  8
Bemassung
 62
     0
370
    -2
100
AcDbLine
10
-96.1299936983380
20
4.72186618578674
30
0.000000000000000
11
-96.8597115763018
21
25.6182521642275
31
0.000000000000000
  0
INSERT
  5
F1005B
330
F10002
100
AcDbEntity
  8
Bemassung
 62
     0
370
    -2
100
AcDbBlockReference
  2
VDDIM_DEFAULT
10
-96.1299936983380
20
23.6309894371666
30
0.000000000000000
 41
2.50000000000000
 42
2.50000000000000
 43
2.50000000000000
 50
179.848496819447
  0
INSERT
  5
F1005C
330
F10002
100
AcDbEntity
  8
Bemassung
 62
     0
370
    -2
100
AcDbBlockReference
  2
VDDIM_DEFAULT
10
-96.7899125828968
20
23.6194705101893
30
0.000000000000000
 41
2.50000000000000
 42
2.50000000000000
 43
2.50000000000000
 50
2.15150318055189
  0
MTEXT
  5
F1005D
330
F10002
100
AcDbEntity
  8
Bemassung
 62
     0
100
AcDbMText
10
-100.626265479007
20
23.0886427731533
30
0.000000000000000
 40
2.50000000000000
 41
0.0
 71
     8
 72
     1
  1
2°
 11
0.971102968422699
 21
0.238660899019138
 31
0.0
 73
     1
 44
1.0
1001
ACAD
1000
MTEXTBEGIN
1070
73
1070
1
1070
44
1040
1.0
1070
74
1070
0
1000
MTEXTEND
  0
POINT
  5
F1005E
330
F10002
100
AcDbEntity
  8
Bemassung
 62
     0
100
AcDbPoint
10
-96.1299936983380
20
4.72186618578674
30
0.000000000000000
  0
POINT
  5
F1005F
330
F10002
100
AcDbEntity
  8
Bemassung
 62
     0
100
AcDbPoint
10
-96.1299936983380
20
23.6309894371666
30
0.000000000000000
  0
POINT
  5
F10060
330
F10002
100
AcDbEntity
  8
Bemassung
 62
     0
100
AcDbPoint
10
-96.7899125828968
20
23.6194705101893
30
0.000000000000000
  0
POINT
  5
F10061
330
F10002
100
AcDbEntity
  8
Bemassung
 62
     0
100
AcDbPoint
10
-96.4600034026938
20
23.6281094861071
30
0.000000000000000
  0
ENDBLK
  5
F10062
330
F10002
100
AcDbEntity
  8
0
100
AcDbBlockEnd
  0
BLOCK
  5
F10063
330
F1000C
100
AcDbEntity
  8
0
100
AcDbBlockBegin
  2
*D5
 70
     1
 10
0.0
 20
0.0
 30
0.0
  3
*D5
  1

  0
LINE
  5
F10064
330
F1000C
100
AcDbEntity
  8
Bemassung
 62
     0
370
    -2
100
AcDbLine
10
-95.9899681849978
20
5.08664511936749
30
0.000000000000000
11
-109.232556386687
21
17.8748638951315
31
0.000000000000000
  0
INSERT
  5
F10065
330
F1000C
100
AcDbEntity
  8
Bemassung
 62
     0
370
    -2
100
AcDbBlockReference
  2
VDDIM_DEFAULT
10
-95.9899681849978
20
5.08664511936749
30
0.000000000000000
 41
2.50000000000000
 42
2.50000000000000
 43
2.50000000000000
 50
316.000000000000
  0
MTEXT
  5
F10066
330
F1000C
100
AcDbEntity
  8
Bemassung
 62
     0
100
AcDbMText
10
-103.183366188384
20
12.0332288239574
30
0.000000000000000
 40
2.50000000000000
 41
0.0
 71
     8
 72
     1
  1
R0.5
 11
0.719339800338652
 21
-0.694658370458996
 31
0.0
 73
     1
 44
1.0
1001
ACAD
1000
MTEXTBEGIN
1070
73
1070
1
1070
44
1040
1.0
1070
74
1070
0
1000
MTEXTEND
  0
POINT
  5
F10067
330
F1000C
100
AcDbEntity
  8
Bemassung
 62
     0
100
AcDbPoint
10
-95.9899681849978
20
5.08664511936749
30
0.000000000000000
  0
POINT
  5
F10068
330
F1000C
100
AcDbEntity
  8
Bemassung
 62
     0
100
AcDbPoint
10
-95.6302982848285
20
4.73931593413799
30
0.000000000000000
  0
ENDBLK
  5
F10069
330
F1000C
100
AcDbEntity
  8
0
100
AcDbBlockEnd
  0
BLOCK
  5
F1006A
330
F10007
100
AcDbEntity
  8
0
100
AcDbBlockBegin
  2
*D4
 70
     1
 10
0.0
 20
0.0
 30
0.0
  3
*D4
  1

  0
LINE
  5
F1006B
330
F10007
100
AcDbEntity
  8
Bemassung
 62
     0
370
    -2
100
AcDbLine
10
-95.6302982848285
20
-4.76068406586201
30
0.000000000000000
11
-108.130298284829
21
-4.76068406586201
31
0.000000000000000
  0
LINE
  5
F1006C
330
F10007
100
AcDbEntity
  8
Bemassung
 62
     0
370
    -2
100
AcDbLine
10
-95.6302982848285
20
5.23931593413799
30
0.000000000000000
11
-108.130298284829
21
5.23931593413799
31
0.000000000000000
  0
LINE
  5
F1006D
330
F10007
100
AcDbEntity
  8
Bemassung
 62
     0
370
    -2
100
AcDbLine
10
-106.130298284829
20
-4.76068406586201
30
0.000000000000000
11
-106.130298284829
21
5.23931593413799
31
0.000000000000000
  0
INSERT
  5
F1006E
330
F10007
100
AcDbEntity
  8
Bemassung
 62
     0
370
    -2
100
AcDbBlockReference
  2
VDDIM_DEFAULT
10
-106.130298284829
20
-4.76068406586201
30
0.000000000000000
 41
2.50000000000000
 42
2.50000000000000
 43
2.50000000000000
 50
270.000000000000
  0
INSERT
  5
F1006F
330
F10007
100
AcDbEntity
  8
Bemassung
 62
     0
370
    -2
100
AcDbBlockReference
  2
VDDIM_DEFAULT
10
-106.130298284829
20
5.23931593413799
30
0.000000000000000
 41
2.50000000000000
 42
2.50000000000000
 43
2.50000000000000
 50
90.0000000000000
  0
MTEXT
  5
F10070
330
F10007
100
AcDbEntity
  8
Bemassung
 62
     0
100
AcDbMText
10
-105.463631618162
20
0.239315934137991
30
0.000000000000000
 40
2.50000000000000
 41
0.0
 71
     8
 72
     1
  1
10
 11
6.12323399573677e-017
 21
1.00000000000000
 31
0.0
 73
     1
 44
1.0
1001
ACAD
1000
MTEXTBEGIN
1070
73
1070
1
1070
44
1040
1.0
1070
74
1070
0
1000
MTEXTEND
  0
POINT
  5
F10071
330
F10007
100
AcDbEntity
  8
Bemassung
 62
     0
100
AcDbPoint
10
-95.6302982848285
20
-4.76068406586201
30
0.000000000000000
  0
POINT
  5
F10072
330
F10007
100
AcDbEntity
  8
Bemassung
 62
     0
100
AcDbPoint
10
-95.6302982848285
20
5.23931593413799
30
0.000000000000000
  0
ENDBLK
  5
F10073
330
F10007
100
AcDbEntity
  8
0
100
AcDbBlockEnd
  0
BLOCK
  5
F10074
330
F10011
100
AcDbEntity
  8
0
100
AcDbBlockBegin
  2
*D6
 70
     1
 10
0.0
 20
0.0
 30
0.0
  3
*D6
  1

  0
LINE
  5
F10075
330
F10011
100
AcDbEntity
  8
Bemassung
 62
     0
370
    -2
100
AcDbLine
10
-74.1302982848285
20
-4.46068406586201
30
0.000000000000000
11
-65.1302982848285
21
-4.46068406586201
31
0.000000000000000
  0
LINE
  5
F10076
330
F10011
100
AcDbEntity
  8
Bemassung
 62
     0
370
    -2
100
AcDbLine
10
-74.1302982848285
20
4.93931593413799
30
0.000000000000000
11
-65.1302982848285
21
4.93931593413799
31
0.000000000000000
  0
LINE
  5
F10077
330
F10011
100
AcDbEntity
  8
Bemassung
 62
     0
370
    -2
100
AcDbLine
10
-67.1302982848285
20
-32.8613549099699
30
0.000000000000000
11
-67.1302982848285
21
4.93931593413799
31
0.000000000000000
  0
INSERT
  5
F10078
330
F10011
100
AcDbEntity
  8
Bemassung
 62
     0
370
    -2
100
AcDbBlockReference
  2
VDDIM_DEFAULT
10
-67.1302982848285
20
-4.46068406586201
30
0.000000000000000
 41
2.50000000000000
 42
2.50000000000000
 43
2.50000000000000
 50
270.000000000000
  0
INSERT
  5
F10079
330
F10011
100
AcDbEntity
  8
Bemassung
 62
     0
370
    -2
100
AcDbBlockReference
  2
VDDIM_DEFAULT
10
-67.1302982848285
20
4.93931593413799
30
0.000000000000000
 41
2.50000000000000
 42
2.50000000000000
 43
2.50000000000000
 50
90.0000000000000
  0
MTEXT
  5
F1007A
330
F10011
100
AcDbEntity
  8
Bemassung
 62
     0
100
AcDbMText
10
-66.4636316181618
20
-9.60138056031798
30
0.000000000000000
 40
2.50000000000000
 41
0.0
 71
     8
 72
     1
  1
9.4
 11
6.12323399573677e-017
 21
1.00000000000000
 31
0.0
 73
     1
 44
1.0
1001
ACAD
1000
MTEXTBEGIN
1070
73
1070
1
1070
44
1040
1.0
1070
74
1070
0
1000
MTEXTEND
  0
POINT
  5
F1007B
330
F10011
100
AcDbEntity
  8
Bemassung
 62
     0
100
AcDbPoint
10
-74.1302982848285
20
-4.46068406586201
30
0.000000000000000
  0
POINT
  5
F1007C
330
F10011
100
AcDbEntity
  8
Bemassung
 62
     0
100
AcDbPoint
10
-74.1302982848285
20
4.93931593413799
30
0.000000000000000
  0
ENDBLK
  5
F1007D
330
F10011
100
AcDbEntity
  8
0
100
AcDbBlockEnd
  0
BLOCK
  5
F1007E
330
F10020
100
AcDbEntity
  8
0
100
AcDbBlockBegin
  2
*D9
 70
     1
 10
0.0
 20
0.0
 30
0.0
  3
*D9
  1

  0
LINE
  5
F1007F
330
F10020
100
AcDbEntity
  8
Bemassung
 62
     0
370
    -2
100
AcDbLine
10
-27.1302982848285
20
-4.76068406586201
30
0.000000000000000
11
-14.1302982848285
21
-4.76068406586201
31
0.000000000000000
  0
LINE
  5
F10080
330
F10020
100
AcDbEntity
  8
Bemassung
 62
     0
370
    -2
100
AcDbLine
10
-27.1302982848285
20
5.23931593413799
30
0.000000000000000
11
-14.1302982848285
21
5.23931593413799
31
0.000000000000000
  0
LINE
  5
F10081
330
F10020
100
AcDbEntity
  8
Bemassung
 62
     0
370
    -2
100
AcDbLine
10
-16.1302982848285
20
-4.76068406586201
30
0.000000000000000
11
-16.1302982848285
21
5.23931593413799
31
0.000000000000000
  0
INSERT
  5
F10082
330
F10020
100
AcDbEntity
  8
Bemassung
 62
     0
370
    -2
100
AcDbBlockReference
  2
VDDIM_DEFAULT
10
-16.1302982848285
20
-4.76068406586201
30
0.000000000000000
 41
2.50000000000000
 42
2.50000000000000
 43
2.50000000000000
 50
270.000000000000
  0
INSERT
  5
F10083
330
F10020
100
AcDbEntity
  8
Bemassung
 62
     0
370
    -2
100
AcDbBlockReference
  2
VDDIM_DEFAULT
10
-16.1302982848285
20
5.23931593413799
30
0.000000000000000
 41
2.50000000000000
 42
2.50000000000000
 43
2.50000000000000
 50
90.0000000000000
  0
MTEXT
  5
F10084
330
F10020
100
AcDbEntity
  8
Bemassung
 62
     0
100
AcDbMText
10
-15.4636316181618
20
0.239315934137991
30
0.000000000000000
 40
2.50000000000000
 41
0.0
 71
     8
 72
     1
  1
10h6
 11
6.12323399573677e-017
 21
1.00000000000000
 31
0.0
 73
     1
 44
1.0
  0
POINT
  5
F10085
330
F10020
100
AcDbEntity
  8
Bemassung
 62
     0
100
AcDbPoint
10
-27.1302982848285
20
-4.76068406586201
30
0.000000000000000
  0
POINT
  5
F10086
330
F10020
100
AcDbEntity
  8
Bemassung
 62
     0
100
AcDbPoint
10
-27.1302982848285
20
5.23931593413799
30
0.000000000000000
  0
ENDBLK
  5
F10087
330
F10020
100
AcDbEntity
  8
0
100
AcDbBlockEnd
0
ENDSEC
0
SECTION
2
ENTITIES
  0
DIMENSION
  5
F10017
330
261
100
AcDbEntity
  8
Bemassung
100
AcDbDimension
  2
*D7
10
-66.1302982848285
20
15.2393159341380
30
0.000000000000000
11
-81.1302982848285
21
15.9059826008047
31
0.000000000000000
 70
32
 1
30
 71
     8
  3
BEM-ISBE
100
AcDbAlignedDimension
13
-96.1302982848285
23
-11.7606840658620
33
0.000000000000000
14
-66.1302982848285
24
4.93931593413799
34
0.000000000000000
100
AcDbRotatedDimension
1001
ACAD
1000
DSTYLE
1002
{
1070
284
1070
8
1070
78
1070
8
1070
144
1040
1.00000000000000
1070
147
1040
0.625
1070
 72
1070
 0
1070
 71
1070
 0
1002
}
  0
DIMENSION
  5
F1001C
330
261
100
AcDbEntity
  8
Bemassung
100
AcDbDimension
  2
*D8
10
-26.1302982848285
20
20.2393159341380
30
0.000000000000000
11
-46.1302982848285
21
20.9059826008047
31
0.000000000000000
 70
32
 1
40
 71
     8
  3
BEM-ISBE
100
AcDbAlignedDimension
13
-66.1302982848285
23
4.93931593413799
33
0.000000000000000
14
-26.1302982848285
24
4.23931593413799
34
0.000000000000000
100
AcDbRotatedDimension
1001
ACAD
1000
DSTYLE
1002
{
1070
284
1070
8
1070
78
1070
8
1070
144
1040
1.00000000000000
1070
147
1040
0.625
1070
 72
1070
 0
1070
 71
1070
 0
1002
}
  0
DIMENSION
  5
F10026
330
261
100
AcDbEntity
  8
Bemassung
100
AcDbDimension
  2
*D10
10
-96.1302982848285
20
-9.76068406586201
30
0.000000000000000
11
-85.1302982848285
21
-9.09401739919534
31
0.000000000000000
 70
32
 1
22
 71
     8
  3
BEM-ISBE
100
AcDbAlignedDimension
13
-74.1302982848285
23
-4.46068406586201
33
0.000000000000000
14
-96.1302982848285
24
-11.7606840658620
34
0.000000000000000
100
AcDbRotatedDimension
1001
ACAD
1000
DSTYLE
1002
{
1070
284
1070
8
1070
78
1070
8
1070
144
1040
1.00000000000000
1070
147
1040
0.625
1070
 72
1070
 0
1070
 71
1070
 0
1002
}
  0
DIMENSION
  5
F1002B
330
261
100
AcDbEntity
  8
Bemassung
100
AcDbDimension
  2
*D11
10
-96.1302982848285
20
25.2393159341380
30
0.000000000000000
11
-61.1302982848285
21
25.9059826008047
31
0.000000000000000
 70
32
 1
70
 71
     8
  3
BEM-ISBE
100
AcDbAlignedDimension
13
-26.1302982848285
23
4.23931593413799
33
0.000000000000000
14
-96.1302982848285
24
-11.7606840658620
34
0.000000000000000
100
AcDbRotatedDimension
1001
ACAD
1000
DSTYLE
1002
{
1070
284
1070
8
1070
78
1070
8
1070
144
1040
1.00000000000000
1070
147
1040
0.625
1070
 72
1070
 0
1070
 71
1070
 0
1002
}
  0
DIMENSION
  5
F10003
330
261
100
AcDbEntity
  8
Bemassung
100
AcDbDimension
  2
*D3
10
-96.1299936983380
20
4.72186618578674
30
0.000000000000000
11
-100.626265479007
21
23.0886427731533
31
0.000000000000000
 70
34
 1
2°
 71
     8
  3
BEM-ISBE
100
AcDb2LineAngularDimension
13
-96.1299936983380
23
4.72186618578674
33
0.000000000000000
14
-99.8923492799390
24
23.2529110190786
34
0.000000000000000
15
-96.1299936983380
25
23.6309894371666
35
0.000000000000000
16
-96.4600034026938
26
23.6281094861071
36
0.000000000000000
1001
ACAD
1000
DSTYLE
1002
{
1070
284
1070
8
1070
79
1070
2
1070
147
1040
0.625
1070
 72
1070
 0
1070
 71
1070
 0
1002
}
  0
DIMENSION
  5
F1000D
330
261
100
AcDbEntity
  8
Bemassung
100
AcDbDimension
  2
*D5
10
-95.6302982848285
20
4.73931593413799
30
0.000000000000000
11
-103.183366188384
21
12.0332288239574
31
0.000000000000000
 70
164
 1
R0.5
 71
     8
  3
BEM-ISBE
100
AcDbRadialDimension
15
-95.9899681849978
25
5.08664511936749
35
0.000000000000000
40
0.0
1001
ACAD
1000
DSTYLE
1002
{
1070
284
1070
8
1070
78
1070
8
1070
144
1040
1.00000000000000
1070
147
1040
0.625
1070
 72
1070
 0
1070
 71
1070
 0
1002
}
  0
DIMENSION
  5
F10008
330
261
100
AcDbEntity
  8
Bemassung
100
AcDbDimension
  2
*D4
10
-106.130298284829
20
5.23931593413799
30
0.000000000000000
11
-105.463631618162
21
0.239315934137991
31
0.000000000000000
 70
32
 1
10
 71
     8
  3
BEM-ISBE
100
AcDbAlignedDimension
13
-95.6302982848285
23
-4.76068406586201
33
0.000000000000000
14
-95.6302982848285
24
5.23931593413799
34
0.000000000000000
50
90.0000000000000
100
AcDbRotatedDimension
1001
ACAD
1000
DSTYLE
1002
{
1070
284
1070
8
1070
78
1070
8
1070
144
1040
1.00000000000000
1070
147
1040
0.625
1070
 72
1070
 0
1070
 71
1070
 0
1002
}
  0
DIMENSION
  5
F10012
330
261
100
AcDbEntity
  8
Bemassung
100
AcDbDimension
  2
*D6
10
-67.1302982848285
20
4.93931593413799
30
0.000000000000000
11
-66.4636316181618
21
-9.60138056031798
31
0.000000000000000
 70
32
 1
9.4
 71
     8
  3
BEM-ISBE
100
AcDbAlignedDimension
13
-74.1302982848285
23
-4.46068406586201
33
0.000000000000000
14
-74.1302982848285
24
4.93931593413799
34
0.000000000000000
50
90.0000000000000
100
AcDbRotatedDimension
1001
ACAD
1000
DSTYLE
1002
{
1070
284
1070
8
1070
78
1070
8
1070
144
1040
1.00000000000000
1070
147
1040
0.625
1070
 72
1070
 0
1070
 71
1070
 0
1002
}
  0
DIMENSION
  5
F10021
330
261
100
AcDbEntity
  8
Bemassung
100
AcDbDimension
  2
*D9
10
-16.1302982848285
20
5.23931593413799
30
0.000000000000000
11
-15.4636316181618
21
0.239315934137991
31
0.000000000000000
 70
32
 1
10h6
 71
     8
  3
BEM-ISBE
100
AcDbAlignedDimension
13
-27.1302982848285
23
-4.76068406586201
33
0.000000000000000
14
-27.1302982848285
24
5.23931593413799
34
0.000000000000000
50
90.0000000000000
100
AcDbRotatedDimension
1001
ACAD
1000
DSTYLE
1002
{
1070
284
1070
8
1070
78
1070
8
1070
144
1040
1.00000000000000
1070
147
1040
0.625
1070
 72
1070
 0
1070
 71
1070
 0
1002
}
  0
LINE
  5
F10088
330
F10089
100
AcDbEntity
8
Geo
100
AcDbLine
10
-95.9734595942650
20
0.239315934137991
30
0.000000000000000
11
-96.1299936983380
21
4.72186618578674
31
0.000000000000000
  0
ARC
  5
F1008A
330
F1008B
100
AcDbEntity
8
Geo
100
AcDbCircle
10
-95.6302982848285
20
4.73931593413799
30
0.000000000000000
 40
0.500000000000000
100
AcDbArc
 50
90.0000000000000
 51
182.000000000000
  0
LINE
  5
F1008C
330
F1008D
100
AcDbEntity
8
Geo
100
AcDbLine
10
-95.6302982848285
20
5.23931593413799
30
0.000000000000000
11
-74.1302982848285
21
5.23931593413799
31
0.000000000000000
  0
LINE
  5
F1008E
330
F1008F
100
AcDbEntity
8
Geo
100
AcDbLine
10
-74.1302982848285
20
5.23931593413799
30
0.000000000000000
11
-74.1302982848285
21
4.93931593413799
31
0.000000000000000
  0
LINE
  5
F10090
330
F10091
100
AcDbEntity
8
Geo
100
AcDbLine
10
-74.1302982848285
20
4.93931593413799
30
0.000000000000000
11
-66.1302982848285
21
4.93931593413799
31
0.000000000000000
  0
LINE
  5
F10092
330
F10093
100
AcDbEntity
8
Geo
100
AcDbLine
10
-66.1302982848285
20
4.93931593413799
30
0.000000000000000
11
-66.1302982848285
21
5.23931593413799
31
0.000000000000000
  0
LINE
  5
F10094
330
F10095
100
AcDbEntity
8
Geo
100
AcDbLine
10
-66.1302982848285
20
5.23931593413799
30
0.000000000000000
11
-27.1302982848285
21
5.23931593413799
31
0.000000000000000
  0
LINE
  5
F10096
330
F10097
100
AcDbEntity
8
Geo
100
AcDbLine
10
-27.1302982848285
20
5.23931593413799
30
0.000000000000000
11
-26.1302982848285
21
4.23931593413799
31
0.000000000000000
  0
LINE
  5
F10098
330
F10099
100
AcDbEntity
8
Geo
100
AcDbLine
10
-92.9302982848285
20
5.23775894932242
30
0.000000000000000
11
-92.8302982848285
21
5.23885804998824
31
0.000000000000000
  0
LINE
  5
F1009A
330
F1009B
100
AcDbEntity
8
Geo
100
AcDbLine
10
-92.8302982848285
20
5.23885804998824
30
0.000000000000000
11
-92.7302982848285
21
5.23255133595938
31
0.000000000000000
  0
LINE
  5
F1009C
330
F1009D
100
AcDbEntity
8
Geo
100
AcDbLine
10
-92.7302982848285
20
5.23255133595938
30
0.000000000000000
11
-92.6302982848285
21
5.21884814936245
31
0.000000000000000
  0
LINE
  5
F1009E
330
F1009F
100
AcDbEntity
8
Geo
100
AcDbLine
10
-92.6302982848285
20
5.21884814936245
30
0.000000000000000
11
-92.5302982848285
21
5.19776878870846
31
0.000000000000000
  0
LINE
  5
F100A0
330
F100A1
100
AcDbEntity
8
Geo
100
AcDbLine
10
-92.5302982848285
20
5.19776878870846
30
0.000000000000000
11
-92.4302982848285
21
5.16934447882465
31
0.000000000000000
  0
LINE
  5
F100A2
330
F100A3
100
AcDbEntity
8
Geo
100
AcDbLine
10
-92.4302982848285
20
5.16934447882465
30
0.000000000000000
11
-92.3302982848285
21
5.13361732460122
31
0.000000000000000
  0
LINE
  5
F100A4
330
F100A5
100
AcDbEntity
8
Geo
100
AcDbLine
10
-92.3302982848285
20
5.13361732460122
30
0.000000000000000
11
-92.2302982848285
21
5.09064024862141
31
0.000000000000000
  0
LINE
  5
F100A6
330
F100A7
100
AcDbEntity
8
Geo
100
AcDbLine
10
-92.2302982848285
20
5.09064024862141
30
0.000000000000000
11
-92.1302982848285
21
5.04047691276732
31
0.000000000000000
  0
LINE
  5
F100A8
330
F100A9
100
AcDbEntity
8
Geo
100
AcDbLine
10
-92.1302982848285
20
5.04047691276732
30
0.000000000000000
11
-92.0302982848285
21
4.98320162391772
31
0.000000000000000
  0
LINE
  5
F100AA
330
F100AB
100
AcDbEntity
8
Geo
100
AcDbLine
10
-92.0302982848285
20
4.98320162391772
30
0.000000000000000
11
-91.9302982848285
21
4.91889922387729
31
0.000000000000000
  0
LINE
  5
F100AC
330
F100AD
100
AcDbEntity
8
Geo
100
AcDbLine
10
-91.9302982848285
20
4.91889922387729
30
0.000000000000000
11
-91.8302982848285
21
4.84766496370067
31
0.000000000000000
  0
LINE
  5
F100AE
330
F100AF
100
AcDbEntity
8
Geo
100
AcDbLine
10
-91.8302982848285
20
4.84766496370067
30
0.000000000000000
11
-91.7302982848285
21
4.76960436259712
31
0.000000000000000
  0
LINE
  5
F100B0
330
F100B1
100
AcDbEntity
8
Geo
100
AcDbLine
10
-91.7302982848285
20
4.76960436259712
30
0.000000000000000
11
-91.6302982848285
21
4.68483305162510
31
0.000000000000000
  0
LINE
  5
F100B2
330
F100B3
100
AcDbEntity
8
Geo
100
AcDbLine
10
-91.6302982848285
20
4.68483305162510
30
0.000000000000000
11
-91.5302982848285
21
4.59347660240818
31
0.000000000000000
  0
LINE
  5
F100B4
330
F100B5
100
AcDbEntity
8
Geo
100
AcDbLine
10
-91.5302982848285
20
4.59347660240818
30
0.000000000000000
11
-91.4302982848285
21
4.49567034112590
31
0.000000000000000
  0
LINE
  5
F100B6
330
F100B7
100
AcDbEntity
8
Geo
100
AcDbLine
10
-91.4302982848285
20
4.49567034112590
30
0.000000000000000
11
-91.3302982848285
21
4.39155914805534
31
0.000000000000000
  0
LINE
  5
F100B8
330
F100B9
100
AcDbEntity
8
Geo
100
AcDbLine
10
-91.3302982848285
20
4.39155914805534
30
0.000000000000000
11
-91.2302982848285
21
4.28129724296018
31
0.000000000000000
  0
LINE
  5
F100BA
330
F100BB
100
AcDbEntity
8
Geo
100
AcDbLine
10
-91.2302982848285
20
4.28129724296018
30
0.000000000000000
11
-91.1302982848285
21
4.16504795664513
31
0.000000000000000
  0
LINE
  5
F100BC
330
F100BD
100
AcDbEntity
8
Geo
100
AcDbLine
10
-91.1302982848285
20
4.16504795664513
30
0.000000000000000
11
-91.0302982848285
21
4.04298348901427
31
0.000000000000000
  0
LINE
  5
F100BE
330
F100BF
100
AcDbEntity
8
Geo
100
AcDbLine
10
-91.0302982848285
20
4.04298348901427
30
0.000000000000000
11
-90.9302982848285
21
3.91528465399160
31
0.000000000000000
  0
LINE
  5
F100C0
330
F100C1
100
AcDbEntity
8
Geo
100
AcDbLine
10
-90.9302982848285
20
3.91528465399160
30
0.000000000000000
11
-90.8302982848285
21
3.78214061168156
31
0.000000000000000
  0
LINE
  5
F100C2
330
F100C3
100
AcDbEntity
8
Geo
100
AcDbLine
10
-90.8302982848285
20
3.78214061168156
30
0.000000000000000
11
-90.7302982848285
21
3.64374858816653
31
0.000000000000000
  0
LINE
  5
F100C4
330
F100C5
100
AcDbEntity
8
Geo
100
AcDbLine
10
-90.7302982848285
20
3.64374858816653
30
0.000000000000000
11
-90.6302982848285
21
3.50031358335600
31
0.000000000000000
  0
LINE
  5
F100C6
330
F100C7
100
AcDbEntity
8
Geo
100
AcDbLine
10
-90.6302982848285
20
3.50031358335600
30
0.000000000000000
11
-90.5302982848285
21
3.35204806732059
31
0.000000000000000
  0
LINE
  5
F100C8
330
F100C9
100
AcDbEntity
8
Geo
100
AcDbLine
10
-90.5302982848285
20
3.35204806732059
30
0.000000000000000
11
-90.4302982848285
21
3.19917166556037
31
0.000000000000000
  0
LINE
  5
F100CA
330
F100CB
100
AcDbEntity
8
Geo
100
AcDbLine
10
-90.4302982848285
20
3.19917166556037
30
0.000000000000000
11
-90.3302982848285
21
3.04191083367397
31
0.000000000000000
  0
LINE
  5
F100CC
330
F100CD
100
AcDbEntity
8
Geo
100
AcDbLine
10
-90.3302982848285
20
3.04191083367397
30
0.000000000000000
11
-90.2302982848285
21
2.88049852191015
31
0.000000000000000
  0
LINE
  5
F100CE
330
F100CF
100
AcDbEntity
8
Geo
100
AcDbLine
10
-90.2302982848285
20
2.88049852191015
30
0.000000000000000
11
-90.1302982848285
21
2.71517383009900
31
0.000000000000000
  0
LINE
  5
F100D0
330
F100D1
100
AcDbEntity
8
Geo
100
AcDbLine
10
-90.1302982848285
20
2.71517383009900
30
0.000000000000000
11
-90.0302982848285
21
2.54618165347365
31
0.000000000000000
  0
LINE
  5
F100D2
330
F100D3
100
AcDbEntity
8
Geo
100
AcDbLine
10
-90.0302982848285
20
2.54618165347365
30
0.000000000000000
11
-89.9302982848285
21
2.37377231990732
31
0.000000000000000
  0
LINE
  5
F100D4
330
F100D5
100
AcDbEntity
8
Geo
100
AcDbLine
10
-89.9302982848285
20
2.37377231990732
30
0.000000000000000
11
-89.8302982848285
21
2.19820121910299
31
0.000000000000000
  0
LINE
  5
F100D6
330
F100D7
100
AcDbEntity
8
Geo
100
AcDbLine
10
-89.8302982848285
20
2.19820121910299
30
0.000000000000000
11
-89.7302982848285
21
2.01972842428501
31
0.000000000000000
  0
LINE
  5
F100D8
330
F100D9
100
AcDbEntity
8
Geo
100
AcDbLine
10
-89.7302982848285
20
2.01972842428501
30
0.000000000000000
11
-89.6302982848285
21
1.83861830695297
31
0.000000000000000
  0
LINE
  5
F100DA
330
F100DB
100
AcDbEntity
8
Geo
100
AcDbLine
10
-89.6302982848285
20
1.83861830695297
30
0.000000000000000
11
-89.5302982848285
21
1.65513914526859
31
0.000000000000000
  0
LINE
  5
F100DC
330
F100DD
100
AcDbEntity
8
Geo
100
AcDbLine
10
-89.5302982848285
20
1.65513914526859
30
0.000000000000000
11
-89.4302982848285
21
1.46956272665565
31
0.000000000000000
  0
LINE
  5
F100DE
330
F100DF
100
AcDbEntity
8
Geo
100
AcDbLine
10
-89.4302982848285
20
1.46956272665565
30
0.000000000000000
11
-89.3302982848285
21
1.28216394520168
31
0.000000000000000
  0
LINE
  5
F100E0
330
F100E1
100
AcDbEntity
8
Geo
100
AcDbLine
10
-89.3302982848285
20
1.28216394520168
30
0.000000000000000
11
-89.2302982848285
21
1.09322039445771
31
0.000000000000000
  0
LINE
  5
F100E2
330
F100E3
100
AcDbEntity
8
Geo
100
AcDbLine
10
-89.2302982848285
20
1.09322039445771
30
0.000000000000000
11
-89.1302982848285
21
0.903011956239339
31
0.000000000000000
  0
LINE
  5
F100E4
330
F100E5
100
AcDbEntity
8
Geo
100
AcDbLine
10
-89.1302982848285
20
0.903011956239339
30
0.000000000000000
11
-89.0302982848285
21
0.711820386038199
31
0.000000000000000
  0
LINE
  5
F100E6
330
F100E7
100
AcDbEntity
8
Geo
100
AcDbLine
10
-89.0302982848285
20
0.711820386038199
30
0.000000000000000
11
-88.9302982848285
21
0.519928895657948
31
0.000000000000000
  0
LINE
  5
F100E8
330
F100E9
100
AcDbEntity
8
Geo
100
AcDbLine
10
-88.9302982848285
20
0.519928895657948
30
0.000000000000000
11
-88.8302982848285
21
0.327621733693025
31
0.000000000000000
  0
LINE
  5
F100EA
330
F100EB
100
AcDbEntity
8
Geo
100
AcDbLine
10
-88.8302982848285
20
0.327621733693025
30
0.000000000000000
11
-88.7302982848285
21
0.135183764471595
31
0.000000000000000
  0
LINE
  5
F100EC
330
F100ED
100
AcDbEntity
8
Geo
100
AcDbLine
10
-88.7302982848285
20
0.135183764471595
30
0.000000000000000
11
-88.6302982848285
21
-0.0570999539135724
31
0.000000000000000
  0
LINE
  5
F100EE
330
F100EF
100
AcDbEntity
8
Geo
100
AcDbLine
10
-88.6302982848285
20
-0.0570999539135724
30
0.000000000000000
11
-88.5302982848285
21
-0.248944591861251
31
0.000000000000000
  0
LINE
  5
F100F0
330
F100F1
100
AcDbEntity
8
Geo
100
AcDbLine
10
-88.5302982848285
20
-0.248944591861251
30
0.000000000000000
11
-88.4302982848285
21
-0.440065970179453
31
0.000000000000000
  0
LINE
  5
F100F2
330
F100F3
100
AcDbEntity
8
Geo
100
AcDbLine
10
-88.4302982848285
20
-0.440065970179453
30
0.000000000000000
11
-88.3302982848285
21
-0.630180981039652
31
0.000000000000000
  0
LINE
  5
F100F4
330
F100F5
100
AcDbEntity
8
Geo
100
AcDbLine
10
-88.3302982848285
20
-0.630180981039652
30
0.000000000000000
11
-88.2302982848285
21
-0.819008007344029
31
0.000000000000000
  0
LINE
  5
F100F6
330
F100F7
100
AcDbEntity
8
Geo
100
AcDbLine
10
-88.2302982848285
20
-0.819008007344029
30
0.000000000000000
11
-88.1302982848285
21
-1.00626733988447
31
0.000000000000000
  0
LINE
  5
F100F8
330
F100F9
100
AcDbEntity
8
Geo
100
AcDbLine
10
-88.1302982848285
20
-1.00626733988447
30
0.000000000000000
11
-88.0302982848285
21
-1.19168159167542
31
0.000000000000000
  0
LINE
  5
F100FA
330
F100FB
100
AcDbEntity
8
Geo
100
AcDbLine
10
-88.0302982848285
20
-1.19168159167542
30
0.000000000000000
11
-87.9302982848285
21
-1.37497610884686
31
0.000000000000000
  0
LINE
  5
F100FC
330
F100FD
100
AcDbEntity
8
Geo
100
AcDbLine
10
-87.9302982848285
20
-1.37497610884686
30
0.000000000000000
11
-87.8302982848285
21
-1.55587937748864
31
0.000000000000000
  0
LINE
  5
F100FE
330
F100FF
100
AcDbEntity
8
Geo
100
AcDbLine
10
-87.8302982848285
20
-1.55587937748864
30
0.000000000000000
11
-87.7302982848285
21
-1.73412342584373
31
0.000000000000000
  0
LINE
  5
F10100
330
F10101
100
AcDbEntity
8
Geo
100
AcDbLine
10
-87.7302982848285
20
-1.73412342584373
30
0.000000000000000
11
-87.6302982848285
21
-1.90944422125434
31
0.000000000000000
  0
LINE
  5
F10102
330
F10103
100
AcDbEntity
8
Geo
100
AcDbLine
10
-87.6302982848285
20
-1.90944422125434
30
0.000000000000000
11
-87.5302982848285
21
-2.08158206127316
31
0.000000000000000
  0
LINE
  5
F10104
330
F10105
100
AcDbEntity
8
Geo
100
AcDbLine
10
-87.5302982848285
20
-2.08158206127316
30
0.000000000000000
11
-87.4302982848285
21
-2.25028195836020
31
0.000000000000000
  0
LINE
  5
F10106
330
F10107
100
AcDbEntity
8
Geo
100
AcDbLine
10
-87.4302982848285
20
-2.25028195836020
30
0.000000000000000
11
-87.3302982848285
21
-2.41529401759553
31
0.000000000000000
  0
LINE
  5
F10108
330
F10109
100
AcDbEntity
8
Geo
100
AcDbLine
10
-87.3302982848285
20
-2.41529401759553
30
0.000000000000000
11
-87.2302982848285
21
-2.57637380684820
31
0.000000000000000
  0
LINE
  5
F1010A
330
F1010B
100
AcDbEntity
8
Geo
100
AcDbLine
10
-87.2302982848285
20
-2.57637380684820
30
0.000000000000000
11
-87.1302982848285
21
-2.73328271885326
31
0.000000000000000
  0
LINE
  5
F1010C
330
F1010D
100
AcDbEntity
8
Geo
100
AcDbLine
10
-87.1302982848285
20
-2.73328271885326
30
0.000000000000000
11
-87.0302982848285
21
-2.88578832466036
31
0.000000000000000
  0
LINE
  5
F1010E
330
F1010F
100
AcDbEntity
8
Geo
100
AcDbLine
10
-87.0302982848285
20
-2.88578832466036
30
0.000000000000000
11
-86.9302982848285
21
-3.03366471793041
31
0.000000000000000
  0
LINE
  5
F10110
330
F10111
100
AcDbEntity
8
Geo
100
AcDbLine
10
-86.9302982848285
20
-3.03366471793041
30
0.000000000000000
11
-86.8302982848285
21
-3.17669284957033
31
0.000000000000000
  0
LINE
  5
F10112
330
F10113
100
AcDbEntity
8
Geo
100
AcDbLine
10
-86.8302982848285
20
-3.17669284957033
30
0.000000000000000
11
-86.7302982848285
21
-3.31466085221017
31
0.000000000000000
  0
LINE
  5
F10114
330
F10115
100
AcDbEntity
8
Geo
100
AcDbLine
10
-86.7302982848285
20
-3.31466085221017
30
0.000000000000000
11
-86.6302982848285
21
-3.44736435404193
31
0.000000000000000
  0
LINE
  5
F10116
330
F10117
100
AcDbEntity
8
Geo
100
AcDbLine
10
-86.6302982848285
20
-3.44736435404193
30
0.000000000000000
11
-86.5302982848285
21
-3.57460678155527
31
0.000000000000000
  0
LINE
  5
F10118
330
F10119
100
AcDbEntity
8
Geo
100
AcDbLine
10
-86.5302982848285
20
-3.57460678155527
30
0.000000000000000
11
-86.4302982848285
21
-3.69619965072151
31
0.000000000000000
  0
LINE
  5
F1011A
330
F1011B
100
AcDbEntity
8
Geo
100
AcDbLine
10
-86.4302982848285
20
-3.69619965072151
30
0.000000000000000
11
-86.3302982848285
21
-3.81196284619482
31
0.000000000000000
  0
LINE
  5
F1011C
330
F1011D
100
AcDbEntity
8
Geo
100
AcDbLine
10
-86.3302982848285
20
-3.81196284619482
30
0.000000000000000
11
-86.2302982848285
21
-3.92172488811678
31
0.000000000000000
  0
LINE
  5
F1011E
330
F1011F
100
AcDbEntity
8
Geo
100
AcDbLine
10
-86.2302982848285
20
-3.92172488811678
30
0.000000000000000
11
-86.1302982848285
21
-4.02532318612929
31
0.000000000000000
  0
LINE
  5
F10120
330
F10121
100
AcDbEntity
8
Geo
100
AcDbLine
10
-86.1302982848285
20
-4.02532318612929
30
0.000000000000000
11
-86.0302982848285
21
-4.12260428021942
31
0.000000000000000
  0
LINE
  5
F10122
330
F10123
100
AcDbEntity
8
Geo
100
AcDbLine
10
-86.0302982848285
20
-4.12260428021942
30
0.000000000000000
11
-85.9302982848285
21
-4.21342406803950
31
0.000000000000000
  0
LINE
  5
F10124
330
F10125
100
AcDbEntity
8
Geo
100
AcDbLine
10
-85.9302982848285
20
-4.21342406803950
30
0.000000000000000
11
-85.8302982848285
21
-4.29764801836575
31
0.000000000000000
  0
LINE
  5
F10126
330
F10127
100
AcDbEntity
8
Geo
100
AcDbLine
10
-85.8302982848285
20
-4.29764801836575
30
0.000000000000000
11
-85.7302982848285
21
-4.37515137037918
31
0.000000000000000
  0
LINE
  5
F10128
330
F10129
100
AcDbEntity
8
Geo
100
AcDbLine
10
-85.7302982848285
20
-4.37515137037918
30
0.000000000000000
11
-85.6302982848285
21
-4.44581931847360
31
0.000000000000000
  0
LINE
  5
F1012A
330
F1012B
100
AcDbEntity
8
Geo
100
AcDbLine
10
-85.6302982848285
20
-4.44581931847360
30
0.000000000000000
11
-85.5302982848285
21
-4.50954718231704
31
0.000000000000000
  0
LINE
  5
F1012C
330
F1012D
100
AcDbEntity
8
Geo
100
AcDbLine
10
-85.5302982848285
20
-4.50954718231704
30
0.000000000000000
11
-85.4302982848285
21
-4.56624056191454
31
0.000000000000000
  0
LINE
  5
F1012E
330
F1012F
100
AcDbEntity
8
Geo
100
AcDbLine
10
-85.4302982848285
20
-4.56624056191454
30
0.000000000000000
11
-85.3302982848285
21
-4.61581547744275
31
0.000000000000000
  0
LINE
  5
F10130
330
F10131
100
AcDbEntity
8
Geo
100
AcDbLine
10
-85.3302982848285
20
-4.61581547744275
30
0.000000000000000
11
-85.2302982848285
21
-4.65819849364912
31
0.000000000000000
  0
LINE
  5
F10132
330
F10133
100
AcDbEntity
8
Geo
100
AcDbLine
10
-85.2302982848285
20
-4.65819849364912
30
0.000000000000000
11
-85.1302982848285
21
-4.69332682863144
31
0.000000000000000
  0
LINE
  5
F10134
330
F10135
100
AcDbEntity
8
Geo
100
AcDbLine
10
-85.1302982848285
20
-4.69332682863144
30
0.000000000000000
11
-85.0302982848285
21
-4.72114844683658
31
0.000000000000000
  0
LINE
  5
F10136
330
F10137
100
AcDbEntity
8
Geo
100
AcDbLine
10
-85.0302982848285
20
-4.72114844683658
30
0.000000000000000
11
-84.9302982848285
21
-4.74162213614068
31
0.000000000000000
  0
LINE
  5
F10138
330
F10139
100
AcDbEntity
8
Geo
100
AcDbLine
10
-84.9302982848285
20
-4.74162213614068
30
0.000000000000000
11
-84.8302982848285
21
-4.75471756889659
31
0.000000000000000
  0
LINE
  5
F1013A
330
F1013B
100
AcDbEntity
8
Geo
100
AcDbLine
10
-84.8302982848285
20
-4.75471756889659
30
0.000000000000000
11
-84.7302982848285
21
-4.76041534685824
31
0.000000000000000
  0
LINE
  5
F1013C
330
F1013D
100
AcDbEntity
8
Geo
100
AcDbLine
10
-75.8302982848284
20
5.23931593413799
30
0.000000000000000
11
-75.7302982848285
21
5.23931592451197
31
0.000000000000000
  0
LINE
  5
F1013E
330
F1013F
100
AcDbEntity
8
Geo
100
AcDbLine
10
-75.7302982848285
20
5.23931592451197
30
0.000000000000000
11
-75.6302982848285
21
5.23877313852818
31
0.000000000000000
  0
LINE
  5
F10140
330
F10141
100
AcDbEntity
8
Geo
100
AcDbLine
10
-75.6302982848285
20
5.23877313852818
30
0.000000000000000
11
-75.5302982848284
21
5.23727523046964
31
0.000000000000000
  0
LINE
  5
F10142
330
F10143
100
AcDbEntity
8
Geo
100
AcDbLine
10
-75.5302982848284
20
5.23727523046964
30
0.000000000000000
11
-75.4302982848284
21
5.23499604306143
31
0.000000000000000
  0
LINE
  5
F10144
330
F10145
100
AcDbEntity
8
Geo
100
AcDbLine
10
-75.4302982848284
20
5.23499604306143
30
0.000000000000000
11
-75.3302982848284
21
5.23209896558556
31
0.000000000000000
  0
LINE
  5
F10146
330
F10147
100
AcDbEntity
8
Geo
100
AcDbLine
10
-75.3302982848284
20
5.23209896558556
30
0.000000000000000
11
-75.2302982848285
21
5.22873686514607
31
0.000000000000000
  0
LINE
  5
F10148
330
F10149
100
AcDbEntity
8
Geo
100
AcDbLine
10
-75.2302982848285
20
5.22873686514607
30
0.000000000000000
11
-75.1302982848284
21
5.22505204111690
31
0.000000000000000
  0
LINE
  5
F1014A
330
F1014B
100
AcDbEntity
8
Geo
100
AcDbLine
10
-75.1302982848284
20
5.22505204111690
30
0.000000000000000
11
-75.0302982848284
21
5.22117619903235
31
0.000000000000000
  0
LINE
  5
F1014C
330
F1014D
100
AcDbEntity
8
Geo
100
AcDbLine
10
-75.0302982848284
20
5.22117619903235
30
0.000000000000000
11
-74.9302982848284
21
5.21723044043203
31
0.000000000000000
  0
LINE
  5
F1014E
330
F1014F
100
AcDbEntity
8
Geo
100
AcDbLine
10
-74.9302982848284
20
5.21723044043203
30
0.000000000000000
11
-74.8302982848284
21
5.21332526542665
31
0.000000000000000
  0
LINE
  5
F10150
330
F10151
100
AcDbEntity
8
Geo
100
AcDbLine
10
-74.8302982848284
20
5.21332526542665
30
0.000000000000000
11
-74.7302982848284
21
5.20956058500931
31
0.000000000000000
  0
LINE
  5
F10152
330
F10153
100
AcDbEntity
8
Geo
100
AcDbLine
10
-74.7302982848284
20
5.20956058500931
30
0.000000000000000
11
-74.6302982848284
21
5.20602574039596
31
0.000000000000000
  0
LINE
  5
F10154
330
F10155
100
AcDbEntity
8
Geo
100
AcDbLine
10
-74.6302982848284
20
5.20602574039596
30
0.000000000000000
11
-74.5302982848284
21
5.20279952693925
31
0.000000000000000
  0
LINE
  5
F10156
330
F10157
100
AcDbEntity
8
Geo
100
AcDbLine
10
-74.5302982848284
20
5.20279952693925
30
0.000000000000000
11
-74.4302982848284
21
5.19995022041992
31
0.000000000000000
  0
LINE
  5
F10158
330
F10159
100
AcDbEntity
8
Geo
100
AcDbLine
10
-74.4302982848284
20
5.19995022041992
30
0.000000000000000
11
-74.3302982848284
21
5.19753560378010
31
0.000000000000000
  0
LINE
  5
F1015A
330
F1015B
100
AcDbEntity
8
Geo
100
AcDbLine
10
-74.3302982848284
20
5.19753560378010
30
0.000000000000000
11
-74.2302982848284
21
5.19560299262189
31
0.000000000000000
  0
LINE
  5
F1015C
330
F1015D
100
AcDbEntity
8
Geo
100
AcDbLine
10
-74.2302982848284
20
5.19560299262189
30
0.000000000000000
11
-74.1302982848285
21
5.19418925805342
31
0.000000000000000
  0
LINE
  5
F1015E
330
F1015F
100
AcDbEntity
8
Geo
100
AcDbLine
10
-96.1302982848285
20
4.73931593413799
30
0.000000000000000
11
-96.0302982848285
21
5.03576081751824
31
0.000000000000000
  0
LINE
  5
F10160
330
F10161
100
AcDbEntity
8
Geo
100
AcDbLine
10
-96.0302982848285
20
5.03576081751824
30
0.000000000000000
11
-95.9302982848285
21
5.12480458384217
31
0.000000000000000
  0
LINE
  5
F10162
330
F10163
100
AcDbEntity
8
Geo
100
AcDbLine
10
-95.9302982848285
20
5.12480458384217
30
0.000000000000000
11
-95.8302982848285
21
5.16455516468452
31
0.000000000000000
  0
LINE
  5
F10164
330
F10165
100
AcDbEntity
8
Geo
100
AcDbLine
10
-95.8302982848285
20
5.16455516468452
30
0.000000000000000
11
-95.7302982848285
21
5.17019107801738
31
0.000000000000000
  0
LINE
  5
F10166
330
F10167
100
AcDbEntity
8
Geo
100
AcDbLine
10
-95.7302982848285
20
5.17019107801738
30
0.000000000000000
11
-95.6302982848285
21
5.14700876857108
31
0.000000000000000
  0
LINE
  5
F10168
330
F10169
100
AcDbEntity
8
Geo
100
AcDbLine
10
-95.6302982848285
20
5.14700876857108
30
0.000000000000000
11
-95.5302982848285
21
5.10657414090205
31
0.000000000000000
  0
LINE
  5
F1016A
330
F1016B
100
AcDbEntity
8
Geo
100
AcDbLine
10
-95.5302982848285
20
5.10657414090205
30
0.000000000000000
11
-95.4302982848285
21
5.05892965050654
31
0.000000000000000
  0
LINE
  5
F1016C
330
F1016D
100
AcDbEntity
8
Geo
100
AcDbLine
10
-95.4302982848285
20
5.05892965050654
30
0.000000000000000
11
-95.3302982848285
21
5.00414587310110
31
0.000000000000000
  0
LINE
  5
F1016E
330
F1016F
100
AcDbEntity
8
Geo
100
AcDbLine
10
-95.3302982848285
20
5.00414587310110
30
0.000000000000000
11
-95.2302982848285
21
4.94230395981802
31
0.000000000000000
  0
LINE
  5
F10170
330
F10171
100
AcDbEntity
8
Geo
100
AcDbLine
10
-95.2302982848285
20
4.94230395981802
30
0.000000000000000
11
-95.1302982848285
21
4.87349551699636
31
0.000000000000000
  0
LINE
  5
F10172
330
F10173
100
AcDbEntity
8
Geo
100
AcDbLine
10
-95.1302982848285
20
4.87349551699636
30
0.000000000000000
11
-95.0302982848285
21
4.79782247048555
31
0.000000000000000
  0
LINE
  5
F10174
330
F10175
100
AcDbEntity
8
Geo
100
AcDbLine
10
-95.0302982848285
20
4.79782247048555
30
0.000000000000000
11
-94.9302982848285
21
4.71539691466280
31
0.000000000000000
  0
LINE
  5
F10176
330
F10177
100
AcDbEntity
8
Geo
100
AcDbLine
10
-94.9302982848285
20
4.71539691466280
30
0.000000000000000
11
-94.8302982848285
21
4.62634094638788
31
0.000000000000000
  0
LINE
  5
F10178
330
F10179
100
AcDbEntity
8
Geo
100
AcDbLine
10
-94.8302982848285
20
4.62634094638788
30
0.000000000000000
11
-94.7302982848285
21
4.53078648414115
31
0.000000000000000
  0
LINE
  5
F1017A
330
F1017B
100
AcDbEntity
8
Geo
100
AcDbLine
10
-94.7302982848285
20
4.53078648414115
30
0.000000000000000
11
-94.6302982848285
21
4.42887507261296
31
0.000000000000000
  0
LINE
  5
F1017C
330
F1017D
100
AcDbEntity
8
Geo
100
AcDbLine
10
-94.6302982848285
20
4.42887507261296
30
0.000000000000000
11
-94.5302982848285
21
4.32075767303366
31
0.000000000000000
  0
LINE
  5
F1017E
330
F1017F
100
AcDbEntity
8
Geo
100
AcDbLine
10
-94.5302982848285
20
4.32075767303366
30
0.000000000000000
11
-94.4302982848285
21
4.20659443955499
31
0.000000000000000
  0
LINE
  5
F10180
330
F10181
100
AcDbEntity
8
Geo
100
AcDbLine
10
-94.4302982848285
20
4.20659443955499
30
0.000000000000000
11
-94.3302982848285
21
4.08655448201389
31
0.000000000000000
  0
LINE
  5
F10182
330
F10183
100
AcDbEntity
8
Geo
100
AcDbLine
10
-94.3302982848285
20
4.08655448201389
30
0.000000000000000
11
-94.2302982848285
21
3.96081561543041
31
0.000000000000000
  0
LINE
  5
F10184
330
F10185
100
AcDbEntity
8
Geo
100
AcDbLine
10
-94.2302982848285
20
3.96081561543041
30
0.000000000000000
11
-94.1302982848285
21
3.82956409661053
31
0.000000000000000
  0
LINE
  5
F10186
330
F10187
100
AcDbEntity
8
Geo
100
AcDbLine
10
-94.1302982848285
20
3.82956409661053
30
0.000000000000000
11
-94.0302982848285
21
3.69299434824420
31
0.000000000000000
  0
LINE
  5
F10188
330
F10189
100
AcDbEntity
8
Geo
100
AcDbLine
10
-94.0302982848285
20
3.69299434824420
30
0.000000000000000
11
-93.9302982848285
21
3.55130867090735
31
0.000000000000000
  0
LINE
  5
F1018A
330
F1018B
100
AcDbEntity
8
Geo
100
AcDbLine
10
-93.9302982848285
20
3.55130867090735
30
0.000000000000000
11
-93.8302982848285
21
3.40471694339424
31
0.000000000000000
  0
LINE
  5
F1018C
330
F1018D
100
AcDbEntity
8
Geo
100
AcDbLine
10
-93.8302982848285
20
3.40471694339424
30
0.000000000000000
11
-93.7302982848285
21
3.25343631182438
31
0.000000000000000
  0
LINE
  5
F1018E
330
F1018F
100
AcDbEntity
8
Geo
100
AcDbLine
10
-93.7302982848285
20
3.25343631182438
30
0.000000000000000
11
-93.6302982848285
21
3.09769086798425
31
0.000000000000000
  0
LINE
  5
F10190
330
F10191
100
AcDbEntity
8
Geo
100
AcDbLine
10
-93.6302982848285
20
3.09769086798425
30
0.000000000000000
11
-93.5302982848285
21
2.93771131738044
31
0.000000000000000
  0
LINE
  5
F10192
330
F10193
100
AcDbEntity
8
Geo
100
AcDbLine
10
-93.5302982848285
20
2.93771131738044
30
0.000000000000000
11
-93.4302982848285
21
2.77373463749596
31
0.000000000000000
  0
LINE
  5
F10194
330
F10195
100
AcDbEntity
8
Geo
100
AcDbLine
10
-93.4302982848285
20
2.77373463749596
30
0.000000000000000
11
-93.3302982848285
21
2.60600372675575
31
0.000000000000000
  0
LINE
  5
F10196
330
F10197
100
AcDbEntity
8
Geo
100
AcDbLine
10
-93.3302982848285
20
2.60600372675575
30
0.000000000000000
11
-93.2302982848285
21
2.43476704472167
31
0.000000000000000
  0
LINE
  5
F10198
330
F10199
100
AcDbEntity
8
Geo
100
AcDbLine
10
-93.2302982848285
20
2.43476704472167
30
0.000000000000000
11
-93.1302982848285
21
2.26027824404963
31
0.000000000000000
  0
LINE
  5
F1019A
330
F1019B
100
AcDbEntity
8
Geo
100
AcDbLine
10
-93.1302982848285
20
2.26027824404963
30
0.000000000000000
11
-93.0302982848285
21
2.08279579475431
31
0.000000000000000
  0
LINE
  5
F1019C
330
F1019D
100
AcDbEntity
8
Geo
100
AcDbLine
10
-93.0302982848285
20
2.08279579475431
30
0.000000000000000
11
-92.9302982848285
21
1.90258260133788
31
0.000000000000000
  0
LINE
  5
F1019E
330
F1019F
100
AcDbEntity
8
Geo
100
AcDbLine
10
-92.9302982848285
20
1.90258260133788
30
0.000000000000000
11
-92.8302982848285
21
1.71990561334993
31
0.000000000000000
  0
LINE
  5
F101A0
330
F101A1
100
AcDbEntity
8
Geo
100
AcDbLine
10
-92.8302982848285
20
1.71990561334993
30
0.000000000000000
11
-92.7302982848285
21
1.53503542995547
31
0.000000000000000
  0
LINE
  5
F101A2
330
F101A3
100
AcDbEntity
8
Geo
100
AcDbLine
10
-92.7302982848285
20
1.53503542995547
30
0.000000000000000
11
-92.6302982848285
21
1.34824589909681
31
0.000000000000000
  0
LINE
  5
F101A4
330
F101A5
100
AcDbEntity
8
Geo
100
AcDbLine
10
-92.6302982848285
20
1.34824589909681
30
0.000000000000000
11
-92.5302982848285
21
1.15981371184290
31
0.000000000000000
  0
LINE
  5
F101A6
330
F101A7
100
AcDbEntity
8
Geo
100
AcDbLine
10
-92.5302982848285
20
1.15981371184290
30
0.000000000000000
11
-92.4302982848285
21
0.970017992527340
31
0.000000000000000
  0
LINE
  5
F101A8
330
F101A9
100
AcDbEntity
8
Geo
100
AcDbLine
10
-92.4302982848285
20
0.970017992527340
30
0.000000000000000
11
-92.3302982848285
21
0.779139885281834
31
0.000000000000000
  0
LINE
  5
F101AA
330
F101AB
100
AcDbEntity
8
Geo
100
AcDbLine
10
-92.3302982848285
20
0.779139885281834
30
0.000000000000000
11
-92.2302982848285
21
0.587462137577805
31
0.000000000000000
  0
LINE
  5
F101AC
330
F101AD
100
AcDbEntity
8
Geo
100
AcDbLine
10
-92.2302982848285
20
0.587462137577805
30
0.000000000000000
11
-92.1302982848285
21
0.395268681392964
31
0.000000000000000
  0
LINE
  5
F101AE
330
F101AF
100
AcDbEntity
8
Geo
100
AcDbLine
10
-92.1302982848285
20
0.395268681392964
30
0.000000000000000
11
-92.0302982848285
21
0.202844212623264
31
0.000000000000000
  0
LINE
  5
F101B0
330
F101B1
100
AcDbEntity
8
Geo
100
AcDbLine
10
-92.0302982848285
20
0.202844212623264
30
0.000000000000000
11
-91.9302982848285
21
0.0104737693632743
31
0.000000000000000
  0
LINE
  5
F101B2
330
F101B3
100
AcDbEntity
8
Geo
100
AcDbLine
10
-91.9302982848285
20
0.0104737693632743
30
0.000000000000000
11
-91.8302982848285
21
-0.181557690320343
31
0.000000000000000
  0
LINE
  5
F101B4
330
F101B5
100
AcDbEntity
8
Geo
100
AcDbLine
10
-91.8302982848285
20
-0.181557690320343
30
0.000000000000000
11
-91.7302982848285
21
-0.372965710496824
31
0.000000000000000
  0
LINE
  5
F101B6
330
F101B7
100
AcDbEntity
8
Geo
100
AcDbLine
10
-91.7302982848285
20
-0.372965710496824
30
0.000000000000000
11
-91.6302982848285
21
-0.563466758735466
31
0.000000000000000
  0
LINE
  5
F101B8
330
F101B9
100
AcDbEntity
8
Geo
100
AcDbLine
10
-91.6302982848285
20
-0.563466758735466
30
0.000000000000000
11
-91.5302982848285
21
-0.752778646101822
31
0.000000000000000
  0
LINE
  5
F101BA
330
F101BB
100
AcDbEntity
8
Geo
100
AcDbLine
10
-91.5302982848285
20
-0.752778646101822
30
0.000000000000000
11
-91.4302982848285
21
-0.940620945163769
31
0.000000000000000
  0
LINE
  5
F101BC
330
F101BD
100
AcDbEntity
8
Geo
100
AcDbLine
10
-91.4302982848285
20
-0.940620945163769
30
0.000000000000000
11
-91.3302982848285
21
-1.12671540538827
31
0.000000000000000
  0
LINE
  5
F101BE
330
F101BF
100
AcDbEntity
8
Geo
100
AcDbLine
10
-91.3302982848285
20
-1.12671540538827
30
0.000000000000000
11
-91.2302982848285
21
-1.31078636531350
31
0.000000000000000
  0
LINE
  5
F101C0
330
F101C1
100
AcDbEntity
8
Geo
100
AcDbLine
10
-91.2302982848285
20
-1.31078636531350
30
0.000000000000000
11
-91.1302982848285
21
-1.49256116088577
31
0.000000000000000
  0
LINE
  5
F101C2
330
F101C3
100
AcDbEntity
8
Geo
100
AcDbLine
10
-91.1302982848285
20
-1.49256116088577
30
0.000000000000000
11
-91.0302982848285
21
-1.67177052935642
31
0.000000000000000
  0
LINE
  5
F101C4
330
F101C5
100
AcDbEntity
8
Geo
100
AcDbLine
10
-91.0302982848285
20
-1.67177052935642
30
0.000000000000000
11
-90.9302982848285
21
-1.84814900814033
31
0.000000000000000
  0
LINE
  5
F101C6
330
F101C7
100
AcDbEntity
8
Geo
100
AcDbLine
10
-90.9302982848285
20
-1.84814900814033
30
0.000000000000000
11
-90.8302982848285
21
-2.02143532804531
31
0.000000000000000
  0
LINE
  5
F101C8
330
F101C9
100
AcDbEntity
8
Geo
100
AcDbLine
10
-90.8302982848285
20
-2.02143532804531
30
0.000000000000000
11
-90.7302982848285
21
-2.19137280028973
31
0.000000000000000
  0
LINE
  5
F101CA
330
F101CB
100
AcDbEntity
8
Geo
100
AcDbLine
10
-90.7302982848285
20
-2.19137280028973
30
0.000000000000000
11
-90.6302982848285
21
-2.35770969673531
31
0.000000000000000
  0
LINE
  5
F101CC
330
F101CD
100
AcDbEntity
8
Geo
100
AcDbLine
10
-90.6302982848285
20
-2.35770969673531
30
0.000000000000000
11
-90.5302982848285
21
-2.52019962277163
31
0.000000000000000
  0
LINE
  5
F101CE
330
F101CF
100
AcDbEntity
8
Geo
100
AcDbLine
10
-90.5302982848285
20
-2.52019962277163
30
0.000000000000000
11
-90.4302982848285
21
-2.67860188230009
31
0.000000000000000
  0
LINE
  5
F101D0
330
F101D1
100
AcDbEntity
8
Geo
100
AcDbLine
10
-90.4302982848285
20
-2.67860188230009
30
0.000000000000000
11
-90.3302982848285
21
-2.83268183427676
31
0.000000000000000
  0
LINE
  5
F101D2
330
F101D3
100
AcDbEntity
8
Geo
100
AcDbLine
10
-90.3302982848285
20
-2.83268183427676
30
0.000000000000000
11
-90.2302982848285
21
-2.98221124028579
31
0.000000000000000
  0
LINE
  5
F101D4
330
F101D5
100
AcDbEntity
8
Geo
100
AcDbLine
10
-90.2302982848285
20
-2.98221124028579
30
0.000000000000000
11
-90.1302982848285
21
-3.12696860262865
31
0.000000000000000
  0
LINE
  5
F101D6
330
F101D7
100
AcDbEntity
8
Geo
100
AcDbLine
10
-90.1302982848285
20
-3.12696860262865
30
0.000000000000000
11
-90.0302982848285
21
-3.26673949242840
31
0.000000000000000
  0
LINE
  5
F101D8
330
F101D9
100
AcDbEntity
8
Geo
100
AcDbLine
10
-90.0302982848285
20
-3.26673949242840
30
0.000000000000000
11
-89.9302982848285
21
-3.40131686726282
31
0.000000000000000
  0
LINE
  5
F101DA
330
F101DB
100
AcDbEntity
8
Geo
100
AcDbLine
10
-89.9302982848285
20
-3.40131686726282
30
0.000000000000000
11
-89.8302982848285
21
-3.53050137785612
31
0.000000000000000
  0
LINE
  5
F101DC
330
F101DD
100
AcDbEntity
8
Geo
100
AcDbLine
10
-89.8302982848285
20
-3.53050137785612
30
0.000000000000000
11
-89.7302982848285
21
-3.65410166337471
31
0.000000000000000
  0
LINE
  5
F101DE
330
F101DF
100
AcDbEntity
8
Geo
100
AcDbLine
10
-89.7302982848285
20
-3.65410166337471
30
0.000000000000000
11
-89.6302982848285
21
-3.77193463488973
31
0.000000000000000
  0
LINE
  5
F101E0
330
F101E1
100
AcDbEntity
8
Geo
100
AcDbLine
10
-89.6302982848285
20
-3.77193463488973
30
0.000000000000000
11
-89.5302982848285
21
-3.88382574658644
31
0.000000000000000
  0
LINE
  5
F101E2
330
F101E3
100
AcDbEntity
8
Geo
100
AcDbLine
10
-89.5302982848285
20
-3.88382574658644
30
0.000000000000000
11
-89.4302982848285
21
-3.98960925431866
31
0.000000000000000
  0
LINE
  5
F101E4
330
F101E5
100
AcDbEntity
8
Geo
100
AcDbLine
10
-89.4302982848285
20
-3.98960925431866
30
0.000000000000000
11
-89.3302982848285
21
-4.08912846112539
31
0.000000000000000
  0
LINE
  5
F101E6
330
F101E7
100
AcDbEntity
8
Geo
100
AcDbLine
10
-89.3302982848285
20
-4.08912846112539
30
0.000000000000000
11
-89.2302982848285
21
-4.18223594934575
31
0.000000000000000
  0
LINE
  5
F101E8
330
F101E9
100
AcDbEntity
8
Geo
100
AcDbLine
10
-89.2302982848285
20
-4.18223594934575
30
0.000000000000000
11
-89.1302982848285
21
-4.26879379898858
31
0.000000000000000
  0
LINE
  5
F101EA
330
F101EB
100
AcDbEntity
8
Geo
100
AcDbLine
10
-89.1302982848285
20
-4.26879379898858
30
0.000000000000000
11
-89.0302982848285
21
-4.34867379203310
31
0.000000000000000
  0
LINE
  5
F101EC
330
F101ED
100
AcDbEntity
8
Geo
100
AcDbLine
10
-89.0302982848285
20
-4.34867379203310
30
0.000000000000000
11
-88.9302982848285
21
-4.42175760235813
31
0.000000000000000
  0
LINE
  5
F101EE
330
F101EF
100
AcDbEntity
8
Geo
100
AcDbLine
10
-88.9302982848285
20
-4.42175760235813
30
0.000000000000000
11
-88.8302982848285
21
-4.48793697101837
31
0.000000000000000
  0
LINE
  5
F101F0
330
F101F1
100
AcDbEntity
8
Geo
100
AcDbLine
10
-88.8302982848285
20
-4.48793697101837
30
0.000000000000000
11
-88.7302982848285
21
-4.54711386660823
31
0.000000000000000
  0
LINE
  5
F101F2
330
F101F3
100
AcDbEntity
8
Geo
100
AcDbLine
10
-88.7302982848285
20
-4.54711386660823
30
0.000000000000000
11
-88.6302982848285
21
-4.59920063047562
31
0.000000000000000
  0
LINE
  5
F101F4
330
F101F5
100
AcDbEntity
8
Geo
100
AcDbLine
10
-88.6302982848285
20
-4.59920063047562
30
0.000000000000000
11
-88.5302982848285
21
-4.64412010657058
31
0.000000000000000
  0
LINE
  5
F101F6
330
F101F7
100
AcDbEntity
8
Geo
100
AcDbLine
10
-88.5302982848285
20
-4.64412010657058
30
0.000000000000000
11
-88.4302982848285
21
-4.68180575573645
31
0.000000000000000
  0
LINE
  5
F101F8
330
F101F9
100
AcDbEntity
8
Geo
100
AcDbLine
10
-88.4302982848285
20
-4.68180575573645
30
0.000000000000000
11
-88.3302982848285
21
-4.71220175427418
31
0.000000000000000
  0
LINE
  5
F101FA
330
F101FB
100
AcDbEntity
8
Geo
100
AcDbLine
10
-88.3302982848285
20
-4.71220175427418
30
0.000000000000000
11
-88.2302982848285
21
-4.73526307663396
31
0.000000000000000
  0
LINE
  5
F101FC
330
F101FD
100
AcDbEntity
8
Geo
100
AcDbLine
10
-88.2302982848285
20
-4.73526307663396
30
0.000000000000000
11
-88.1302982848285
21
-4.75095556211146
31
0.000000000000000
  0
LINE
  5
F101FE
330
F101FF
100
AcDbEntity
8
Geo
100
AcDbLine
10
-88.1302982848285
20
-4.75095556211146
30
0.000000000000000
11
-88.0302982848285
21
-4.75925596545003
31
0.000000000000000
  0
LINE
  5
F10200
330
F10201
100
AcDbEntity
8
Geo
100
AcDbLine
10
-79.8302982848285
20
5.23909913455913
30
0.000000000000000
11
-79.7302982848285
21
5.23718774902694
31
0.000000000000000
  0
LINE
  5
F10202
330
F10203
100
AcDbEntity
8
Geo
100
AcDbLine
10
-79.7302982848285
20
5.23718774902694
30
0.000000000000000
11
-79.6302982848285
21
5.22787302301454
31
0.000000000000000
  0
LINE
  5
F10204
330
F10205
100
AcDbEntity
8
Geo
100
AcDbLine
10
-79.6302982848285
20
5.22787302301454
30
0.000000000000000
11
-79.5302982848285
21
5.21116875441245
31
0.000000000000000
  0
LINE
  5
F10206
330
F10207
100
AcDbEntity
8
Geo
100
AcDbLine
10
-79.5302982848285
20
5.21116875441245
30
0.000000000000000
11
-79.4302982848285
21
5.18709968723021
31
0.000000000000000
  0
LINE
  5
F10208
330
F10209
100
AcDbEntity
8
Geo
100
AcDbLine
10
-79.4302982848285
20
5.18709968723021
30
0.000000000000000
11
-79.3302982848285
21
5.15570147494315
31
0.000000000000000
  0
LINE
  5
F1020A
330
F1020B
100
AcDbEntity
8
Geo
100
AcDbLine
10
-79.3302982848285
20
5.15570147494315
30
0.000000000000000
11
-79.2302982848285
21
5.11702062767891
31
0.000000000000000
  0
LINE
  5
F1020C
330
F1020D
100
AcDbEntity
8
Geo
100
AcDbLine
10
-79.2302982848285
20
5.11702062767891
30
0.000000000000000
11
-79.1302982848285
21
5.07111444332203
31
0.000000000000000
  0
LINE
  5
F1020E
330
F1020F
100
AcDbEntity
8
Geo
100
AcDbLine
10
-79.1302982848285
20
5.07111444332203
30
0.000000000000000
11
-79.0302982848285
21
5.07721920757131
31
0.000000000000000
  0
LINE
  5
F10210
330
F10211
100
AcDbEntity
8
Geo
100
AcDbLine
10
-79.0302982848285
20
5.07721920757131
30
0.000000000000000
11
-78.9302982848285
21
5.08309772295350
31
0.000000000000000
  0
LINE
  5
F10212
330
F10213
100
AcDbEntity
8
Geo
100
AcDbLine
10
-78.9302982848285
20
5.08309772295350
30
0.000000000000000
11
-78.8302982848285
21
5.08875619988606
31
0.000000000000000
  0
LINE
  5
F10214
330
F10215
100
AcDbEntity
8
Geo
100
AcDbLine
10
-78.8302982848285
20
5.08875619988606
30
0.000000000000000
11
-78.7302982848285
21
5.09420074049820
31
0.000000000000000
  0
LINE
  5
F10216
330
F10217
100
AcDbEntity
8
Geo
100
AcDbLine
10
-78.7302982848285
20
5.09420074049820
30
0.000000000000000
11
-78.6302982848285
21
5.09943733746018
31
0.000000000000000
  0
LINE
  5
F10218
330
F10219
100
AcDbEntity
8
Geo
100
AcDbLine
10
-78.6302982848285
20
5.09943733746018
30
0.000000000000000
11
-78.5302982848285
21
5.10447187286570
31
0.000000000000000
  0
LINE
  5
F1021A
330
F1021B
100
AcDbEntity
8
Geo
100
AcDbLine
10
-78.5302982848285
20
5.10447187286570
30
0.000000000000000
11
-78.4302982848285
21
5.10931011716562
31
0.000000000000000
  0
LINE
  5
F1021C
330
F1021D
100
AcDbEntity
8
Geo
100
AcDbLine
10
-78.4302982848285
20
5.10931011716562
30
0.000000000000000
11
-78.3302982848285
21
5.11395772815123
31
0.000000000000000
  0
LINE
  5
F1021E
330
F1021F
100
AcDbEntity
8
Geo
100
AcDbLine
10
-78.3302982848285
20
5.11395772815123
30
0.000000000000000
11
-78.2302982848285
21
5.11842024998562
31
0.000000000000000
  0
LINE
  5
F10220
330
F10221
100
AcDbEntity
8
Geo
100
AcDbLine
10
-78.2302982848285
20
5.11842024998562
30
0.000000000000000
11
-78.1302982848285
21
5.12270311228123
31
0.000000000000000
  0
LINE
  5
F10222
330
F10223
100
AcDbEntity
8
Geo
100
AcDbLine
10
-78.1302982848285
20
5.12270311228123
30
0.000000000000000
11
-78.0302982848285
21
5.12681162922213
31
0.000000000000000
  0
LINE
  5
F10224
330
F10225
100
AcDbEntity
8
Geo
100
AcDbLine
10
-78.0302982848285
20
5.12681162922213
30
0.000000000000000
11
-77.9302982848285
21
5.13075099872948
31
0.000000000000000
  0
LINE
  5
F10226
330
F10227
100
AcDbEntity
8
Geo
100
AcDbLine
10
-77.9302982848285
20
5.13075099872948
30
0.000000000000000
11
-77.8302982848285
21
5.13452630166843
31
0.000000000000000
  0
LINE
  5
F10228
330
F10229
100
AcDbEntity
8
Geo
100
AcDbLine
10
-77.8302982848285
20
5.13452630166843
30
0.000000000000000
11
-77.7302982848285
21
5.13814250109513
31
0.000000000000000
  0
LINE
  5
F1022A
330
F1022B
100
AcDbEntity
8
Geo
100
AcDbLine
10
-77.7302982848285
20
5.13814250109513
30
0.000000000000000
11
-77.6302982848285
21
5.14160444154222
31
0.000000000000000
  0
LINE
  5
F1022C
330
F1022D
100
AcDbEntity
8
Geo
100
AcDbLine
10
-77.6302982848285
20
5.14160444154222
30
0.000000000000000
11
-77.5302982848285
21
5.14491684834142
31
0.000000000000000
  0
LINE
  5
F1022E
330
F1022F
100
AcDbEntity
8
Geo
100
AcDbLine
10
-77.5302982848285
20
5.14491684834142
30
0.000000000000000
11
-77.4302982848285
21
5.14808432698173
31
0.000000000000000
  0
LINE
  5
F10230
330
F10231
100
AcDbEntity
8
Geo
100
AcDbLine
10
-77.4302982848285
20
5.14808432698173
30
0.000000000000000
11
-77.3302982848285
21
5.15111136250190
31
0.000000000000000
  0
LINE
  5
F10232
330
F10233
100
AcDbEntity
8
Geo
100
AcDbLine
10
-77.3302982848285
20
5.15111136250190
30
0.000000000000000
11
-77.2302982848285
21
5.15400231891573
31
0.000000000000000
  0
LINE
  5
F10234
330
F10235
100
AcDbEntity
8
Geo
100
AcDbLine
10
-77.2302982848285
20
5.15400231891573
30
0.000000000000000
11
-77.1302982848285
21
5.15676143866894
31
0.000000000000000
  0
LINE
  5
F10236
330
F10237
100
AcDbEntity
8
Geo
100
AcDbLine
10
-77.1302982848285
20
5.15676143866894
30
0.000000000000000
11
-77.0302982848285
21
5.15939284212629
31
0.000000000000000
  0
LINE
  5
F10238
330
F10239
100
AcDbEntity
8
Geo
100
AcDbLine
10
-77.0302982848285
20
5.15939284212629
30
0.000000000000000
11
-76.9302982848285
21
5.16190052708766
31
0.000000000000000
  0
LINE
  5
F1023A
330
F1023B
100
AcDbEntity
8
Geo
100
AcDbLine
10
-76.9302982848285
20
5.16190052708766
30
0.000000000000000
11
-76.8302982848285
21
5.16428836833191
31
0.000000000000000
  0
LINE
  5
F1023C
330
F1023D
100
AcDbEntity
8
Geo
100
AcDbLine
10
-76.8302982848285
20
5.16428836833191
30
0.000000000000000
11
-76.7302982848285
21
5.16656011718726
31
0.000000000000000
  0
LINE
  5
F1023E
330
F1023F
100
AcDbEntity
8
Geo
100
AcDbLine
10
-76.7302982848285
20
5.16656011718726
30
0.000000000000000
11
-76.6302982848285
21
5.16871940112716
31
0.000000000000000
  0
LINE
  5
F10240
330
F10241
100
AcDbEntity
8
Geo
100
AcDbLine
10
-76.6302982848285
20
5.16871940112716
30
0.000000000000000
11
-76.5302982848285
21
5.17076972339029
31
0.000000000000000
  0
LINE
  5
F10242
330
F10243
100
AcDbEntity
8
Geo
100
AcDbLine
10
-76.5302982848285
20
5.17076972339029
30
0.000000000000000
11
-76.4302982848285
21
5.17271446262395
31
0.000000000000000
  0
LINE
  5
F10244
330
F10245
100
AcDbEntity
8
Geo
100
AcDbLine
10
-76.4302982848285
20
5.17271446262395
30
0.000000000000000
11
-76.3302982848285
21
5.17455687254943
31
0.000000000000000
  0
LINE
  5
F10246
330
F10247
100
AcDbEntity
8
Geo
100
AcDbLine
10
-76.3302982848285
20
5.17455687254943
30
0.000000000000000
11
-76.2302982848285
21
5.17630008164858
31
0.000000000000000
  0
LINE
  5
F10248
330
F10249
100
AcDbEntity
8
Geo
100
AcDbLine
10
-76.2302982848285
20
5.17630008164858
30
0.000000000000000
11
-76.1302982848285
21
5.17794709287060
31
0.000000000000000
  0
LINE
  5
F1024A
330
F1024B
100
AcDbEntity
8
Geo
100
AcDbLine
10
-76.1302982848285
20
5.17794709287060
30
0.000000000000000
11
-76.0302982848285
21
5.17950078335791
31
0.000000000000000
  0
LINE
  5
F1024C
330
F1024D
100
AcDbEntity
8
Geo
100
AcDbLine
10
-76.0302982848285
20
5.17950078335791
30
0.000000000000000
11
-75.9302982848285
21
5.18096390419046
31
0.000000000000000
  0
LINE
  5
F1024E
330
F1024F
100
AcDbEntity
8
Geo
100
AcDbLine
10
-75.9302982848285
20
5.18096390419046
30
0.000000000000000
11
-75.8302982848284
21
5.18233908014744
31
0.000000000000000
  0
LINE
  5
F10250
330
F10251
100
AcDbEntity
8
Geo
100
AcDbLine
10
-75.8302982848284
20
5.18233908014744
30
0.000000000000000
11
-75.7302982848285
21
5.18362880948559
31
0.000000000000000
  0
LINE
  5
F10252
330
F10253
100
AcDbEntity
8
Geo
100
AcDbLine
10
-75.7302982848285
20
5.18362880948559
30
0.000000000000000
11
-75.6302982848285
21
5.18483546373341
31
0.000000000000000
  0
LINE
  5
F10254
330
F10255
100
AcDbEntity
8
Geo
100
AcDbLine
10
-75.6302982848285
20
5.18483546373341
30
0.000000000000000
11
-75.5302982848284
21
5.18596128750037
31
0.000000000000000
  0
LINE
  5
F10256
330
F10257
100
AcDbEntity
8
Geo
100
AcDbLine
10
-75.5302982848284
20
5.18596128750037
30
0.000000000000000
11
-75.4302982848284
21
5.18700839830054
31
0.000000000000000
  0
LINE
  5
F10258
330
F10259
100
AcDbEntity
8
Geo
100
AcDbLine
10
-75.4302982848284
20
5.18700839830054
30
0.000000000000000
11
-75.3302982848284
21
5.18797878638993
31
0.000000000000000
  0
LINE
  5
F1025A
330
F1025B
100
AcDbEntity
8
Geo
100
AcDbLine
10
-75.3302982848284
20
5.18797878638993
30
0.000000000000000
11
-75.2302982848285
21
5.18887431461681
31
0.000000000000000
  0
LINE
  5
F1025C
330
F1025D
100
AcDbEntity
8
Geo
100
AcDbLine
10
-75.2302982848285
20
5.18887431461681
30
0.000000000000000
11
-75.1302982848284
21
5.18969671828451
31
0.000000000000000
  0
LINE
  5
F1025E
330
F1025F
100
AcDbEntity
8
Geo
100
AcDbLine
10
-75.1302982848284
20
5.18969671828451
30
0.000000000000000
11
-75.0302982848284
21
5.19044760502618
31
0.000000000000000
  0
LINE
  5
F10260
330
F10261
100
AcDbEntity
8
Geo
100
AcDbLine
10
-75.0302982848284
20
5.19044760502618
30
0.000000000000000
11
-74.9302982848284
21
5.19112845469077
31
0.000000000000000
  0
LINE
  5
F10262
330
F10263
100
AcDbEntity
8
Geo
100
AcDbLine
10
-74.9302982848284
20
5.19112845469077
30
0.000000000000000
11
-74.8302982848284
21
5.19174061924005
31
0.000000000000000
  0
LINE
  5
F10264
330
F10265
100
AcDbEntity
8
Geo
100
AcDbLine
10
-74.8302982848284
20
5.19174061924005
30
0.000000000000000
11
-74.7302982848284
21
5.19228532265595
31
0.000000000000000
  0
LINE
  5
F10266
330
F10267
100
AcDbEntity
8
Geo
100
AcDbLine
10
-74.7302982848284
20
5.19228532265595
30
0.000000000000000
11
-74.6302982848284
21
5.19276366085794
31
0.000000000000000
  0
LINE
  5
F10268
330
F10269
100
AcDbEntity
8
Geo
100
AcDbLine
10
-74.6302982848284
20
5.19276366085794
30
0.000000000000000
11
-74.5302982848284
21
5.19317660163015
31
0.000000000000000
  0
LINE
  5
F1026A
330
F1026B
100
AcDbEntity
8
Geo
100
AcDbLine
10
-74.5302982848284
20
5.19317660163015
30
0.000000000000000
11
-74.4302982848284
21
5.19352498455770
31
0.000000000000000
  0
LINE
  5
F1026C
330
F1026D
100
AcDbEntity
8
Geo
100
AcDbLine
10
-74.4302982848284
20
5.19352498455770
30
0.000000000000000
11
-74.3302982848284
21
5.19380952097210
31
0.000000000000000
  0
LINE
  5
F1026E
330
F1026F
100
AcDbEntity
8
Geo
100
AcDbLine
10
-74.3302982848284
20
5.19380952097210
30
0.000000000000000
11
-74.2302982848284
21
5.19403079390551
31
0.000000000000000
  0
LINE
  5
F10270
330
F10271
100
AcDbEntity
8
Geo
100
AcDbLine
10
-74.2302982848284
20
5.19403079390551
30
0.000000000000000
11
-74.1302982848285
21
5.19418925805342
31
0.000000000000000
  0
LINE
  5
F10272
330
F10273
100
AcDbEntity
8
Geo
100
AcDbLine
10
-96.1302982848285
20
4.51907025746618
30
0.000000000000000
11
-96.0302982848285
21
4.74392865679461
31
0.000000000000000
  0
LINE
  5
F10274
330
F10275
100
AcDbEntity
8
Geo
100
AcDbLine
10
-96.0302982848285
20
4.74392865679461
30
0.000000000000000
11
-95.9302982848285
21
4.76924495580736
31
0.000000000000000
  0
LINE
  5
F10276
330
F10277
100
AcDbEntity
8
Geo
100
AcDbLine
10
-95.9302982848285
20
4.76924495580736
30
0.000000000000000
11
-95.8302982848285
21
4.74696811295367
31
0.000000000000000
  0
LINE
  5
F10278
330
F10279
100
AcDbEntity
8
Geo
100
AcDbLine
10
-95.8302982848285
20
4.74696811295367
30
0.000000000000000
11
-95.7302982848285
21
4.69239286426621
31
0.000000000000000
  0
LINE
  5
F1027A
330
F1027B
100
AcDbEntity
8
Geo
100
AcDbLine
10
-95.7302982848285
20
4.69239286426621
30
0.000000000000000
11
-95.6302982848285
21
4.61128955131339
31
0.000000000000000
  0
LINE
  5
F1027C
330
F1027D
100
AcDbEntity
8
Geo
100
AcDbLine
10
-95.6302982848285
20
4.61128955131339
30
0.000000000000000
11
-95.5302982848285
21
4.51469478303529
31
0.000000000000000
  0
LINE
  5
F1027E
330
F1027F
100
AcDbEntity
8
Geo
100
AcDbLine
10
-95.5302982848285
20
4.51469478303529
30
0.000000000000000
11
-95.4302982848285
21
4.41176690208990
31
0.000000000000000
  0
LINE
  5
F10280
330
F10281
100
AcDbEntity
8
Geo
100
AcDbLine
10
-95.4302982848285
20
4.41176690208990
30
0.000000000000000
11
-95.3302982848285
21
4.30265837540232
31
0.000000000000000
  0
LINE
  5
F10282
330
F10283
100
AcDbEntity
8
Geo
100
AcDbLine
10
-95.3302982848285
20
4.30265837540232
30
0.000000000000000
11
-95.2302982848285
21
4.18753082527944
31
0.000000000000000
  0
LINE
  5
F10284
330
F10285
100
AcDbEntity
8
Geo
100
AcDbLine
10
-95.2302982848285
20
4.18753082527944
30
0.000000000000000
11
-95.1302982848285
21
4.06655478999912
31
0.000000000000000
  0
LINE
  5
F10286
330
F10287
100
AcDbEntity
8
Geo
100
AcDbLine
10
-95.1302982848285
20
4.06655478999912
30
0.000000000000000
11
-95.0302982848285
21
3.93990947119203
31
0.000000000000000
  0
LINE
  5
F10288
330
F10289
100
AcDbEntity
8
Geo
100
AcDbLine
10
-95.0302982848285
20
3.93990947119203
30
0.000000000000000
11
-94.9302982848285
21
3.80778246839055
31
0.000000000000000
  0
LINE
  5
F1028A
330
F1028B
100
AcDbEntity
8
Geo
100
AcDbLine
10
-94.9302982848285
20
3.80778246839055
30
0.000000000000000
11
-94.8302982848285
21
3.67036950113783
31
0.000000000000000
  0
LINE
  5
F1028C
330
F1028D
100
AcDbEntity
8
Geo
100
AcDbLine
10
-94.8302982848285
20
3.67036950113783
30
0.000000000000000
11
-94.7302982848285
21
3.52787411906874
31
0.000000000000000
  0
LINE
  5
F1028E
330
F1028F
100
AcDbEntity
8
Geo
100
AcDbLine
10
-94.7302982848285
20
3.52787411906874
30
0.000000000000000
11
-94.6302982848285
21
3.38050740039202
31
0.000000000000000
  0
LINE
  5
F10290
330
F10291
100
AcDbEntity
8
Geo
100
AcDbLine
10
-94.6302982848285
20
3.38050740039202
30
0.000000000000000
11
-94.5302982848285
21
3.22848763922051
31
0.000000000000000
  0
LINE
  5
F10292
330
F10293
100
AcDbEntity
8
Geo
100
AcDbLine
10
-94.5302982848285
20
3.22848763922051
30
0.000000000000000
11
-94.4302982848285
21
3.07204002221231
31
0.000000000000000
  0
LINE
  5
F10294
330
F10295
100
AcDbEntity
8
Geo
100
AcDbLine
10
-94.4302982848285
20
3.07204002221231
30
0.000000000000000
11
-94.3302982848285
21
2.91139629500216
31
0.000000000000000
  0
LINE
  5
F10296
330
F10297
100
AcDbEntity
8
Geo
100
AcDbLine
10
-94.3302982848285
20
2.91139629500216
30
0.000000000000000
11
-94.2302982848285
21
2.74679441891691
31
0.000000000000000
  0
LINE
  5
F10298
330
F10299
100
AcDbEntity
8
Geo
100
AcDbLine
10
-94.2302982848285
20
2.74679441891691
30
0.000000000000000
11
-94.1302982848285
21
2.57847821848377
31
0.000000000000000
  0
LINE
  5
F1029A
330
F1029B
100
AcDbEntity
8
Geo
100
AcDbLine
10
-94.1302982848285
20
2.57847821848377
30
0.000000000000000
11
-94.0302982848285
21
2.40669702025340
31
0.000000000000000
  0
LINE
  5
F1029C
330
F1029D
100
AcDbEntity
8
Geo
100
AcDbLine
10
-94.0302982848285
20
2.40669702025340
30
0.000000000000000
11
-93.9302982848285
21
2.23170528347277
31
0.000000000000000
  0
LINE
  5
F1029E
330
F1029F
100
AcDbEntity
8
Geo
100
AcDbLine
10
-93.9302982848285
20
2.23170528347277
30
0.000000000000000
11
-93.8302982848285
21
2.05376222315513
31
0.000000000000000
  0
LINE
  5
F102A0
330
F102A1
100
AcDbEntity
8
Geo
100
AcDbLine
10
-93.8302982848285
20
2.05376222315513
30
0.000000000000000
11
-93.7302982848285
21
1.87313142610510
31
0.000000000000000
  0
LINE
  5
F102A2
330
F102A3
100
AcDbEntity
8
Geo
100
AcDbLine
10
-93.7302982848285
20
1.87313142610510
30
0.000000000000000
11
-93.6302982848285
21
1.69008046046794
31
0.000000000000000
  0
LINE
  5
F102A4
330
F102A5
100
AcDbEntity
8
Geo
100
AcDbLine
10
-93.6302982848285
20
1.69008046046794
30
0.000000000000000
11
-93.5302982848285
21
1.50488047938123
31
0.000000000000000
  0
LINE
  5
F102A6
330
F102A7
100
AcDbEntity
8
Geo
100
AcDbLine
10
-93.5302982848285
20
1.50488047938123
30
0.000000000000000
11
-93.4302982848285
21
1.31780581931612
31
0.000000000000000
  0
LINE
  5
F102A8
330
F102A9
100
AcDbEntity
8
Geo
100
AcDbLine
10
-93.4302982848285
20
1.31780581931612
30
0.000000000000000
11
-93.3302982848285
21
1.12913359370308
31
0.000000000000000
  0
LINE
  5
F102AA
330
F102AB
100
AcDbEntity
8
Geo
100
AcDbLine
10
-93.3302982848285
20
1.12913359370308
30
0.000000000000000
11
-93.2302982848285
21
0.939143282444174
31
0.000000000000000
  0
LINE
  5
F102AC
330
F102AD
100
AcDbEntity
8
Geo
100
AcDbLine
10
-93.2302982848285
20
0.939143282444174
30
0.000000000000000
11
-93.1302982848285
21
0.748116317919885
31
0.000000000000000
  0
LINE
  5
F102AE
330
F102AF
100
AcDbEntity
8
Geo
100
AcDbLine
10
-93.1302982848285
20
0.748116317919885
30
0.000000000000000
11
-93.0302982848285
21
0.556335668103712
31
0.000000000000000
  0
LINE
  5
F102B0
330
F102B1
100
AcDbEntity
8
Geo
100
AcDbLine
10
-93.0302982848285
20
0.556335668103712
30
0.000000000000000
11
-92.9302982848285
21
0.364085417402118
31
0.000000000000000
  0
LINE
  5
F102B2
330
F102B3
100
AcDbEntity
8
Geo
100
AcDbLine
10
-92.9302982848285
20
0.364085417402118
30
0.000000000000000
11
-92.8302982848285
21
0.171650345840693
31
0.000000000000000
  0
LINE
  5
F102B4
330
F102B5
100
AcDbEntity
8
Geo
100
AcDbLine
10
-92.8302982848285
20
0.171650345840693
30
0.000000000000000
11
-92.7302982848285
21
-0.0206844927800890
31
0.000000000000000
  0
LINE
  5
F102B6
330
F102B7
100
AcDbEntity
8
Geo
100
AcDbLine
10
-92.7302982848285
20
-0.0206844927800890
30
0.000000000000000
11
-92.6302982848285
21
-0.212634193134671
31
0.000000000000000
  0
LINE
  5
F102B8
330
F102B9
100
AcDbEntity
8
Geo
100
AcDbLine
10
-92.6302982848285
20
-0.212634193134671
30
0.000000000000000
11
-92.5302982848285
21
-0.403914420402266
31
0.000000000000000
  0
LINE
  5
F102BA
330
F102BB
100
AcDbEntity
8
Geo
100
AcDbLine
10
-92.5302982848285
20
-0.403914420402266
30
0.000000000000000
11
-92.4302982848285
21
-0.594241831451629
31
0.000000000000000
  0
LINE
  5
F102BC
330
F102BD
100
AcDbEntity
8
Geo
100
AcDbLine
10
-92.4302982848285
20
-0.594241831451629
30
0.000000000000000
11
-92.3302982848285
21
-0.783334494556836
31
0.000000000000000
  0
LINE
  5
F102BE
330
F102BF
100
AcDbEntity
8
Geo
100
AcDbLine
10
-92.3302982848285
20
-0.783334494556836
30
0.000000000000000
11
-92.2302982848285
21
-0.970912307022355
31
0.000000000000000
  0
LINE
  5
F102C0
330
F102C1
100
AcDbEntity
8
Geo
100
AcDbLine
10
-92.2302982848285
20
-0.970912307022355
30
0.000000000000000
11
-92.1302982848285
21
-1.15669741009877
31
0.000000000000000
  0
LINE
  5
F102C2
330
F102C3
100
AcDbEntity
8
Geo
100
AcDbLine
10
-92.1302982848285
20
-1.15669741009877
30
0.000000000000000
11
-92.0302982848285
21
-1.34041460057456
31
0.000000000000000
  0
LINE
  5
F102C4
330
F102C5
100
AcDbEntity
8
Geo
100
AcDbLine
10
-92.0302982848285
20
-1.34041460057456
30
0.000000000000000
11
-91.9302982848285
21
-1.52179173843423
31
0.000000000000000
  0
LINE
  5
F102C6
330
F102C7
100
AcDbEntity
8
Geo
100
AcDbLine
10
-91.9302982848285
20
-1.52179173843423
30
0.000000000000000
11
-91.8302982848285
21
-1.70056014997892
31
0.000000000000000
  0
LINE
  5
F102C8
330
F102C9
100
AcDbEntity
8
Geo
100
AcDbLine
10
-91.8302982848285
20
-1.70056014997892
30
0.000000000000000
11
-91.7302982848285
21
-1.87645502581240
31
0.000000000000000
  0
LINE
  5
F102CA
330
F102CB
100
AcDbEntity
8
Geo
100
AcDbLine
10
-91.7302982848285
20
-1.87645502581240
30
0.000000000000000
11
-91.6302982848285
21
-2.04921581310283
31
0.000000000000000
  0
LINE
  5
F102CC
330
F102CD
100
AcDbEntity
8
Geo
100
AcDbLine
10
-91.6302982848285
20
-2.04921581310283
30
0.000000000000000
11
-91.5302982848285
21
-2.21858660153933
31
0.000000000000000
  0
LINE
  5
F102CE
330
F102CF
100
AcDbEntity
8
Geo
100
AcDbLine
10
-91.5302982848285
20
-2.21858660153933
30
0.000000000000000
11
-91.4302982848285
21
-2.38431650241152
31
0.000000000000000
  0
LINE
  5
F102D0
330
F102D1
100
AcDbEntity
8
Geo
100
AcDbLine
10
-91.4302982848285
20
-2.38431650241152
30
0.000000000000000
11
-91.3302982848285
21
-2.54616002025066
31
0.000000000000000
  0
LINE
  5
F102D2
330
F102D3
100
AcDbEntity
8
Geo
100
AcDbLine
10
-91.3302982848285
20
-2.54616002025066
30
0.000000000000000
11
-91.2302982848285
21
-2.70387741648173
31
0.000000000000000
  0
LINE
  5
F102D4
330
F102D5
100
AcDbEntity
8
Geo
100
AcDbLine
10
-91.2302982848285
20
-2.70387741648173
30
0.000000000000000
11
-91.1302982848285
21
-2.85723506454783
31
0.000000000000000
  0
LINE
  5
F102D6
330
F102D7
100
AcDbEntity
8
Geo
100
AcDbLine
10
-91.1302982848285
20
-2.85723506454783
30
0.000000000000000
11
-91.0302982848285
21
-3.00600579598086
31
0.000000000000000
  0
LINE
  5
F102D8
330
F102D9
100
AcDbEntity
8
Geo
100
AcDbLine
10
-91.0302982848285
20
-3.00600579598086
30
0.000000000000000
11
-90.9302982848285
21
-3.14996923690589
31
0.000000000000000
  0
LINE
  5
F102DA
330
F102DB
100
AcDbEntity
8
Geo
100
AcDbLine
10
-90.9302982848285
20
-3.14996923690589
30
0.000000000000000
11
-90.8302982848285
21
-3.28891213448064
31
0.000000000000000
  0
LINE
  5
F102DC
330
F102DD
100
AcDbEntity
8
Geo
100
AcDbLine
10
-90.8302982848285
20
-3.28891213448064
30
0.000000000000000
11
-90.7302982848285
21
-3.42262867278663
31
0.000000000000000
  0
LINE
  5
F102DE
330
F102DF
100
AcDbEntity
8
Geo
100
AcDbLine
10
-90.7302982848285
20
-3.42262867278663
30
0.000000000000000
11
-90.6302982848285
21
-3.55092077770399
31
0.000000000000000
  0
LINE
  5
F102E0
330
F102E1
100
AcDbEntity
8
Geo
100
AcDbLine
10
-90.6302982848285
20
-3.55092077770399
30
0.000000000000000
11
-90.5302982848285
21
-3.67359841031840
31
0.000000000000000
  0
LINE
  5
F102E2
330
F102E3
100
AcDbEntity
8
Geo
100
AcDbLine
10
-90.5302982848285
20
-3.67359841031840
30
0.000000000000000
11
-90.4302982848285
21
-3.79047984842546
31
0.000000000000000
  0
LINE
  5
F102E4
330
F102E5
100
AcDbEntity
8
Geo
100
AcDbLine
10
-90.4302982848285
20
-3.79047984842546
30
0.000000000000000
11
-90.3302982848285
21
-3.90139195571551
31
0.000000000000000
  0
LINE
  5
F102E6
330
F102E7
100
AcDbEntity
8
Geo
100
AcDbLine
10
-90.3302982848285
20
-3.90139195571551
30
0.000000000000000
11
-90.2302982848285
21
-4.00617043824024
31
0.000000000000000
  0
LINE
  5
F102E8
330
F102E9
100
AcDbEntity
8
Geo
100
AcDbLine
10
-90.2302982848285
20
-4.00617043824024
30
0.000000000000000
11
-90.1302982848285
21
-4.10466008778105
31
0.000000000000000
  0
LINE
  5
F102EA
330
F102EB
100
AcDbEntity
8
Geo
100
AcDbLine
10
-90.1302982848285
20
-4.10466008778105
30
0.000000000000000
11
-90.0302982848285
21
-4.19671501175880
31
0.000000000000000
  0
LINE
  5
F102EC
330
F102ED
100
AcDbEntity
8
Geo
100
AcDbLine
10
-90.0302982848285
20
-4.19671501175880
30
0.000000000000000
11
-89.9302982848285
21
-4.28219884934426
31
0.000000000000000
  0
LINE
  5
F102EE
330
F102EF
100
AcDbEntity
8
Geo
100
AcDbLine
10
-89.9302982848285
20
-4.28219884934426
30
0.000000000000000
11
-89.8302982848285
21
-4.36098497344921
31
0.000000000000000
  0
LINE
  5
F102F0
330
F102F1
100
AcDbEntity
8
Geo
100
AcDbLine
10
-89.8302982848285
20
-4.36098497344921
30
0.000000000000000
11
-89.7302982848285
21
-4.43295667829897
31
0.000000000000000
  0
LINE
  5
F102F2
330
F102F3
100
AcDbEntity
8
Geo
100
AcDbLine
10
-89.7302982848285
20
-4.43295667829897
30
0.000000000000000
11
-89.6302982848285
21
-4.49800735230853
31
0.000000000000000
  0
LINE
  5
F102F4
330
F102F5
100
AcDbEntity
8
Geo
100
AcDbLine
10
-89.6302982848285
20
-4.49800735230853
30
0.000000000000000
11
-89.5302982848285
21
-4.55604063600608
31
0.000000000000000
  0
LINE
  5
F102F6
330
F102F7
100
AcDbEntity
8
Geo
100
AcDbLine
10
-89.5302982848285
20
-4.55604063600608
30
0.000000000000000
11
-89.4302982848285
21
-4.60697056477022
31
0.000000000000000
  0
LINE
  5
F102F8
330
F102F9
100
AcDbEntity
8
Geo
100
AcDbLine
10
-89.4302982848285
20
-4.60697056477022
30
0.000000000000000
11
-89.3302982848285
21
-4.65072169616922
31
0.000000000000000
  0
LINE
  5
F102FA
330
F102FB
100
AcDbEntity
8
Geo
100
AcDbLine
10
-89.3302982848285
20
-4.65072169616922
30
0.000000000000000
11
-89.2302982848285
21
-4.68722922171373
31
0.000000000000000
  0
LINE
  5
F102FC
330
F102FD
100
AcDbEntity
8
Geo
100
AcDbLine
10
-89.2302982848285
20
-4.68722922171373
30
0.000000000000000
11
-89.1302982848285
21
-4.71643906285761
31
0.000000000000000
  0
LINE
  5
F102FE
330
F102FF
100
AcDbEntity
8
Geo
100
AcDbLine
10
-89.1302982848285
20
-4.71643906285761
30
0.000000000000000
11
-89.0302982848285
21
-4.73830795110429
31
0.000000000000000
  0
LINE
  5
F10300
330
F10301
100
AcDbEntity
8
Geo
100
AcDbLine
10
-89.0302982848285
20
-4.73830795110429
30
0.000000000000000
11
-88.9302982848285
21
-4.75280349210043
31
0.000000000000000
  0
LINE
  5
F10302
330
F10303
100
AcDbEntity
8
Geo
100
AcDbLine
10
-88.9302982848285
20
-4.75280349210043
30
0.000000000000000
11
-88.8302982848285
21
-4.75990421362155
31
0.000000000000000
  0
LINE
  5
F10304
330
F10305
100
AcDbEntity
8
Geo
100
AcDbLine
10
-80.6302982848285
20
5.23929232183602
30
0.000000000000000
11
-80.5302982848285
21
5.23618039508891
31
0.000000000000000
  0
LINE
  5
F10306
330
F10307
100
AcDbEntity
8
Geo
100
AcDbLine
10
-80.5302982848285
20
5.23618039508891
30
0.000000000000000
11
-80.4302982848285
21
5.22566662005355
31
0.000000000000000
  0
LINE
  5
F10308
330
F10309
100
AcDbEntity
8
Geo
100
AcDbLine
10
-80.4302982848285
20
5.22566662005355
30
0.000000000000000
11
-80.3302982848285
21
5.20776657077010
31
0.000000000000000
  0
LINE
  5
F1030A
330
F1030B
100
AcDbEntity
8
Geo
100
AcDbLine
10
-80.3302982848285
20
5.20776657077010
30
0.000000000000000
11
-80.2302982848285
21
5.18250676255634
31
0.000000000000000
  0
LINE
  5
F1030C
330
F1030D
100
AcDbEntity
8
Geo
100
AcDbLine
10
-80.2302982848285
20
5.18250676255634
30
0.000000000000000
11
-80.1302982848285
21
5.14992461273061
31
0.000000000000000
  0
LINE
  5
F1030E
330
F1030F
100
AcDbEntity
8
Geo
100
AcDbLine
10
-80.1302982848285
20
5.14992461273061
30
0.000000000000000
11
-80.0302982848285
21
5.11006838518555
31
0.000000000000000
  0
LINE
  5
F10310
330
F10311
100
AcDbEntity
8
Geo
100
AcDbLine
10
-80.0302982848285
20
5.11006838518555
30
0.000000000000000
11
-79.9302982848285
21
5.06299711889490
31
0.000000000000000
  0
LINE
  5
F10312
330
F10313
100
AcDbEntity
8
Geo
100
AcDbLine
10
-79.9302982848285
20
5.06299711889490
30
0.000000000000000
11
-79.8302982848285
21
5.00878054045910
31
0.000000000000000
  0
LINE
  5
F10314
330
F10315
100
AcDbEntity
8
Geo
100
AcDbLine
10
-79.8302982848285
20
5.00878054045910
30
0.000000000000000
11
-79.7302982848285
21
4.94749896081945
31
0.000000000000000
  0
LINE
  5
F10316
330
F10317
100
AcDbEntity
8
Geo
100
AcDbLine
10
-79.7302982848285
20
4.94749896081945
30
0.000000000000000
11
-79.6302982848285
21
4.87924315629354
31
0.000000000000000
  0
LINE
  5
F10318
330
F10319
100
AcDbEntity
8
Geo
100
AcDbLine
10
-79.6302982848285
20
4.87924315629354
30
0.000000000000000
11
-79.5302982848285
21
4.80411423410848
31
0.000000000000000
  0
LINE
  5
F1031A
330
F1031B
100
AcDbEntity
8
Geo
100
AcDbLine
10
-79.5302982848285
20
4.80411423410848
30
0.000000000000000
11
-79.4302982848285
21
4.72222348263091
31
0.000000000000000
  0
LINE
  5
F1031C
330
F1031D
100
AcDbEntity
8
Geo
100
AcDbLine
10
-79.4302982848285
20
4.72222348263091
30
0.000000000000000
11
-79.3302982848285
21
4.63369220651563
31
0.000000000000000
  0
LINE
  5
F1031E
330
F1031F
100
AcDbEntity
8
Geo
100
AcDbLine
10
-79.3302982848285
20
4.63369220651563
30
0.000000000000000
11
-79.2302982848285
21
4.53865154701728
31
0.000000000000000
  0
LINE
  5
F10320
330
F10321
100
AcDbEntity
8
Geo
100
AcDbLine
10
-79.2302982848285
20
4.53865154701728
30
0.000000000000000
11
-79.1302982848285
21
4.43724228773086
31
0.000000000000000
  0
LINE
  5
F10322
330
F10323
100
AcDbEntity
8
Geo
100
AcDbLine
10
-79.1302982848285
20
4.43724228773086
30
0.000000000000000
11
-79.0302982848285
21
4.31627697470580
31
0.000000000000000
  0
LINE
  5
F10324
330
F10325
100
AcDbEntity
8
Geo
100
AcDbLine
10
-79.0302982848285
20
4.31627697470580
30
0.000000000000000
11
-78.9302982848285
21
4.19029942487952
31
0.000000000000000
  0
LINE
  5
F10326
330
F10327
100
AcDbEntity
8
Geo
100
AcDbLine
10
-78.9302982848285
20
4.19029942487952
30
0.000000000000000
11
-78.8302982848285
21
4.05996054407940
31
0.000000000000000
  0
LINE
  5
F10328
330
F10329
100
AcDbEntity
8
Geo
100
AcDbLine
10
-78.8302982848285
20
4.05996054407940
30
0.000000000000000
11
-78.7302982848285
21
3.92588817624340
31
0.000000000000000
  0
LINE
  5
F1032A
330
F1032B
100
AcDbEntity
8
Geo
100
AcDbLine
10
-78.7302982848285
20
3.92588817624340
30
0.000000000000000
11
-78.6302982848285
21
3.78868577018344
31
0.000000000000000
  0
LINE
  5
F1032C
330
F1032D
100
AcDbEntity
8
Geo
100
AcDbLine
10
-78.6302982848285
20
3.78868577018344
30
0.000000000000000
11
-78.5302982848285
21
3.64893131675768
31
0.000000000000000
  0
LINE
  5
F1032E
330
F1032F
100
AcDbEntity
8
Geo
100
AcDbLine
10
-78.5302982848285
20
3.64893131675768
30
0.000000000000000
11
-78.4302982848285
21
3.50717653877895
31
0.000000000000000
  0
LINE
  5
F10330
330
F10331
100
AcDbEntity
8
Geo
100
AcDbLine
10
-78.4302982848285
20
3.50717653877895
30
0.000000000000000
11
-78.3302982848285
21
3.36394631578944
31
0.000000000000000
  0
LINE
  5
F10332
330
F10333
100
AcDbEntity
8
Geo
100
AcDbLine
10
-78.3302982848285
20
3.36394631578944
30
0.000000000000000
11
-78.2302982848285
21
3.21973832581164
31
0.000000000000000
  0
LINE
  5
F10334
330
F10335
100
AcDbEntity
8
Geo
100
AcDbLine
10
-78.2302982848285
20
3.21973832581164
30
0.000000000000000
11
-78.1302982848285
21
3.07502288632236
31
0.000000000000000
  0
LINE
  5
F10336
330
F10337
100
AcDbEntity
8
Geo
100
AcDbLine
10
-78.1302982848285
20
3.07502288632236
30
0.000000000000000
11
-78.0302982848285
21
2.93024297697141
31
0.000000000000000
  0
LINE
  5
F10338
330
F10339
100
AcDbEntity
8
Geo
100
AcDbLine
10
-78.0302982848285
20
2.93024297697141
30
0.000000000000000
11
-77.9302982848285
21
2.78581442695971
31
0.000000000000000
  0
LINE
  5
F1033A
330
F1033B
100
AcDbEntity
8
Geo
100
AcDbLine
10
-77.9302982848285
20
2.78581442695971
30
0.000000000000000
11
-77.8302982848285
21
2.64212625048642
31
0.000000000000000
  0
LINE
  5
F1033C
330
F1033D
100
AcDbEntity
8
Geo
100
AcDbLine
10
-77.8302982848285
20
2.64212625048642
30
0.000000000000000
11
-77.7302982848285
21
2.49954111425397
31
0.000000000000000
  0
LINE
  5
F1033E
330
F1033F
100
AcDbEntity
8
Geo
100
AcDbLine
10
-77.7302982848285
20
2.49954111425397
30
0.000000000000000
11
-77.6302982848285
21
2.35839592166899
31
0.000000000000000
  0
LINE
  5
F10340
330
F10341
100
AcDbEntity
8
Geo
100
AcDbLine
10
-77.6302982848285
20
2.35839592166899
30
0.000000000000000
11
-77.5302982848285
21
2.21900249908066
31
0.000000000000000
  0
LINE
  5
F10342
330
F10343
100
AcDbEntity
8
Geo
100
AcDbLine
10
-77.5302982848285
20
2.21900249908066
30
0.000000000000000
11
-77.4302982848285
21
2.08164837014464
31
0.000000000000000
  0
LINE
  5
F10344
330
F10345
100
AcDbEntity
8
Geo
100
AcDbLine
10
-77.4302982848285
20
2.08164837014464
30
0.000000000000000
11
-77.3302982848285
21
1.94659760517605
31
0.000000000000000
  0
LINE
  5
F10346
330
F10347
100
AcDbEntity
8
Geo
100
AcDbLine
10
-77.3302982848285
20
1.94659760517605
30
0.000000000000000
11
-77.2302982848285
21
1.81409173315107
31
0.000000000000000
  0
LINE
  5
F10348
330
F10349
100
AcDbEntity
8
Geo
100
AcDbLine
10
-77.2302982848285
20
1.81409173315107
30
0.000000000000000
11
-77.1302982848285
21
1.68435070482132
31
0.000000000000000
  0
LINE
  5
F1034A
330
F1034B
100
AcDbEntity
8
Geo
100
AcDbLine
10
-77.1302982848285
20
1.68435070482132
30
0.000000000000000
11
-77.0302982848285
21
1.55757389621118
31
0.000000000000000
  0
LINE
  5
F1034C
330
F1034D
100
AcDbEntity
8
Geo
100
AcDbLine
10
-77.0302982848285
20
1.55757389621118
30
0.000000000000000
11
-76.9302982848285
21
1.43394114256767
31
0.000000000000000
  0
LINE
  5
F1034E
330
F1034F
100
AcDbEntity
8
Geo
100
AcDbLine
10
-76.9302982848285
20
1.43394114256767
30
0.000000000000000
11
-76.8302982848285
21
1.31361379361851
31
0.000000000000000
  0
LINE
  5
F10350
330
F10351
100
AcDbEntity
8
Geo
100
AcDbLine
10
-76.8302982848285
20
1.31361379361851
30
0.000000000000000
11
-76.7302982848285
21
1.19673578176122
31
0.000000000000000
  0
LINE
  5
F10352
330
F10353
100
AcDbEntity
8
Geo
100
AcDbLine
10
-76.7302982848285
20
1.19673578176122
30
0.000000000000000
11
-76.6302982848285
21
1.08343469554916
31
0.000000000000000
  0
LINE
  5
F10354
330
F10355
100
AcDbEntity
8
Geo
100
AcDbLine
10
-76.6302982848285
20
1.08343469554916
30
0.000000000000000
11
-76.5302982848285
21
0.973822851556426
31
0.000000000000000
  0
LINE
  5
F10356
330
F10357
100
AcDbEntity
8
Geo
100
AcDbLine
10
-76.5302982848285
20
0.973822851556426
30
0.000000000000000
11
-76.4302982848285
21
0.867998358387278
31
0.000000000000000
  0
LINE
  5
F10358
330
F10359
100
AcDbEntity
8
Geo
100
AcDbLine
10
-76.4302982848285
20
0.867998358387278
30
0.000000000000000
11
-76.3302982848285
21
0.766046167246907
31
0.000000000000000
  0
LINE
  5
F1035A
330
F1035B
100
AcDbEntity
8
Geo
100
AcDbLine
10
-76.3302982848285
20
0.766046167246907
30
0.000000000000000
11
-76.2302982848285
21
0.668039104104806
31
0.000000000000000
  0
LINE
  5
F1035C
330
F1035D
100
AcDbEntity
8
Geo
100
AcDbLine
10
-76.2302982848285
20
0.668039104104806
30
0.000000000000000
11
-76.1302982848285
21
0.574038879059921
31
0.000000000000000
  0
LINE
  5
F1035E
330
F1035F
100
AcDbEntity
8
Geo
100
AcDbLine
10
-76.1302982848285
20
0.574038879059921
30
0.000000000000000
11
-76.0302982848285
21
0.484097069056238
31
0.000000000000000
  0
LINE
  5
F10360
330
F10361
100
AcDbEntity
8
Geo
100
AcDbLine
10
-76.0302982848285
20
0.484097069056238
30
0.000000000000000
11
-75.9302982848285
21
0.398256070598417
31
0.000000000000000
  0
LINE
  5
F10362
330
F10363
100
AcDbEntity
8
Geo
100
AcDbLine
10
-75.9302982848285
20
0.398256070598417
30
0.000000000000000
11
-75.8302982848284
21
0.316550019579522
31
0.000000000000000
  0
LINE
  5
F10364
330
F10365
100
AcDbEntity
8
Geo
100
AcDbLine
10
-75.8302982848284
20
0.316550019579522
30
0.000000000000000
11
-75.7302982848285
21
0.239005675756790
31
0.000000000000000
  0
LINE
  5
F10366
330
F10367
100
AcDbEntity
8
Geo
100
AcDbLine
10
-75.7302982848285
20
0.239005675756790
30
0.000000000000000
11
-75.6302982848285
21
0.165643269797688
31
0.000000000000000
  0
LINE
  5
F10368
330
F10369
100
AcDbEntity
8
Geo
100
AcDbLine
10
-75.6302982848285
20
0.165643269797688
30
0.000000000000000
11
-75.5302982848284
21
0.0964773111677610
31
0.000000000000000
  0
LINE
  5
F1036A
330
F1036B
100
AcDbEntity
8
Geo
100
AcDbLine
10
-75.5302982848284
20
0.0964773111677610
30
0.000000000000000
11
-75.4302982848284
21
0.0315173554453927
31
0.000000000000000
  0
LINE
  5
F1036C
330
F1036D
100
AcDbEntity
8
Geo
100
AcDbLine
10
-75.4302982848284
20
0.0315173554453927
30
0.000000000000000
11
-75.3302982848284
21
-0.0292312700725201
31
0.000000000000000
  0
LINE
  5
F1036E
330
F1036F
100
AcDbEntity
8
Geo
100
AcDbLine
10
-75.3302982848284
20
-0.0292312700725201
30
0.000000000000000
11
-75.2302982848285
21
-0.0857667833639493
31
0.000000000000000
  0
LINE
  5
F10370
330
F10371
100
AcDbEntity
8
Geo
100
AcDbLine
10
-75.2302982848285
20
-0.0857667833639493
30
0.000000000000000
11
-75.1302982848284
21
-0.138090307949798
31
0.000000000000000
  0
LINE
  5
F10372
330
F10373
100
AcDbEntity
8
Geo
100
AcDbLine
10
-75.1302982848284
20
-0.138090307949798
30
0.000000000000000
11
-75.0302982848284
21
-0.186205276927631
31
0.000000000000000
  0
LINE
  5
F10374
330
F10375
100
AcDbEntity
8
Geo
100
AcDbLine
10
-75.0302982848284
20
-0.186205276927631
30
0.000000000000000
11
-74.9302982848284
21
-0.230116881105504
31
0.000000000000000
  0
LINE
  5
F10376
330
F10377
100
AcDbEntity
8
Geo
100
AcDbLine
10
-74.9302982848284
20
-0.230116881105504
30
0.000000000000000
11
-74.8302982848284
21
-0.269831561439984
31
0.000000000000000
  0
LINE
  5
F10378
330
F10379
100
AcDbEntity
8
Geo
100
AcDbLine
10
-74.8302982848284
20
-0.269831561439984
30
0.000000000000000
11
-74.7302982848284
21
-0.305356545876406
31
0.000000000000000
  0
LINE
  5
F1037A
330
F1037B
100
AcDbEntity
8
Geo
100
AcDbLine
10
-74.7302982848284
20
-0.305356545876406
30
0.000000000000000
11
-74.6302982848284
21
-0.336699430605817
31
0.000000000000000
  0
LINE
  5
F1037C
330
F1037D
100
AcDbEntity
8
Geo
100
AcDbLine
10
-74.6302982848284
20
-0.336699430605817
30
0.000000000000000
11
-74.5302982848284
21
-0.363867805689901
31
0.000000000000000
  0
LINE
  5
F1037E
330
F1037F
100
AcDbEntity
8
Geo
100
AcDbLine
10
-74.5302982848284
20
-0.363867805689901
30
0.000000000000000
11
-74.4302982848284
21
-0.386868924960501
31
0.000000000000000
  0
LINE
  5
F10380
330
F10381
100
AcDbEntity
8
Geo
100
AcDbLine
10
-74.4302982848284
20
-0.386868924960501
30
0.000000000000000
11
-74.3302982848284
21
-0.405709420072342
31
0.000000000000000
  0
LINE
  5
F10382
330
F10383
100
AcDbEntity
8
Geo
100
AcDbLine
10
-74.3302982848284
20
-0.405709420072342
30
0.000000000000000
11
-74.2302982848284
21
-0.420395058573978
31
0.000000000000000
  0
LINE
  5
F10384
330
F10385
100
AcDbEntity
8
Geo
100
AcDbLine
10
-74.2302982848284
20
-0.420395058573978
30
0.000000000000000
11
-74.1302982848285
21
-0.430930545861182
31
0.000000000000000
  0
LINE
  5
F10386
330
F10387
100
AcDbEntity
8
Geo
100
AcDbLine
10
-96.1302982848285
20
0.239315934137976
30
0.000000000000000
11
-96.0302982848285
21
0.0546094624173643
31
0.000000000000000
  0
LINE
  5
F10388
330
F10389
100
AcDbEntity
8
Geo
100
AcDbLine
10
-96.0302982848285
20
0.0546094624173643
30
0.000000000000000
11
-95.9302982848285
21
-0.137513806741934
31
0.000000000000000
  0
LINE
  5
F1038A
330
F1038B
100
AcDbEntity
8
Geo
100
AcDbLine
10
-95.9302982848285
20
-0.137513806741934
30
0.000000000000000
11
-95.8302982848285
21
-0.331942892792216
31
0.000000000000000
  0
LINE
  5
F1038C
330
F1038D
100
AcDbEntity
8
Geo
100
AcDbLine
10
-95.8302982848285
20
-0.331942892792216
30
0.000000000000000
11
-95.7302982848285
21
-0.525897665115275
31
0.000000000000000
  0
LINE
  5
F1038E
330
F1038F
100
AcDbEntity
8
Geo
100
AcDbLine
10
-95.7302982848285
20
-0.525897665115275
30
0.000000000000000
11
-95.6302982848285
21
-0.717005686894450
31
0.000000000000000
  0
LINE
  5
F10390
330
F10391
100
AcDbEntity
8
Geo
100
AcDbLine
10
-95.6302982848285
20
-0.717005686894450
30
0.000000000000000
11
-95.5302982848285
21
-0.905147935404427
31
0.000000000000000
  0
LINE
  5
F10392
330
F10393
100
AcDbEntity
8
Geo
100
AcDbLine
10
-95.5302982848285
20
-0.905147935404427
30
0.000000000000000
11
-95.4302982848285
21
-1.09159489119635
31
0.000000000000000
  0
LINE
  5
F10394
330
F10395
100
AcDbEntity
8
Geo
100
AcDbLine
10
-95.4302982848285
20
-1.09159489119635
30
0.000000000000000
11
-95.3302982848285
21
-1.27607037065722
31
0.000000000000000
  0
LINE
  5
F10396
330
F10397
100
AcDbEntity
8
Geo
100
AcDbLine
10
-95.3302982848285
20
-1.27607037065722
30
0.000000000000000
11
-95.2302982848285
21
-1.45830111051911
31
0.000000000000000
  0
LINE
  5
F10398
330
F10399
100
AcDbEntity
8
Geo
100
AcDbLine
10
-95.2302982848285
20
-1.45830111051911
30
0.000000000000000
11
-95.1302982848285
21
-1.63801717264373
31
0.000000000000000
  0
LINE
  5
F1039A
330
F1039B
100
AcDbEntity
8
Geo
100
AcDbLine
10
-95.1302982848285
20
-1.63801717264373
30
0.000000000000000
11
-95.0302982848285
21
-1.81495234388138
31
0.000000000000000
  0
LINE
  5
F1039C
330
F1039D
100
AcDbEntity
8
Geo
100
AcDbLine
10
-95.0302982848285
20
-1.81495234388138
30
0.000000000000000
11
-94.9302982848285
21
-1.98884453041210
31
0.000000000000000
  0
LINE
  5
F1039E
330
F1039F
100
AcDbEntity
8
Geo
100
AcDbLine
10
-94.9302982848285
20
-1.98884453041210
30
0.000000000000000
11
-94.8302982848285
21
-2.15943614598491
31
0.000000000000000
  0
LINE
  5
F103A0
330
F103A1
100
AcDbEntity
8
Geo
100
AcDbLine
10
-94.8302982848285
20
-2.15943614598491
30
0.000000000000000
11
-94.7302982848285
21
-2.32647449347991
31
0.000000000000000
  0
LINE
  5
F103A2
330
F103A3
100
AcDbEntity
8
Geo
100
AcDbLine
10
-94.7302982848285
20
-2.32647449347991
30
0.000000000000000
11
-94.6302982848285
21
-2.48971213922824
31
0.000000000000000
  0
LINE
  5
F103A4
330
F103A5
100
AcDbEntity
8
Geo
100
AcDbLine
10
-94.6302982848285
20
-2.48971213922824
30
0.000000000000000
11
-94.5302982848285
21
-2.64890727953514
31
0.000000000000000
  0
LINE
  5
F103A6
330
F103A7
100
AcDbEntity
8
Geo
100
AcDbLine
10
-94.5302982848285
20
-2.64890727953514
30
0.000000000000000
11
-94.4302982848285
21
-2.80382409886351
31
0.000000000000000
  0
LINE
  5
F103A8
330
F103A9
100
AcDbEntity
8
Geo
100
AcDbLine
10
-94.4302982848285
20
-2.80382409886351
30
0.000000000000000
11
-94.3302982848285
21
-2.95423311914706
31
0.000000000000000
  0
LINE
  5
F103AA
330
F103AB
100
AcDbEntity
8
Geo
100
AcDbLine
10
-94.3302982848285
20
-2.95423311914706
30
0.000000000000000
11
-94.2302982848285
21
-3.09991153971588
31
0.000000000000000
  0
LINE
  5
F103AC
330
F103AD
100
AcDbEntity
8
Geo
100
AcDbLine
10
-94.2302982848285
20
-3.09991153971588
30
0.000000000000000
11
-94.1302982848285
21
-3.24064356733076
31
0.000000000000000
  0
LINE
  5
F103AE
330
F103AF
100
AcDbEntity
8
Geo
100
AcDbLine
10
-94.1302982848285
20
-3.24064356733076
30
0.000000000000000
11
-94.0302982848285
21
-3.37622073583742
31
0.000000000000000
  0
LINE
  5
F103B0
330
F103B1
100
AcDbEntity
8
Geo
100
AcDbLine
10
-94.0302982848285
20
-3.37622073583742
30
0.000000000000000
11
-93.9302982848285
21
-3.50644221496709
31
0.000000000000000
  0
LINE
  5
F103B2
330
F103B3
100
AcDbEntity
8
Geo
100
AcDbLine
10
-93.9302982848285
20
-3.50644221496709
30
0.000000000000000
11
-93.8302982848285
21
-3.63111510782615
31
0.000000000000000
  0
LINE
  5
F103B4
330
F103B5
100
AcDbEntity
8
Geo
100
AcDbLine
10
-93.8302982848285
20
-3.63111510782615
30
0.000000000000000
11
-93.7302982848285
21
-3.75005473663400
31
0.000000000000000
  0
LINE
  5
F103B6
330
F103B7
100
AcDbEntity
8
Geo
100
AcDbLine
10
-93.7302982848285
20
-3.75005473663400
30
0.000000000000000
11
-93.6302982848285
21
-3.86308491628600
31
0.000000000000000
  0
LINE
  5
F103B8
330
F103B9
100
AcDbEntity
8
Geo
100
AcDbLine
10
-93.6302982848285
20
-3.86308491628600
30
0.000000000000000
11
-93.5302982848285
21
-3.97003821533624
31
0.000000000000000
  0
LINE
  5
F103BA
330
F103BB
100
AcDbEntity
8
Geo
100
AcDbLine
10
-93.5302982848285
20
-3.97003821533624
30
0.000000000000000
11
-93.4302982848285
21
-4.07075620401346
31
0.000000000000000
  0
LINE
  5
F103BC
330
F103BD
100
AcDbEntity
8
Geo
100
AcDbLine
10
-93.4302982848285
20
-4.07075620401346
30
0.000000000000000
11
-93.3302982848285
21
-4.16508968890289
31
0.000000000000000
  0
LINE
  5
F103BE
330
F103BF
100
AcDbEntity
8
Geo
100
AcDbLine
10
-93.3302982848285
20
-4.16508968890289
30
0.000000000000000
11
-93.2302982848285
21
-4.25289893394623
31
0.000000000000000
  0
LINE
  5
F103C0
330
F103C1
100
AcDbEntity
8
Geo
100
AcDbLine
10
-93.2302982848285
20
-4.25289893394623
30
0.000000000000000
11
-93.1302982848285
21
-4.33405386743248
31
0.000000000000000
  0
LINE
  5
F103C2
330
F103C3
100
AcDbEntity
8
Geo
100
AcDbLine
10
-93.1302982848285
20
-4.33405386743248
30
0.000000000000000
11
-93.0302982848285
21
-4.40843427467295
31
0.000000000000000
  0
LINE
  5
F103C4
330
F103C5
100
AcDbEntity
8
Geo
100
AcDbLine
10
-93.0302982848285
20
-4.40843427467295
30
0.000000000000000
11
-92.9302982848285
21
-4.47592997607516
31
0.000000000000000
  0
LINE
  5
F103C6
330
F103C7
100
AcDbEntity
8
Geo
100
AcDbLine
10
-92.9302982848285
20
-4.47592997607516
30
0.000000000000000
11
-92.8302982848285
21
-4.53644099035169
31
0.000000000000000
  0
LINE
  5
F103C8
330
F103C9
100
AcDbEntity
8
Geo
100
AcDbLine
10
-92.8302982848285
20
-4.53644099035169
30
0.000000000000000
11
-92.7302982848285
21
-4.58987768262232
31
0.000000000000000
  0
LINE
  5
F103CA
330
F103CB
100
AcDbEntity
8
Geo
100
AcDbLine
10
-92.7302982848285
20
-4.58987768262232
30
0.000000000000000
11
-92.6302982848285
21
-4.63616089719005
31
0.000000000000000
  0
LINE
  5
F103CC
330
F103CD
100
AcDbEntity
8
Geo
100
AcDbLine
10
-92.6302982848285
20
-4.63616089719005
30
0.000000000000000
11
-92.5302982848285
21
-4.67522207479432
31
0.000000000000000
  0
LINE
  5
F103CE
330
F103CF
100
AcDbEntity
8
Geo
100
AcDbLine
10
-92.5302982848285
20
-4.67522207479432
30
0.000000000000000
11
-92.4302982848285
21
-4.70700335416777
31
0.000000000000000
  0
LINE
  5
F103D0
330
F103D1
100
AcDbEntity
8
Geo
100
AcDbLine
10
-92.4302982848285
20
-4.70700335416777
30
0.000000000000000
11
-92.3302982848285
21
-4.73145765774602
31
0.000000000000000
  0
LINE
  5
F103D2
330
F103D3
100
AcDbEntity
8
Geo
100
AcDbLine
10
-92.3302982848285
20
-4.73145765774602
30
0.000000000000000
11
-92.2302982848285
21
-4.74854876140362
31
0.000000000000000
  0
LINE
  5
F103D4
330
F103D5
100
AcDbEntity
8
Geo
100
AcDbLine
10
-92.2302982848285
20
-4.74854876140362
30
0.000000000000000
11
-92.1302982848285
21
-4.75825134811281
31
0.000000000000000
  0
LINE
  5
F103D6
330
F103D7
100
AcDbEntity
8
Geo
100
AcDbLine
10
-83.9302982848285
20
5.23862648621691
30
0.000000000000000
11
-83.8302982848285
21
5.23811879285604
31
0.000000000000000
  0
LINE
  5
F103D8
330
F103D9
100
AcDbEntity
8
Geo
100
AcDbLine
10
-83.8302982848285
20
5.23811879285604
30
0.000000000000000
11
-83.7302982848285
21
5.23020637986104
31
0.000000000000000
  0
LINE
  5
F103DA
330
F103DB
100
AcDbEntity
8
Geo
100
AcDbLine
10
-83.7302982848285
20
5.23020637986104
30
0.000000000000000
11
-83.6302982848285
21
5.21490096787814
31
0.000000000000000
  0
LINE
  5
F103DC
330
F103DD
100
AcDbEntity
8
Geo
100
AcDbLine
10
-83.6302982848285
20
5.21490096787814
30
0.000000000000000
11
-83.5302982848285
21
5.19222522879254
31
0.000000000000000
  0
LINE
  5
F103DE
330
F103DF
100
AcDbEntity
8
Geo
100
AcDbLine
10
-83.5302982848285
20
5.19222522879254
30
0.000000000000000
11
-83.4302982848285
21
5.16221275214463
31
0.000000000000000
  0
LINE
  5
F103E0
330
F103E1
100
AcDbEntity
8
Geo
100
AcDbLine
10
-83.4302982848285
20
5.16221275214463
30
0.000000000000000
11
-83.3302982848285
21
5.12490799537378
31
0.000000000000000
  0
LINE
  5
F103E2
330
F103E3
100
AcDbEntity
8
Geo
100
AcDbLine
10
-83.3302982848285
20
5.12490799537378
30
0.000000000000000
11
-83.2302982848285
21
5.08036621796366
31
0.000000000000000
  0
LINE
  5
F103E4
330
F103E5
100
AcDbEntity
8
Geo
100
AcDbLine
10
-83.2302982848285
20
5.08036621796366
30
0.000000000000000
11
-83.1302982848285
21
5.02865339958642
31
0.000000000000000
  0
LINE
  5
F103E6
330
F103E7
100
AcDbEntity
8
Geo
100
AcDbLine
10
-83.1302982848285
20
5.02865339958642
30
0.000000000000000
11
-83.0302982848285
21
4.96984614236708
31
0.000000000000000
  0
LINE
  5
F103E8
330
F103E9
100
AcDbEntity
8
Geo
100
AcDbLine
10
-83.0302982848285
20
4.96984614236708
30
0.000000000000000
11
-82.9302982848285
21
4.90403155741293
31
0.000000000000000
  0
LINE
  5
F103EA
330
F103EB
100
AcDbEntity
8
Geo
100
AcDbLine
10
-82.9302982848285
20
4.90403155741293
30
0.000000000000000
11
-82.8302982848285
21
4.83130713577597
31
0.000000000000000
  0
LINE
  5
F103EC
330
F103ED
100
AcDbEntity
8
Geo
100
AcDbLine
10
-82.8302982848285
20
4.83130713577597
30
0.000000000000000
11
-82.7302982848285
21
4.75178060403955
31
0.000000000000000
  0
LINE
  5
F103EE
330
F103EF
100
AcDbEntity
8
Geo
100
AcDbLine
10
-82.7302982848285
20
4.75178060403955
30
0.000000000000000
11
-82.6302982848285
21
4.66556976474312
31
0.000000000000000
  0
LINE
  5
F103F0
330
F103F1
100
AcDbEntity
8
Geo
100
AcDbLine
10
-82.6302982848285
20
4.66556976474312
30
0.000000000000000
11
-82.5302982848285
21
4.57280232188150
31
0.000000000000000
  0
LINE
  5
F103F2
330
F103F3
100
AcDbEntity
8
Geo
100
AcDbLine
10
-82.5302982848285
20
4.57280232188150
30
0.000000000000000
11
-82.4302982848285
21
4.47361569173716
31
0.000000000000000
  0
LINE
  5
F103F4
330
F103F5
100
AcDbEntity
8
Geo
100
AcDbLine
10
-82.4302982848285
20
4.47361569173716
30
0.000000000000000
11
-82.3302982848285
21
4.36815679932562
31
0.000000000000000
  0
LINE
  5
F103F6
330
F103F7
100
AcDbEntity
8
Geo
100
AcDbLine
10
-82.3302982848285
20
4.36815679932562
30
0.000000000000000
11
-82.2302982848285
21
4.25658186075568
31
0.000000000000000
  0
LINE
  5
F103F8
330
F103F9
100
AcDbEntity
8
Geo
100
AcDbLine
10
-82.2302982848285
20
4.25658186075568
30
0.000000000000000
11
-82.1302982848285
21
4.13905615182670
31
0.000000000000000
  0
LINE
  5
F103FA
330
F103FB
100
AcDbEntity
8
Geo
100
AcDbLine
10
-82.1302982848285
20
4.13905615182670
30
0.000000000000000
11
-82.0302982848285
21
4.01575376320578
31
0.000000000000000
  0
LINE
  5
F103FC
330
F103FD
100
AcDbEntity
8
Geo
100
AcDbLine
10
-82.0302982848285
20
4.01575376320578
30
0.000000000000000
11
-81.9302982848285
21
3.88685734254754
31
0.000000000000000
  0
LINE
  5
F103FE
330
F103FF
100
AcDbEntity
8
Geo
100
AcDbLine
10
-81.9302982848285
20
3.88685734254754
30
0.000000000000000
11
-81.8302982848285
21
3.75255782393834
31
0.000000000000000
  0
LINE
  5
F10400
330
F10401
100
AcDbEntity
8
Geo
100
AcDbLine
10
-81.8302982848285
20
3.75255782393834
30
0.000000000000000
11
-81.7302982848285
21
3.61305414506596
31
0.000000000000000
  0
LINE
  5
F10402
330
F10403
100
AcDbEntity
8
Geo
100
AcDbLine
10
-81.7302982848285
20
3.61305414506596
30
0.000000000000000
11
-81.6302982848285
21
3.46855295253342
31
0.000000000000000
  0
LINE
  5
F10404
330
F10405
100
AcDbEntity
8
Geo
100
AcDbLine
10
-81.6302982848285
20
3.46855295253342
30
0.000000000000000
11
-81.5302982848285
21
3.31926829575370
31
0.000000000000000
  0
LINE
  5
F10406
330
F10407
100
AcDbEntity
8
Geo
100
AcDbLine
10
-81.5302982848285
20
3.31926829575370
30
0.000000000000000
11
-81.4302982848285
21
3.16542130987864
31
0.000000000000000
  0
LINE
  5
F10408
330
F10409
100
AcDbEntity
8
Geo
100
AcDbLine
10
-81.4302982848285
20
3.16542130987864
30
0.000000000000000
11
-81.3302982848285
21
3.00723988823171
31
0.000000000000000
  0
LINE
  5
F1040A
330
F1040B
100
AcDbEntity
8
Geo
100
AcDbLine
10
-81.3302982848285
20
3.00723988823171
30
0.000000000000000
11
-81.2302982848285
21
2.84495834473003
31
0.000000000000000
  0
LINE
  5
F1040C
330
F1040D
100
AcDbEntity
8
Geo
100
AcDbLine
10
-81.2302982848285
20
2.84495834473003
30
0.000000000000000
11
-81.1302982848285
21
2.67881706679542
31
0.000000000000000
  0
LINE
  5
F1040E
330
F1040F
100
AcDbEntity
8
Geo
100
AcDbLine
10
-81.1302982848285
20
2.67881706679542
30
0.000000000000000
11
-81.0302982848285
21
2.50906215926889
31
0.000000000000000
  0
LINE
  5
F10410
330
F10411
100
AcDbEntity
8
Geo
100
AcDbLine
10
-81.0302982848285
20
2.50906215926889
30
0.000000000000000
11
-80.9302982848285
21
2.33594507985585
31
0.000000000000000
  0
LINE
  5
F10412
330
F10413
100
AcDbEntity
8
Geo
100
AcDbLine
10
-80.9302982848285
20
2.33594507985585
30
0.000000000000000
11
-80.8302982848285
21
2.15972226664223
31
0.000000000000000
  0
LINE
  5
F10414
330
F10415
100
AcDbEntity
8
Geo
100
AcDbLine
10
-80.8302982848285
20
2.15972226664223
30
0.000000000000000
11
-80.7302982848285
21
1.98065475823304
31
0.000000000000000
  0
LINE
  5
F10416
330
F10417
100
AcDbEntity
8
Geo
100
AcDbLine
10
-80.7302982848285
20
1.98065475823304
30
0.000000000000000
11
-80.6302982848285
21
1.79900780707628
31
0.000000000000000
  0
LINE
  5
F10418
330
F10419
100
AcDbEntity
8
Geo
100
AcDbLine
10
-80.6302982848285
20
1.79900780707628
30
0.000000000000000
11
-80.5302982848285
21
1.61505048654486
31
0.000000000000000
  0
LINE
  5
F1041A
330
F1041B
100
AcDbEntity
8
Geo
100
AcDbLine
10
-80.5302982848285
20
1.61505048654486
30
0.000000000000000
11
-80.4302982848285
21
1.42905529235859
31
0.000000000000000
  0
LINE
  5
F1041C
330
F1041D
100
AcDbEntity
8
Geo
100
AcDbLine
10
-80.4302982848285
20
1.42905529235859
30
0.000000000000000
11
-80.3302982848285
21
1.24129773893666
31
0.000000000000000
  0
LINE
  5
F1041E
330
F1041F
100
AcDbEntity
8
Geo
100
AcDbLine
10
-80.3302982848285
20
1.24129773893666
30
0.000000000000000
11
-80.2302982848285
21
1.05205595127851
31
0.000000000000000
  0
LINE
  5
F10420
330
F10421
100
AcDbEntity
8
Geo
100
AcDbLine
10
-80.2302982848285
20
1.05205595127851
30
0.000000000000000
11
-80.1302982848285
21
0.861610252977663
31
0.000000000000000
  0
LINE
  5
F10422
330
F10423
100
AcDbEntity
8
Geo
100
AcDbLine
10
-80.1302982848285
20
0.861610252977663
30
0.000000000000000
11
-80.0302982848285
21
0.670242750978778
31
0.000000000000000
  0
LINE
  5
F10424
330
F10425
100
AcDbEntity
8
Geo
100
AcDbLine
10
-80.0302982848285
20
0.670242750978778
30
0.000000000000000
11
-79.9302982848285
21
0.478236917693035
31
0.000000000000000
  0
LINE
  5
F10426
330
F10427
100
AcDbEntity
8
Geo
100
AcDbLine
10
-79.9302982848285
20
0.478236917693035
30
0.000000000000000
11
-79.8302982848285
21
0.285877171090857
31
0.000000000000000
  0
LINE
  5
F10428
330
F10429
100
AcDbEntity
8
Geo
100
AcDbLine
10
-79.8302982848285
20
0.285877171090857
30
0.000000000000000
11
-79.7302982848285
21
0.0934484533939581
31
0.000000000000000
  0
LINE
  5
F1042A
330
F1042B
100
AcDbEntity
8
Geo
100
AcDbLine
10
-79.7302982848285
20
0.0934484533939581
30
0.000000000000000
11
-79.6302982848285
21
-0.0987641910091591
31
0.000000000000000
  0
LINE
  5
F1042C
330
F1042D
100
AcDbEntity
8
Geo
100
AcDbLine
10
-79.6302982848285
20
-0.0987641910091591
30
0.000000000000000
11
-79.5302982848285
21
-0.290476037799060
31
0.000000000000000
  0
LINE
  5
F1042E
330
F1042F
100
AcDbEntity
8
Geo
100
AcDbLine
10
-79.5302982848285
20
-0.290476037799060
30
0.000000000000000
11
-79.4302982848285
21
-0.481403104487107
31
0.000000000000000
  0
LINE
  5
F10430
330
F10431
100
AcDbEntity
8
Geo
100
AcDbLine
10
-79.4302982848285
20
-0.481403104487107
30
0.000000000000000
11
-79.3302982848285
21
-0.671262571078326
31
0.000000000000000
  0
LINE
  5
F10432
330
F10433
100
AcDbEntity
8
Geo
100
AcDbLine
10
-79.3302982848285
20
-0.671262571078326
30
0.000000000000000
11
-79.2302982848285
21
-0.859773199012253
31
0.000000000000000
  0
LINE
  5
F10434
330
F10435
100
AcDbEntity
8
Geo
100
AcDbLine
10
-79.2302982848285
20
-0.859773199012253
30
0.000000000000000
11
-79.1302982848285
21
-1.04665574776130
31
0.000000000000000
  0
LINE
  5
F10436
330
F10437
100
AcDbEntity
8
Geo
100
AcDbLine
10
-79.1302982848285
20
-1.04665574776130
30
0.000000000000000
11
-79.0302982848285
21
-1.02349518273706
31
0.000000000000000
  0
LINE
  5
F10438
330
F10439
100
AcDbEntity
8
Geo
100
AcDbLine
10
-79.0302982848285
20
-1.02349518273706
30
0.000000000000000
11
-78.9302982848285
21
-1.00075583085759
31
0.000000000000000
  0
LINE
  5
F1043A
330
F1043B
100
AcDbEntity
8
Geo
100
AcDbLine
10
-78.9302982848285
20
-1.00075583085759
30
0.000000000000000
11
-78.8302982848285
21
-0.978439833223143
31
0.000000000000000
  0
LINE
  5
F1043C
330
F1043D
100
AcDbEntity
8
Geo
100
AcDbLine
10
-78.8302982848285
20
-0.978439833223143
30
0.000000000000000
11
-78.7302982848285
21
-0.956549240943562
31
0.000000000000000
  0
LINE
  5
F1043E
330
F1043F
100
AcDbEntity
8
Geo
100
AcDbLine
10
-78.7302982848285
20
-0.956549240943562
30
0.000000000000000
11
-78.6302982848285
21
-0.935086017908072
31
0.000000000000000
  0
LINE
  5
F10440
330
F10441
100
AcDbEntity
8
Geo
100
AcDbLine
10
-78.6302982848285
20
-0.935086017908072
30
0.000000000000000
11
-78.5302982848285
21
-0.914052043509432
31
0.000000000000000
  0
LINE
  5
F10442
330
F10443
100
AcDbEntity
8
Geo
100
AcDbLine
10
-78.5302982848285
20
-0.914052043509432
30
0.000000000000000
11
-78.4302982848285
21
-0.893449115321573
31
0.000000000000000
  0
LINE
  5
F10444
330
F10445
100
AcDbEntity
8
Geo
100
AcDbLine
10
-78.4302982848285
20
-0.893449115321573
30
0.000000000000000
11
-78.3302982848285
21
-0.873278951729911
31
0.000000000000000
  0
LINE
  5
F10446
330
F10447
100
AcDbEntity
8
Geo
100
AcDbLine
10
-78.3302982848285
20
-0.873278951729911
30
0.000000000000000
11
-78.2302982848285
21
-0.853543194513564
31
0.000000000000000
  0
LINE
  5
F10448
330
F10449
100
AcDbEntity
8
Geo
100
AcDbLine
10
-78.2302982848285
20
-0.853543194513564
30
0.000000000000000
11
-78.1302982848285
21
-0.834243411378722
31
0.000000000000000
  0
LINE
  5
F1044A
330
F1044B
100
AcDbEntity
8
Geo
100
AcDbLine
10
-78.1302982848285
20
-0.834243411378722
30
0.000000000000000
11
-78.0302982848285
21
-0.815381098442475
31
0.000000000000000
  0
LINE
  5
F1044C
330
F1044D
100
AcDbEntity
8
Geo
100
AcDbLine
10
-78.0302982848285
20
-0.815381098442475
30
0.000000000000000
11
-77.9302982848285
21
-0.796957682666425
31
0.000000000000000
  0
LINE
  5
F1044E
330
F1044F
100
AcDbEntity
8
Geo
100
AcDbLine
10
-77.9302982848285
20
-0.796957682666425
30
0.000000000000000
11
-77.8302982848285
21
-0.778974524239457
31
0.000000000000000
  0
LINE
  5
F10450
330
F10451
100
AcDbEntity
8
Geo
100
AcDbLine
10
-77.8302982848285
20
-0.778974524239457
30
0.000000000000000
11
-77.7302982848285
21
-0.761432918909069
31
0.000000000000000
  0
LINE
  5
F10452
330
F10453
100
AcDbEntity
8
Geo
100
AcDbLine
10
-77.7302982848285
20
-0.761432918909069
30
0.000000000000000
11
-77.6302982848285
21
-0.744334100260673
31
0.000000000000000
  0
LINE
  5
F10454
330
F10455
100
AcDbEntity
8
Geo
100
AcDbLine
10
-77.6302982848285
20
-0.744334100260673
30
0.000000000000000
11
-77.5302982848285
21
-0.727679241944368
31
0.000000000000000
  0
LINE
  5
F10456
330
F10457
100
AcDbEntity
8
Geo
100
AcDbLine
10
-77.5302982848285
20
-0.727679241944368
30
0.000000000000000
11
-77.4302982848285
21
-0.711469459848637
31
0.000000000000000
  0
LINE
  5
F10458
330
F10459
100
AcDbEntity
8
Geo
100
AcDbLine
10
-77.4302982848285
20
-0.711469459848637
30
0.000000000000000
11
-77.3302982848285
21
-0.695705814220511
31
0.000000000000000
  0
LINE
  5
F1045A
330
F1045B
100
AcDbEntity
8
Geo
100
AcDbLine
10
-77.3302982848285
20
-0.695705814220511
30
0.000000000000000
11
-77.2302982848285
21
-0.680389311731748
31
0.000000000000000
  0
LINE
  5
F1045C
330
F1045D
100
AcDbEntity
8
Geo
100
AcDbLine
10
-77.2302982848285
20
-0.680389311731748
30
0.000000000000000
11
-77.1302982848285
21
-0.665520907490580
31
0.000000000000000
  0
LINE
  5
F1045E
330
F1045F
100
AcDbEntity
8
Geo
100
AcDbLine
10
-77.1302982848285
20
-0.665520907490580
30
0.000000000000000
11
-77.0302982848285
21
-0.651101506998654
31
0.000000000000000
  0
LINE
  5
F10460
330
F10461
100
AcDbEntity
8
Geo
100
AcDbLine
10
-77.0302982848285
20
-0.651101506998654
30
0.000000000000000
11
-76.9302982848285
21
-0.637131968052766
31
0.000000000000000
  0
LINE
  5
F10462
330
F10463
100
AcDbEntity
8
Geo
100
AcDbLine
10
-76.9302982848285
20
-0.637131968052766
30
0.000000000000000
11
-76.8302982848285
21
-0.623613102591040
31
0.000000000000000
  0
LINE
  5
F10464
330
F10465
100
AcDbEntity
8
Geo
100
AcDbLine
10
-76.8302982848285
20
-0.623613102591040
30
0.000000000000000
11
-76.7302982848285
21
-0.610545678483223
31
0.000000000000000
  0
LINE
  5
F10466
330
F10467
100
AcDbEntity
8
Geo
100
AcDbLine
10
-76.7302982848285
20
-0.610545678483223
30
0.000000000000000
11
-76.6302982848285
21
-0.597930421264772
31
0.000000000000000
  0
LINE
  5
F10468
330
F10469
100
AcDbEntity
8
Geo
100
AcDbLine
10
-76.6302982848285
20
-0.597930421264772
30
0.000000000000000
11
-76.5302982848285
21
-0.585768015814451
31
0.000000000000000
  0
LINE
  5
F1046A
330
F1046B
100
AcDbEntity
8
Geo
100
AcDbLine
10
-76.5302982848285
20
-0.585768015814451
30
0.000000000000000
11
-76.4302982848285
21
-0.574059107975152
31
0.000000000000000
  0
LINE
  5
F1046C
330
F1046D
100
AcDbEntity
8
Geo
100
AcDbLine
10
-76.4302982848285
20
-0.574059107975152
30
0.000000000000000
11
-76.3302982848285
21
-0.562804306117693
31
0.000000000000000
  0
LINE
  5
F1046E
330
F1046F
100
AcDbEntity
8
Geo
100
AcDbLine
10
-76.3302982848285
20
-0.562804306117693
30
0.000000000000000
11
-76.2302982848285
21
-0.552004182647342
31
0.000000000000000
  0
LINE
  5
F10470
330
F10471
100
AcDbEntity
8
Geo
100
AcDbLine
10
-76.2302982848285
20
-0.552004182647342
30
0.000000000000000
11
-76.1302982848285
21
-0.541659275452855
31
0.000000000000000
  0
LINE
  5
F10472
330
F10473
100
AcDbEntity
8
Geo
100
AcDbLine
10
-76.1302982848285
20
-0.541659275452855
30
0.000000000000000
11
-76.0302982848285
21
-0.531770089297810
31
0.000000000000000
  0
LINE
  5
F10474
330
F10475
100
AcDbEntity
8
Geo
100
AcDbLine
10
-76.0302982848285
20
-0.531770089297810
30
0.000000000000000
11
-75.9302982848285
21
-0.522337097154048
31
0.000000000000000
  0
LINE
  5
F10476
330
F10477
100
AcDbEntity
8
Geo
100
AcDbLine
10
-75.9302982848285
20
-0.522337097154048
30
0.000000000000000
11
-75.8302982848284
21
-0.513360741477043
31
0.000000000000000
  0
LINE
  5
F10478
330
F10479
100
AcDbEntity
8
Geo
100
AcDbLine
10
-75.8302982848284
20
-0.513360741477043
30
0.000000000000000
11
-75.7302982848285
21
-0.504841435423020
31
0.000000000000000
  0
LINE
  5
F1047A
330
F1047B
100
AcDbEntity
8
Geo
100
AcDbLine
10
-75.7302982848285
20
-0.504841435423020
30
0.000000000000000
11
-75.6302982848285
21
-0.496779564007689
31
0.000000000000000
  0
LINE
  5
F1047C
330
F1047D
100
AcDbEntity
8
Geo
100
AcDbLine
10
-75.6302982848285
20
-0.496779564007689
30
0.000000000000000
11
-75.5302982848284
21
-0.489175485206434
31
0.000000000000000
  0
LINE
  5
F1047E
330
F1047F
100
AcDbEntity
8
Geo
100
AcDbLine
10
-75.5302982848284
20
-0.489175485206434
30
0.000000000000000
11
-75.4302982848284
21
-0.482029530995829
31
0.000000000000000
  0
LINE
  5
F10480
330
F10481
100
AcDbEntity
8
Geo
100
AcDbLine
10
-75.4302982848284
20
-0.482029530995829
30
0.000000000000000
11
-75.3302982848284
21
-0.475342008336367
31
0.000000000000000
  0
LINE
  5
F10482
330
F10483
100
AcDbEntity
8
Geo
100
AcDbLine
10
-75.3302982848284
20
-0.475342008336367
30
0.000000000000000
11
-75.2302982848285
21
-0.469113200096281
31
0.000000000000000
  0
LINE
  5
F10484
330
F10485
100
AcDbEntity
8
Geo
100
AcDbLine
10
-75.2302982848285
20
-0.469113200096281
30
0.000000000000000
11
-75.1302982848284
21
-0.463343365916364
31
0.000000000000000
  0
LINE
  5
F10486
330
F10487
100
AcDbEntity
8
Geo
100
AcDbLine
10
-75.1302982848284
20
-0.463343365916364
30
0.000000000000000
11
-75.0302982848284
21
-0.458032743015682
31
0.000000000000000
  0
LINE
  5
F10488
330
F10489
100
AcDbEntity
8
Geo
100
AcDbLine
10
-75.0302982848284
20
-0.458032743015682
30
0.000000000000000
11
-74.9302982848284
21
-0.453181546938117
31
0.000000000000000
  0
LINE
  5
F1048A
330
F1048B
100
AcDbEntity
8
Geo
100
AcDbLine
10
-74.9302982848284
20
-0.453181546938117
30
0.000000000000000
11
-74.8302982848284
21
-0.448789972239639
31
0.000000000000000
  0
LINE
  5
F1048C
330
F1048D
100
AcDbEntity
8
Geo
100
AcDbLine
10
-74.8302982848284
20
-0.448789972239639
30
0.000000000000000
11
-74.7302982848284
21
-0.444858193116252
31
0.000000000000000
  0
LINE
  5
F1048E
330
F1048F
100
AcDbEntity
8
Geo
100
AcDbLine
10
-74.7302982848284
20
-0.444858193116252
30
0.000000000000000
11
-74.6302982848284
21
-0.441386363972555
31
0.000000000000000
  0
LINE
  5
F10490
330
F10491
100
AcDbEntity
8
Geo
100
AcDbLine
10
-74.6302982848284
20
-0.441386363972555
30
0.000000000000000
11
-74.5302982848284
21
-0.438374619930855
31
0.000000000000000
  0
LINE
  5
F10492
330
F10493
100
AcDbEntity
8
Geo
100
AcDbLine
10
-74.5302982848284
20
-0.438374619930855
30
0.000000000000000
11
-74.4302982848284
21
-0.435823077280778
31
0.000000000000000
  0
LINE
  5
F10494
330
F10495
100
AcDbEntity
8
Geo
100
AcDbLine
10
-74.4302982848284
20
-0.435823077280778
30
0.000000000000000
11
-74.3302982848284
21
-0.433731833869363
31
0.000000000000000
  0
LINE
  5
F10496
330
F10497
100
AcDbEntity
8
Geo
100
AcDbLine
10
-74.3302982848284
20
-0.433731833869363
30
0.000000000000000
11
-74.2302982848284
21
-0.432100969431567
31
0.000000000000000
  0
LINE
  5
F10498
330
F10499
100
AcDbEntity
8
Geo
100
AcDbLine
10
-74.2302982848284
20
-0.432100969431567
30
0.000000000000000
11
-74.1302982848285
21
-0.430930545861182
31
0.000000000000000
  0
LINE
  5
F1049A
330
F1049B
100
AcDbEntity
8
Geo
100
AcDbLine
10
-96.1302982848285
20
-1.15126054054926
30
0.000000000000000
11
-96.0302982848285
21
-1.41853334094103
31
0.000000000000000
  0
LINE
  5
F1049C
330
F1049D
100
AcDbEntity
8
Geo
100
AcDbLine
10
-96.0302982848285
20
-1.41853334094103
30
0.000000000000000
11
-95.9302982848285
21
-1.62876946504415
31
0.000000000000000
  0
LINE
  5
F1049E
330
F1049F
100
AcDbEntity
8
Geo
100
AcDbLine
10
-95.9302982848285
20
-1.62876946504415
30
0.000000000000000
11
-95.8302982848285
21
-1.82596611930615
31
0.000000000000000
  0
LINE
  5
F104A0
330
F104A1
100
AcDbEntity
8
Geo
100
AcDbLine
10
-95.8302982848285
20
-1.82596611930615
30
0.000000000000000
11
-95.7302982848285
21
-2.01216966238921
31
0.000000000000000
  0
LINE
  5
F104A2
330
F104A3
100
AcDbEntity
8
Geo
100
AcDbLine
10
-95.7302982848285
20
-2.01216966238921
30
0.000000000000000
11
-95.6302982848285
21
-2.18676046423081
31
0.000000000000000
  0
LINE
  5
F104A4
330
F104A5
100
AcDbEntity
8
Geo
100
AcDbLine
10
-95.6302982848285
20
-2.18676046423081
30
0.000000000000000
11
-95.5302982848285
21
-2.35319938855569
31
0.000000000000000
  0
LINE
  5
F104A6
330
F104A7
100
AcDbEntity
8
Geo
100
AcDbLine
10
-95.5302982848285
20
-2.35319938855569
30
0.000000000000000
11
-95.4302982848285
21
-2.51579802358445
31
0.000000000000000
  0
LINE
  5
F104A8
330
F104A9
100
AcDbEntity
8
Geo
100
AcDbLine
10
-95.4302982848285
20
-2.51579802358445
30
0.000000000000000
11
-95.3302982848285
21
-2.67431551218804
31
0.000000000000000
  0
LINE
  5
F104AA
330
F104AB
100
AcDbEntity
8
Geo
100
AcDbLine
10
-95.3302982848285
20
-2.67431551218804
30
0.000000000000000
11
-95.2302982848285
21
-2.82851704263385
31
0.000000000000000
  0
LINE
  5
F104AC
330
F104AD
100
AcDbEntity
8
Geo
100
AcDbLine
10
-95.2302982848285
20
-2.82851704263385
30
0.000000000000000
11
-95.1302982848285
21
-2.97817419641200
31
0.000000000000000
  0
LINE
  5
F104AE
330
F104AF
100
AcDbEntity
8
Geo
100
AcDbLine
10
-95.1302982848285
20
-2.97817419641200
30
0.000000000000000
11
-95.0302982848285
21
-3.12306528659140
31
0.000000000000000
  0
LINE
  5
F104B0
330
F104B1
100
AcDbEntity
8
Geo
100
AcDbLine
10
-95.0302982848285
20
-3.12306528659140
30
0.000000000000000
11
-94.9302982848285
21
-3.26297568620423
31
0.000000000000000
  0
LINE
  5
F104B2
330
F104B3
100
AcDbEntity
8
Geo
100
AcDbLine
10
-94.9302982848285
20
-3.26297568620423
30
0.000000000000000
11
-94.8302982848285
21
-3.39769814617260
31
0.000000000000000
  0
LINE
  5
F104B4
330
F104B5
100
AcDbEntity
8
Geo
100
AcDbLine
10
-94.8302982848285
20
-3.39769814617260
30
0.000000000000000
11
-94.7302982848285
21
-3.52703310230630
31
0.000000000000000
  0
LINE
  5
F104B6
330
F104B7
100
AcDbEntity
8
Geo
100
AcDbLine
10
-94.7302982848285
20
-3.52703310230630
30
0.000000000000000
11
-94.6302982848285
21
-3.65078897091697
31
0.000000000000000
  0
LINE
  5
F104B8
330
F104B9
100
AcDbEntity
8
Geo
100
AcDbLine
10
-94.6302982848285
20
-3.65078897091697
30
0.000000000000000
11
-94.5302982848285
21
-3.76878243261075
31
0.000000000000000
  0
LINE
  5
F104BA
330
F104BB
100
AcDbEntity
8
Geo
100
AcDbLine
10
-94.5302982848285
20
-3.76878243261075
30
0.000000000000000
11
-94.4302982848285
21
-3.88083870383901
31
0.000000000000000
  0
LINE
  5
F104BC
330
F104BD
100
AcDbEntity
8
Geo
100
AcDbLine
10
-94.4302982848285
20
-3.88083870383901
30
0.000000000000000
11
-94.3302982848285
21
-3.98679179580500
31
0.000000000000000
  0
LINE
  5
F104BE
330
F104BF
100
AcDbEntity
8
Geo
100
AcDbLine
10
-94.3302982848285
20
-3.98679179580500
30
0.000000000000000
11
-94.2302982848285
21
-4.08648476034282
31
0.000000000000000
  0
LINE
  5
F104C0
330
F104C1
100
AcDbEntity
8
Geo
100
AcDbLine
10
-94.2302982848285
20
-4.08648476034282
30
0.000000000000000
11
-94.1302982848285
21
-4.17976992240452
31
0.000000000000000
  0
LINE
  5
F104C2
330
F104C3
100
AcDbEntity
8
Geo
100
AcDbLine
10
-94.1302982848285
20
-4.17976992240452
30
0.000000000000000
11
-94.0302982848285
21
-4.26650909881092
31
0.000000000000000
  0
LINE
  5
F104C4
330
F104C5
100
AcDbEntity
8
Geo
100
AcDbLine
10
-94.0302982848285
20
-4.26650909881092
30
0.000000000000000
11
-93.9302982848285
21
-4.34657380294218
31
0.000000000000000
  0
LINE
  5
F104C6
330
F104C7
100
AcDbEntity
8
Geo
100
AcDbLine
10
-93.9302982848285
20
-4.34657380294218
30
0.000000000000000
11
-93.8302982848285
21
-4.41984543506482
31
0.000000000000000
  0
LINE
  5
F104C8
330
F104C9
100
AcDbEntity
8
Geo
100
AcDbLine
10
-93.8302982848285
20
-4.41984543506482
30
0.000000000000000
11
-93.7302982848285
21
-4.48621545801339
31
0.000000000000000
  0
LINE
  5
F104CA
330
F104CB
100
AcDbEntity
8
Geo
100
AcDbLine
10
-93.7302982848285
20
-4.48621545801339
30
0.000000000000000
11
-93.6302982848285
21
-4.54558555796637
31
0.000000000000000
  0
LINE
  5
F104CC
330
F104CD
100
AcDbEntity
8
Geo
100
AcDbLine
10
-93.6302982848285
20
-4.54558555796637
30
0.000000000000000
11
-93.5302982848285
21
-4.59786779007832
31
0.000000000000000
  0
LINE
  5
F104CE
330
F104CF
100
AcDbEntity
8
Geo
100
AcDbLine
10
-93.5302982848285
20
-4.59786779007832
30
0.000000000000000
11
-93.4302982848285
21
-4.64298470875245
31
0.000000000000000
  0
LINE
  5
F104D0
330
F104D1
100
AcDbEntity
8
Geo
100
AcDbLine
10
-93.4302982848285
20
-4.64298470875245
30
0.000000000000000
11
-93.3302982848285
21
-4.68086948236066
31
0.000000000000000
  0
LINE
  5
F104D2
330
F104D3
100
AcDbEntity
8
Geo
100
AcDbLine
10
-93.3302982848285
20
-4.68086948236066
30
0.000000000000000
11
-93.2302982848285
21
-4.71146599224118
31
0.000000000000000
  0
LINE
  5
F104D4
330
F104D5
100
AcDbEntity
8
Geo
100
AcDbLine
10
-93.2302982848285
20
-4.71146599224118
30
0.000000000000000
11
-93.1302982848285
21
-4.73472891582701
31
0.000000000000000
  0
LINE
  5
F104D6
330
F104D7
100
AcDbEntity
8
Geo
100
AcDbLine
10
-93.1302982848285
20
-4.73472891582701
30
0.000000000000000
11
-93.0302982848285
21
-4.75062379378221
31
0.000000000000000
  0
LINE
  5
F104D8
330
F104D9
100
AcDbEntity
8
Geo
100
AcDbLine
10
-93.0302982848285
20
-4.75062379378221
30
0.000000000000000
11
-92.9302982848285
21
-4.75912708104644
31
0.000000000000000
  0
LINE
  5
F104DA
330
F104DB
100
AcDbEntity
8
Geo
100
AcDbLine
10
-84.7302982848285
20
5.23904721513422
30
0.000000000000000
11
-84.6302982848285
21
5.23733889819112
31
0.000000000000000
  0
LINE
  5
F104DC
330
F104DD
100
AcDbEntity
8
Geo
100
AcDbLine
10
-84.6302982848285
20
5.23733889819112
30
0.000000000000000
11
-84.5302982848285
21
5.22822701687076
31
0.000000000000000
  0
LINE
  5
F104DE
330
F104DF
100
AcDbEntity
8
Geo
100
AcDbLine
10
-84.5302982848285
20
5.22822701687076
30
0.000000000000000
11
-84.4302982848285
21
5.21172506859011
31
0.000000000000000
  0
LINE
  5
F104E0
330
F104E1
100
AcDbEntity
8
Geo
100
AcDbLine
10
-84.4302982848285
20
5.21172506859011
30
0.000000000000000
11
-84.3302982848285
21
5.18785749766191
31
0.000000000000000
  0
LINE
  5
F104E2
330
F104E3
100
AcDbEntity
8
Geo
100
AcDbLine
10
-84.3302982848285
20
5.18785749766191
30
0.000000000000000
11
-84.2302982848285
21
5.15665965908535
31
0.000000000000000
  0
LINE
  5
F104E4
330
F104E5
100
AcDbEntity
8
Geo
100
AcDbLine
10
-84.2302982848285
20
5.15665965908535
30
0.000000000000000
11
-84.1302982848285
21
5.11817776617480
31
0.000000000000000
  0
LINE
  5
F104E6
330
F104E7
100
AcDbEntity
8
Geo
100
AcDbLine
10
-84.1302982848285
20
5.11817776617480
30
0.000000000000000
11
-84.0302982848285
21
5.07246882210401
31
0.000000000000000
  0
LINE
  5
F104E8
330
F104E9
100
AcDbEntity
8
Geo
100
AcDbLine
10
-84.0302982848285
20
5.07246882210401
30
0.000000000000000
11
-83.9302982848285
21
5.01960053546745
31
0.000000000000000
  0
LINE
  5
F104EA
330
F104EB
100
AcDbEntity
8
Geo
100
AcDbLine
10
-83.9302982848285
20
5.01960053546745
30
0.000000000000000
11
-83.8302982848285
21
4.95965121998367
31
0.000000000000000
  0
LINE
  5
F104EC
330
F104ED
100
AcDbEntity
8
Geo
100
AcDbLine
10
-83.8302982848285
20
4.95965121998367
30
0.000000000000000
11
-83.7302982848285
21
4.89270967848925
31
0.000000000000000
  0
LINE
  5
F104EE
330
F104EF
100
AcDbEntity
8
Geo
100
AcDbLine
10
-83.7302982848285
20
4.89270967848925
30
0.000000000000000
11
-83.6302982848285
21
4.81887507139532
31
0.000000000000000
  0
LINE
  5
F104F0
330
F104F1
100
AcDbEntity
8
Geo
100
AcDbLine
10
-83.6302982848285
20
4.81887507139532
30
0.000000000000000
11
-83.5302982848285
21
4.73825676980139
31
0.000000000000000
  0
LINE
  5
F104F2
330
F104F3
100
AcDbEntity
8
Geo
100
AcDbLine
10
-83.5302982848285
20
4.73825676980139
30
0.000000000000000
11
-83.4302982848285
21
4.65097419348405
31
0.000000000000000
  0
LINE
  5
F104F4
330
F104F5
100
AcDbEntity
8
Geo
100
AcDbLine
10
-83.4302982848285
20
4.65097419348405
30
0.000000000000000
11
-83.3302982848285
21
4.55715663400068
31
0.000000000000000
  0
LINE
  5
F104F6
330
F104F7
100
AcDbEntity
8
Geo
100
AcDbLine
10
-83.3302982848285
20
4.55715663400068
30
0.000000000000000
11
-83.2302982848285
21
4.45694306317000
31
0.000000000000000
  0
LINE
  5
F104F8
330
F104F9
100
AcDbEntity
8
Geo
100
AcDbLine
10
-83.2302982848285
20
4.45694306317000
30
0.000000000000000
11
-83.1302982848285
21
4.35048192721334
31
0.000000000000000
  0
LINE
  5
F104FA
330
F104FB
100
AcDbEntity
8
Geo
100
AcDbLine
10
-83.1302982848285
20
4.35048192721334
30
0.000000000000000
11
-83.0302982848285
21
4.23793092686145
31
0.000000000000000
  0
LINE
  5
F104FC
330
F104FD
100
AcDbEntity
8
Geo
100
AcDbLine
10
-83.0302982848285
20
4.23793092686145
30
0.000000000000000
11
-82.9302982848285
21
4.11945678375262
31
0.000000000000000
  0
LINE
  5
F104FE
330
F104FF
100
AcDbEntity
8
Geo
100
AcDbLine
10
-82.9302982848285
20
4.11945678375262
30
0.000000000000000
11
-82.8302982848285
21
3.99523499346819
31
0.000000000000000
  0
LINE
  5
F10500
330
F10501
100
AcDbEntity
8
Geo
100
AcDbLine
10
-82.8302982848285
20
3.99523499346819
30
0.000000000000000
11
-82.7302982848285
21
3.86544956557114
31
0.000000000000000
  0
LINE
  5
F10502
330
F10503
100
AcDbEntity
8
Geo
100
AcDbLine
10
-82.7302982848285
20
3.86544956557114
30
0.000000000000000
11
-82.6302982848285
21
3.73029275103302
31
0.000000000000000
  0
LINE
  5
F10504
330
F10505
100
AcDbEntity
8
Geo
100
AcDbLine
10
-82.6302982848285
20
3.73029275103302
30
0.000000000000000
11
-82.5302982848285
21
3.58996475745285
31
0.000000000000000
  0
LINE
  5
F10506
330
F10507
100
AcDbEntity
8
Geo
100
AcDbLine
10
-82.5302982848285
20
3.58996475745285
30
0.000000000000000
11
-82.4302982848285
21
3.44467345248987
31
0.000000000000000
  0
LINE
  5
F10508
330
F10509
100
AcDbEntity
8
Geo
100
AcDbLine
10
-82.4302982848285
20
3.44467345248987
30
0.000000000000000
11
-82.3302982848285
21
3.29463405594950
31
0.000000000000000
  0
LINE
  5
F1050A
330
F1050B
100
AcDbEntity
8
Geo
100
AcDbLine
10
-82.3302982848285
20
3.29463405594950
30
0.000000000000000
11
-82.2302982848285
21
3.14006882097850
31
0.000000000000000
  0
LINE
  5
F1050C
330
F1050D
100
AcDbEntity
8
Geo
100
AcDbLine
10
-82.2302982848285
20
3.14006882097850
30
0.000000000000000
11
-82.1302982848285
21
2.98120670484175
31
0.000000000000000
  0
LINE
  5
F1050E
330
F1050F
100
AcDbEntity
8
Geo
100
AcDbLine
10
-82.1302982848285
20
2.98120670484175
30
0.000000000000000
11
-82.0302982848285
21
2.81828302976814
31
0.000000000000000
  0
LINE
  5
F10510
330
F10511
100
AcDbEntity
8
Geo
100
AcDbLine
10
-82.0302982848285
20
2.81828302976814
30
0.000000000000000
11
-81.9302982848285
21
2.65153913436807
31
0.000000000000000
  0
LINE
  5
F10512
330
F10513
100
AcDbEntity
8
Geo
100
AcDbLine
10
-81.9302982848285
20
2.65153913436807
30
0.000000000000000
11
-81.8302982848285
21
2.48122201613896
31
0.000000000000000
  0
LINE
  5
F10514
330
F10515
100
AcDbEntity
8
Geo
100
AcDbLine
10
-81.8302982848285
20
2.48122201613896
30
0.000000000000000
11
-81.7302982848285
21
2.30758396558816
31
0.000000000000000
  0
LINE
  5
F10516
330
F10517
100
AcDbEntity
8
Geo
100
AcDbLine
10
-81.7302982848285
20
2.30758396558816
30
0.000000000000000
11
-81.6302982848285
21
2.13088219251540
31
0.000000000000000
  0
LINE
  5
F10518
330
F10519
100
AcDbEntity
8
Geo
100
AcDbLine
10
-81.6302982848285
20
2.13088219251540
30
0.000000000000000
11
-81.5302982848285
21
1.95137844500825
31
0.000000000000000
  0
LINE
  5
F1051A
330
F1051B
100
AcDbEntity
8
Geo
100
AcDbLine
10
-81.5302982848285
20
1.95137844500825
30
0.000000000000000
11
-81.4302982848285
21
1.76933862171508
31
0.000000000000000
  0
LINE
  5
F1051C
330
F1051D
100
AcDbEntity
8
Geo
100
AcDbLine
10
-81.4302982848285
20
1.76933862171508
30
0.000000000000000
11
-81.3302982848285
21
1.58503237796974
31
0.000000000000000
  0
LINE
  5
F1051E
330
F1051F
100
AcDbEntity
8
Geo
100
AcDbLine
10
-81.3302982848285
20
1.58503237796974
30
0.000000000000000
11
-81.2302982848285
21
1.39873272635150
31
0.000000000000000
  0
LINE
  5
F10520
330
F10521
100
AcDbEntity
8
Geo
100
AcDbLine
10
-81.2302982848285
20
1.39873272635150
30
0.000000000000000
11
-81.1302982848285
21
1.21071563227192
31
0.000000000000000
  0
LINE
  5
F10522
330
F10523
100
AcDbEntity
8
Geo
100
AcDbLine
10
-81.1302982848285
20
1.21071563227192
30
0.000000000000000
11
-81.0302982848285
21
1.02125960518765
31
0.000000000000000
  0
LINE
  5
F10524
330
F10525
100
AcDbEntity
8
Geo
100
AcDbLine
10
-81.0302982848285
20
1.02125960518765
30
0.000000000000000
11
-80.9302982848285
21
0.830645286044767
31
0.000000000000000
  0
LINE
  5
F10526
330
F10527
100
AcDbEntity
8
Geo
100
AcDbLine
10
-80.9302982848285
20
0.830645286044767
30
0.000000000000000
11
-80.8302982848285
21
0.639155031565747
31
0.000000000000000
  0
LINE
  5
F10528
330
F10529
100
AcDbEntity
8
Geo
100
AcDbLine
10
-80.8302982848285
20
0.639155031565747
30
0.000000000000000
11
-80.7302982848285
21
0.447072495994864
31
0.000000000000000
  0
LINE
  5
F1052A
330
F1052B
100
AcDbEntity
8
Geo
100
AcDbLine
10
-80.7302982848285
20
0.447072495994864
30
0.000000000000000
11
-80.6302982848285
21
0.254682210921513
31
0.000000000000000
  0
LINE
  5
F1052C
330
F1052D
100
AcDbEntity
8
Geo
100
AcDbLine
10
-80.6302982848285
20
0.254682210921513
30
0.000000000000000
11
-80.5302982848285
21
0.0622691638040054
31
0.000000000000000
  0
LINE
  5
F1052E
330
F1052F
100
AcDbEntity
8
Geo
100
AcDbLine
10
-80.5302982848285
20
0.0622691638040054
30
0.000000000000000
11
-80.4302982848285
21
-0.129881624181965
31
0.000000000000000
  0
LINE
  5
F10530
330
F10531
100
AcDbEntity
8
Geo
100
AcDbLine
10
-80.4302982848285
20
-0.129881624181965
30
0.000000000000000
11
-80.3302982848285
21
-0.321485520344787
31
0.000000000000000
  0
LINE
  5
F10532
330
F10533
100
AcDbEntity
8
Geo
100
AcDbLine
10
-80.3302982848285
20
-0.321485520344787
30
0.000000000000000
11
-80.2302982848285
21
-0.512258702102937
31
0.000000000000000
  0
LINE
  5
F10534
330
F10535
100
AcDbEntity
8
Geo
100
AcDbLine
10
-80.2302982848285
20
-0.512258702102937
30
0.000000000000000
11
-80.1302982848285
21
-0.701918577410966
31
0.000000000000000
  0
LINE
  5
F10536
330
F10537
100
AcDbEntity
8
Geo
100
AcDbLine
10
-80.1302982848285
20
-0.701918577410966
30
0.000000000000000
11
-80.0302982848285
21
-0.890184203362706
31
0.000000000000000
  0
LINE
  5
F10538
330
F10539
100
AcDbEntity
8
Geo
100
AcDbLine
10
-80.0302982848285
20
-0.890184203362706
30
0.000000000000000
11
-79.9302982848285
21
-1.07677670235159
31
0.000000000000000
  0
LINE
  5
F1053A
330
F1053B
100
AcDbEntity
8
Geo
100
AcDbLine
10
-79.9302982848285
20
-1.07677670235159
30
0.000000000000000
11
-79.8302982848285
21
-1.26141967517169
31
0.000000000000000
  0
LINE
  5
F1053C
330
F1053D
100
AcDbEntity
8
Geo
100
AcDbLine
10
-79.8302982848285
20
-1.26141967517169
30
0.000000000000000
11
-79.7302982848285
21
-1.44383961044739
31
0.000000000000000
  0
LINE
  5
F1053E
330
F1053F
100
AcDbEntity
8
Geo
100
AcDbLine
10
-79.7302982848285
20
-1.44383961044739
30
0.000000000000000
11
-79.6302982848285
21
-1.62376628978553
31
0.000000000000000
  0
LINE
  5
F10540
330
F10541
100
AcDbEntity
8
Geo
100
AcDbLine
10
-79.6302982848285
20
-1.62376628978553
30
0.000000000000000
11
-79.5302982848285
21
-1.80093318804939
31
0.000000000000000
  0
LINE
  5
F10542
330
F10543
100
AcDbEntity
8
Geo
100
AcDbLine
10
-79.5302982848285
20
-1.80093318804939
30
0.000000000000000
11
-79.4302982848285
21
-1.97507786816211
31
0.000000000000000
  0
LINE
  5
F10544
330
F10545
100
AcDbEntity
8
Geo
100
AcDbLine
10
-79.4302982848285
20
-1.97507786816211
30
0.000000000000000
11
-79.3302982848285
21
-2.14594236985432
31
0.000000000000000
  0
LINE
  5
F10546
330
F10547
100
AcDbEntity
8
Geo
100
AcDbLine
10
-79.3302982848285
20
-2.14594236985432
30
0.000000000000000
11
-79.2302982848285
21
-2.31327359178030
31
0.000000000000000
  0
LINE
  5
F10548
330
F10549
100
AcDbEntity
8
Geo
100
AcDbLine
10
-79.2302982848285
20
-2.31327359178030
30
0.000000000000000
11
-79.1302982848285
21
-2.47682366643674
31
0.000000000000000
  0
LINE
  5
F1054A
330
F1054B
100
AcDbEntity
8
Geo
100
AcDbLine
10
-79.1302982848285
20
-2.47682366643674
30
0.000000000000000
11
-79.0302982848285
21
-2.65522870598973
31
0.000000000000000
  0
LINE
  5
F1054C
330
F1054D
100
AcDbEntity
8
Geo
100
AcDbLine
10
-79.0302982848285
20
-2.65522870598973
30
0.000000000000000
11
-78.9302982848285
21
-2.82495061038579
31
0.000000000000000
  0
LINE
  5
F1054E
330
F1054F
100
AcDbEntity
8
Geo
100
AcDbLine
10
-78.9302982848285
20
-2.82495061038579
30
0.000000000000000
11
-78.8302982848285
21
-2.98600184315551
31
0.000000000000000
  0
LINE
  5
F10550
330
F10551
100
AcDbEntity
8
Geo
100
AcDbLine
10
-78.8302982848285
20
-2.98600184315551
30
0.000000000000000
11
-78.7302982848285
21
-3.13843259169067
31
0.000000000000000
  0
LINE
  5
F10552
330
F10553
100
AcDbEntity
8
Geo
100
AcDbLine
10
-78.7302982848285
20
-3.13843259169067
30
0.000000000000000
11
-78.6302982848285
21
-3.28232768311951
31
0.000000000000000
  0
LINE
  5
F10554
330
F10555
100
AcDbEntity
8
Geo
100
AcDbLine
10
-78.6302982848285
20
-3.28232768311951
30
0.000000000000000
11
-78.5302982848285
21
-3.41780355291777
31
0.000000000000000
  0
LINE
  5
F10556
330
F10557
100
AcDbEntity
8
Geo
100
AcDbLine
10
-78.5302982848285
20
-3.41780355291777
30
0.000000000000000
11
-78.4302982848285
21
-3.54500528222770
31
0.000000000000000
  0
LINE
  5
F10558
330
F10559
100
AcDbEntity
8
Geo
100
AcDbLine
10
-78.4302982848285
20
-3.54500528222770
30
0.000000000000000
11
-78.3302982848285
21
-3.66410371766228
31
0.000000000000000
  0
LINE
  5
F1055A
330
F1055B
100
AcDbEntity
8
Geo
100
AcDbLine
10
-78.3302982848285
20
-3.66410371766228
30
0.000000000000000
11
-78.2302982848285
21
-3.77529268529307
31
0.000000000000000
  0
LINE
  5
F1055C
330
F1055D
100
AcDbEntity
8
Geo
100
AcDbLine
10
-78.2302982848285
20
-3.77529268529307
30
0.000000000000000
11
-78.1302982848285
21
-3.87878630856229
31
0.000000000000000
  0
LINE
  5
F1055E
330
F1055F
100
AcDbEntity
8
Geo
100
AcDbLine
10
-78.1302982848285
20
-3.87878630856229
30
0.000000000000000
11
-78.0302982848285
21
-3.97481643802922
31
0.000000000000000
  0
LINE
  5
F10560
330
F10561
100
AcDbEntity
8
Geo
100
AcDbLine
10
-78.0302982848285
20
-3.97481643802922
30
0.000000000000000
11
-77.9302982848285
21
-4.06363019915912
31
0.000000000000000
  0
LINE
  5
F10562
330
F10563
100
AcDbEntity
8
Geo
100
AcDbLine
10
-77.9302982848285
20
-4.06363019915912
30
0.000000000000000
11
-77.8302982848285
21
-4.14548766279191
31
0.000000000000000
  0
LINE
  5
F10564
330
F10565
100
AcDbEntity
8
Geo
100
AcDbLine
10
-77.8302982848285
20
-4.14548766279191
30
0.000000000000000
11
-77.7302982848285
21
-4.22065964148678
31
0.000000000000000
  0
LINE
  5
F10566
330
F10567
100
AcDbEntity
8
Geo
100
AcDbLine
10
-77.7302982848285
20
-4.22065964148678
30
0.000000000000000
11
-77.6302982848285
21
-4.28942561362619
31
0.000000000000000
  0
LINE
  5
F10568
330
F10569
100
AcDbEntity
8
Geo
100
AcDbLine
10
-77.6302982848285
20
-4.28942561362619
30
0.000000000000000
11
-77.5302982848285
21
-4.35207177597595
31
0.000000000000000
  0
LINE
  5
F1056A
330
F1056B
100
AcDbEntity
8
Geo
100
AcDbLine
10
-77.5302982848285
20
-4.35207177597595
30
0.000000000000000
11
-77.4302982848285
21
-4.40888922433314
31
0.000000000000000
  0
LINE
  5
F1056C
330
F1056D
100
AcDbEntity
8
Geo
100
AcDbLine
10
-77.4302982848285
20
-4.40888922433314
30
0.000000000000000
11
-77.3302982848285
21
-4.46017226094638
31
0.000000000000000
  0
LINE
  5
F1056E
330
F1056F
100
AcDbEntity
8
Geo
100
AcDbLine
10
-77.3302982848285
20
-4.46017226094638
30
0.000000000000000
11
-77.2302982848285
21
-4.50621682655839
31
0.000000000000000
  0
LINE
  5
F10570
330
F10571
100
AcDbEntity
8
Geo
100
AcDbLine
10
-77.2302982848285
20
-4.50621682655839
30
0.000000000000000
11
-77.1302982848285
21
-4.54731905419317
31
0.000000000000000
  0
LINE
  5
F10572
330
F10573
100
AcDbEntity
8
Geo
100
AcDbLine
10
-77.1302982848285
20
-4.54731905419317
30
0.000000000000000
11
-77.0302982848285
21
-4.58377394118369
31
0.000000000000000
  0
LINE
  5
F10574
330
F10575
100
AcDbEntity
8
Geo
100
AcDbLine
10
-77.0302982848285
20
-4.58377394118369
30
0.000000000000000
11
-76.9302982848285
21
-4.61587413540453
31
0.000000000000000
  0
LINE
  5
F10576
330
F10577
100
AcDbEntity
8
Geo
100
AcDbLine
10
-76.9302982848285
20
-4.61587413540453
30
0.000000000000000
11
-76.8302982848285
21
-4.64390883123125
31
0.000000000000000
  0
LINE
  5
F10578
330
F10579
100
AcDbEntity
8
Geo
100
AcDbLine
10
-76.8302982848285
20
-4.64390883123125
30
0.000000000000000
11
-76.7302982848285
21
-4.66816277038810
31
0.000000000000000
  0
LINE
  5
F1057A
330
F1057B
100
AcDbEntity
8
Geo
100
AcDbLine
10
-76.7302982848285
20
-4.66816277038810
30
0.000000000000000
11
-76.6302982848285
21
-4.68891534256094
31
0.000000000000000
  0
LINE
  5
F1057C
330
F1057D
100
AcDbEntity
8
Geo
100
AcDbLine
10
-76.6302982848285
20
-4.68891534256094
30
0.000000000000000
11
-76.5302982848285
21
-4.70643978043834
31
0.000000000000000
  0
LINE
  5
F1057E
330
F1057F
100
AcDbEntity
8
Geo
100
AcDbLine
10
-76.5302982848285
20
-4.70643978043834
30
0.000000000000000
11
-76.4302982848285
21
-4.72100244369221
31
0.000000000000000
  0
LINE
  5
F10580
330
F10581
100
AcDbEntity
8
Geo
100
AcDbLine
10
-76.4302982848285
20
-4.72100244369221
30
0.000000000000000
11
-76.3302982848285
21
-4.73286218631676
31
0.000000000000000
  0
LINE
  5
F10582
330
F10583
100
AcDbEntity
8
Geo
100
AcDbLine
10
-76.3302982848285
20
-4.73286218631676
30
0.000000000000000
11
-76.2302982848285
21
-4.74226980170291
31
0.000000000000000
  0
LINE
  5
F10584
330
F10585
100
AcDbEntity
8
Geo
100
AcDbLine
10
-76.2302982848285
20
-4.74226980170291
30
0.000000000000000
11
-76.1302982848285
21
-4.74946753983066
31
0.000000000000000
  0
LINE
  5
F10586
330
F10587
100
AcDbEntity
8
Geo
100
AcDbLine
10
-76.1302982848285
20
-4.74946753983066
30
0.000000000000000
11
-76.0302982848285
21
-4.75468869100886
31
0.000000000000000
  0
LINE
  5
F10588
330
F10589
100
AcDbEntity
8
Geo
100
AcDbLine
10
-76.0302982848285
20
-4.75468869100886
30
0.000000000000000
11
-75.9302982848285
21
-4.75815723067459
31
0.000000000000000
  0
LINE
  5
F1058A
330
F1058B
100
AcDbEntity
8
Geo
100
AcDbLine
10
-75.9302982848285
20
-4.75815723067459
30
0.000000000000000
11
-75.8302982848284
21
-4.76008751987990
31
0.000000000000000
  0
LINE
  5
F1058C
330
F1058D
100
AcDbEntity
8
Geo
100
AcDbLine
10
-75.8302982848284
20
-4.76008751987990
30
0.000000000000000
11
-75.7302982848285
21
-4.76068406586201
31
0.000000000000000
  0
LINE
  5
F1058E
330
F1058F
100
AcDbEntity
8
Geo
100
AcDbLine
10
-88.0302982848285
20
5.23788783372601
30
0.000000000000000
11
-87.9302982848285
21
5.23878385954989
31
0.000000000000000
  0
LINE
  5
F10590
330
F10591
100
AcDbEntity
8
Geo
100
AcDbLine
10
-87.9302982848285
20
5.23878385954989
30
0.000000000000000
11
-87.8302982848285
21
5.23227418057729
31
0.000000000000000
  0
LINE
  5
F10592
330
F10593
100
AcDbEntity
8
Geo
100
AcDbLine
10
-87.8302982848285
20
5.23227418057729
30
0.000000000000000
11
-87.7302982848285
21
5.21836843958648
31
0.000000000000000
  0
LINE
  5
F10594
330
F10595
100
AcDbEntity
8
Geo
100
AcDbLine
10
-87.7302982848285
20
5.21836843958648
30
0.000000000000000
11
-87.6302982848285
21
5.19708723513203
31
0.000000000000000
  0
LINE
  5
F10596
330
F10597
100
AcDbEntity
8
Geo
100
AcDbLine
10
-87.6302982848285
20
5.19708723513203
30
0.000000000000000
11
-87.5302982848285
21
5.16846209103212
31
0.000000000000000
  0
LINE
  5
F10598
330
F10599
100
AcDbEntity
8
Geo
100
AcDbLine
10
-87.5302982848285
20
5.16846209103212
30
0.000000000000000
11
-87.4302982848285
21
5.13253540967238
31
0.000000000000000
  0
LINE
  5
F1059A
330
F1059B
100
AcDbEntity
8
Geo
100
AcDbLine
10
-87.4302982848285
20
5.13253540967238
30
0.000000000000000
11
-87.3302982848285
21
5.08936040919532
31
0.000000000000000
  0
LINE
  5
F1059C
330
F1059D
100
AcDbEntity
8
Geo
100
AcDbLine
10
-87.3302982848285
20
5.08936040919532
30
0.000000000000000
11
-87.2302982848285
21
5.03900104466832
31
0.000000000000000
  0
LINE
  5
F1059E
330
F1059F
100
AcDbEntity
8
Geo
100
AcDbLine
10
-87.2302982848285
20
5.03900104466832
30
0.000000000000000
11
-87.1302982848285
21
4.98153191334714
31
0.000000000000000
  0
LINE
  5
F105A0
330
F105A1
100
AcDbEntity
8
Geo
100
AcDbLine
10
-87.1302982848285
20
4.98153191334714
30
0.000000000000000
11
-87.0302982848285
21
4.91703814417506
31
0.000000000000000
  0
LINE
  5
F105A2
330
F105A3
100
AcDbEntity
8
Geo
100
AcDbLine
10
-87.0302982848285
20
4.91703814417506
30
0.000000000000000
11
-86.9302982848285
21
4.84561527168153
31
0.000000000000000
  0
LINE
  5
F105A4
330
F105A5
100
AcDbEntity
8
Geo
100
AcDbLine
10
-86.9302982848285
20
4.84561527168153
30
0.000000000000000
11
-86.8302982848285
21
4.76736909446696
31
0.000000000000000
  0
LINE
  5
F105A6
330
F105A7
100
AcDbEntity
8
Geo
100
AcDbLine
10
-86.8302982848285
20
4.76736909446696
30
0.000000000000000
11
-86.7302982848285
21
4.68241551848346
31
0.000000000000000
  0
LINE
  5
F105A8
330
F105A9
100
AcDbEntity
8
Geo
100
AcDbLine
10
-86.7302982848285
20
4.68241551848346
30
0.000000000000000
11
-86.6302982848285
21
4.59088038534350
31
0.000000000000000
  0
LINE
  5
F105AA
330
F105AB
100
AcDbEntity
8
Geo
100
AcDbLine
10
-86.6302982848285
20
4.59088038534350
30
0.000000000000000
11
-86.5302982848285
21
4.49289928591085
31
0.000000000000000
  0
LINE
  5
F105AC
330
F105AD
100
AcDbEntity
8
Geo
100
AcDbLine
10
-86.5302982848285
20
4.49289928591085
30
0.000000000000000
11
-86.4302982848285
21
4.38861735945012
31
0.000000000000000
  0
LINE
  5
F105AE
330
F105AF
100
AcDbEntity
8
Geo
100
AcDbLine
10
-86.4302982848285
20
4.38861735945012
30
0.000000000000000
11
-86.3302982848285
21
4.27818907863210
31
0.000000000000000
  0
LINE
  5
F105B0
330
F105B1
100
AcDbEntity
8
Geo
100
AcDbLine
10
-86.3302982848285
20
4.27818907863210
30
0.000000000000000
11
-86.2302982848285
21
4.16177802071363
31
0.000000000000000
  0
LINE
  5
F105B2
330
F105B3
100
AcDbEntity
8
Geo
100
AcDbLine
10
-86.2302982848285
20
4.16177802071363
30
0.000000000000000
11
-86.1302982848285
21
4.03955662523085
31
0.000000000000000
  0
LINE
  5
F105B4
330
F105B5
100
AcDbEntity
8
Geo
100
AcDbLine
10
-86.1302982848285
20
4.03955662523085
30
0.000000000000000
11
-86.0302982848285
21
3.91170593856474
31
0.000000000000000
  0
LINE
  5
F105B6
330
F105B7
100
AcDbEntity
8
Geo
100
AcDbLine
10
-86.0302982848285
20
3.91170593856474
30
0.000000000000000
11
-85.9302982848285
21
3.77841534575740
31
0.000000000000000
  0
LINE
  5
F105B8
330
F105B9
100
AcDbEntity
8
Geo
100
AcDbLine
10
-85.9302982848285
20
3.77841534575740
30
0.000000000000000
11
-85.8302982848285
21
3.63988228997622
31
0.000000000000000
  0
LINE
  5
F105BA
330
F105BB
100
AcDbEntity
8
Geo
100
AcDbLine
10
-85.8302982848285
20
3.63988228997622
30
0.000000000000000
11
-85.7302982848285
21
3.49631198004161
31
0.000000000000000
  0
LINE
  5
F105BC
330
F105BD
100
AcDbEntity
8
Geo
100
AcDbLine
10
-85.7302982848285
20
3.49631198004161
30
0.000000000000000
11
-85.6302982848285
21
3.34791708645148
31
0.000000000000000
  0
LINE
  5
F105BE
330
F105BF
100
AcDbEntity
8
Geo
100
AcDbLine
10
-85.6302982848285
20
3.34791708645148
30
0.000000000000000
11
-85.5302982848285
21
3.19491742635268
31
0.000000000000000
  0
LINE
  5
F105C0
330
F105C1
100
AcDbEntity
8
Geo
100
AcDbLine
10
-85.5302982848285
20
3.19491742635268
30
0.000000000000000
11
-85.4302982848285
21
3.03753963792624
31
0.000000000000000
  0
LINE
  5
F105C2
330
F105C3
100
AcDbEntity
8
Geo
100
AcDbLine
10
-85.4302982848285
20
3.03753963792624
30
0.000000000000000
11
-85.3302982848285
21
2.87601684466850
31
0.000000000000000
  0
LINE
  5
F105C4
330
F105C5
100
AcDbEntity
8
Geo
100
AcDbLine
10
-85.3302982848285
20
2.87601684466850
30
0.000000000000000
11
-85.2302982848285
21
2.71058831006561
31
0.000000000000000
  0
LINE
  5
F105C6
330
F105C7
100
AcDbEntity
8
Geo
100
AcDbLine
10
-85.2302982848285
20
2.71058831006561
30
0.000000000000000
11
-85.1302982848285
21
2.54149908317288
31
0.000000000000000
  0
LINE
  5
F105C8
330
F105C9
100
AcDbEntity
8
Geo
100
AcDbLine
10
-85.1302982848285
20
2.54149908317288
30
0.000000000000000
11
-85.0302982848285
21
2.36899963562396
31
0.000000000000000
  0
LINE
  5
F105CA
330
F105CB
100
AcDbEntity
8
Geo
100
AcDbLine
10
-85.0302982848285
20
2.36899963562396
30
0.000000000000000
11
-84.9302982848285
21
2.19334549060756
31
0.000000000000000
  0
LINE
  5
F105CC
330
F105CD
100
AcDbEntity
8
Geo
100
AcDbLine
10
-84.9302982848285
20
2.19334549060756
30
0.000000000000000
11
-84.8302982848285
21
2.01479684436127
31
0.000000000000000
  0
LINE
  5
F105CE
330
F105CF
100
AcDbEntity
8
Geo
100
AcDbLine
10
-84.8302982848285
20
2.01479684436127
30
0.000000000000000
11
-84.7302982848285
21
1.83361818074332
31
0.000000000000000
  0
LINE
  5
F105D0
330
F105D1
100
AcDbEntity
8
Geo
100
AcDbLine
10
-84.7302982848285
20
1.83361818074332
30
0.000000000000000
11
-84.6302982848285
21
1.65007787945295
31
0.000000000000000
  0
LINE
  5
F105D2
330
F105D3
100
AcDbEntity
8
Geo
100
AcDbLine
10
-84.6302982848285
20
1.65007787945295
30
0.000000000000000
11
-84.5302982848285
21
1.46444781847995
31
0.000000000000000
  0
LINE
  5
F105D4
330
F105D5
100
AcDbEntity
8
Geo
100
AcDbLine
10
-84.5302982848285
20
1.46444781847995
30
0.000000000000000
11
-84.4302982848285
21
1.27700297137220
31
0.000000000000000
  0
LINE
  5
F105D6
330
F105D7
100
AcDbEntity
8
Geo
100
AcDbLine
10
-84.4302982848285
20
1.27700297137220
30
0.000000000000000
11
-84.3302982848285
21
1.08802099991770
31
0.000000000000000
  0
LINE
  5
F105D8
330
F105D9
100
AcDbEntity
8
Geo
100
AcDbLine
10
-84.3302982848285
20
1.08802099991770
30
0.000000000000000
11
-84.2302982848285
21
0.897781842844610
31
0.000000000000000
  0
LINE
  5
F105DA
330
F105DB
100
AcDbEntity
8
Geo
100
AcDbLine
10
-84.2302982848285
20
0.897781842844610
30
0.000000000000000
11
-84.1302982848285
21
0.706567301148359
31
0.000000000000000
  0
LINE
  5
F105DC
330
F105DD
100
AcDbEntity
8
Geo
100
AcDbLine
10
-84.1302982848285
20
0.706567301148359
30
0.000000000000000
11
-84.0302982848285
21
0.514660620660249
31
0.000000000000000
  0
LINE
  5
F105DE
330
F105DF
100
AcDbEntity
8
Geo
100
AcDbLine
10
-84.0302982848285
20
0.514660620660249
30
0.000000000000000
11
-83.9302982848285
21
0.322346072475798
31
0.000000000000000
  0
LINE
  5
F105E0
330
F105E1
100
AcDbEntity
8
Geo
100
AcDbLine
10
-83.9302982848285
20
0.322346072475798
30
0.000000000000000
11
-83.8302982848285
21
0.129908531864366
31
0.000000000000000
  0
LINE
  5
F105E2
330
F105E3
100
AcDbEntity
8
Geo
100
AcDbLine
10
-83.8302982848285
20
0.129908531864366
30
0.000000000000000
11
-83.7302982848285
21
-0.0623669437161667
31
0.000000000000000
  0
LINE
  5
F105E4
330
F105E5
100
AcDbEntity
8
Geo
100
AcDbLine
10
-83.7302982848285
20
-0.0623669437161667
30
0.000000000000000
11
-83.6302982848285
21
-0.254195536874635
31
0.000000000000000
  0
LINE
  5
F105E6
330
F105E7
100
AcDbEntity
8
Geo
100
AcDbLine
10
-83.6302982848285
20
-0.254195536874635
30
0.000000000000000
11
-83.5302982848285
21
-0.445293092186171
31
0.000000000000000
  0
LINE
  5
F105E8
330
F105E9
100
AcDbEntity
8
Geo
100
AcDbLine
10
-83.5302982848285
20
-0.445293092186171
30
0.000000000000000
11
-83.4302982848285
21
-0.635376537111241
31
0.000000000000000
  0
LINE
  5
F105EA
330
F105EB
100
AcDbEntity
8
Geo
100
AcDbLine
10
-83.4302982848285
20
-0.635376537111241
30
0.000000000000000
11
-83.3302982848285
21
-0.824164301310597
31
0.000000000000000
  0
LINE
  5
F105EC
330
F105ED
100
AcDbEntity
8
Geo
100
AcDbLine
10
-83.3302982848285
20
-0.824164301310597
30
0.000000000000000
11
-83.2302982848285
21
-1.01137673373503
31
0.000000000000000
  0
LINE
  5
F105EE
330
F105EF
100
AcDbEntity
8
Geo
100
AcDbLine
10
-83.2302982848285
20
-1.01137673373503
30
0.000000000000000
11
-83.1302982848285
21
-1.19673651687205
31
0.000000000000000
  0
LINE
  5
F105F0
330
F105F1
100
AcDbEntity
8
Geo
100
AcDbLine
10
-83.1302982848285
20
-1.19673651687205
30
0.000000000000000
11
-83.0302982848285
21
-1.37996907753599
31
0.000000000000000
  0
LINE
  5
F105F2
330
F105F3
100
AcDbEntity
8
Geo
100
AcDbLine
10
-83.0302982848285
20
-1.37996907753599
30
0.000000000000000
11
-82.9302982848285
21
-1.56080299359278
31
0.000000000000000
  0
LINE
  5
F105F4
330
F105F5
100
AcDbEntity
8
Geo
100
AcDbLine
10
-82.9302982848285
20
-1.56080299359278
30
0.000000000000000
11
-82.8302982848285
21
-1.73897039601729
31
0.000000000000000
  0
LINE
  5
F105F6
330
F105F7
100
AcDbEntity
8
Geo
100
AcDbLine
10
-82.8302982848285
20
-1.73897039601729
30
0.000000000000000
11
-82.7302982848285
21
-1.91420736568722
31
0.000000000000000
  0
LINE
  5
F105F8
330
F105F9
100
AcDbEntity
8
Geo
100
AcDbLine
10
-82.7302982848285
20
-1.91420736568722
30
0.000000000000000
11
-82.6302982848285
21
-2.08625432432621
31
0.000000000000000
  0
LINE
  5
F105FA
330
F105FB
100
AcDbEntity
8
Geo
100
AcDbLine
10
-82.6302982848285
20
-2.08625432432621
30
0.000000000000000
11
-82.5302982848285
21
-2.25485641901676
31
0.000000000000000
  0
LINE
  5
F105FC
330
F105FD
100
AcDbEntity
8
Geo
100
AcDbLine
10
-82.5302982848285
20
-2.25485641901676
30
0.000000000000000
11
-82.4302982848285
21
-2.41976389971346
31
0.000000000000000
  0
LINE
  5
F105FE
330
F105FF
100
AcDbEntity
8
Geo
100
AcDbLine
10
-82.4302982848285
20
-2.41976389971346
30
0.000000000000000
11
-82.3302982848285
21
-2.58073248919742
31
0.000000000000000
  0
LINE
  5
F10600
330
F10601
100
AcDbEntity
8
Geo
100
AcDbLine
10
-82.3302982848285
20
-2.58073248919742
30
0.000000000000000
11
-82.2302982848285
21
-2.73752374492374
31
0.000000000000000
  0
LINE
  5
F10602
330
F10603
100
AcDbEntity
8
Geo
100
AcDbLine
10
-82.2302982848285
20
-2.73752374492374
30
0.000000000000000
11
-82.1302982848285
21
-2.88990541222616
31
0.000000000000000
  0
LINE
  5
F10604
330
F10605
100
AcDbEntity
8
Geo
100
AcDbLine
10
-82.1302982848285
20
-2.88990541222616
30
0.000000000000000
11
-82.0302982848285
21
-3.03765176835551
31
0.000000000000000
  0
LINE
  5
F10606
330
F10607
100
AcDbEntity
8
Geo
100
AcDbLine
10
-82.0302982848285
20
-3.03765176835551
30
0.000000000000000
11
-81.9302982848285
21
-3.18054395684256
31
0.000000000000000
  0
LINE
  5
F10608
330
F10609
100
AcDbEntity
8
Geo
100
AcDbLine
10
-81.9302982848285
20
-3.18054395684256
30
0.000000000000000
11
-81.8302982848285
21
-3.31837031168975
31
0.000000000000000
  0
LINE
  5
F1060A
330
F1060B
100
AcDbEntity
8
Geo
100
AcDbLine
10
-81.8302982848285
20
-3.31837031168975
30
0.000000000000000
11
-81.7302982848285
21
-3.45092667091176
31
0.000000000000000
  0
LINE
  5
F1060C
330
F1060D
100
AcDbEntity
8
Geo
100
AcDbLine
10
-81.7302982848285
20
-3.45092667091176
30
0.000000000000000
11
-81.6302982848285
21
-3.57801667896038
31
0.000000000000000
  0
LINE
  5
F1060E
330
F1060F
100
AcDbEntity
8
Geo
100
AcDbLine
10
-81.6302982848285
20
-3.57801667896038
30
0.000000000000000
11
-81.5302982848285
21
-3.69945207758568
31
0.000000000000000
  0
LINE
  5
F10610
330
F10611
100
AcDbEntity
8
Geo
100
AcDbLine
10
-81.5302982848285
20
-3.69945207758568
30
0.000000000000000
11
-81.4302982848285
21
-3.81505298470271
31
0.000000000000000
  0
LINE
  5
F10612
330
F10613
100
AcDbEntity
8
Geo
100
AcDbLine
10
-81.4302982848285
20
-3.81505298470271
30
0.000000000000000
11
-81.3302982848285
21
-3.92464816085058
31
0.000000000000000
  0
LINE
  5
F10614
330
F10615
100
AcDbEntity
8
Geo
100
AcDbLine
10
-81.3302982848285
20
-3.92464816085058
30
0.000000000000000
11
-81.2302982848285
21
-4.02807526284922
31
0.000000000000000
  0
LINE
  5
F10616
330
F10617
100
AcDbEntity
8
Geo
100
AcDbLine
10
-81.2302982848285
20
-4.02807526284922
30
0.000000000000000
11
-81.1302982848285
21
-4.12518108427810
31
0.000000000000000
  0
LINE
  5
F10618
330
F10619
100
AcDbEntity
8
Geo
100
AcDbLine
10
-81.1302982848285
20
-4.12518108427810
30
0.000000000000000
11
-81.0302982848285
21
-4.21582178242071
31
0.000000000000000
  0
LINE
  5
F1061A
330
F1061B
100
AcDbEntity
8
Geo
100
AcDbLine
10
-81.0302982848285
20
-4.21582178242071
30
0.000000000000000
11
-80.9302982848285
21
-4.29986309133856
31
0.000000000000000
  0
LINE
  5
F1061C
330
F1061D
100
AcDbEntity
8
Geo
100
AcDbLine
10
-80.9302982848285
20
-4.29986309133856
30
0.000000000000000
11
-80.8302982848285
21
-4.37718052075911
31
0.000000000000000
  0
LINE
  5
F1061E
330
F1061F
100
AcDbEntity
8
Geo
100
AcDbLine
10
-80.8302982848285
20
-4.37718052075911
30
0.000000000000000
11
-80.7302982848285
21
-4.44765954048305
31
0.000000000000000
  0
LINE
  5
F10620
330
F10621
100
AcDbEntity
8
Geo
100
AcDbLine
10
-80.7302982848285
20
-4.44765954048305
30
0.000000000000000
11
-80.6302982848285
21
-4.51119575003774
31
0.000000000000000
  0
LINE
  5
F10622
330
F10623
100
AcDbEntity
8
Geo
100
AcDbLine
10
-80.6302982848285
20
-4.51119575003774
30
0.000000000000000
11
-80.5302982848285
21
-4.56769503332545
31
0.000000000000000
  0
LINE
  5
F10624
330
F10625
100
AcDbEntity
8
Geo
100
AcDbLine
10
-80.5302982848285
20
-4.56769503332545
30
0.000000000000000
11
-80.4302982848285
21
-4.61707369803741
31
0.000000000000000
  0
LINE
  5
F10626
330
F10627
100
AcDbEntity
8
Geo
100
AcDbLine
10
-80.4302982848285
20
-4.61707369803741
30
0.000000000000000
11
-80.3302982848285
21
-4.65925859962715
31
0.000000000000000
  0
LINE
  5
F10628
330
F10629
100
AcDbEntity
8
Geo
100
AcDbLine
10
-80.3302982848285
20
-4.65925859962715
30
0.000000000000000
11
-80.2302982848285
21
-4.69418724965934
31
0.000000000000000
  0
LINE
  5
F1062A
330
F1062B
100
AcDbEntity
8
Geo
100
AcDbLine
10
-80.2302982848285
20
-4.69418724965934
30
0.000000000000000
11
-80.1302982848285
21
-4.72180790837389
31
0.000000000000000
  0
LINE
  5
F1062C
330
F1062D
100
AcDbEntity
8
Geo
100
AcDbLine
10
-80.1302982848285
20
-4.72180790837389
30
0.000000000000000
11
-80.0302982848285
21
-4.74207966132795
31
0.000000000000000
  0
LINE
  5
F1062E
330
F1062F
100
AcDbEntity
8
Geo
100
AcDbLine
10
-80.0302982848285
20
-4.74207966132795
30
0.000000000000000
11
-79.9302982848285
21
-4.75497248000241
31
0.000000000000000
  0
LINE
  5
F10630
330
F10631
100
AcDbEntity
8
Geo
100
AcDbLine
10
-79.9302982848285
20
-4.75497248000241
30
0.000000000000000
11
-79.8302982848285
21
-4.76046726628314
31
0.000000000000000
  0
LINE
  5
F10632
330
F10633
100
AcDbEntity
8
Geo
100
AcDbLine
10
-88.8302982848285
20
5.23853608189753
30
0.000000000000000
11
-88.7302982848285
21
5.23823146565486
31
0.000000000000000
  0
LINE
  5
F10634
330
F10635
100
AcDbEntity
8
Geo
100
AcDbLine
10
-88.7302982848285
20
5.23823146565486
30
0.000000000000000
11
-88.6302982848285
21
5.23052196287600
31
0.000000000000000
  0
LINE
  5
F10636
330
F10637
100
AcDbEntity
8
Geo
100
AcDbLine
10
-88.6302982848285
20
5.23052196287600
30
0.000000000000000
11
-88.5302982848285
21
5.21541899363655
31
0.000000000000000
  0
LINE
  5
F10638
330
F10639
100
AcDbEntity
8
Geo
100
AcDbLine
10
-88.5302982848285
20
5.21541899363655
30
0.000000000000000
11
-88.4302982848285
21
5.19294492994359
31
0.000000000000000
  0
LINE
  5
F1063A
330
F1063B
100
AcDbEntity
8
Geo
100
AcDbLine
10
-88.4302982848285
20
5.19294492994359
30
0.000000000000000
11
-88.3302982848285
21
5.16313306259601
31
0.000000000000000
  0
LINE
  5
F1063C
330
F1063D
100
AcDbEntity
8
Geo
100
AcDbLine
10
-88.3302982848285
20
5.16313306259601
30
0.000000000000000
11
-88.2302982848285
21
5.12602755187092
31
0.000000000000000
  0
LINE
  5
F1063E
330
F1063F
100
AcDbEntity
8
Geo
100
AcDbLine
10
-88.2302982848285
20
5.12602755187092
30
0.000000000000000
11
-88.1302982848285
21
5.08168336210910
31
0.000000000000000
  0
LINE
  5
F10640
330
F10641
100
AcDbEntity
8
Geo
100
AcDbLine
10
-88.1302982848285
20
5.08168336210910
30
0.000000000000000
11
-88.0302982848285
21
5.03016618029638
31
0.000000000000000
  0
LINE
  5
F10642
330
F10643
100
AcDbEntity
8
Geo
100
AcDbLine
10
-88.0302982848285
20
5.03016618029638
30
0.000000000000000
11
-87.9302982848285
21
4.97155231876163
31
0.000000000000000
  0
LINE
  5
F10644
330
F10645
100
AcDbEntity
8
Geo
100
AcDbLine
10
-87.9302982848285
20
4.97155231876163
30
0.000000000000000
11
-87.8302982848285
21
4.90592860213538
31
0.000000000000000
  0
LINE
  5
F10646
330
F10647
100
AcDbEntity
8
Geo
100
AcDbLine
10
-87.8302982848285
20
4.90592860213538
30
0.000000000000000
11
-87.7302982848285
21
4.83339223873666
31
0.000000000000000
  0
LINE
  5
F10648
330
F10649
100
AcDbEntity
8
Geo
100
AcDbLine
10
-87.7302982848285
20
4.83339223873666
30
0.000000000000000
11
-87.6302982848285
21
4.75405067657838
31
0.000000000000000
  0
LINE
  5
F1064A
330
F1064B
100
AcDbEntity
8
Geo
100
AcDbLine
10
-87.6302982848285
20
4.75405067657838
30
0.000000000000000
11
-87.5302982848285
21
4.66802144420485
31
0.000000000000000
  0
LINE
  5
F1064C
330
F1064D
100
AcDbEntity
8
Geo
100
AcDbLine
10
-87.5302982848285
20
4.66802144420485
30
0.000000000000000
11
-87.4302982848285
21
4.57543197659679
31
0.000000000000000
  0
LINE
  5
F1064E
330
F1064F
100
AcDbEntity
8
Geo
100
AcDbLine
10
-87.4302982848285
20
4.57543197659679
30
0.000000000000000
11
-87.3302982848285
21
4.47641942640218
31
0.000000000000000
  0
LINE
  5
F10650
330
F10651
100
AcDbEntity
8
Geo
100
AcDbLine
10
-87.3302982848285
20
4.47641942640218
30
0.000000000000000
11
-87.2302982848285
21
4.37113046077216
31
0.000000000000000
  0
LINE
  5
F10652
330
F10653
100
AcDbEntity
8
Geo
100
AcDbLine
10
-87.2302982848285
20
4.37113046077216
30
0.000000000000000
11
-87.1302982848285
21
4.25972104410323
31
0.000000000000000
  0
LINE
  5
F10654
330
F10655
100
AcDbEntity
8
Geo
100
AcDbLine
10
-87.1302982848285
20
4.25972104410323
30
0.000000000000000
11
-87.0302982848285
21
4.14235620700739
31
0.000000000000000
  0
LINE
  5
F10656
330
F10657
100
AcDbEntity
8
Geo
100
AcDbLine
10
-87.0302982848285
20
4.14235620700739
30
0.000000000000000
11
-86.9302982848285
21
4.01920980185252
31
0.000000000000000
  0
LINE
  5
F10658
330
F10659
100
AcDbEntity
8
Geo
100
AcDbLine
10
-86.9302982848285
20
4.01920980185252
30
0.000000000000000
11
-86.8302982848285
21
3.89046424523515
31
0.000000000000000
  0
LINE
  5
F1065A
330
F1065B
100
AcDbEntity
8
Geo
100
AcDbLine
10
-86.8302982848285
20
3.89046424523515
30
0.000000000000000
11
-86.7302982848285
21
3.75631024776695
31
0.000000000000000
  0
LINE
  5
F1065C
330
F1065D
100
AcDbEntity
8
Geo
100
AcDbLine
10
-86.7302982848285
20
3.75631024776695
30
0.000000000000000
11
-86.6302982848285
21
3.61694653157543
31
0.000000000000000
  0
LINE
  5
F1065E
330
F1065F
100
AcDbEntity
8
Geo
100
AcDbLine
10
-86.6302982848285
20
3.61694653157543
30
0.000000000000000
11
-86.5302982848285
21
3.47257953593710
31
0.000000000000000
  0
LINE
  5
F10660
330
F10661
100
AcDbEntity
8
Geo
100
AcDbLine
10
-86.5302982848285
20
3.47257953593710
30
0.000000000000000
11
-86.4302982848285
21
3.32342311147927
31
0.000000000000000
  0
LINE
  5
F10662
330
F10663
100
AcDbEntity
8
Geo
100
AcDbLine
10
-86.4302982848285
20
3.32342311147927
30
0.000000000000000
11
-86.3302982848285
21
3.16969820340341
31
0.000000000000000
  0
LINE
  5
F10664
330
F10665
100
AcDbEntity
8
Geo
100
AcDbLine
10
-86.3302982848285
20
3.16969820340341
30
0.000000000000000
11
-86.2302982848285
21
3.01163252419933
31
0.000000000000000
  0
LINE
  5
F10666
330
F10667
100
AcDbEntity
8
Geo
100
AcDbLine
10
-86.2302982848285
20
3.01163252419933
30
0.000000000000000
11
-86.1302982848285
21
2.84946021633503
31
0.000000000000000
  0
LINE
  5
F10668
330
F10669
100
AcDbEntity
8
Geo
100
AcDbLine
10
-86.1302982848285
20
2.84946021633503
30
0.000000000000000
11
-86.0302982848285
21
2.68342150542172
31
0.000000000000000
  0
LINE
  5
F1066A
330
F1066B
100
AcDbEntity
8
Geo
100
AcDbLine
10
-86.0302982848285
20
2.68342150542172
30
0.000000000000000
11
-85.9302982848285
21
2.51376234436804
31
0.000000000000000
  0
LINE
  5
F1066C
330
F1066D
100
AcDbEntity
8
Geo
100
AcDbLine
10
-85.9302982848285
20
2.51376234436804
30
0.000000000000000
11
-85.8302982848285
21
2.34073404905030
31
0.000000000000000
  0
LINE
  5
F1066E
330
F1066F
100
AcDbEntity
8
Geo
100
AcDbLine
10
-85.8302982848285
20
2.34073404905030
30
0.000000000000000
11
-85.7302982848285
21
2.16459292603864
31
0.000000000000000
  0
LINE
  5
F10670
330
F10671
100
AcDbEntity
8
Geo
100
AcDbLine
10
-85.7302982848285
20
2.16459292603864
30
0.000000000000000
11
-85.6302982848285
21
1.98559989293052
31
0.000000000000000
  0
LINE
  5
F10672
330
F10673
100
AcDbEntity
8
Geo
100
AcDbLine
10
-85.6302982848285
20
1.98559989293052
30
0.000000000000000
11
-85.5302982848285
21
1.80402009185376
31
0.000000000000000
  0
LINE
  5
F10674
330
F10675
100
AcDbEntity
8
Geo
100
AcDbLine
10
-85.5302982848285
20
1.80402009185376
30
0.000000000000000
11
-85.4302982848285
21
1.62012249671196
31
0.000000000000000
  0
LINE
  5
F10676
330
F10677
100
AcDbEntity
8
Geo
100
AcDbLine
10
-85.4302982848285
20
1.62012249671196
30
0.000000000000000
11
-85.3302982848285
21
1.43417951475379
31
0.000000000000000
  0
LINE
  5
F10678
330
F10679
100
AcDbEntity
8
Geo
100
AcDbLine
10
-85.3302982848285
20
1.43417951475379
30
0.000000000000000
11
-85.2302982848285
21
1.24646658305655
31
0.000000000000000
  0
LINE
  5
F1067A
330
F1067B
100
AcDbEntity
8
Geo
100
AcDbLine
10
-85.2302982848285
20
1.24646658305655
30
0.000000000000000
11
-85.1302982848285
21
1.05726176052157
31
0.000000000000000
  0
LINE
  5
F1067C
330
F1067D
100
AcDbEntity
8
Geo
100
AcDbLine
10
-85.1302982848285
20
1.05726176052157
30
0.000000000000000
11
-85.0302982848285
21
0.866845315985989
31
0.000000000000000
  0
LINE
  5
F1067E
330
F1067F
100
AcDbEntity
8
Geo
100
AcDbLine
10
-85.0302982848285
20
0.866845315985989
30
0.000000000000000
11
-84.9302982848285
21
0.675499313060913
31
0.000000000000000
  0
LINE
  5
F10680
330
F10681
100
AcDbEntity
8
Geo
100
AcDbLine
10
-84.9302982848285
20
0.675499313060913
30
0.000000000000000
11
-84.8302982848285
21
0.483507192310975
31
0.000000000000000
  0
LINE
  5
F10682
330
F10683
100
AcDbEntity
8
Geo
100
AcDbLine
10
-84.8302982848285
20
0.483507192310975
30
0.000000000000000
11
-84.7302982848285
21
0.291153351394228
31
0.000000000000000
  0
LINE
  5
F10684
330
F10685
100
AcDbEntity
8
Geo
100
AcDbLine
10
-84.7302982848285
20
0.291153351394228
30
0.000000000000000
11
-84.6302982848285
21
0.0987227237843142
31
0.000000000000000
  0
LINE
  5
F10686
330
F10687
100
AcDbEntity
8
Geo
100
AcDbLine
10
-84.6302982848285
20
0.0987227237843142
30
0.000000000000000
11
-84.5302982848285
21
-0.0934996433011195
31
0.000000000000000
  0
LINE
  5
F10688
330
F10689
100
AcDbEntity
8
Geo
100
AcDbLine
10
-84.5302982848285
20
-0.0934996433011195
30
0.000000000000000
11
-84.4302982848285
21
-0.285229011140442
31
0.000000000000000
  0
LINE
  5
F1068A
330
F1068B
100
AcDbEntity
8
Geo
100
AcDbLine
10
-84.4302982848285
20
-0.285229011140442
30
0.000000000000000
11
-84.3302982848285
21
-0.476181371291111
31
0.000000000000000
  0
LINE
  5
F1068C
330
F1068D
100
AcDbEntity
8
Geo
100
AcDbLine
10
-84.3302982848285
20
-0.476181371291111
30
0.000000000000000
11
-84.2302982848285
21
-0.666073866290974
31
0.000000000000000
  0
LINE
  5
F1068E
330
F1068F
100
AcDbEntity
8
Geo
100
AcDbLine
10
-84.2302982848285
20
-0.666073866290974
30
0.000000000000000
11
-84.1302982848285
21
-0.854625208654650
31
0.000000000000000
  0
LINE
  5
F10690
330
F10691
100
AcDbEntity
8
Geo
100
AcDbLine
10
-84.1302982848285
20
-0.854625208654650
30
0.000000000000000
11
-84.0302982848285
21
-1.04155609754425
31
0.000000000000000
  0
LINE
  5
F10692
330
F10693
100
AcDbEntity
8
Geo
100
AcDbLine
10
-84.0302982848285
20
-1.04155609754425
30
0.000000000000000
11
-83.9302982848285
21
-1.22658963249735
31
0.000000000000000
  0
LINE
  5
F10694
330
F10695
100
AcDbEntity
8
Geo
100
AcDbLine
10
-83.9302982848285
20
-1.22658963249735
30
0.000000000000000
11
-83.8302982848285
21
-1.40945172359923
31
0.000000000000000
  0
LINE
  5
F10696
330
F10697
100
AcDbEntity
8
Geo
100
AcDbLine
10
-83.8302982848285
20
-1.40945172359923
30
0.000000000000000
11
-83.7302982848285
21
-1.58987149749188
31
0.000000000000000
  0
LINE
  5
F10698
330
F10699
100
AcDbEntity
8
Geo
100
AcDbLine
10
-83.7302982848285
20
-1.58987149749188
30
0.000000000000000
11
-83.6302982848285
21
-1.76758169861834
31
0.000000000000000
  0
LINE
  5
F1069A
330
F1069B
100
AcDbEntity
8
Geo
100
AcDbLine
10
-83.6302982848285
20
-1.76758169861834
30
0.000000000000000
11
-83.5302982848285
21
-1.94231908510799
31
0.000000000000000
  0
LINE
  5
F1069C
330
F1069D
100
AcDbEntity
8
Geo
100
AcDbLine
10
-83.5302982848285
20
-1.94231908510799
30
0.000000000000000
11
-83.4302982848285
21
-2.11382481871632
31
0.000000000000000
  0
LINE
  5
F1069E
330
F1069F
100
AcDbEntity
8
Geo
100
AcDbLine
10
-83.4302982848285
20
-2.11382481871632
30
0.000000000000000
11
-83.3302982848285
21
-2.28184484824170
31
0.000000000000000
  0
LINE
  5
F106A0
330
F106A1
100
AcDbEntity
8
Geo
100
AcDbLine
10
-83.3302982848285
20
-2.28184484824170
30
0.000000000000000
11
-83.2302982848285
21
-2.44613028585102
31
0.000000000000000
  0
LINE
  5
F106A2
330
F106A3
100
AcDbEntity
8
Geo
100
AcDbLine
10
-83.2302982848285
20
-2.44613028585102
30
0.000000000000000
11
-83.1302982848285
21
-2.60643777575696
31
0.000000000000000
  0
LINE
  5
F106A4
330
F106A5
100
AcDbEntity
8
Geo
100
AcDbLine
10
-83.1302982848285
20
-2.60643777575696
30
0.000000000000000
11
-83.0302982848285
21
-2.76252985470048
31
0.000000000000000
  0
LINE
  5
F106A6
330
F106A7
100
AcDbEntity
8
Geo
100
AcDbLine
10
-83.0302982848285
20
-2.76252985470048
30
0.000000000000000
11
-82.9302982848285
21
-2.91417530370491
31
0.000000000000000
  0
LINE
  5
F106A8
330
F106A9
100
AcDbEntity
8
Geo
100
AcDbLine
10
-82.9302982848285
20
-2.91417530370491
30
0.000000000000000
11
-82.8302982848285
21
-3.06114949058021
31
0.000000000000000
  0
LINE
  5
F106AA
330
F106AB
100
AcDbEntity
8
Geo
100
AcDbLine
10
-82.8302982848285
20
-3.06114949058021
30
0.000000000000000
11
-82.7302982848285
21
-3.20323470267036
31
0.000000000000000
  0
LINE
  5
F106AC
330
F106AD
100
AcDbEntity
8
Geo
100
AcDbLine
10
-82.7302982848285
20
-3.20323470267036
30
0.000000000000000
11
-82.6302982848285
21
-3.34022046935081
31
0.000000000000000
  0
LINE
  5
F106AE
330
F106AF
100
AcDbEntity
8
Geo
100
AcDbLine
10
-82.6302982848285
20
-3.34022046935081
30
0.000000000000000
11
-82.5302982848285
21
-3.47190387379832
31
0.000000000000000
  0
LINE
  5
F106B0
330
F106B1
100
AcDbEntity
8
Geo
100
AcDbLine
10
-82.5302982848285
20
-3.47190387379832
30
0.000000000000000
11
-82.4302982848285
21
-3.59808985357135
31
0.000000000000000
  0
LINE
  5
F106B2
330
F106B3
100
AcDbEntity
8
Geo
100
AcDbLine
10
-82.4302982848285
20
-3.59808985357135
30
0.000000000000000
11
-82.3302982848285
21
-3.71859148955578
31
0.000000000000000
  0
LINE
  5
F106B4
330
F106B5
100
AcDbEntity
8
Geo
100
AcDbLine
10
-82.3302982848285
20
-3.71859148955578
30
0.000000000000000
11
-82.2302982848285
21
-3.83323028284795
31
0.000000000000000
  0
LINE
  5
F106B6
330
F106B7
100
AcDbEntity
8
Geo
100
AcDbLine
10
-82.2302982848285
20
-3.83323028284795
30
0.000000000000000
11
-82.1302982848285
21
-3.94183641916482
31
0.000000000000000
  0
LINE
  5
F106B8
330
F106B9
100
AcDbEntity
8
Geo
100
AcDbLine
10
-82.1302982848285
20
-3.94183641916482
30
0.000000000000000
11
-82.0302982848285
21
-4.04424902038962
31
0.000000000000000
  0
LINE
  5
F106BA
330
F106BB
100
AcDbEntity
8
Geo
100
AcDbLine
10
-82.0302982848285
20
-4.04424902038962
30
0.000000000000000
11
-81.9302982848285
21
-4.14031638288039
31
0.000000000000000
  0
LINE
  5
F106BC
330
F106BD
100
AcDbEntity
8
Geo
100
AcDbLine
10
-81.9302982848285
20
-4.14031638288039
30
0.000000000000000
11
-81.8302982848285
21
-4.22989620218840
31
0.000000000000000
  0
LINE
  5
F106BE
330
F106BF
100
AcDbEntity
8
Geo
100
AcDbLine
10
-81.8302982848285
20
-4.22989620218840
30
0.000000000000000
11
-81.7302982848285
21
-4.31285578385347
31
0.000000000000000
  0
LINE
  5
F106C0
330
F106C1
100
AcDbEntity
8
Geo
100
AcDbLine
10
-81.7302982848285
20
-4.31285578385347
30
0.000000000000000
11
-81.6302982848285
21
-4.38907223996411
31
0.000000000000000
  0
LINE
  5
F106C2
330
F106C3
100
AcDbEntity
8
Geo
100
AcDbLine
10
-81.6302982848285
20
-4.38907223996411
30
0.000000000000000
11
-81.5302982848285
21
-4.45843267119123
31
0.000000000000000
  0
LINE
  5
F106C4
330
F106C5
100
AcDbEntity
8
Geo
100
AcDbLine
10
-81.5302982848285
20
-4.45843267119123
30
0.000000000000000
11
-81.4302982848285
21
-4.52083433402576
31
0.000000000000000
  0
LINE
  5
F106C6
330
F106C7
100
AcDbEntity
8
Geo
100
AcDbLine
10
-81.4302982848285
20
-4.52083433402576
30
0.000000000000000
11
-81.3302982848285
21
-4.57618479297242
31
0.000000000000000
  0
LINE
  5
F106C8
330
F106C9
100
AcDbEntity
8
Geo
100
AcDbLine
10
-81.3302982848285
20
-4.57618479297242
30
0.000000000000000
11
-81.2302982848285
21
-4.62440205747433
31
0.000000000000000
  0
LINE
  5
F106CA
330
F106CB
100
AcDbEntity
8
Geo
100
AcDbLine
10
-81.2302982848285
20
-4.62440205747433
30
0.000000000000000
11
-81.1302982848285
21
-4.66541470336549
31
0.000000000000000
  0
LINE
  5
F106CC
330
F106CD
100
AcDbEntity
8
Geo
100
AcDbLine
10
-81.1302982848285
20
-4.66541470336549
30
0.000000000000000
11
-81.0302982848285
21
-4.69916197867132
31
0.000000000000000
  0
LINE
  5
F106CE
330
F106CF
100
AcDbEntity
8
Geo
100
AcDbLine
10
-81.0302982848285
20
-4.69916197867132
30
0.000000000000000
11
-80.9302982848285
21
-4.72559389360043
31
0.000000000000000
  0
LINE
  5
F106D0
330
F106D1
100
AcDbEntity
8
Geo
100
AcDbLine
10
-80.9302982848285
20
-4.72559389360043
30
0.000000000000000
11
-80.8302982848285
21
-4.74467129459446
31
0.000000000000000
  0
LINE
  5
F106D2
330
F106D3
100
AcDbEntity
8
Geo
100
AcDbLine
10
-80.8302982848285
20
-4.74467129459446
30
0.000000000000000
11
-80.7302982848285
21
-4.75636592232619
31
0.000000000000000
  0
LINE
  5
F106D4
330
F106D5
100
AcDbEntity
8
Geo
100
AcDbLine
10
-80.7302982848285
20
-4.75636592232619
30
0.000000000000000
11
-80.6302982848285
21
-4.76066045356004
31
0.000000000000000
  0
LINE
  5
F106D6
330
F106D7
100
AcDbEntity
8
Geo
100
AcDbLine
10
-92.1302982848285
20
5.23688321638879
30
0.000000000000000
11
-92.0302982848285
21
5.23918291372152
31
0.000000000000000
  0
LINE
  5
F106D8
330
F106D9
100
AcDbEntity
8
Geo
100
AcDbLine
10
-92.0302982848285
20
5.23918291372152
30
0.000000000000000
11
-91.9302982848285
21
5.23407631513939
31
0.000000000000000
  0
LINE
  5
F106DA
330
F106DB
100
AcDbEntity
8
Geo
100
AcDbLine
10
-91.9302982848285
20
5.23407631513939
30
0.000000000000000
11
-91.8302982848285
21
5.22157098503967
31
0.000000000000000
  0
LINE
  5
F106DC
330
F106DD
100
AcDbEntity
8
Geo
100
AcDbLine
10
-91.8302982848285
20
5.22157098503967
30
0.000000000000000
11
-91.7302982848285
21
5.20168544755024
31
0.000000000000000
  0
LINE
  5
F106DE
330
F106DF
100
AcDbEntity
8
Geo
100
AcDbLine
10
-91.7302982848285
20
5.20168544755024
30
0.000000000000000
11
-91.6302982848285
21
5.17444915908976
31
0.000000000000000
  0
LINE
  5
F106E0
330
F106E1
100
AcDbEntity
8
Geo
100
AcDbLine
10
-91.6302982848285
20
5.17444915908976
30
0.000000000000000
11
-91.5302982848285
21
5.13990246473398
31
0.000000000000000
  0
LINE
  5
F106E2
330
F106E3
100
AcDbEntity
8
Geo
100
AcDbLine
10
-91.5302982848285
20
5.13990246473398
30
0.000000000000000
11
-91.4302982848285
21
5.09809653845258
31
0.000000000000000
  0
LINE
  5
F106E4
330
F106E5
100
AcDbEntity
8
Geo
100
AcDbLine
10
-91.4302982848285
20
5.09809653845258
30
0.000000000000000
11
-91.3302982848285
21
5.04909330730529
31
0.000000000000000
  0
LINE
  5
F106E6
330
F106E7
100
AcDbEntity
8
Geo
100
AcDbLine
10
-91.3302982848285
20
5.04909330730529
30
0.000000000000000
11
-91.2302982848285
21
4.99296535970938
31
0.000000000000000
  0
LINE
  5
F106E8
330
F106E9
100
AcDbEntity
8
Geo
100
AcDbLine
10
-91.2302982848285
20
4.99296535970938
30
0.000000000000000
11
-91.1302982848285
21
4.92979583791458
31
0.000000000000000
  0
LINE
  5
F106EA
330
F106EB
100
AcDbEntity
8
Geo
100
AcDbLine
10
-91.1302982848285
20
4.92979583791458
30
0.000000000000000
11
-91.0302982848285
21
4.85967831484456
31
0.000000000000000
  0
LINE
  5
F106EC
330
F106ED
100
AcDbEntity
8
Geo
100
AcDbLine
10
-91.0302982848285
20
4.85967831484456
30
0.000000000000000
11
-90.9302982848285
21
4.78271665548747
31
0.000000000000000
  0
LINE
  5
F106EE
330
F106EF
100
AcDbEntity
8
Geo
100
AcDbLine
10
-90.9302982848285
20
4.78271665548747
30
0.000000000000000
11
-90.8302982848285
21
4.69902486304093
31
0.000000000000000
  0
LINE
  5
F106F0
330
F106F1
100
AcDbEntity
8
Geo
100
AcDbLine
10
-90.8302982848285
20
4.69902486304093
30
0.000000000000000
11
-90.7302982848285
21
4.60872691003923
31
0.000000000000000
  0
LINE
  5
F106F2
330
F106F3
100
AcDbEntity
8
Geo
100
AcDbLine
10
-90.7302982848285
20
4.60872691003923
30
0.000000000000000
11
-90.6302982848285
21
4.51195655471294
31
0.000000000000000
  0
LINE
  5
F106F4
330
F106F5
100
AcDbEntity
8
Geo
100
AcDbLine
10
-90.6302982848285
20
4.51195655471294
30
0.000000000000000
11
-90.5302982848285
21
4.40885714285314
31
0.000000000000000
  0
LINE
  5
F106F6
330
F106F7
100
AcDbEntity
8
Geo
100
AcDbLine
10
-90.5302982848285
20
4.40885714285314
30
0.000000000000000
11
-90.4302982848285
21
4.29958139547340
31
0.000000000000000
  0
LINE
  5
F106F8
330
F106F9
100
AcDbEntity
8
Geo
100
AcDbLine
10
-90.4302982848285
20
4.29958139547340
30
0.000000000000000
11
-90.3302982848285
21
4.18429118258440
31
0.000000000000000
  0
LINE
  5
F106FA
330
F106FB
100
AcDbEntity
8
Geo
100
AcDbLine
10
-90.3302982848285
20
4.18429118258440
30
0.000000000000000
11
-90.2302982848285
21
4.06315728341612
31
0.000000000000000
  0
LINE
  5
F106FC
330
F106FD
100
AcDbEntity
8
Geo
100
AcDbLine
10
-90.2302982848285
20
4.06315728341612
30
0.000000000000000
11
-90.1302982848285
21
3.93635913344278
31
0.000000000000000
  0
LINE
  5
F106FE
330
F106FF
100
AcDbEntity
8
Geo
100
AcDbLine
10
-90.1302982848285
20
3.93635913344278
30
0.000000000000000
11
-90.0302982848285
21
3.80408455858536
31
0.000000000000000
  0
LINE
  5
F10700
330
F10701
100
AcDbEntity
8
Geo
100
AcDbLine
10
-90.0302982848285
20
3.80408455858536
30
0.000000000000000
11
-89.9302982848285
21
3.66652949698529
31
0.000000000000000
  0
LINE
  5
F10702
330
F10703
100
AcDbEntity
8
Geo
100
AcDbLine
10
-89.9302982848285
20
3.66652949698529
30
0.000000000000000
11
-89.8302982848285
21
3.52389770876158
31
0.000000000000000
  0
LINE
  5
F10704
330
F10705
100
AcDbEntity
8
Geo
100
AcDbLine
10
-89.8302982848285
20
3.52389770876158
30
0.000000000000000
11
-89.7302982848285
21
3.37640047418125
31
0.000000000000000
  0
LINE
  5
F10706
330
F10707
100
AcDbEntity
8
Geo
100
AcDbLine
10
-89.7302982848285
20
3.37640047418125
30
0.000000000000000
11
-89.6302982848285
21
3.22425628069012
31
0.000000000000000
  0
LINE
  5
F10708
330
F10709
100
AcDbEntity
8
Geo
100
AcDbLine
10
-89.6302982848285
20
3.22425628069012
30
0.000000000000000
11
-89.5302982848285
21
3.06769049926775
31
0.000000000000000
  0
LINE
  5
F1070A
330
F1070B
100
AcDbEntity
8
Geo
100
AcDbLine
10
-89.5302982848285
20
3.06769049926775
30
0.000000000000000
11
-89.4302982848285
21
2.90693505058563
31
0.000000000000000
  0
LINE
  5
F1070C
330
F1070D
100
AcDbEntity
8
Geo
100
AcDbLine
10
-89.4302982848285
20
2.90693505058563
30
0.000000000000000
11
-89.3302982848285
21
2.74222806146348
31
0.000000000000000
  0
LINE
  5
F1070E
330
F1070F
100
AcDbEntity
8
Geo
100
AcDbLine
10
-89.3302982848285
20
2.74222806146348
30
0.000000000000000
11
-89.2302982848285
21
2.57381351213232
31
0.000000000000000
  0
LINE
  5
F10710
330
F10711
100
AcDbEntity
8
Geo
100
AcDbLine
10
-89.2302982848285
20
2.57381351213232
30
0.000000000000000
11
-89.1302982848285
21
2.40194087482686
31
0.000000000000000
  0
LINE
  5
F10712
330
F10713
100
AcDbEntity
8
Geo
100
AcDbLine
10
-89.1302982848285
20
2.40194087482686
30
0.000000000000000
11
-89.0302982848285
21
2.22686474424267
31
0.000000000000000
  0
LINE
  5
F10714
330
F10715
100
AcDbEntity
8
Geo
100
AcDbLine
10
-89.0302982848285
20
2.22686474424267
30
0.000000000000000
11
-88.9302982848285
21
2.04884446040541
31
0.000000000000000
  0
LINE
  5
F10716
330
F10717
100
AcDbEntity
8
Geo
100
AcDbLine
10
-88.9302982848285
20
2.04884446040541
30
0.000000000000000
11
-88.8302982848285
21
1.86814372451080
31
0.000000000000000
  0
LINE
  5
F10718
330
F10719
100
AcDbEntity
8
Geo
100
AcDbLine
10
-88.8302982848285
20
1.86814372451080
30
0.000000000000000
11
-88.7302982848285
21
1.68503020830440
31
0.000000000000000
  0
LINE
  5
F1071A
330
F1071B
100
AcDbEntity
8
Geo
100
AcDbLine
10
-88.7302982848285
20
1.68503020830440
30
0.000000000000000
11
-88.6302982848285
21
1.49977515757988
31
0.000000000000000
  0
LINE
  5
F1071C
330
F1071D
100
AcDbEntity
8
Geo
100
AcDbLine
10
-88.6302982848285
20
1.49977515757988
30
0.000000000000000
11
-88.5302982848285
21
1.31265299038294
31
0.000000000000000
  0
LINE
  5
F1071E
330
F1071F
100
AcDbEntity
8
Geo
100
AcDbLine
10
-88.5302982848285
20
1.31265299038294
30
0.000000000000000
11
-88.4302982848285
21
1.12394089051631
31
0.000000000000000
  0
LINE
  5
F10720
330
F10721
100
AcDbEntity
8
Geo
100
AcDbLine
10
-88.4302982848285
20
1.12394089051631
30
0.000000000000000
11
-88.3302982848285
21
0.933918396947741
31
0.000000000000000
  0
LINE
  5
F10722
330
F10723
100
AcDbEntity
8
Geo
100
AcDbLine
10
-88.3302982848285
20
0.933918396947741
30
0.000000000000000
11
-88.2302982848285
21
0.742866989729313
31
0.000000000000000
  0
LINE
  5
F10724
330
F10725
100
AcDbEntity
8
Geo
100
AcDbLine
10
-88.2302982848285
20
0.742866989729313
30
0.000000000000000
11
-88.1302982848285
21
0.551069673041456
31
0.000000000000000
  0
LINE
  5
F10726
330
F10727
100
AcDbEntity
8
Geo
100
AcDbLine
10
-88.1302982848285
20
0.551069673041456
30
0.000000000000000
11
-88.0302982848285
21
0.358810555979246
31
0.000000000000000
  0
LINE
  5
F10728
330
F10729
100
AcDbEntity
8
Geo
100
AcDbLine
10
-88.0302982848285
20
0.358810555979246
30
0.000000000000000
11
-87.9302982848285
21
0.166374431701998
31
0.000000000000000
  0
LINE
  5
F1072A
330
F1072B
100
AcDbEntity
8
Geo
100
AcDbLine
10
-87.9302982848285
20
0.166374431701998
30
0.000000000000000
11
-87.8302982848285
21
-0.0259536444304196
31
0.000000000000000
  0
LINE
  5
F1072C
330
F1072D
100
AcDbEntity
8
Geo
100
AcDbLine
10
-87.8302982848285
20
-0.0259536444304196
30
0.000000000000000
11
-87.7302982848285
21
-0.217888777109719
31
0.000000000000000
  0
LINE
  5
F1072E
330
F1072F
100
AcDbEntity
8
Geo
100
AcDbLine
10
-87.7302982848285
20
-0.217888777109719
30
0.000000000000000
11
-87.6302982848285
21
-0.409146653094191
31
0.000000000000000
  0
LINE
  5
F10730
330
F10731
100
AcDbEntity
8
Geo
100
AcDbLine
10
-87.6302982848285
20
-0.409146653094191
30
0.000000000000000
11
-87.5302982848285
21
-0.599443962361512
31
0.000000000000000
  0
LINE
  5
F10732
330
F10733
100
AcDbEntity
8
Geo
100
AcDbLine
10
-87.5302982848285
20
-0.599443962361512
30
0.000000000000000
11
-87.4302982848285
21
-0.788498817775488
31
0.000000000000000
  0
LINE
  5
F10734
330
F10735
100
AcDbEntity
8
Geo
100
AcDbLine
10
-87.4302982848285
20
-0.788498817775488
30
0.000000000000000
11
-87.3302982848285
21
-0.976031172645065
31
0.000000000000000
  0
LINE
  5
F10736
330
F10737
100
AcDbEntity
8
Geo
100
AcDbLine
10
-87.3302982848285
20
-0.976031172645065
30
0.000000000000000
11
-87.2302982848285
21
-1.16176323555710
31
0.000000000000000
  0
LINE
  5
F10738
330
F10739
100
AcDbEntity
8
Geo
100
AcDbLine
10
-87.2302982848285
20
-1.16176323555710
30
0.000000000000000
11
-87.1302982848285
21
-1.34541988186840
31
0.000000000000000
  0
LINE
  5
F1073A
330
F1073B
100
AcDbEntity
8
Geo
100
AcDbLine
10
-87.1302982848285
20
-1.34541988186840
30
0.000000000000000
11
-87.0302982848285
21
-1.52672906124744
31
0.000000000000000
  0
LINE
  5
F1073C
330
F1073D
100
AcDbEntity
8
Geo
100
AcDbLine
10
-87.0302982848285
20
-1.52672906124744
30
0.000000000000000
11
-86.9302982848285
21
-1.70542220066218
31
0.000000000000000
  0
LINE
  5
F1073E
330
F1073F
100
AcDbEntity
8
Geo
100
AcDbLine
10
-86.9302982848285
20
-1.70542220066218
30
0.000000000000000
11
-86.8302982848285
21
-1.88123460221688
31
0.000000000000000
  0
LINE
  5
F10740
330
F10741
100
AcDbEntity
8
Geo
100
AcDbLine
10
-86.8302982848285
20
-1.88123460221688
30
0.000000000000000
11
-86.7302982848285
21
-2.05390583524873
31
0.000000000000000
  0
LINE
  5
F10742
330
F10743
100
AcDbEntity
8
Geo
100
AcDbLine
10
-86.7302982848285
20
-2.05390583524873
30
0.000000000000000
11
-86.6302982848285
21
-2.22318012210344
31
0.000000000000000
  0
LINE
  5
F10744
330
F10745
100
AcDbEntity
8
Geo
100
AcDbLine
10
-86.6302982848285
20
-2.22318012210344
30
0.000000000000000
11
-86.5302982848285
21
-2.38880671701831
31
0.000000000000000
  0
LINE
  5
F10746
330
F10747
100
AcDbEntity
8
Geo
100
AcDbLine
10
-86.5302982848285
20
-2.38880671701831
30
0.000000000000000
11
-86.4302982848285
21
-2.55054027755157
31
0.000000000000000
  0
LINE
  5
F10748
330
F10749
100
AcDbEntity
8
Geo
100
AcDbLine
10
-86.4302982848285
20
-2.55054027755157
30
0.000000000000000
11
-86.3302982848285
21
-2.70814122800777
31
0.000000000000000
  0
LINE
  5
F1074A
330
F1074B
100
AcDbEntity
8
Geo
100
AcDbLine
10
-86.3302982848285
20
-2.70814122800777
30
0.000000000000000
11
-86.2302982848285
21
-2.86137611432100
31
0.000000000000000
  0
LINE
  5
F1074C
330
F1074D
100
AcDbEntity
8
Geo
100
AcDbLine
10
-86.2302982848285
20
-2.86137611432100
30
0.000000000000000
11
-86.1302982848285
21
-3.01001794986996
31
0.000000000000000
  0
LINE
  5
F1074E
330
F1074F
100
AcDbEntity
8
Geo
100
AcDbLine
10
-86.1302982848285
20
-3.01001794986996
30
0.000000000000000
11
-86.0302982848285
21
-3.15384655171302
31
0.000000000000000
  0
LINE
  5
F10750
330
F10751
100
AcDbEntity
8
Geo
100
AcDbLine
10
-86.0302982848285
20
-3.15384655171302
30
0.000000000000000
11
-85.9302982848285
21
-3.29264886674483
31
0.000000000000000
  0
LINE
  5
F10752
330
F10753
100
AcDbEntity
8
Geo
100
AcDbLine
10
-85.9302982848285
20
-3.29264886674483
30
0.000000000000000
11
-85.8302982848285
21
-3.42621928729164
31
0.000000000000000
  0
LINE
  5
F10754
330
F10755
100
AcDbEntity
8
Geo
100
AcDbLine
10
-85.8302982848285
20
-3.42621928729164
30
0.000000000000000
11
-85.7302982848285
21
-3.55435995567762
31
0.000000000000000
  0
LINE
  5
F10756
330
F10757
100
AcDbEntity
8
Geo
100
AcDbLine
10
-85.7302982848285
20
-3.55435995567762
30
0.000000000000000
11
-85.6302982848285
21
-3.67688105731116
31
0.000000000000000
  0
LINE
  5
F10758
330
F10759
100
AcDbEntity
8
Geo
100
AcDbLine
10
-85.6302982848285
20
-3.67688105731116
30
0.000000000000000
11
-85.5302982848285
21
-3.79360110185697
31
0.000000000000000
  0
LINE
  5
F1075A
330
F1075B
100
AcDbEntity
8
Geo
100
AcDbLine
10
-85.5302982848285
20
-3.79360110185697
30
0.000000000000000
11
-85.4302982848285
21
-3.90434719207746
31
0.000000000000000
  0
LINE
  5
F1075C
330
F1075D
100
AcDbEntity
8
Geo
100
AcDbLine
10
-85.4302982848285
20
-3.90434719207746
30
0.000000000000000
11
-85.3302982848285
21
-4.00895527994518
31
0.000000000000000
  0
LINE
  5
F1075E
330
F1075F
100
AcDbEntity
8
Geo
100
AcDbLine
10
-85.3302982848285
20
-4.00895527994518
30
0.000000000000000
11
-85.2302982848285
21
-4.10727040964688
31
0.000000000000000
  0
LINE
  5
F10760
330
F10761
100
AcDbEntity
8
Geo
100
AcDbLine
10
-85.2302982848285
20
-4.10727040964688
30
0.000000000000000
11
-85.1302982848285
21
-4.19914694711942
31
0.000000000000000
  0
LINE
  5
F10762
330
F10763
100
AcDbEntity
8
Geo
100
AcDbLine
10
-85.1302982848285
20
-4.19914694711942
30
0.000000000000000
11
-85.0302982848285
21
-4.28444879577725
31
0.000000000000000
  0
LINE
  5
F10764
330
F10765
100
AcDbEntity
8
Geo
100
AcDbLine
10
-85.0302982848285
20
-4.28444879577725
30
0.000000000000000
11
-84.9302982848285
21
-4.36304959811207
31
0.000000000000000
  0
LINE
  5
F10766
330
F10767
100
AcDbEntity
8
Geo
100
AcDbLine
10
-84.9302982848285
20
-4.36304959811207
30
0.000000000000000
11
-84.8302982848285
21
-4.43483292286611
31
0.000000000000000
  0
LINE
  5
F10768
330
F10769
100
AcDbEntity
8
Geo
100
AcDbLine
10
-84.8302982848285
20
-4.43483292286611
30
0.000000000000000
11
-84.7302982848285
21
-4.49969243750150
31
0.000000000000000
  0
LINE
  5
F1076A
330
F1076B
100
AcDbEntity
8
Geo
100
AcDbLine
10
-84.7302982848285
20
-4.49969243750150
30
0.000000000000000
11
-84.6302982848285
21
-4.55753206571057
31
0.000000000000000
  0
LINE
  5
F1076C
330
F1076D
100
AcDbEntity
8
Geo
100
AcDbLine
10
-84.6302982848285
20
-4.55753206571057
30
0.000000000000000
11
-84.5302982848285
21
-4.60826612973352
31
0.000000000000000
  0
LINE
  5
F1076E
330
F1076F
100
AcDbEntity
8
Geo
100
AcDbLine
10
-84.5302982848285
20
-4.60826612973352
30
0.000000000000000
11
-84.4302982848285
21
-4.65181947727275
31
0.000000000000000
  0
LINE
  5
F10770
330
F10771
100
AcDbEntity
8
Geo
100
AcDbLine
10
-84.4302982848285
20
-4.65181947727275
30
0.000000000000000
11
-84.3302982848285
21
-4.68812759281591
31
0.000000000000000
  0
LINE
  5
F10772
330
F10773
100
AcDbEntity
8
Geo
100
AcDbLine
10
-84.3302982848285
20
-4.68812759281591
30
0.000000000000000
11
-84.2302982848285
21
-4.71713669320257
31
0.000000000000000
  0
LINE
  5
F10774
330
F10775
100
AcDbEntity
8
Geo
100
AcDbLine
10
-84.2302982848285
20
-4.71713669320257
30
0.000000000000000
11
-84.1302982848285
21
-4.73880380729320
31
0.000000000000000
  0
LINE
  5
F10776
330
F10777
100
AcDbEntity
8
Geo
100
AcDbLine
10
-84.1302982848285
20
-4.73880380729320
30
0.000000000000000
11
-84.0302982848285
21
-4.75309683962220
31
0.000000000000000
  0
LINE
  5
F10778
330
F10779
100
AcDbEntity
8
Geo
100
AcDbLine
10
-84.0302982848285
20
-4.75309683962220
30
0.000000000000000
11
-83.9302982848285
21
-4.75999461794093
31
0.000000000000000
  0
LINE
  5
F1077A
330
F1077B
100
AcDbEntity
8
Geo
100
AcDbLine
10
-96.1302982848285
20
4.73063352525465
30
0.000000000000000
11
-96.0302982848285
21
5.02519004378218
31
0.000000000000000
  0
LINE
  5
F1077C
330
F1077D
100
AcDbEntity
8
Geo
100
AcDbLine
10
-96.1302982848285
20
0.190075546487381
30
0.000000000000000
11
-96.0302982848285
21
0.00573964818995781
31
0.000000000000000
  0
LINE
  5
F1077E
330
F1077F
100
AcDbEntity
8
Geo
100
AcDbLine
10
-96.0302982848285
20
5.02519004378218
30
0.000000000000000
11
-95.9302982848285
21
5.11236110372567
31
0.000000000000000
  0
LINE
  5
F10780
330
F10781
100
AcDbEntity
8
Geo
100
AcDbLine
10
-96.0302982848285
20
0.00573964818995781
30
0.000000000000000
11
-95.9302982848285
21
-0.185940656759151
31
0.000000000000000
  0
LINE
  5
F10782
330
F10783
100
AcDbEntity
8
Geo
100
AcDbLine
10
-95.9302982848285
20
5.11236110372567
30
0.000000000000000
11
-95.8302982848285
21
5.15025741069713
31
0.000000000000000
  0
LINE
  5
F10784
330
F10785
100
AcDbEntity
8
Geo
100
AcDbLine
10
-95.9302982848285
20
-0.185940656759151
30
0.000000000000000
11
-95.8302982848285
21
-0.379855043974520
31
0.000000000000000
  0
LINE
  5
F10786
330
F10787
100
AcDbEntity
8
Geo
100
AcDbLine
10
-95.8302982848285
20
5.15025741069713
30
0.000000000000000
11
-95.7302982848285
21
5.15406022940195
31
0.000000000000000
  0
LINE
  5
F10788
330
F10789
100
AcDbEntity
8
Geo
100
AcDbLine
10
-95.8302982848285
20
-0.379855043974520
30
0.000000000000000
11
-95.7302982848285
21
-0.573224145260600
31
0.000000000000000
  0
LINE
  5
F1078A
330
F1078B
100
AcDbEntity
8
Geo
100
AcDbLine
10
-95.7302982848285
20
5.15406022940195
30
0.000000000000000
11
-95.6302982848285
21
5.12906871993094
31
0.000000000000000
  0
LINE
  5
F1078C
330
F1078D
100
AcDbEntity
8
Geo
100
AcDbLine
10
-95.7302982848285
20
-0.573224145260600
30
0.000000000000000
11
-95.6302982848285
21
-0.763676391354414
31
0.000000000000000
  0
LINE
  5
F1078E
330
F1078F
100
AcDbEntity
8
Geo
100
AcDbLine
10
-95.6302982848285
20
5.12906871993094
30
0.000000000000000
11
-95.5302982848285
21
5.08685146680598
31
0.000000000000000
  0
LINE
  5
F10790
330
F10791
100
AcDbEntity
8
Geo
100
AcDbLine
10
-95.6302982848285
20
-0.763676391354414
30
0.000000000000000
11
-95.5302982848285
21
-0.951093730930246
31
0.000000000000000
  0
LINE
  5
F10792
330
F10793
100
AcDbEntity
8
Geo
100
AcDbLine
10
-95.5302982848285
20
5.08685146680598
30
0.000000000000000
11
-95.4302982848285
21
5.03745356612391
31
0.000000000000000
  0
LINE
  5
F10794
330
F10795
100
AcDbEntity
8
Geo
100
AcDbLine
10
-95.5302982848285
20
-0.951093730930246
30
0.000000000000000
11
-95.4302982848285
21
-1.13674771834583
31
0.000000000000000
  0
LINE
  5
F10796
330
F10797
100
AcDbEntity
8
Geo
100
AcDbLine
10
-95.4302982848285
20
5.03745356612391
30
0.000000000000000
11
-95.3302982848285
21
4.98094819092545
31
0.000000000000000
  0
LINE
  5
F10798
330
F10799
100
AcDbEntity
8
Geo
100
AcDbLine
10
-95.4302982848285
20
-1.13674771834583
30
0.000000000000000
11
-95.3302982848285
21
-1.32036334461108
31
0.000000000000000
  0
LINE
  5
F1079A
330
F1079B
100
AcDbEntity
8
Geo
100
AcDbLine
10
-95.3302982848285
20
4.98094819092545
30
0.000000000000000
11
-95.2302982848285
21
4.91741904254330
31
0.000000000000000
  0
LINE
  5
F1079C
330
F1079D
100
AcDbEntity
8
Geo
100
AcDbLine
10
-95.3302982848285
20
-1.32036334461108
30
0.000000000000000
11
-95.2302982848285
21
-1.50166862015743
31
0.000000000000000
  0
LINE
  5
F1079E
330
F1079F
100
AcDbEntity
8
Geo
100
AcDbLine
10
-95.2302982848285
20
4.91741904254330
30
0.000000000000000
11
-95.1302982848285
21
4.84696022661546
31
0.000000000000000
  0
LINE
  5
F107A0
330
F107A1
100
AcDbEntity
8
Geo
100
AcDbLine
10
-95.2302982848285
20
-1.50166862015743
30
0.000000000000000
11
-95.1302982848285
21
-1.68039497773556
31
0.000000000000000
  0
LINE
  5
F107A2
330
F107A3
100
AcDbEntity
8
Geo
100
AcDbLine
10
-95.1302982848285
20
4.84696022661546
30
0.000000000000000
11
-95.0302982848285
21
4.76967611368675
31
0.000000000000000
  0
LINE
  5
F107A4
330
F107A5
100
AcDbEntity
8
Geo
100
AcDbLine
10
-95.1302982848285
20
-1.68039497773556
30
0.000000000000000
11
-95.0302982848285
21
-1.85627767024373
31
0.000000000000000
  0
LINE
  5
F107A6
330
F107A7
100
AcDbEntity
8
Geo
100
AcDbLine
10
-95.0302982848285
20
4.76967611368675
30
0.000000000000000
11
-94.9302982848285
21
4.68568118460479
31
0.000000000000000
  0
LINE
  5
F107A8
330
F107A9
100
AcDbEntity
8
Geo
100
AcDbLine
10
-95.0302982848285
20
-1.85627767024373
30
0.000000000000000
11
-94.9302982848285
21
-2.02905616289723
31
0.000000000000000
  0
LINE
  5
F107AA
330
F107AB
100
AcDbEntity
8
Geo
100
AcDbLine
10
-94.9302982848285
20
4.68568118460479
30
0.000000000000000
11
-94.8302982848285
21
4.59509986093972
31
0.000000000000000
  0
LINE
  5
F107AC
330
F107AD
100
AcDbEntity
8
Geo
100
AcDbLine
10
-94.9302982848285
20
-2.02905616289723
30
0.000000000000000
11
-94.8302982848285
21
-2.19847451915825
31
0.000000000000000
  0
LINE
  5
F107AE
330
F107AF
100
AcDbEntity
8
Geo
100
AcDbLine
10
-94.8302982848285
20
4.59509986093972
30
0.000000000000000
11
-94.7302982848285
21
4.49806632067873
31
0.000000000000000
  0
LINE
  5
F107B0
330
F107B1
100
AcDbEntity
8
Geo
100
AcDbLine
10
-94.8302982848285
20
-2.19847451915825
30
0.000000000000000
11
-94.7302982848285
21
-2.36428177985427
31
0.000000000000000
  0
LINE
  5
F107B2
330
F107B3
100
AcDbEntity
8
Geo
100
AcDbLine
10
-94.7302982848285
20
4.49806632067873
30
0.000000000000000
11
-94.6302982848285
21
4.39472429946833
31
0.000000000000000
  0
LINE
  5
F107B4
330
F107B5
100
AcDbEntity
8
Geo
100
AcDbLine
10
-94.7302982848285
20
-2.36428177985427
30
0.000000000000000
11
-94.6302982848285
21
-2.52623233492355
31
0.000000000000000
  0
LINE
  5
F107B6
330
F107B7
100
AcDbEntity
8
Geo
100
AcDbLine
10
-94.6302982848285
20
4.39472429946833
30
0.000000000000000
11
-94.5302982848285
21
4.28522687769898
31
0.000000000000000
  0
LINE
  5
F107B8
330
F107B9
100
AcDbEntity
8
Geo
100
AcDbLine
10
-94.6302982848285
20
-2.52623233492355
30
0.000000000000000
11
-94.5302982848285
21
-2.68408628723697
31
0.000000000000000
  0
LINE
  5
F107BA
330
F107BB
100
AcDbEntity
8
Geo
100
AcDbLine
10
-94.5302982848285
20
4.28522687769898
30
0.000000000000000
11
-94.4302982848285
21
4.16973625374734
31
0.000000000000000
  0
LINE
  5
F107BC
330
F107BD
100
AcDbEntity
8
Geo
100
AcDbLine
10
-94.5302982848285
20
-2.68408628723697
30
0.000000000000000
11
-94.4302982848285
21
-2.83760980795728
31
0.000000000000000
  0
LINE
  5
F107BE
330
F107BF
100
AcDbEntity
8
Geo
100
AcDbLine
10
-94.4302982848285
20
4.16973625374734
30
0.000000000000000
11
-94.3302982848285
21
4.04842350371201
31
0.000000000000000
  0
LINE
  5
F107C0
330
F107C1
100
AcDbEntity
8
Geo
100
AcDbLine
10
-94.4302982848285
20
-2.83760980795728
30
0.000000000000000
11
-94.3302982848285
21
-2.98657548290948
31
0.000000000000000
  0
LINE
  5
F107C2
330
F107C3
100
AcDbEntity
8
Geo
100
AcDbLine
10
-94.3302982848285
20
4.04842350371201
30
0.000000000000000
11
-94.2302982848285
21
3.92146832799874
31
0.000000000000000
  0
LINE
  5
F107C4
330
F107C5
100
AcDbEntity
8
Geo
100
AcDbLine
10
-94.3302982848285
20
-2.98657548290948
30
0.000000000000000
11
-94.2302982848285
21
-3.13076264944907
31
0.000000000000000
  0
LINE
  5
F107C6
330
F107C7
100
AcDbEntity
8
Geo
100
AcDbLine
10
-94.2302982848285
20
3.92146832799874
30
0.000000000000000
11
-94.1302982848285
21
3.78905878513053
31
0.000000000000000
  0
LINE
  5
F107C8
330
F107C9
100
AcDbEntity
8
Geo
100
AcDbLine
10
-94.2302982848285
20
-3.13076264944907
30
0.000000000000000
11
-94.1302982848285
21
-3.26995772332932
31
0.000000000000000
  0
LINE
  5
F107CA
330
F107CB
100
AcDbEntity
8
Geo
100
AcDbLine
10
-94.1302982848285
20
3.78905878513053
30
0.000000000000000
11
-94.0302982848285
21
3.65139101317672
31
0.000000000000000
  0
LINE
  5
F107CC
330
F107CD
100
AcDbEntity
8
Geo
100
AcDbLine
10
-94.1302982848285
20
-3.26995772332932
30
0.000000000000000
11
-94.0302982848285
21
-3.40395451508335
31
0.000000000000000
  0
LINE
  5
F107CE
330
F107CF
100
AcDbEntity
8
Geo
100
AcDbLine
10
-94.0302982848285
20
3.65139101317672
30
0.000000000000000
11
-93.9302982848285
21
3.50866893921401
31
0.000000000000000
  0
LINE
  5
F107D0
330
F107D1
100
AcDbEntity
8
Geo
100
AcDbLine
10
-94.0302982848285
20
-3.40395451508335
30
0.000000000000000
11
-93.9302982848285
21
-3.53255453545227
31
0.000000000000000
  0
LINE
  5
F107D2
330
F107D3
100
AcDbEntity
8
Geo
100
AcDbLine
10
-93.9302982848285
20
3.50866893921401
30
0.000000000000000
11
-93.8302982848285
21
3.36110397724956
31
0.000000000000000
  0
LINE
  5
F107D4
330
F107D5
100
AcDbEntity
8
Geo
100
AcDbLine
10
-93.9302982848285
20
-3.53255453545227
30
0.000000000000000
11
-93.8302982848285
21
-3.65556728940701
31
0.000000000000000
  0
LINE
  5
F107D6
330
F107D7
100
AcDbEntity
8
Geo
100
AcDbLine
10
-93.8302982848285
20
3.36110397724956
30
0.000000000000000
11
-93.7302982848285
21
3.20891471505368
31
0.000000000000000
  0
LINE
  5
F107D8
330
F107D9
100
AcDbEntity
8
Geo
100
AcDbLine
10
-93.8302982848285
20
-3.65556728940701
30
0.000000000000000
11
-93.7302982848285
21
-3.77281055832840
31
0.000000000000000
  0
LINE
  5
F107DA
330
F107DB
100
AcDbEntity
8
Geo
100
AcDbLine
10
-93.7302982848285
20
3.20891471505368
30
0.000000000000000
11
-93.6302982848285
21
3.05232659036612
31
0.000000000000000
  0
LINE
  5
F107DC
330
F107DD
100
AcDbEntity
8
Geo
100
AcDbLine
10
-93.7302982848285
20
-3.77281055832840
30
0.000000000000000
11
-93.6302982848285
21
-3.88411066992732
31
0.000000000000000
  0
LINE
  5
F107DE
330
F107DF
100
AcDbEntity
8
Geo
100
AcDbLine
10
-93.6302982848285
20
3.05232659036612
30
0.000000000000000
11
-93.5302982848285
21
2.89157155695543
31
0.000000000000000
  0
LINE
  5
F107E0
330
F107E1
100
AcDbEntity
8
Geo
100
AcDbLine
10
-93.6302982848285
20
-3.88411066992732
30
0.000000000000000
11
-93.5302982848285
21
-3.98930275550522
31
0.000000000000000
  0
LINE
  5
F107E2
330
F107E3
100
AcDbEntity
8
Geo
100
AcDbLine
10
-93.5302982848285
20
2.89157155695543
30
0.000000000000000
11
-93.4302982848285
21
2.72688774102619
31
0.000000000000000
  0
LINE
  5
F107E4
330
F107E5
100
AcDbEntity
8
Geo
100
AcDbLine
10
-93.5302982848285
20
-3.98930275550522
30
0.000000000000000
11
-93.4302982848285
21
-4.08823099417389
31
0.000000000000000
  0
LINE
  5
F107E6
330
F107E7
100
AcDbEntity
8
Geo
100
AcDbLine
10
-93.4302982848285
20
2.72688774102619
30
0.000000000000000
11
-93.3302982848285
21
2.55851908848299
31
0.000000000000000
  0
LINE
  5
F107E8
330
F107E9
100
AcDbEntity
8
Geo
100
AcDbLine
10
-93.4302982848285
20
-4.08823099417389
30
0.000000000000000
11
-93.3302982848285
21
-4.18074884367272
31
0.000000000000000
  0
LINE
  5
F107EA
330
F107EB
100
AcDbEntity
8
Geo
100
AcDbLine
10
-93.3302982848285
20
2.55851908848299
30
0.000000000000000
11
-93.2302982848285
21
2.38671500357371
31
0.000000000000000
  0
LINE
  5
F107EC
330
F107ED
100
AcDbEntity
8
Geo
100
AcDbLine
10
-93.3302982848285
20
-4.18074884367272
30
0.000000000000000
11
-93.2302982848285
21
-4.26671925744154
31
0.000000000000000
  0
LINE
  5
F107EE
330
F107EF
100
AcDbEntity
8
Geo
100
AcDbLine
10
-93.2302982848285
20
2.38671500357371
30
0.000000000000000
11
-93.1302982848285
21
2.21172997944734
31
0.000000000000000
  0
LINE
  5
F107F0
330
F107F1
100
AcDbEntity
8
Geo
100
AcDbLine
10
-93.2302982848285
20
-4.26671925744154
30
0.000000000000000
11
-93.1302982848285
21
-4.34601488762754
31
0.000000000000000
  0
LINE
  5
F107F2
330
F107F3
100
AcDbEntity
8
Geo
100
AcDbLine
10
-93.1302982848285
20
2.21172997944734
30
0.000000000000000
11
-93.0302982848285
21
2.03382322117368
31
0.000000000000000
  0
LINE
  5
F107F4
330
F107F5
100
AcDbEntity
8
Geo
100
AcDbLine
10
-93.1302982848285
20
-4.34601488762754
30
0.000000000000000
11
-93.0302982848285
21
-4.41851827372540
31
0.000000000000000
  0
LINE
  5
F107F6
330
F107F7
100
AcDbEntity
8
Geo
100
AcDbLine
10
-93.0302982848285
20
2.03382322117368
30
0.000000000000000
11
-92.9302982848285
21
1.85325826178317
31
0.000000000000000
  0
LINE
  5
F107F8
330
F107F9
100
AcDbEntity
8
Geo
100
AcDbLine
10
-93.0302982848285
20
-4.41851827372540
30
0.000000000000000
11
-92.9302982848285
21
-4.48412201657141
31
0.000000000000000
  0
LINE
  5
F107FA
330
F107FB
100
AcDbEntity
8
Geo
100
AcDbLine
10
-92.9302982848285
20
1.85325826178317
30
0.000000000000000
11
-92.8302982848285
21
1.67030257189586
31
0.000000000000000
  0
LINE
  5
F107FC
330
F107FD
100
AcDbEntity
8
Geo
100
AcDbLine
10
-92.9302982848285
20
-4.48412201657141
30
0.000000000000000
11
-92.8302982848285
21
-4.54272893743369
31
0.000000000000000
  0
LINE
  5
F107FE
330
F107FF
100
AcDbEntity
8
Geo
100
AcDbLine
10
-92.8302982848285
20
1.67030257189586
30
0.000000000000000
11
-92.7302982848285
21
1.48522716351749
31
0.000000000000000
  0
LINE
  5
F10800
330
F10801
100
AcDbEntity
8
Geo
100
AcDbLine
10
-92.8302982848285
20
-4.54272893743369
30
0.000000000000000
11
-92.7302982848285
21
-4.59425222196291
31
0.000000000000000
  0
LINE
  5
F10802
330
F10803
100
AcDbEntity
8
Geo
100
AcDbLine
10
-92.7302982848285
20
1.48522716351749
30
0.000000000000000
11
-92.6302982848285
21
1.29830618858982
31
0.000000000000000
  0
LINE
  5
F10804
330
F10805
100
AcDbEntity
8
Geo
100
AcDbLine
10
-92.7302982848285
20
-4.59425222196291
30
0.000000000000000
11
-92.6302982848285
21
-4.63861554879026
31
0.000000000000000
  0
LINE
  5
F10806
330
F10807
100
AcDbEntity
8
Geo
100
AcDbLine
10
-92.6302982848285
20
1.29830618858982
30
0.000000000000000
11
-92.5302982848285
21
1.10981653288975
31
0.000000000000000
  0
LINE
  5
F10808
330
F10809
100
AcDbEntity
8
Geo
100
AcDbLine
10
-92.6302982848285
20
-4.63861554879026
30
0.000000000000000
11
-92.5302982848285
21
-4.67575320258220
31
0.000000000000000
  0
LINE
  5
F1080A
330
F1080B
100
AcDbEntity
8
Geo
100
AcDbLine
10
-92.5302982848285
20
1.10981653288975
30
0.000000000000000
11
-92.4302982848285
21
0.920037405878798
31
0.000000000000000
  0
LINE
  5
F1080C
330
F1080D
100
AcDbEntity
8
Geo
100
AcDbLine
10
-92.5302982848285
20
-4.67575320258220
30
0.000000000000000
11
-92.4302982848285
21
-4.70561017138448
31
0.000000000000000
  0
LINE
  5
F1080E
330
F1080F
100
AcDbEntity
8
Geo
100
AcDbLine
10
-92.4302982848285
20
0.920037405878798
30
0.000000000000000
11
-92.3302982848285
21
0.729249927110506
31
0.000000000000000
  0
LINE
  5
F10810
330
F10811
100
AcDbEntity
8
Geo
100
AcDbLine
10
-92.4302982848285
20
-4.70561017138448
30
0.000000000000000
11
-92.3302982848285
21
-4.72814222811125
31
0.000000000000000
  0
LINE
  5
F10812
330
F10813
100
AcDbEntity
8
Geo
100
AcDbLine
10
-92.3302982848285
20
0.729249927110506
30
0.000000000000000
11
-92.2302982848285
21
0.537736709808463
31
0.000000000000000
  0
LINE
  5
F10814
330
F10815
100
AcDbEntity
8
Geo
100
AcDbLine
10
-92.3302982848285
20
-4.72814222811125
30
0.000000000000000
11
-92.2302982848285
21
-4.74331599605862
31
0.000000000000000
  0
LINE
  5
F10816
330
F10817
100
AcDbEntity
8
Geo
100
AcDbLine
10
-92.2302982848285
20
0.537736709808463
30
0.000000000000000
11
-92.1302982848285
21
0.345781442231727
31
0.000000000000000
  0
LINE
  5
F10818
330
F10819
100
AcDbEntity
8
Geo
100
AcDbLine
10
-92.2302982848285
20
-4.74331599605862
30
0.000000000000000
11
-92.1302982848285
21
-4.75110899834550
31
0.000000000000000
  0
LINE
  5
F1081A
330
F1081B
100
AcDbEntity
8
Geo
100
AcDbLine
10
-92.1302982848285
20
0.345781442231727
30
0.000000000000000
11
-92.0302982848285
21
0.153668467447802
31
0.000000000000000
  0
LINE
  5
F1081C
330
F1081D
100
AcDbEntity
8
Geo
100
AcDbLine
10
-92.0302982848285
20
0.153668467447802
30
0.000000000000000
11
-91.9302982848285
21
-0.0383176378643447
31
0.000000000000000
  0
LINE
  5
F1081E
330
F1081F
100
AcDbEntity
8
Geo
100
AcDbLine
10
-92.0302982848285
20
5.23014155948457
30
0.000000000000000
11
-91.9302982848285
21
5.22314934937809
31
0.000000000000000
  0
LINE
  5
F10820
330
F10821
100
AcDbEntity
8
Geo
100
AcDbLine
10
-91.9302982848285
20
-0.0383176378643447
30
0.000000000000000
11
-91.8302982848285
21
-0.229892484957312
31
0.000000000000000
  0
LINE
  5
F10822
330
F10823
100
AcDbEntity
8
Geo
100
AcDbLine
10
-91.9302982848285
20
5.22314934937809
30
0.000000000000000
11
-91.8302982848285
21
5.20877459385301
31
0.000000000000000
  0
LINE
  5
F10824
330
F10825
100
AcDbEntity
8
Geo
100
AcDbLine
10
-91.8302982848285
20
-0.229892484957312
30
0.000000000000000
11
-91.7302982848285
21
-0.420772294279925
31
0.000000000000000
  0
LINE
  5
F10826
330
F10827
100
AcDbEntity
8
Geo
100
AcDbLine
10
-91.8302982848285
20
5.20877459385301
30
0.000000000000000
11
-91.7302982848285
21
5.18703858621446
31
0.000000000000000
  0
LINE
  5
F10828
330
F10829
100
AcDbEntity
8
Geo
100
AcDbLine
10
-91.7302982848285
20
-0.420772294279925
30
0.000000000000000
11
-91.6302982848285
21
-0.610674315839472
31
0.000000000000000
  0
LINE
  5
F1082A
330
F1082B
100
AcDbEntity
8
Geo
100
AcDbLine
10
-91.7302982848285
20
5.18703858621446
30
0.000000000000000
11
-91.6302982848285
21
5.15797352397994
31
0.000000000000000
  0
LINE
  5
F1082C
330
F1082D
100
AcDbEntity
8
Geo
100
AcDbLine
10
-91.6302982848285
20
-0.610674315839472
30
0.000000000000000
11
-91.5302982848285
21
-0.799317248038885
31
0.000000000000000
  0
LINE
  5
F1082E
330
F1082F
100
AcDbEntity
8
Geo
100
AcDbLine
10
-91.6302982848285
20
5.15797352397994
30
0.000000000000000
11
-91.5302982848285
21
5.12162246118519
31
0.000000000000000
  0
LINE
  5
F10830
330
F10831
100
AcDbEntity
8
Geo
100
AcDbLine
10
-91.5302982848285
20
-0.799317248038885
30
0.000000000000000
11
-91.4302982848285
21
-0.986421654368385
31
0.000000000000000
  0
LINE
  5
F10832
330
F10833
100
AcDbEntity
8
Geo
100
AcDbLine
10
-91.5302982848285
20
5.12162246118519
30
0.000000000000000
11
-91.4302982848285
21
5.07803924460834
31
0.000000000000000
  0
LINE
  5
F10834
330
F10835
100
AcDbEntity
8
Geo
100
AcDbLine
10
-91.4302982848285
20
-0.986421654368385
30
0.000000000000000
11
-91.3302982848285
21
-1.17171037733440
31
0.000000000000000
  0
LINE
  5
F10836
330
F10837
100
AcDbEntity
8
Geo
100
AcDbLine
10
-91.4302982848285
20
5.07803924460834
30
0.000000000000000
11
-91.3302982848285
21
5.02728843400671
31
0.000000000000000
  0
LINE
  5
F10838
330
F10839
100
AcDbEntity
8
Geo
100
AcDbLine
10
-91.3302982848285
20
-1.17171037733440
30
0.000000000000000
11
-91.2302982848285
21
-1.35490894901258
31
0.000000000000000
  0
LINE
  5
F1083A
330
F1083B
100
AcDbEntity
8
Geo
100
AcDbLine
10
-91.3302982848285
20
5.02728843400671
30
0.000000000000000
11
-91.2302982848285
21
4.96944520648458
31
0.000000000000000
  0
LINE
  5
F1083C
330
F1083D
100
AcDbEntity
8
Geo
100
AcDbLine
10
-91.2302982848285
20
-1.35490894901258
30
0.000000000000000
11
-91.1302982848285
21
-1.53574599761670
31
0.000000000000000
  0
LINE
  5
F1083E
330
F1083F
100
AcDbEntity
8
Geo
100
AcDbLine
10
-91.2302982848285
20
4.96944520648458
30
0.000000000000000
11
-91.1302982848285
21
4.90459524513340
31
0.000000000000000
  0
LINE
  5
F10840
330
F10841
100
AcDbEntity
8
Geo
100
AcDbLine
10
-91.1302982848285
20
-1.53574599761670
30
0.000000000000000
11
-91.0302982848285
21
-1.71395364948138
31
0.000000000000000
  0
LINE
  5
F10842
330
F10843
100
AcDbEntity
8
Geo
100
AcDbLine
10
-91.1302982848285
20
4.90459524513340
30
0.000000000000000
11
-91.0302982848285
21
4.83283461210959
31
0.000000000000000
  0
LINE
  5
F10844
330
F10845
100
AcDbEntity
8
Geo
100
AcDbLine
10
-91.0302982848285
20
-1.71395364948138
30
0.000000000000000
11
-90.9302982848285
21
-1.88926792586289
31
0.000000000000000
  0
LINE
  5
F10846
330
F10847
100
AcDbEntity
8
Geo
100
AcDbLine
10
-91.0302982848285
20
4.83283461210959
30
0.000000000000000
11
-90.9302982848285
21
4.75426960633777
31
0.000000000000000
  0
LINE
  5
F10848
330
F10849
100
AcDbEntity
8
Geo
100
AcDbLine
10
-90.9302982848285
20
-1.88926792586289
30
0.000000000000000
11
-90.8302982848285
21
-2.06142913397056
31
0.000000000000000
  0
LINE
  5
F1084A
330
F1084B
100
AcDbEntity
8
Geo
100
AcDbLine
10
-90.9302982848285
20
4.75426960633777
30
0.000000000000000
11
-90.8302982848285
21
4.66901660605034
31
0.000000000000000
  0
LINE
  5
F1084C
330
F1084D
100
AcDbEntity
8
Geo
100
AcDbLine
10
-90.8302982848285
20
-2.06142913397056
30
0.000000000000000
11
-90.7302982848285
21
-2.23018225164928
31
0.000000000000000
  0
LINE
  5
F1084E
330
F1084F
100
AcDbEntity
8
Geo
100
AcDbLine
10
-90.8302982848285
20
4.66901660605034
30
0.000000000000000
11
-90.7302982848285
21
4.57720189639656
31
0.000000000000000
  0
LINE
  5
F10850
330
F10851
100
AcDbEntity
8
Geo
100
AcDbLine
10
-90.7302982848285
20
-2.23018225164928
30
0.000000000000000
11
-90.6302982848285
21
-2.39527730514353
31
0.000000000000000
  0
LINE
  5
F10852
330
F10853
100
AcDbEntity
8
Geo
100
AcDbLine
10
-90.7302982848285
20
4.57720189639656
30
0.000000000000000
11
-90.6302982848285
21
4.47896148237651
31
0.000000000000000
  0
LINE
  5
F10854
330
F10855
100
AcDbEntity
8
Geo
100
AcDbLine
10
-90.6302982848285
20
-2.39527730514353
30
0.000000000000000
11
-90.5302982848285
21
-2.55646973938308
31
0.000000000000000
  0
LINE
  5
F10856
330
F10857
100
AcDbEntity
8
Geo
100
AcDbLine
10
-90.6302982848285
20
4.47896148237651
30
0.000000000000000
11
-90.5302982848285
21
4.37444088737711
31
0.000000000000000
  0
LINE
  5
F10858
330
F10859
100
AcDbEntity
8
Geo
100
AcDbLine
10
-90.5302982848285
20
-2.55646973938308
30
0.000000000000000
11
-90.4302982848285
21
-2.71352078024214
31
0.000000000000000
  0
LINE
  5
F1085A
330
F1085B
100
AcDbEntity
8
Geo
100
AcDbLine
10
-90.5302982848285
20
4.37444088737711
30
0.000000000000000
11
-90.4302982848285
21
4.26379493760854
31
0.000000000000000
  0
LINE
  5
F1085C
330
F1085D
100
AcDbEntity
8
Geo
100
AcDbLine
10
-90.4302982848285
20
-2.71352078024214
30
0.000000000000000
11
-90.3302982848285
21
-2.86619778823505
31
0.000000000000000
  0
LINE
  5
F1085E
330
F1085F
100
AcDbEntity
8
Geo
100
AcDbLine
10
-90.4302982848285
20
4.26379493760854
30
0.000000000000000
11
-90.3302982848285
21
4.14718753276035
31
0.000000000000000
  0
LINE
  5
F10860
330
F10861
100
AcDbEntity
8
Geo
100
AcDbLine
10
-90.3302982848285
20
-2.86619778823505
30
0.000000000000000
11
-90.2302982848285
21
-3.01427460312493
31
0.000000000000000
  0
LINE
  5
F10862
330
F10863
100
AcDbEntity
8
Geo
100
AcDbLine
10
-90.3302982848285
20
4.14718753276035
30
0.000000000000000
11
-90.2302982848285
21
4.02479140321710
31
0.000000000000000
  0
LINE
  5
F10864
330
F10865
100
AcDbEntity
8
Geo
100
AcDbLine
10
-90.2302982848285
20
-3.01427460312493
30
0.000000000000000
11
-90.1302982848285
21
-3.15753187893444
31
0.000000000000000
  0
LINE
  5
F10866
330
F10867
100
AcDbEntity
8
Geo
100
AcDbLine
10
-90.2302982848285
20
4.02479140321710
30
0.000000000000000
11
-90.1302982848285
21
3.89678785419310
31
0.000000000000000
  0
LINE
  5
F10868
330
F10869
100
AcDbEntity
8
Geo
100
AcDbLine
10
-90.1302982848285
20
-3.15753187893444
30
0.000000000000000
11
-90.0302982848285
21
-3.29575740886267
31
0.000000000000000
  0
LINE
  5
F1086A
330
F1086B
100
AcDbEntity
8
Geo
100
AcDbLine
10
-90.1302982848285
20
3.89678785419310
30
0.000000000000000
11
-90.0302982848285
21
3.76336649716524
31
0.000000000000000
  0
LINE
  5
F1086C
330
F1086D
100
AcDbEntity
8
Geo
100
AcDbLine
10
-90.0302982848285
20
-3.29575740886267
30
0.000000000000000
11
-89.9302982848285
21
-3.42874643962685
31
0.000000000000000
  0
LINE
  5
F1086E
330
F1086F
100
AcDbEntity
8
Geo
100
AcDbLine
10
-90.0302982848285
20
3.76336649716524
30
0.000000000000000
11
-89.9302982848285
21
3.62472496900175
31
0.000000000000000
  0
LINE
  5
F10870
330
F10871
100
AcDbEntity
8
Geo
100
AcDbLine
10
-89.9302982848285
20
-3.42874643962685
30
0.000000000000000
11
-89.8302982848285
21
-3.55630197476299
31
0.000000000000000
  0
LINE
  5
F10872
330
F10873
100
AcDbEntity
8
Geo
100
AcDbLine
10
-89.9302982848285
20
3.62472496900175
30
0.000000000000000
11
-89.8302982848285
21
3.48106863920306
31
0.000000000000000
  0
LINE
  5
F10874
330
F10875
100
AcDbEntity
8
Geo
100
AcDbLine
10
-89.8302982848285
20
-3.55630197476299
30
0.000000000000000
11
-89.7302982848285
21
-3.67823506643656
31
0.000000000000000
  0
LINE
  5
F10876
330
F10877
100
AcDbEntity
8
Geo
100
AcDbLine
10
-89.8302982848285
20
3.48106863920306
30
0.000000000000000
11
-89.7302982848285
21
3.33261030568814
31
0.000000000000000
  0
LINE
  5
F10878
330
F10879
100
AcDbEntity
8
Geo
100
AcDbLine
10
-89.7302982848285
20
-3.67823506643656
30
0.000000000000000
11
-89.6302982848285
21
-3.79436509533060
31
0.000000000000000
  0
LINE
  5
F1087A
330
F1087B
100
AcDbEntity
8
Geo
100
AcDbLine
10
-89.7302982848285
20
3.33261030568814
30
0.000000000000000
11
-89.6302982848285
21
3.17956987957736
31
0.000000000000000
  0
LINE
  5
F1087C
330
F1087D
100
AcDbEntity
8
Geo
100
AcDbLine
10
-89.6302982848285
20
-3.79436509533060
30
0.000000000000000
11
-89.5302982848285
21
-3.90452003819686
31
0.000000000000000
  0
LINE
  5
F1087E
330
F1087F
100
AcDbEntity
8
Geo
100
AcDbLine
10
-89.6302982848285
20
3.17956987957736
30
0.000000000000000
11
-89.5302982848285
21
3.02217405943835
31
0.000000000000000
  0
LINE
  5
F10880
330
F10881
100
AcDbEntity
8
Geo
100
AcDbLine
10
-89.5302982848285
20
-3.90452003819686
30
0.000000000000000
11
-89.4302982848285
21
-4.00853672267362
31
0.000000000000000
  0
LINE
  5
F10882
330
F10883
100
AcDbEntity
8
Geo
100
AcDbLine
10
-89.5302982848285
20
3.02217405943835
30
0.000000000000000
11
-89.4302982848285
21
2.86065599547781
31
0.000000000000000
  0
LINE
  5
F10884
330
F10885
100
AcDbEntity
8
Geo
100
AcDbLine
10
-89.4302982848285
20
-4.00853672267362
30
0.000000000000000
11
-89.3302982848285
21
-4.10626106899268
31
0.000000000000000
  0
LINE
  5
F10886
330
F10887
100
AcDbEntity
8
Geo
100
AcDbLine
10
-89.4302982848285
20
2.86065599547781
30
0.000000000000000
11
-89.3302982848285
21
2.69525494417640
31
0.000000000000000
  0
LINE
  5
F10888
330
F10889
100
AcDbEntity
8
Geo
100
AcDbLine
10
-89.3302982848285
20
-4.10626106899268
30
0.000000000000000
11
-89.2302982848285
21
-4.19754831821745
31
0.000000000000000
  0
LINE
  5
F1088A
330
F1088B
100
AcDbEntity
8
Geo
100
AcDbLine
10
-89.3302982848285
20
2.69525494417640
30
0.000000000000000
11
-89.2302982848285
21
2.52621591387845
31
0.000000000000000
  0
LINE
  5
F1088C
330
F1088D
100
AcDbEntity
8
Geo
100
AcDbLine
10
-89.2302982848285
20
-4.19754831821745
30
0.000000000000000
11
-89.1302982848285
21
-4.28226324667425
31
0.000000000000000
  0
LINE
  5
F1088E
330
F1088F
100
AcDbEntity
8
Geo
100
AcDbLine
10
-89.2302982848285
20
2.52621591387845
30
0.000000000000000
11
-89.1302982848285
21
2.35378930186145
31
0.000000000000000
  0
LINE
  5
F10890
330
F10891
100
AcDbEntity
8
Geo
100
AcDbLine
10
-89.1302982848285
20
-4.28226324667425
30
0.000000000000000
11
-89.0302982848285
21
-4.36028036625887
31
0.000000000000000
  0
LINE
  5
F10892
330
F10893
100
AcDbEntity
8
Geo
100
AcDbLine
10
-89.1302982848285
20
2.35378930186145
30
0.000000000000000
11
-89.0302982848285
21
2.17823052342295
31
0.000000000000000
  0
LINE
  5
F10894
330
F10895
100
AcDbEntity
8
Geo
100
AcDbLine
10
-89.0302982848285
20
-4.36028036625887
30
0.000000000000000
11
-88.9302982848285
21
-4.43148411032194
31
0.000000000000000
  0
LINE
  5
F10896
330
F10897
100
AcDbEntity
8
Geo
100
AcDbLine
10
-89.0302982848285
20
2.17823052342295
30
0.000000000000000
11
-88.9302982848285
21
1.99979963353417
31
0.000000000000000
  0
LINE
  5
F10898
330
F10899
100
AcDbEntity
8
Geo
100
AcDbLine
10
-88.9302982848285
20
-4.43148411032194
30
0.000000000000000
11
-88.8302982848285
21
-4.49576900485767
31
0.000000000000000
  0
LINE
  5
F1089A
330
F1089B
100
AcDbEntity
8
Geo
100
AcDbLine
10
-88.9302982848285
20
1.99979963353417
30
0.000000000000000
11
-88.8302982848285
21
1.81876094162101
31
0.000000000000000
  0
LINE
  5
F1089C
330
F1089D
100
AcDbEntity
8
Geo
100
AcDbLine
10
-88.8302982848285
20
-4.49576900485767
30
0.000000000000000
11
-88.7302982848285
21
-4.55303982474232
31
0.000000000000000
  0
LINE
  5
F1089E
330
F1089F
100
AcDbEntity
8
Geo
100
AcDbLine
10
-88.8302982848285
20
1.81876094162101
30
0.000000000000000
11
-88.7302982848285
21
1.63538262004280
31
0.000000000000000
  0
LINE
  5
F108A0
330
F108A1
100
AcDbEntity
8
Geo
100
AcDbLine
10
-88.7302982848285
20
-4.55303982474232
30
0.000000000000000
11
-88.6302982848285
21
-4.60321173479107
31
0.000000000000000
  0
LINE
  5
F108A2
330
F108A3
100
AcDbEntity
8
Geo
100
AcDbLine
10
-88.7302982848285
20
1.63538262004280
30
0.000000000000000
11
-88.6302982848285
21
1.44993630684904
31
0.000000000000000
  0
LINE
  5
F108A4
330
F108A5
100
AcDbEntity
8
Geo
100
AcDbLine
10
-88.6302982848285
20
-4.60321173479107
30
0.000000000000000
11
-88.5302982848285
21
-4.64621041542422
31
0.000000000000000
  0
LINE
  5
F108A6
330
F108A7
100
AcDbEntity
8
Geo
100
AcDbLine
10
-88.6302982848285
20
1.44993630684904
30
0.000000000000000
11
-88.5302982848285
21
1.26269670340226
31
0.000000000000000
  0
LINE
  5
F108A8
330
F108A9
100
AcDbEntity
8
Geo
100
AcDbLine
10
-88.5302982848285
20
-4.64621041542422
30
0.000000000000000
11
-88.4302982848285
21
-4.68197217275670
31
0.000000000000000
  0
LINE
  5
F108AA
330
F108AB
100
AcDbEntity
8
Geo
100
AcDbLine
10
-88.5302982848285
20
1.26269670340226
30
0.000000000000000
11
-88.4302982848285
21
1.07394116746333
31
0.000000000000000
  0
LINE
  5
F108AC
330
F108AD
100
AcDbEntity
8
Geo
100
AcDbLine
10
-88.4302982848285
20
-4.68197217275670
30
0.000000000000000
11
-88.3302982848285
21
-4.71044403294776
31
0.000000000000000
  0
LINE
  5
F108AE
330
F108AF
100
AcDbEntity
8
Geo
100
AcDbLine
10
-88.4302982848285
20
1.07394116746333
30
0.000000000000000
11
-88.3302982848285
21
0.883949302341789
31
0.000000000000000
  0
LINE
  5
F108B0
330
F108B1
100
AcDbEntity
8
Geo
100
AcDbLine
10
-88.3302982848285
20
-4.71044403294776
30
0.000000000000000
11
-88.2302982848285
21
-4.73158382067099
31
0.000000000000000
  0
LINE
  5
F108B2
330
F108B3
100
AcDbEntity
8
Geo
100
AcDbLine
10
-88.3302982848285
20
0.883949302341789
30
0.000000000000000
11
-88.2302982848285
21
0.693002542719856
31
0.000000000000000
  0
LINE
  5
F108B4
330
F108B5
100
AcDbEntity
8
Geo
100
AcDbLine
10
-88.2302982848285
20
-4.73158382067099
30
0.000000000000000
11
-88.1302982848285
21
-4.74536022158862
31
0.000000000000000
  0
LINE
  5
F108B6
330
F108B7
100
AcDbEntity
8
Geo
100
AcDbLine
10
-88.2302982848285
20
0.693002542719856
30
0.000000000000000
11
-88.1302982848285
21
0.501383737763618
31
0.000000000000000
  0
LINE
  5
F108B8
330
F108B9
100
AcDbEntity
8
Geo
100
AcDbLine
10
-88.1302982848285
20
-4.74536022158862
30
0.000000000000000
11
-88.0302982848285
21
-4.75175282873735
31
0.000000000000000
  0
LINE
  5
F108BA
330
F108BB
100
AcDbEntity
8
Geo
100
AcDbLine
10
-88.1302982848285
20
0.501383737763618
30
0.000000000000000
11
-88.0302982848285
21
0.309376732138976
31
0.000000000000000
  0
LINE
  5
F108BC
330
F108BD
100
AcDbEntity
8
Geo
100
AcDbLine
10
-88.0302982848285
20
0.309376732138976
30
0.000000000000000
11
-87.9302982848285
21
0.117265945552926
31
0.000000000000000
  0
LINE
  5
F108BE
330
F108BF
100
AcDbEntity
8
Geo
100
AcDbLine
10
-87.9302982848285
20
5.22938404103322
30
0.000000000000000
11
-87.8302982848285
21
5.22099160419455
31
0.000000000000000
  0
LINE
  5
F108C0
330
F108C1
100
AcDbEntity
8
Geo
100
AcDbLine
10
-87.9302982848285
20
0.117265945552926
30
0.000000000000000
11
-87.8302982848285
21
-0.0746640485569275
31
0.000000000000000
  0
LINE
  5
F108C2
330
F108C3
100
AcDbEntity
8
Geo
100
AcDbLine
10
-87.8302982848285
20
5.22099160419455
30
0.000000000000000
11
-87.7302982848285
21
5.20521981820219
31
0.000000000000000
  0
LINE
  5
F108C4
330
F108C5
100
AcDbEntity
8
Geo
100
AcDbLine
10
-87.8302982848285
20
-0.0746640485569275
30
0.000000000000000
11
-87.7302982848285
21
-0.266128944560636
31
0.000000000000000
  0
LINE
  5
F108C6
330
F108C7
100
AcDbEntity
8
Geo
100
AcDbLine
10
-87.7302982848285
20
5.20521981820219
30
0.000000000000000
11
-87.6302982848285
21
5.18209204578052
31
0.000000000000000
  0
LINE
  5
F108C8
330
F108C9
100
AcDbEntity
8
Geo
100
AcDbLine
10
-87.7302982848285
20
-0.266128944560636
30
0.000000000000000
11
-87.6302982848285
21
-0.456845125777414
31
0.000000000000000
  0
LINE
  5
F108CA
330
F108CB
100
AcDbEntity
8
Geo
100
AcDbLine
10
-87.6302982848285
20
5.18209204578052
30
0.000000000000000
11
-87.5302982848285
21
5.15164254606625
31
0.000000000000000
  0
LINE
  5
F108CC
330
F108CD
100
AcDbEntity
8
Geo
100
AcDbLine
10
-87.6302982848285
20
-0.456845125777414
30
0.000000000000000
11
-87.5302982848285
21
-0.646530084596637
31
0.000000000000000
  0
LINE
  5
F108CE
330
F108CF
100
AcDbEntity
8
Geo
100
AcDbLine
10
-87.5302982848285
20
5.15164254606625
30
0.000000000000000
11
-87.4302982848285
21
5.11391642386043
31
0.000000000000000
  0
LINE
  5
F108D0
330
F108D1
100
AcDbEntity
8
Geo
100
AcDbLine
10
-87.5302982848285
20
-0.646530084596637
30
0.000000000000000
11
-87.4302982848285
21
-0.834902840955965
31
0.000000000000000
  0
LINE
  5
F108D2
330
F108D3
100
AcDbEntity
8
Geo
100
AcDbLine
10
-87.4302982848285
20
5.11391642386043
30
0.000000000000000
11
-87.3302982848285
21
5.06896956281474
31
0.000000000000000
  0
LINE
  5
F108D4
330
F108D5
100
AcDbEntity
8
Geo
100
AcDbLine
10
-87.4302982848285
20
-0.834902840955965
30
0.000000000000000
11
-87.3302982848285
21
-1.02168435855671
31
0.000000000000000
  0
LINE
  5
F108D6
330
F108D7
100
AcDbEntity
8
Geo
100
AcDbLine
10
-87.3302982848285
20
5.06896956281474
30
0.000000000000000
11
-87.2302982848285
21
5.01686854265114
31
0.000000000000000
  0
LINE
  5
F108D8
330
F108D9
100
AcDbEntity
8
Geo
100
AcDbLine
10
-87.3302982848285
20
-1.02168435855671
30
0.000000000000000
11
-87.2302982848285
21
-1.20659795819993
31
0.000000000000000
  0
LINE
  5
F108DA
330
F108DB
100
AcDbEntity
8
Geo
100
AcDbLine
10
-87.2302982848285
20
5.01686854265114
30
0.000000000000000
11
-87.1302982848285
21
4.95769054053742
31
0.000000000000000
  0
LINE
  5
F108DC
330
F108DD
100
AcDbEntity
8
Geo
100
AcDbLine
10
-87.2302982848285
20
-1.20659795819993
30
0.000000000000000
11
-87.1302982848285
21
-1.38936972763090
31
0.000000000000000
  0
LINE
  5
F108DE
330
F108DF
100
AcDbEntity
8
Geo
100
AcDbLine
10
-87.1302982848285
20
4.95769054053742
30
0.000000000000000
11
-87.0302982848285
21
4.89152321676477
31
0.000000000000000
  0
LINE
  5
F108E0
330
F108E1
100
AcDbEntity
8
Geo
100
AcDbLine
10
-87.1302982848285
20
-1.38936972763090
30
0.000000000000000
11
-87.0302982848285
21
-1.56972892728500
31
0.000000000000000
  0
LINE
  5
F108E2
330
F108E3
100
AcDbEntity
8
Geo
100
AcDbLine
10
-87.0302982848285
20
4.89152321676477
30
0.000000000000000
11
-86.9302982848285
21
4.81846458489670
31
0.000000000000000
  0
LINE
  5
F108E4
330
F108E5
100
AcDbEntity
8
Geo
100
AcDbLine
10
-87.0302982848285
20
-1.56972892728500
30
0.000000000000000
11
-86.9302982848285
21
-1.74740839133378
31
0.000000000000000
  0
LINE
  5
F108E6
330
F108E7
100
AcDbEntity
8
Geo
100
AcDbLine
10
-86.9302982848285
20
4.81846458489670
30
0.000000000000000
11
-86.8302982848285
21
4.73862286658169
31
0.000000000000000
  0
LINE
  5
F108E8
330
F108E9
100
AcDbEntity
8
Geo
100
AcDbLine
10
-86.9302982848285
20
-1.74740839133378
30
0.000000000000000
11
-86.8302982848285
21
-1.92214492343742
31
0.000000000000000
  0
LINE
  5
F108EA
330
F108EB
100
AcDbEntity
8
Geo
100
AcDbLine
10
-86.8302982848285
20
4.73862286658169
30
0.000000000000000
11
-86.7302982848285
21
4.65211633124464
31
0.000000000000000
  0
LINE
  5
F108EC
330
F108ED
100
AcDbEntity
8
Geo
100
AcDbLine
10
-86.8302982848285
20
-1.92214492343742
30
0.000000000000000
11
-86.7302982848285
21
-2.09367968661701
31
0.000000000000000
  0
LINE
  5
F108EE
330
F108EF
100
AcDbEntity
8
Geo
100
AcDbLine
10
-86.7302982848285
20
4.65211633124464
30
0.000000000000000
11
-86.6302982848285
21
4.55907312089449
31
0.000000000000000
  0
LINE
  5
F108F0
330
F108F1
100
AcDbEntity
8
Geo
100
AcDbLine
10
-86.7302982848285
20
-2.09367968661701
30
0.000000000000000
11
-86.6302982848285
21
-2.26175858666945
31
0.000000000000000
  0
LINE
  5
F108F2
330
F108F3
100
AcDbEntity
8
Geo
100
AcDbLine
10
-86.6302982848285
20
4.55907312089449
30
0.000000000000000
11
-86.5302982848285
21
4.45963106030770
31
0.000000000000000
  0
LINE
  5
F108F4
330
F108F5
100
AcDbEntity
8
Geo
100
AcDbLine
10
-86.6302982848285
20
-2.26175858666945
30
0.000000000000000
11
-86.5302982848285
21
-2.42613264855682
31
0.000000000000000
  0
LINE
  5
F108F6
330
F108F7
100
AcDbEntity
8
Geo
100
AcDbLine
10
-86.5302982848285
20
4.45963106030770
30
0.000000000000000
11
-86.4302982848285
21
4.35393745286855
31
0.000000000000000
  0
LINE
  5
F108F8
330
F108F9
100
AcDbEntity
8
Geo
100
AcDbLine
10
-86.5302982848285
20
-2.42613264855682
30
0.000000000000000
11
-86.4302982848285
21
-2.58655838521276
31
0.000000000000000
  0
LINE
  5
F108FA
330
F108FB
100
AcDbEntity
8
Geo
100
AcDbLine
10
-86.4302982848285
20
4.35393745286855
30
0.000000000000000
11
-86.3302982848285
21
4.24214886236888
31
0.000000000000000
  0
LINE
  5
F108FC
330
F108FD
100
AcDbEntity
8
Geo
100
AcDbLine
10
-86.4302982848285
20
-2.58655838521276
30
0.000000000000000
11
-86.3302982848285
21
-2.74279815821950
31
0.000000000000000
  0
LINE
  5
F108FE
330
F108FF
100
AcDbEntity
8
Geo
100
AcDbLine
10
-86.3302982848285
20
4.24214886236888
30
0.000000000000000
11
-86.2302982848285
21
4.12443088109036
31
0.000000000000000
  0
LINE
  5
F10900
330
F10901
100
AcDbEntity
8
Geo
100
AcDbLine
10
-86.3302982848285
20
-2.74279815821950
30
0.000000000000000
11
-86.2302982848285
21
-2.89462052982135
31
0.000000000000000
  0
LINE
  5
F10902
330
F10903
100
AcDbEntity
8
Geo
100
AcDbLine
10
-86.2302982848285
20
4.12443088109036
30
0.000000000000000
11
-86.1302982848285
21
4.00095788451284
31
0.000000000000000
  0
LINE
  5
F10904
330
F10905
100
AcDbEntity
8
Geo
100
AcDbLine
10
-86.2302982848285
20
-2.89462052982135
30
0.000000000000000
11
-86.1302982848285
21
-3.04180060575307
31
0.000000000000000
  0
LINE
  5
F10906
330
F10907
100
AcDbEntity
8
Geo
100
AcDbLine
10
-86.1302982848285
20
4.00095788451284
30
0.000000000000000
11
-86.0302982848285
21
3.87191277301227
31
0.000000000000000
  0
LINE
  5
F10908
330
F10909
100
AcDbEntity
8
Geo
100
AcDbLine
10
-86.1302982848285
20
-3.04180060575307
30
0.000000000000000
11
-86.0302982848285
21
-3.18412036837550
31
0.000000000000000
  0
LINE
  5
F1090A
330
F1090B
100
AcDbEntity
8
Geo
100
AcDbLine
10
-86.0302982848285
20
3.87191277301227
30
0.000000000000000
11
-85.9302982848285
21
3.73748670093055
31
0.000000000000000
  0
LINE
  5
F1090C
330
F1090D
100
AcDbEntity
8
Geo
100
AcDbLine
10
-86.0302982848285
20
-3.18412036837550
30
0.000000000000000
11
-85.9302982848285
21
-3.32136899962470
31
0.000000000000000
  0
LINE
  5
F1090E
330
F1090F
100
AcDbEntity
8
Geo
100
AcDbLine
10
-85.9302982848285
20
3.73748670093055
30
0.000000000000000
11
-85.8302982848285
21
3.59787879341892
31
0.000000000000000
  0
LINE
  5
F10910
330
F10911
100
AcDbEntity
8
Geo
100
AcDbLine
10
-85.9302982848285
20
-3.32136899962470
30
0.000000000000000
11
-85.8302982848285
21
-3.45334319329651
31
0.000000000000000
  0
LINE
  5
F10912
330
F10913
100
AcDbEntity
8
Geo
100
AcDbLine
10
-85.8302982848285
20
3.59787879341892
30
0.000000000000000
11
-85.7302982848285
21
3.45329585147416
31
0.000000000000000
  0
LINE
  5
F10914
330
F10915
100
AcDbEntity
8
Geo
100
AcDbLine
10
-85.8302982848285
20
-3.45334319329651
30
0.000000000000000
11
-85.7302982848285
21
-3.57984745620372
31
0.000000000000000
  0
LINE
  5
F10916
330
F10917
100
AcDbEntity
8
Geo
100
AcDbLine
10
-85.7302982848285
20
3.45329585147416
30
0.000000000000000
11
-85.6302982848285
21
3.30395204560453
31
0.000000000000000
  0
LINE
  5
F10918
330
F10919
100
AcDbEntity
8
Geo
100
AcDbLine
10
-85.7302982848285
20
-3.57984745620372
30
0.000000000000000
11
-85.6302982848285
21
-3.70069439775987
31
0.000000000000000
  0
LINE
  5
F1091A
330
F1091B
100
AcDbEntity
8
Geo
100
AcDbLine
10
-85.6302982848285
20
3.30395204560453
30
0.000000000000000
11
-85.5302982848285
21
3.15006859857933
31
0.000000000000000
  0
LINE
  5
F1091C
330
F1091D
100
AcDbEntity
8
Geo
100
AcDbLine
10
-85.6302982848285
20
-3.70069439775987
30
0.000000000000000
11
-85.5302982848285
21
-3.81570500756062
31
0.000000000000000
  0
LINE
  5
F1091E
330
F1091F
100
AcDbEntity
8
Geo
100
AcDbLine
10
-85.5302982848285
20
3.15006859857933
30
0.000000000000000
11
-85.4302982848285
21
2.99187345773189
31
0.000000000000000
  0
LINE
  5
F10920
330
F10921
100
AcDbEntity
8
Geo
100
AcDbLine
10
-85.5302982848285
20
-3.81570500756062
30
0.000000000000000
11
-85.4302982848285
21
-3.92470892055167
31
0.000000000000000
  0
LINE
  5
F10922
330
F10923
100
AcDbEntity
8
Geo
100
AcDbLine
10
-85.4302982848285
20
2.99187345773189
30
0.000000000000000
11
-85.3302982848285
21
2.82960095730156
31
0.000000000000000
  0
LINE
  5
F10924
330
F10925
100
AcDbEntity
8
Geo
100
AcDbLine
10
-85.4302982848285
20
-3.92470892055167
30
0.000000000000000
11
-85.3302982848285
21
-4.02754466939022
31
0.000000000000000
  0
LINE
  5
F10926
330
F10927
100
AcDbEntity
8
Geo
100
AcDbLine
10
-85.3302982848285
20
2.82960095730156
30
0.000000000000000
11
-85.2302982848285
21
2.66349147131466
31
0.000000000000000
  0
LINE
  5
F10928
330
F10929
100
AcDbEntity
8
Geo
100
AcDbLine
10
-85.3302982848285
20
-4.02754466939022
30
0.000000000000000
11
-85.2302982848285
21
-4.12405992362636
31
0.000000000000000
  0
LINE
  5
F1092A
330
F1092B
100
AcDbEntity
8
Geo
100
AcDbLine
10
-85.2302982848285
20
2.66349147131466
30
0.000000000000000
11
-85.1302982848285
21
2.49379105751883
31
0.000000000000000
  0
LINE
  5
F1092C
330
F1092D
100
AcDbEntity
8
Geo
100
AcDbLine
10
-85.2302982848285
20
-4.12405992362636
30
0.000000000000000
11
-85.1302982848285
21
-4.21411171534993
31
0.000000000000000
  0
LINE
  5
F1092E
330
F1092F
100
AcDbEntity
8
Geo
100
AcDbLine
10
-85.1302982848285
20
2.49379105751883
30
0.000000000000000
11
-85.0302982848285
21
2.32075109289802
31
0.000000000000000
  0
LINE
  5
F10930
330
F10931
100
AcDbEntity
8
Geo
100
AcDbLine
10
-85.1302982848285
20
-4.21411171534993
30
0.000000000000000
11
-85.0302982848285
21
-4.29756665096868
31
0.000000000000000
  0
LINE
  5
F10932
330
F10933
100
AcDbEntity
8
Geo
100
AcDbLine
10
-85.0302982848285
20
2.32075109289802
30
0.000000000000000
11
-84.9302982848285
21
2.14462790130811
31
0.000000000000000
  0
LINE
  5
F10934
330
F10935
100
AcDbEntity
8
Geo
100
AcDbLine
10
-85.0302982848285
20
-4.29756665096868
30
0.000000000000000
11
-84.9302982848285
21
-4.37430110880401
31
0.000000000000000
  0
LINE
  5
F10936
330
F10937
100
AcDbEntity
8
Geo
100
AcDbLine
10
-84.9302982848285
20
2.14462790130811
30
0.000000000000000
11
-84.8302982848285
21
1.96568237378474
31
0.000000000000000
  0
LINE
  5
F10938
330
F10939
100
AcDbEntity
8
Geo
100
AcDbLine
10
-84.9302982848285
20
-4.37430110880401
30
0.000000000000000
11
-84.8302982848285
21
-4.44420142221162
31
0.000000000000000
  0
LINE
  5
F1093A
330
F1093B
100
AcDbEntity
8
Geo
100
AcDbLine
10
-84.8302982848285
20
1.96568237378474
30
0.000000000000000
11
-84.7302982848285
21
1.78417958208578
31
0.000000000000000
  0
LINE
  5
F1093C
330
F1093D
100
AcDbEntity
8
Geo
100
AcDbLine
10
-84.8302982848285
20
-4.44420142221162
30
0.000000000000000
11
-84.7302982848285
21
-4.50716404795569
31
0.000000000000000
  0
LINE
  5
F1093E
330
F1093F
100
AcDbEntity
8
Geo
100
AcDbLine
10
-84.7302982848285
20
1.78417958208578
30
0.000000000000000
11
-84.6302982848285
21
1.60038838604097
31
0.000000000000000
  0
LINE
  5
F10940
330
F10941
100
AcDbEntity
8
Geo
100
AcDbLine
10
-84.7302982848285
20
-4.50716404795569
30
0.000000000000000
11
-84.6302982848285
21
-4.56309571958739
31
0.000000000000000
  0
LINE
  5
F10942
330
F10943
100
AcDbEntity
8
Geo
100
AcDbLine
10
-84.6302982848285
20
1.60038838604097
30
0.000000000000000
11
-84.5302982848285
21
1.41458103529014
31
0.000000000000000
  0
LINE
  5
F10944
330
F10945
100
AcDbEntity
8
Geo
100
AcDbLine
10
-84.6302982848285
20
-4.56309571958739
30
0.000000000000000
11
-84.5302982848285
21
-4.61191358560032
31
0.000000000000000
  0
LINE
  5
F10946
330
F10947
100
AcDbEntity
8
Geo
100
AcDbLine
10
-84.5302982848285
20
1.41458103529014
30
0.000000000000000
11
-84.4302982848285
21
1.22703276600025
31
0.000000000000000
  0
LINE
  5
F10948
330
F10949
100
AcDbEntity
8
Geo
100
AcDbLine
10
-84.5302982848285
20
-4.61191358560032
30
0.000000000000000
11
-84.4302982848285
21
-4.65354533215830
31
0.000000000000000
  0
LINE
  5
F1094A
330
F1094B
100
AcDbEntity
8
Geo
100
AcDbLine
10
-84.4302982848285
20
1.22703276600025
30
0.000000000000000
11
-84.3302982848285
21
1.03802139315846
31
0.000000000000000
  0
LINE
  5
F1094C
330
F1094D
100
AcDbEntity
8
Geo
100
AcDbLine
10
-84.4302982848285
20
-4.65354533215830
30
0.000000000000000
11
-84.3302982848285
21
-4.68792929021379
31
0.000000000000000
  0
LINE
  5
F1094E
330
F1094F
100
AcDbEntity
8
Geo
100
AcDbLine
10
-84.3302982848285
20
1.03802139315846
30
0.000000000000000
11
-84.2302982848285
21
0.847826899045151
31
0.000000000000000
  0
LINE
  5
F10950
330
F10951
100
AcDbEntity
8
Geo
100
AcDbLine
10
-84.3302982848285
20
-4.68792929021379
30
0.000000000000000
11
-84.2302982848285
21
-4.71501452685816
31
0.000000000000000
  0
LINE
  5
F10952
330
F10953
100
AcDbEntity
8
Geo
100
AcDbLine
10
-84.2302982848285
20
0.847826899045151
30
0.000000000000000
11
-84.1302982848285
21
0.656731018496572
31
0.000000000000000
  0
LINE
  5
F10954
330
F10955
100
AcDbEntity
8
Geo
100
AcDbLine
10
-84.2302982848285
20
-4.71501452685816
30
0.000000000000000
11
-84.1302982848285
21
-4.73476092076850
31
0.000000000000000
  0
LINE
  5
F10956
330
F10957
100
AcDbEntity
8
Geo
100
AcDbLine
10
-84.1302982848285
20
0.656731018496572
30
0.000000000000000
11
-84.0302982848285
21
0.465016821571433
31
0.000000000000000
  0
LINE
  5
F10958
330
F10959
100
AcDbEntity
8
Geo
100
AcDbLine
10
-84.1302982848285
20
-4.73476092076850
30
0.000000000000000
11
-84.0302982848285
21
-4.74713922163934
31
0.000000000000000
  0
LINE
  5
F1095A
330
F1095B
100
AcDbEntity
8
Geo
100
AcDbLine
10
-84.0302982848285
20
0.465016821571433
30
0.000000000000000
11
-83.9302982848285
21
0.272968294239625
31
0.000000000000000
  0
LINE
  5
F1095C
330
F1095D
100
AcDbEntity
8
Geo
100
AcDbLine
10
-84.0302982848285
20
-4.74713922163934
30
0.000000000000000
11
-83.9302982848285
21
-4.75213109351102
31
0.000000000000000
  0
LINE
  5
F1095E
330
F1095F
100
AcDbEntity
8
Geo
100
AcDbLine
10
-83.9302982848285
20
0.272968294239625
30
0.000000000000000
11
-83.8302982848285
21
0.0808699177141958
31
0.000000000000000
  0
LINE
  5
F10960
330
F10961
100
AcDbEntity
8
Geo
100
AcDbLine
10
-83.8302982848285
20
5.22836101020675
30
0.000000000000000
11
-83.7302982848285
21
5.21856879318207
31
0.000000000000000
  0
LINE
  5
F10962
330
F10963
100
AcDbEntity
8
Geo
100
AcDbLine
10
-83.8302982848285
20
0.0808699177141958
30
0.000000000000000
11
-83.7302982848285
21
-0.110993752950266
31
0.000000000000000
  0
LINE
  5
F10964
330
F10965
100
AcDbEntity
8
Geo
100
AcDbLine
10
-83.7302982848285
20
5.21856879318207
30
0.000000000000000
11
-83.6302982848285
21
5.20140081591024
31
0.000000000000000
  0
LINE
  5
F10966
330
F10967
100
AcDbEntity
8
Geo
100
AcDbLine
10
-83.7302982848285
20
-0.110993752950266
30
0.000000000000000
11
-83.6302982848285
21
-0.302338510368633
31
0.000000000000000
  0
LINE
  5
F10968
330
F10969
100
AcDbEntity
8
Geo
100
AcDbLine
10
-83.6302982848285
20
5.20140081591024
30
0.000000000000000
11
-83.5302982848285
21
5.17688250929182
31
0.000000000000000
  0
LINE
  5
F1096A
330
F1096B
100
AcDbEntity
8
Geo
100
AcDbLine
10
-83.6302982848285
20
-0.302338510368633
30
0.000000000000000
11
-83.5302982848285
21
-0.492880915821237
31
0.000000000000000
  0
LINE
  5
F1096C
330
F1096D
100
AcDbEntity
8
Geo
100
AcDbLine
10
-83.5302982848285
20
5.17688250929182
30
0.000000000000000
11
-83.4302982848285
21
5.14505019225986
31
0.000000000000000
  0
LINE
  5
F1096E
330
F1096F
100
AcDbEntity
8
Geo
100
AcDbLine
10
-83.5302982848285
20
-0.492880915821237
30
0.000000000000000
11
-83.4302982848285
21
-0.682338719111248
31
0.000000000000000
  0
LINE
  5
F10970
330
F10971
100
AcDbEntity
8
Geo
100
AcDbLine
10
-83.4302982848285
20
5.14505019225986
30
0.000000000000000
11
-83.3302982848285
21
5.10595101798075
31
0.000000000000000
  0
LINE
  5
F10972
330
F10973
100
AcDbEntity
8
Geo
100
AcDbLine
10
-83.4302982848285
20
-0.682338719111248
30
0.000000000000000
11
-83.3302982848285
21
-0.870431276661491
31
0.000000000000000
  0
LINE
  5
F10974
330
F10975
100
AcDbEntity
8
Geo
100
AcDbLine
10
-83.3302982848285
20
5.10595101798075
30
0.000000000000000
11
-83.2302982848285
21
5.05964290400629
31
0.000000000000000
  0
LINE
  5
F10976
330
F10977
100
AcDbEntity
8
Geo
100
AcDbLine
10
-83.3302982848285
20
-0.870431276661491
30
0.000000000000000
11
-83.2302982848285
21
-1.05687996723138
31
0.000000000000000
  0
LINE
  5
F10978
330
F10979
100
AcDbEntity
8
Geo
100
AcDbLine
10
-83.2302982848285
20
5.05964290400629
30
0.000000000000000
11
-83.1302982848285
21
5.00619444648048
31
0.000000000000000
  0
LINE
  5
F1097A
330
F1097B
100
AcDbEntity
8
Geo
100
AcDbLine
10
-83.2302982848285
20
-1.05687996723138
30
0.000000000000000
11
-83.1302982848285
21
-1.24140860463819
31
0.000000000000000
  0
LINE
  5
F1097C
330
F1097D
100
AcDbEntity
8
Geo
100
AcDbLine
10
-83.1302982848285
20
5.00619444648048
30
0.000000000000000
11
-83.0302982848285
21
4.94568481852817
31
0.000000000000000
  0
LINE
  5
F1097E
330
F1097F
100
AcDbEntity
8
Geo
100
AcDbLine
10
-83.1302982848285
20
-1.24140860463819
30
0.000000000000000
11
-83.0302982848285
21
-1.42374384687121
31
0.000000000000000
  0
LINE
  5
F10980
330
F10981
100
AcDbEntity
8
Geo
100
AcDbLine
10
-83.0302982848285
20
4.94568481852817
30
0.000000000000000
11
-82.9302982848285
21
4.87820365297603
31
0.000000000000000
  0
LINE
  5
F10982
330
F10983
100
AcDbEntity
8
Geo
100
AcDbLine
10
-83.0302982848285
20
-1.42374384687121
30
0.000000000000000
11
-82.9302982848285
21
-1.60361560099293
31
0.000000000000000
  0
LINE
  5
F10984
330
F10985
100
AcDbEntity
8
Geo
100
AcDbLine
10
-82.9302982848285
20
4.87820365297603
30
0.000000000000000
11
-82.8302982848285
21
4.80385090957955
31
0.000000000000000
  0
LINE
  5
F10986
330
F10987
100
AcDbEntity
8
Geo
100
AcDbLine
10
-82.9302982848285
20
-1.60361560099293
30
0.000000000000000
11
-82.8302982848285
21
-1.78075742322731
31
0.000000000000000
  0
LINE
  5
F10988
330
F10989
100
AcDbEntity
8
Geo
100
AcDbLine
10
-82.8302982848285
20
4.80385090957955
30
0.000000000000000
11
-82.7302982848285
21
4.72273672695280
31
0.000000000000000
  0
LINE
  5
F1098A
330
F1098B
100
AcDbEntity
8
Geo
100
AcDbLine
10
-82.8302982848285
20
-1.78075742322731
30
0.000000000000000
11
-82.7302982848285
21
-1.95490691364257
31
0.000000000000000
  0
LINE
  5
F1098C
330
F1098D
100
AcDbEntity
8
Geo
100
AcDbLine
10
-82.7302982848285
20
4.72273672695280
30
0.000000000000000
11
-82.6302982848285
21
4.63498125942026
31
0.000000000000000
  0
LINE
  5
F1098E
330
F1098F
100
AcDbEntity
8
Geo
100
AcDbLine
10
-82.7302982848285
20
-1.95490691364257
30
0.000000000000000
11
-82.6302982848285
21
-2.12580610484383
31
0.000000000000000
  0
LINE
  5
F10990
330
F10991
100
AcDbEntity
8
Geo
100
AcDbLine
10
-82.6302982848285
20
4.63498125942026
30
0.000000000000000
11
-82.5302982848285
21
4.54071449903239
31
0.000000000000000
  0
LINE
  5
F10992
330
F10993
100
AcDbEntity
8
Geo
100
AcDbLine
10
-82.6302982848285
20
-2.12580610484383
30
0.000000000000000
11
-82.5302982848285
21
-2.29320184409987
31
0.000000000000000
  0
LINE
  5
F10994
330
F10995
100
AcDbEntity
8
Geo
100
AcDbLine
10
-82.5302982848285
20
4.54071449903239
30
0.000000000000000
11
-82.4302982848285
21
4.44007608300858
31
0.000000000000000
  0
LINE
  5
F10996
330
F10997
100
AcDbEntity
8
Geo
100
AcDbLine
10
-82.5302982848285
20
-2.29320184409987
30
0.000000000000000
11
-82.4302982848285
21
-2.45684616833789
31
0.000000000000000
  0
LINE
  5
F10998
330
F10999
100
AcDbEntity
8
Geo
100
AcDbLine
10
-82.4302982848285
20
4.44007608300858
30
0.000000000000000
11
-82.3302982848285
21
4.33321508689274
31
0.000000000000000
  0
LINE
  5
F1099A
330
F1099B
100
AcDbEntity
8
Geo
100
AcDbLine
10
-82.4302982848285
20
-2.45684616833789
30
0.000000000000000
11
-82.3302982848285
21
-2.61649667145088
31
0.000000000000000
  0
LINE
  5
F1099C
330
F1099D
100
AcDbEntity
8
Geo
100
AcDbLine
10
-82.3302982848285
20
4.33321508689274
30
0.000000000000000
11
-82.2302982848285
21
4.22028980372793
31
0.000000000000000
  0
LINE
  5
F1099E
330
F1099F
100
AcDbEntity
8
Geo
100
AcDbLine
10
-82.3302982848285
20
-2.61649667145088
30
0.000000000000000
11
-82.2302982848285
21
-2.77191686337344
31
0.000000000000000
  0
LINE
  5
F109A0
330
F109A1
100
AcDbEntity
8
Geo
100
AcDbLine
10
-82.2302982848285
20
4.22028980372793
30
0.000000000000000
11
-82.1302982848285
21
4.10146750957703
31
0.000000000000000
  0
LINE
  5
F109A2
330
F109A3
100
AcDbEntity
8
Geo
100
AcDbLine
10
-82.2302982848285
20
-2.77191686337344
30
0.000000000000000
11
-82.1302982848285
21
-2.92287652039417
31
0.000000000000000
  0
LINE
  5
F109A4
330
F109A5
100
AcDbEntity
8
Geo
100
AcDbLine
10
-82.1302982848285
20
4.10146750957703
30
0.000000000000000
11
-82.0302982848285
21
3.97692421573702
31
0.000000000000000
  0
LINE
  5
F109A6
330
F109A7
100
AcDbEntity
8
Geo
100
AcDbLine
10
-82.1302982848285
20
-2.92287652039417
30
0.000000000000000
11
-82.0302982848285
21
-3.06915202618575
31
0.000000000000000
  0
LINE
  5
F109A8
330
F109A9
100
AcDbEntity
8
Geo
100
AcDbLine
10
-82.0302982848285
20
3.97692421573702
30
0.000000000000000
11
-81.9302982848285
21
3.84684440801366
31
0.000000000000000
  0
LINE
  5
F109AA
330
F109AB
100
AcDbEntity
8
Geo
100
AcDbLine
10
-82.0302982848285
20
-3.06915202618575
30
0.000000000000000
11
-81.9302982848285
21
-3.21052670304746
31
0.000000000000000
  0
LINE
  5
F109AC
330
F109AD
100
AcDbEntity
8
Geo
100
AcDbLine
10
-81.9302982848285
20
3.84684440801366
30
0.000000000000000
11
-81.8302982848285
21
3.71142077344291
31
0.000000000000000
  0
LINE
  5
F109AE
330
F109AF
100
AcDbEntity
8
Geo
100
AcDbLine
10
-81.9302982848285
20
-3.21052670304746
30
0.000000000000000
11
-81.8302982848285
21
-3.34679113286959
31
0.000000000000000
  0
LINE
  5
F109B0
330
F109B1
100
AcDbEntity
8
Geo
100
AcDbLine
10
-81.8302982848285
20
3.71142077344291
30
0.000000000000000
11
-81.7302982848285
21
3.57085391486394
31
0.000000000000000
  0
LINE
  5
F109B2
330
F109B3
100
AcDbEntity
8
Geo
100
AcDbLine
10
-81.8302982848285
20
-3.34679113286959
30
0.000000000000000
11
-81.7302982848285
21
-3.47774346734416
31
0.000000000000000
  0
LINE
  5
F109B4
330
F109B5
100
AcDbEntity
8
Geo
100
AcDbLine
10
-81.7302982848285
20
3.57085391486394
30
0.000000000000000
11
-81.6302982848285
21
3.42535205376637
31
0.000000000000000
  0
LINE
  5
F109B6
330
F109B7
100
AcDbEntity
8
Geo
100
AcDbLine
10
-81.7302982848285
20
-3.47774346734416
30
0.000000000000000
11
-81.6302982848285
21
-3.60318972696255
31
0.000000000000000
  0
LINE
  5
F109B8
330
F109B9
100
AcDbEntity
8
Geo
100
AcDbLine
10
-81.6302982848285
20
3.42535205376637
30
0.000000000000000
11
-81.5302982848285
21
3.27513072185213
31
0.000000000000000
  0
LINE
  5
F109BA
330
F109BB
100
AcDbEntity
8
Geo
100
AcDbLine
10
-81.6302982848285
20
-3.60318972696255
30
0.000000000000000
11
-81.5302982848285
21
-3.72294408835707
31
0.000000000000000
  0
LINE
  5
F109BC
330
F109BD
100
AcDbEntity
8
Geo
100
AcDbLine
10
-81.5302982848285
20
3.27513072185213
30
0.000000000000000
11
-81.4302982848285
21
3.12041244176859
31
0.000000000000000
  0
LINE
  5
F109BE
330
F109BF
100
AcDbEntity
8
Geo
100
AcDbLine
10
-81.5302982848285
20
-3.72294408835707
30
0.000000000000000
11
-81.4302982848285
21
-3.83682915956085
31
0.000000000000000
  0
LINE
  5
F109C0
330
F109C1
100
AcDbEntity
8
Geo
100
AcDbLine
10
-81.4302982848285
20
3.12041244176859
30
0.000000000000000
11
-81.3302982848285
21
2.96142639748613
31
0.000000000000000
  0
LINE
  5
F109C2
330
F109C3
100
AcDbEntity
8
Geo
100
AcDbLine
10
-81.4302982848285
20
-3.83682915956085
30
0.000000000000000
11
-81.3302982848285
21
-3.94467624277833
31
0.000000000000000
  0
LINE
  5
F109C4
330
F109C5
100
AcDbEntity
8
Geo
100
AcDbLine
10
-81.3302982848285
20
2.96142639748613
30
0.000000000000000
11
-81.2302982848285
21
2.79840809480823
31
0.000000000000000
  0
LINE
  5
F109C6
330
F109C7
100
AcDbEntity
8
Geo
100
AcDbLine
10
-81.3302982848285
20
-3.94467624277833
30
0.000000000000000
11
-81.2302982848285
21
-4.04632558427701
31
0.000000000000000
  0
LINE
  5
F109C8
330
F109C9
100
AcDbEntity
8
Geo
100
AcDbLine
10
-81.2302982848285
20
2.79840809480823
30
0.000000000000000
11
-81.1302982848285
21
2.63159901251705
31
0.000000000000000
  0
LINE
  5
F109CA
330
F109CB
100
AcDbEntity
8
Geo
100
AcDbLine
10
-81.2302982848285
20
-4.04632558427701
30
0.000000000000000
11
-81.1302982848285
21
-4.14162661103053
31
0.000000000000000
  0
LINE
  5
F109CC
330
F109CD
100
AcDbEntity
8
Geo
100
AcDbLine
10
-81.1302982848285
20
2.63159901251705
30
0.000000000000000
11
-81.0302982848285
21
2.46124624467124
31
0.000000000000000
  0
LINE
  5
F109CE
330
F109CF
100
AcDbEntity
8
Geo
100
AcDbLine
10
-81.1302982848285
20
-4.14162661103053
30
0.000000000000000
11
-81.0302982848285
21
-4.23043815376215
31
0.000000000000000
  0
LINE
  5
F109D0
330
F109D1
100
AcDbEntity
8
Geo
100
AcDbLine
10
-81.0302982848285
20
2.46124624467124
30
0.000000000000000
11
-80.9302982848285
21
2.28760213458588
31
0.000000000000000
  0
LINE
  5
F109D2
330
F109D3
100
AcDbEntity
8
Geo
100
AcDbLine
10
-81.0302982848285
20
-4.23043815376215
30
0.000000000000000
11
-80.9302982848285
21
-4.31262865605873
31
0.000000000000000
  0
LINE
  5
F109D4
330
F109D5
100
AcDbEntity
8
Geo
100
AcDbLine
10
-80.9302982848285
20
2.28760213458588
30
0.000000000000000
11
-80.8302982848285
21
2.11092390103667
31
0.000000000000000
  0
LINE
  5
F109D6
330
F109D7
100
AcDbEntity
8
Geo
100
AcDbLine
10
-80.9302982848285
20
-4.31262865605873
30
0.000000000000000
11
-80.8302982848285
21
-4.38807636924496
31
0.000000000000000
  0
LINE
  5
F109D8
330
F109D9
100
AcDbEntity
8
Geo
100
AcDbLine
10
-80.8302982848285
20
2.11092390103667
30
0.000000000000000
11
-80.7302982848285
21
1.93147325724214
31
0.000000000000000
  0
LINE
  5
F109DA
330
F109DB
100
AcDbEntity
8
Geo
100
AcDbLine
10
-80.8302982848285
20
-4.38807636924496
30
0.000000000000000
11
-80.7302982848285
21
-4.45666953272958
31
0.000000000000000
  0
LINE
  5
F109DC
330
F109DD
100
AcDbEntity
8
Geo
100
AcDbLine
10
-80.7302982848285
20
1.93147325724214
30
0.000000000000000
11
-80.6302982848285
21
1.74951602318819
31
0.000000000000000
  0
LINE
  5
F109DE
330
F109DF
100
AcDbEntity
8
Geo
100
AcDbLine
10
-80.7302982848285
20
-4.45666953272958
30
0.000000000000000
11
-80.6302982848285
21
-4.51830653955612
31
0.000000000000000
  0
LINE
  5
F109E0
330
F109E1
100
AcDbEntity
8
Geo
100
AcDbLine
10
-80.6302982848285
20
1.74951602318819
30
0.000000000000000
11
-80.5302982848285
21
1.56532173186934
31
0.000000000000000
  0
LINE
  5
F109E2
330
F109E3
100
AcDbEntity
8
Geo
100
AcDbLine
10
-80.6302982848285
20
-4.51830653955612
30
0.000000000000000
11
-80.5302982848285
21
-4.57289608691317
31
0.000000000000000
  0
LINE
  5
F109E4
330
F109E5
100
AcDbEntity
8
Geo
100
AcDbLine
10
-80.5302982848285
20
1.56532173186934
30
0.000000000000000
11
-80.4302982848285
21
1.37916323002991
31
0.000000000000000
  0
LINE
  5
F109E6
330
F109E7
100
AcDbEntity
8
Geo
100
AcDbLine
10
-80.5302982848285
20
-4.57289608691317
30
0.000000000000000
11
-80.4302982848285
21
-4.62035731138113
31
0.000000000000000
  0
LINE
  5
F109E8
330
F109E9
100
AcDbEntity
8
Geo
100
AcDbLine
10
-80.4302982848285
20
1.37916323002991
30
0.000000000000000
11
-80.3302982848285
21
1.19131627399647
31
0.000000000000000
  0
LINE
  5
F109EA
330
F109EB
100
AcDbEntity
8
Geo
100
AcDbLine
10
-80.4302982848285
20
-4.62035731138113
30
0.000000000000000
11
-80.3302982848285
21
-4.66061990871504
31
0.000000000000000
  0
LINE
  5
F109EC
330
F109ED
100
AcDbEntity
8
Geo
100
AcDbLine
10
-80.3302982848285
20
1.19131627399647
30
0.000000000000000
11
-80.2302982848285
21
1.00205912120044
31
0.000000000000000
  0
LINE
  5
F109EE
330
F109EF
100
AcDbEntity
8
Geo
100
AcDbLine
10
-80.3302982848285
20
-4.66061990871504
30
0.000000000000000
11
-80.2302982848285
21
-4.69362423798617
31
0.000000000000000
  0
LINE
  5
F109F0
330
F109F1
100
AcDbEntity
8
Geo
100
AcDbLine
10
-80.2302982848285
20
1.00205912120044
30
0.000000000000000
11
-80.1302982848285
21
0.811672117995679
31
0.000000000000000
  0
LINE
  5
F109F2
330
F109F3
100
AcDbEntity
8
Geo
100
AcDbLine
10
-80.2302982848285
20
-4.69362423798617
30
0.000000000000000
11
-80.1302982848285
21
-4.71932140992805
31
0.000000000000000
  0
LINE
  5
F109F4
330
F109F5
100
AcDbEntity
8
Geo
100
AcDbLine
10
-80.1302982848285
20
0.811672117995679
30
0.000000000000000
11
-80.0302982848285
21
0.620437284381899
31
0.000000000000000
  0
LINE
  5
F109F6
330
F109F7
100
AcDbEntity
8
Geo
100
AcDbLine
10
-80.1302982848285
20
-4.71932140992805
30
0.000000000000000
11
-80.0302982848285
21
-4.73767335935610
31
0.000000000000000
  0
LINE
  5
F109F8
330
F109F9
100
AcDbEntity
8
Geo
100
AcDbLine
10
-80.0302982848285
20
0.620437284381899
30
0.000000000000000
11
-79.9302982848285
21
0.428637896248783
31
0.000000000000000
  0
LINE
  5
F109FA
330
F109FB
100
AcDbEntity
8
Geo
100
AcDbLine
10
-80.0302982848285
20
-4.73767335935610
30
0.000000000000000
11
-79.9302982848285
21
-4.74865290155345
31
0.000000000000000
  0
LINE
  5
F109FC
330
F109FD
100
AcDbEntity
8
Geo
100
AcDbLine
10
-79.9302982848285
20
0.428637896248783
30
0.000000000000000
11
-79.8302982848285
21
0.236558065759839
31
0.000000000000000
  0
LINE
  5
F109FE
330
F109FF
100
AcDbEntity
8
Geo
100
AcDbLine
10
-79.8302982848285
20
5.23087564081571
30
0.000000000000000
11
-79.7302982848285
21
5.22707252143877
31
0.000000000000000
  0
LINE
  5
F10A00
330
F10A01
100
AcDbEntity
8
Geo
100
AcDbLine
10
-79.8302982848285
20
0.236558065759839
30
0.000000000000000
11
-79.7302982848285
21
0.0444823204974403
31
0.000000000000000
  0
LINE
  5
F10A02
330
F10A03
100
AcDbEntity
8
Geo
100
AcDbLine
10
-79.7302982848285
20
5.22707252143877
30
0.000000000000000
11
-79.6302982848285
21
5.21588104525399
31
0.000000000000000
  0
LINE
  5
F10A04
330
F10A05
100
AcDbEntity
8
Geo
100
AcDbLine
10
-79.7302982848285
20
0.0444823204974403
30
0.000000000000000
11
-79.6302982848285
21
-0.147304818007483
31
0.000000000000000
  0
LINE
  5
F10A06
330
F10A07
100
AcDbEntity
8
Geo
100
AcDbLine
10
-79.6302982848285
20
5.21588104525399
30
0.000000000000000
11
-79.5302982848285
21
5.19731779017929
31
0.000000000000000
  0
LINE
  5
F10A08
330
F10A09
100
AcDbEntity
8
Geo
100
AcDbLine
10
-79.6302982848285
20
-0.147304818007483
30
0.000000000000000
11
-79.5302982848285
21
-0.338519255736784
31
0.000000000000000
  0
LINE
  5
F10A0A
330
F10A0B
100
AcDbEntity
8
Geo
100
AcDbLine
10
-79.5302982848285
20
5.19731779017929
30
0.000000000000000
11
-79.4302982848285
21
5.17141025393825
31
0.000000000000000
  0
LINE
  5
F10A0C
330
F10A0D
100
AcDbEntity
8
Geo
100
AcDbLine
10
-79.5302982848285
20
-0.338519255736784
30
0.000000000000000
11
-79.4302982848285
21
-0.528877747013167
31
0.000000000000000
  0
LINE
  5
F10A0E
330
F10A0F
100
AcDbEntity
8
Geo
100
AcDbLine
10
-79.4302982848285
20
5.17141025393825
30
0.000000000000000
11
-79.3302982848285
21
5.13819681332783
31
0.000000000000000
  0
LINE
  5
F10A10
330
F10A11
100
AcDbEntity
8
Geo
100
AcDbLine
10
-79.4302982848285
20
-0.528877747013167
30
0.000000000000000
11
-79.3302982848285
21
-0.718098314071611
31
0.000000000000000
  0
LINE
  5
F10A12
330
F10A13
100
AcDbEntity
8
Geo
100
AcDbLine
10
-79.3302982848285
20
5.13819681332783
30
0.000000000000000
11
-79.2302982848285
21
5.09772666737082
31
0.000000000000000
  0
LINE
  5
F10A14
330
F10A15
100
AcDbEntity
8
Geo
100
AcDbLine
10
-79.3302982848285
20
-0.718098314071611
30
0.000000000000000
11
-79.2302982848285
21
-0.905900664752634
31
0.000000000000000
  0
LINE
  5
F10A16
330
F10A17
100
AcDbEntity
8
Geo
100
AcDbLine
10
-79.2302982848285
20
5.09772666737082
30
0.000000000000000
11
-79.1302982848285
21
5.05005976443743
31
0.000000000000000
  0
LINE
  5
F10A18
330
F10A19
100
AcDbEntity
8
Geo
100
AcDbLine
10
-79.2302982848285
20
-0.905900664752634
30
0.000000000000000
11
-79.1302982848285
21
-1.09200660769868
31
0.000000000000000
  0
LINE
  5
F10A1A
330
F10A1B
100
AcDbEntity
8
Geo
100
AcDbLine
10
-96.1302982848285
20
0.239315934137991
30
0.000000000000000
11
-96.1302982848285
21
0.239315934137991
31
0.000000000000000
  0
LINE
  5
F10A1C
330
F10A1D
100
AcDbEntity
8
Geo
100
AcDbLine
10
-96.1302982848285
20
0.239315934137991
30
0.000000000000000
11
-96.1302982848285
21
0.239315934137991
31
0.000000000000000
  0
LINE
  5
F10A1E
330
F10A1F
100
AcDbEntity
8
Geo
100
AcDbLine
10
-97.1302982848285
20
0.239315934137991
30
0.000000000000000
11
-96.8302982848285
21
0.239315934137991
31
0.000000000000000
  0
LINE
  5
F10A20
330
F10A21
100
AcDbEntity
8
Geo
100
AcDbLine
10
-96.7027982848285
20
0.239315934137991
30
0.000000000000000
11
-96.6177982848285
21
0.239315934137991
31
0.000000000000000
  0
LINE
  5
F10A22
330
F10A23
100
AcDbEntity
8
Geo
100
AcDbLine
10
-96.4052982848285
20
0.239315934137991
30
0.000000000000000
11
-95.9802982848285
21
0.239315934137991
31
0.000000000000000
  0
LINE
  5
F10A24
330
F10A25
100
AcDbEntity
8
Geo
100
AcDbLine
10
-95.8527982848285
20
0.239315934137991
30
0.000000000000000
11
-95.7677982848285
21
0.239315934137991
31
0.000000000000000
  0
LINE
  5
F10A26
330
F10A27
100
AcDbEntity
8
Geo
100
AcDbLine
10
-95.5552982848285
20
0.239315934137991
30
0.000000000000000
11
-95.1302982848285
21
0.239315934137991
31
0.000000000000000
  0
LINE
  5
F10A28
330
F10A29
100
AcDbEntity
8
Geo
100
AcDbLine
10
-26.1302982848285
20
4.23931593413799
30
0.000000000000000
11
-26.1302982848285
21
0.239315934137991
31
0.000000000000000
  0
LINE
  5
F10A2A
330
F10A2B
100
AcDbEntity
8
Geo
100
AcDbLine
10
-95.9734595942650
20
0.239315934137991
30
0.000000000000000
11
-96.1299936983380
21
-4.24323431751076
31
0.000000000000000
  0
ARC
  5
F10A2C
330
F10A2D
100
AcDbEntity
8
Geo
100
AcDbCircle
10
-95.6302982848285
20
-4.26068406586201
30
0.000000000000000
 40
0.500000000000000
100
AcDbArc
 50
178.000000000000
 51
270.000000000000
  0
LINE
  5
F10A2E
330
F10A2F
100
AcDbEntity
8
Geo
100
AcDbLine
10
-95.6302982848285
20
-4.76068406586201
30
0.000000000000000
11
-74.1302982848285
21
-4.76068406586201
31
0.000000000000000
  0
LINE
  5
F10A30
330
F10A31
100
AcDbEntity
8
Geo
100
AcDbLine
10
-74.1302982848285
20
-4.76068406586201
30
0.000000000000000
11
-74.1302982848285
21
-4.46068406586201
31
0.000000000000000
  0
LINE
  5
F10A32
330
F10A33
100
AcDbEntity
8
Geo
100
AcDbLine
10
-74.1302982848285
20
-4.46068406586201
30
0.000000000000000
11
-66.1302982848285
21
-4.46068406586201
31
0.000000000000000
  0
LINE
  5
F10A34
330
F10A35
100
AcDbEntity
8
Geo
100
AcDbLine
10
-66.1302982848285
20
-4.46068406586201
30
0.000000000000000
11
-66.1302982848285
21
-4.76068406586201
31
0.000000000000000
  0
LINE
  5
F10A36
330
F10A37
100
AcDbEntity
8
Geo
100
AcDbLine
10
-66.1302982848285
20
-4.76068406586201
30
0.000000000000000
11
-27.1302982848285
21
-4.76068406586201
31
0.000000000000000
  0
LINE
  5
F10A38
330
F10A39
100
AcDbEntity
8
Geo
100
AcDbLine
10
-27.1302982848285
20
-4.76068406586201
30
0.000000000000000
11
-26.1302982848285
21
-3.76068406586201
31
0.000000000000000
  0
LINE
  5
F10A3A
330
F10A3B
100
AcDbEntity
8
Geo
100
AcDbLine
10
-95.6302982848285
20
5.23931593413799
30
0.000000000000000
11
-95.6302982848285
21
-4.76068406586201
31
0.000000000000000
  0
LINE
  5
F10A3C
330
F10A3D
100
AcDbEntity
8
Geo
100
AcDbLine
10
-95.6302982848285
20
5.23931593413799
30
0.000000000000000
11
-95.6302982848285
21
-4.76068406586201
31
0.000000000000000
  0
LINE
  5
F10A3E
330
F10A3F
100
AcDbEntity
8
Geo
100
AcDbLine
10
-74.1302982848285
20
5.23931593413799
30
0.000000000000000
11
-74.1302982848285
21
-4.76068406586201
31
0.000000000000000
  0
LINE
  5
F10A40
330
F10A41
100
AcDbEntity
8
Geo
100
AcDbLine
10
-74.1302982848285
20
4.93931593413799
30
0.000000000000000
11
-74.1302982848285
21
-4.46068406586201
31
0.000000000000000
  0
LINE
  5
F10A42
330
F10A43
100
AcDbEntity
8
Geo
100
AcDbLine
10
-66.1302982848285
20
4.93931593413799
30
0.000000000000000
11
-66.1302982848285
21
-4.46068406586201
31
0.000000000000000
  0
LINE
  5
F10A44
330
F10A45
100
AcDbEntity
8
Geo
100
AcDbLine
10
-66.1302982848285
20
4.93931593413799
30
0.000000000000000
11
-66.1302982848285
21
-4.46068406586201
31
0.000000000000000
  0
LINE
  5
F10A46
330
F10A47
100
AcDbEntity
8
Geo
100
AcDbLine
10
-27.1302982848285
20
5.23931593413799
30
0.000000000000000
11
-27.1302982848285
21
-4.76068406586201
31
0.000000000000000
  0
LINE
  5
F10A48
330
F10A49
100
AcDbEntity
8
Geo
100
AcDbLine
10
-26.1302982848285
20
4.23931593413799
30
0.000000000000000
11
-26.1302982848285
21
-3.76068406586201
31
0.000000000000000
  0
LWPOLYLINE
  5
F10A4A
330
F10A4B
100
AcDbEntity
8
Rahmen
100
AcDbPolyline
90
   4
70
   1
43
   0.0
 10
-125.608723878319
 20
102.969146304205
 10
134.382991504140
 20
102.969146304205
 10
134.382991504140
 20
-102.877077185318
 10
-125.608723878319
 20
-102.877077185318
  0
TEXT
  5
F10A4C
330
F10A4D
 100
AcDbEntity
8
Text
100
AcDbText
10
-124.519590420702
20
-102.377077185318
30
0.000000000000000
40
1.00000000000000
1
ISBESketcher
100
AcDbText
  0
LWPOLYLINE
  5
F10A4E
330
F10A4F
100
AcDbEntity
8
Rahmen
100
AcDbPolyline
90
   4
70
   1
43
   0.0
 10
94.3962345602188
 20
-99.9208578003587
 10
134.382991504140
 20
-99.9208578003587
 10
134.382991504140
 20
-102.877077185318
 10
94.3962345602188
 20
-102.877077185318
  0
TEXT
  5
F10A50
330
F10A51
 100
AcDbEntity
8
Text
100
AcDbText
10
95.5000000000000
20
-102.027952469726
30
0.000000000000000
40
0.750000000000000
1
Created by:
100
AcDbText
  0
TEXT
  5
F10A52
330
F10A53
 100
AcDbEntity
8
Text
100
AcDbText
10
120.555118825685
20
-102.027952469726
30
0.000000000000000
40
0.750000000000000
1
nsarkol
100
AcDbText
  0
LWPOLYLINE
  5
F10A54
330
F10A55
100
AcDbEntity
8
Rahmen
100
AcDbPolyline
90
   4
70
   1
43
   0.0
 10
54.4094776162979
 20
-99.9208578003587
 10
94.3962345602188
 20
-99.9208578003587
 10
94.3962345602188
 20
-102.877077185318
 10
54.4094776162979
 20
-102.877077185318
  0
TEXT
  5
F10A56
330
F10A57
 100
AcDbEntity
8
Text
100
AcDbText
10
55.5000000000000
20
-102.027952469726
30
0.000000000000000
40
0.750000000000000
1
Created for:
100
AcDbText
  0
TEXT
  5
F10A58
330
F10A59
 100
AcDbEntity
8
Text
100
AcDbText
10
0.000000000000000
20
0.250000000000000
30
0.000000000000000
40
0.750000000000000
1

100
AcDbText
  0
LWPOLYLINE
  5
F10A5A
330
F10A5B
100
AcDbEntity
8
Rahmen
100
AcDbPolyline
90
   4
70
   1
43
   0.0
 10
121.157799518796
 20
-97.1202289093447
 10
134.382991504140
 20
-97.1202289093447
 10
134.382991504140
 20
-99.9208578003587
 10
121.157799518796
 20
-99.9208578003587
  0
TEXT
  5
F10A5C
330
F10A5D
 100
AcDbEntity
8
Text
100
AcDbText
10
122.166666666667
20
-99.0279524697261
30
0.000000000000000
40
0.750000000000000
1
Pages
100
AcDbText
  0
TEXT
  5
F10A5E
330
F10A5F
 100
AcDbEntity
8
Text
100
AcDbText
10
0.000000000000000
20
0.250000000000000
30
0.000000000000000
40
0.750000000000000
1

100
AcDbText
  0
LWPOLYLINE
  5
F10A60
330
F10A61
100
AcDbEntity
8
Rahmen
100
AcDbPolyline
90
   4
70
   1
43
   0.0
 10
121.157799518796
 20
-94.0084190304404
 10
134.382991504140
 20
-94.0084190304404
 10
134.382991504140
 20
-97.1202289093447
 10
121.157799518796
 20
-97.1202289093447
  0
TEXT
  5
F10A62
330
F10A63
 100
AcDbEntity
8
Text
100
AcDbText
10
122.166666666667
20
-96.0279524697261
30
0.000000000000000
40
0.750000000000000
1
Page
100
AcDbText
  0
TEXT
  5
F10A64
330
F10A65
 100
AcDbEntity
8
Text
100
AcDbText
10
0.000000000000000
20
0.250000000000000
30
0.000000000000000
40
0.750000000000000
1

100
AcDbText
  0
LWPOLYLINE
  5
F10A66
330
F10A67
100
AcDbEntity
8
Rahmen
100
AcDbPolyline
90
   4
70
   1
43
   0.0
 10
54.4094776162979
 20
-94.0084190304404
 10
121.157799518796
 20
-94.0084190304404
 10
121.157799518796
 20
-99.9208578003587
 10
54.4094776162979
 20
-99.9208578003587
  0
TEXT
  5
F10A68
330
F10A69
 100
AcDbEntity
8
Text
100
AcDbText
10
55.5000000000000
20
-96.0279524697261
30
0.000000000000000
40
0.750000000000000
1
Date:
100
AcDbText
  0
TEXT
  5
F10A6A
330
F10A6B
 100
AcDbEntity
8
Text
100
AcDbText
10
84.9549091953468
20
-99.0279524697261
30
0.000000000000000
40
0.750000000000000
1
05.07.2016
100
AcDbText
  0
LWPOLYLINE
  5
F10A6C
330
F10A6D
100
AcDbEntity
8
Rahmen
100
AcDbPolyline
90
   4
70
   1
43
   0.0
 10
54.4094776162979
 20
-88.0959802605221
 10
134.382991504140
 20
-88.0959802605221
 10
134.382991504140
 20
-94.0084190304404
 10
54.4094776162979
 20
-94.0084190304404
  0
TEXT
  5
F10A6E
330
F10A6F
 100
AcDbEntity
8
Text
100
AcDbText
10
0.000000000000000
20
0.500000000000000
30
0.000000000000000
40
1.50000000000000
1

100
AcDbText
  0
TEXT
  5
F10A70
330
F10A71
 100
AcDbEntity
8
Text
100
AcDbText
10
65.6379633731621
20
-92.6561145697901
30
0.000000000000000
40
2.50000000000000
1
VHVTR 5 100 070 10 03 050 L
100
AcDbText
  0
LWPOLYLINE
  5
F10A72
330
F10A73
100
AcDbEntity
8
Rahmen
100
AcDbPolyline
90
   4
70
   1
43
   0.0
 10
94.3962345602188
 20
-82.0279509966587
 10
134.382991504140
 20
-82.0279509966587
 10
134.382991504140
 20
-88.0959802605221
 10
94.3962345602188
 20
-88.0959802605221
  0
TEXT
  5
F10A74
330
F10A75
 100
AcDbEntity
8
Text
100
AcDbText
10
95.5000000000000
20
-84.0279524697261
30
0.000000000000000
40
0.750000000000000
1
Work piece material:
100
AcDbText
  0
TEXT
  5
F10A76
330
F10A77
 100
AcDbEntity
8
Text
100
AcDbText
10
0.000000000000000
20
0.250000000000000
30
0.000000000000000
40
0.750000000000000
1

100
AcDbText
  0
LWPOLYLINE
  5
F10A78
330
F10A79
100
AcDbEntity
8
Rahmen
100
AcDbPolyline
90
   4
70
   1
43
   0.0
 10
54.4094776162979
 20
-82.0279509966587
 10
94.3962345602188
 20
-82.0279509966587
 10
94.3962345602188
 20
-88.0959802605221
 10
54.4094776162979
 20
-88.0959802605221
  0
TEXT
  5
F10A7A
330
F10A7B
 100
AcDbEntity
8
Text
100
AcDbText
10
55.5000000000000
20
-84.0279524697261
30
0.000000000000000
40
0.750000000000000
1
Tool material:
100
AcDbText
  0
TEXT
  5
F10A7C
330
F10A7D
 100
AcDbEntity
8
Text
100
AcDbText
10
0.000000000000000
20
0.250000000000000
30
0.000000000000000
40
0.750000000000000
1

100
AcDbText
  0
LWPOLYLINE
  5
F10A7E
330
F10A7F
100
AcDbEntity
8
Rahmen
100
AcDbPolyline
90
   4
70
   1
43
   0.0
 10
94.3962345602188
 20
-79.0717316116995
 10
134.382991504140
 20
-79.0717316116995
 10
134.382991504140
 20
-82.0279509966587
 10
94.3962345602188
 20
-82.0279509966587
  0
TEXT
  5
F10A80
330
F10A81
 100
AcDbEntity
8
Text
100
AcDbText
10
0.000000000000000
20
0.500000000000000
30
0.000000000000000
40
1.50000000000000
1

100
AcDbText
  0
TEXT
  5
F10A82
330
F10A83
 100
AcDbEntity
8
Text
100
AcDbText
10
0.000000000000000
20
0.250000000000000
30
0.000000000000000
40
0.750000000000000
1

100
AcDbText
  0
LWPOLYLINE
  5
F10A84
330
F10A85
100
AcDbEntity
8
Rahmen
100
AcDbPolyline
90
   4
70
   1
43
   0.0
 10
54.4094776162979
 20
-79.0717316116995
 10
94.3962345602188
 20
-79.0717316116995
 10
94.3962345602188
 20
-82.0279509966587
 10
54.4094776162979
 20
-82.0279509966587
  0
TEXT
  5
F10A86
330
F10A87
 100
AcDbEntity
8
Text
100
AcDbText
10
55.5000000000000
20
-81.0279524697261
30
0.000000000000000
40
0.750000000000000
1
Scale:
100
AcDbText
  0
TEXT
  5
F10A88
330
F10A89
 100
AcDbEntity
8
Text
100
AcDbText
10
81.3330712954109
20
-81.0279524697261
30
0.000000000000000
40
0.750000000000000
1
3 : 1
100
AcDbText
0
VIEWPORT
5
294
102
{ACAD_XDICTIONARY
360
58A
102
}
330
25D
100
AcDbEntity
67
1
8
0
60
1
100
AcDbViewport
10
0.0
20
0.0
30
0.0
40
10.0
41
10.0
68
-1
69
1
12
0.0
22
0.0
13
0.0
23
0.0
14
1.0
24
1.0
15
0.0
25
0.0
16
0.0
26
0.0
36
1.0
17
0.0
27
0.0
37
0.0
42
0.0
43
0.0
44
0.0
45
10.0
50
0.0
51
0.0000000000007958
72
100
90
32800
1

281
0
71
0
74
0
110
0.0
120
0.0
130
0.0
111
1.0
121
0.0
131
0.0
112
0.0
122
1.0
132
0.0
79
0
146
0.0
1001
VD_INVISIBLE_NOT_FOR_READ
1000
VD_INVISIBLE_NOT_FOR_READ
0
VIEWPORT
5
295
102
{ACAD_XDICTIONARY
360
58C
102
}
330
25D
100
AcDbEntity
67
1
8
0
60
1
100
AcDbViewport
10
0.0
20
0.0
30
0.0
40
10.0
41
10.0
68
0
69
2
12
0.0
22
0.0
13
0.0
23
0.0
14
1.0
24
1.0
15
0.0
25
0.0
16
0.0
26
0.0
36
1.0
17
0.0
27
0.0
37
0.0
42
0.0
43
0.0
44
0.0
45
10.0
50
0.0
51
0.0000000000007958
72
100
90
163872
1

281
0
71
0
74
0
110
0.0
120
0.0
130
0.0
111
1.0
121
0.0
131
0.0
112
0.0
122
1.0
132
0.0
79
0
146
0.0
1001
VD_INVISIBLE_NOT_FOR_READ
1000
VD_INVISIBLE_NOT_FOR_READ
0
ENDSEC
0
SECTION
2
OBJECTS
0
DICTIONARY
5
13
330
0
100
AcDbDictionary
281
1
3
ACAD_COLOR
350
FA7
3
ACAD_GROUP
350
14
3
ACAD_LAYOUT
350
FCF
3
ACAD_MATERIAL
350
F7A
3
ACAD_MLEADERSTYLE
350
FCD
3
ACAD_MLINESTYLE
350
16
3
ACAD_PLOTSETTINGS
350
17
3
ACAD_PLOTSTYLENAME
350
18
3
ACAD_SCALELIST
350
FAB
3
ACAD_TABLESTYLE
350
FA8
3
ACAD_VISUALSTYLE
350
F93
3
ACDB_RECOMPOSE_DATA
350
107E
3
AcDbVariableDictionary
350
FF0
3
DWGPROPS
350
107F
0
DICTIONARY
5
F10019
330
F10018
100
AcDbDictionary
280
1
281
1
3
ACAD_MTEXT_2008_RT
360
F1001A
0
DICTIONARY
5
F1001E
330
F1001D
100
AcDbDictionary
280
1
281
1
3
ACAD_MTEXT_2008_RT
360
F1001F
0
DICTIONARY
5
F10028
330
F10027
100
AcDbDictionary
280
1
281
1
3
ACAD_MTEXT_2008_RT
360
F10029
0
DICTIONARY
5
F1002D
330
F1002C
100
AcDbDictionary
280
1
281
1
3
ACAD_MTEXT_2008_RT
360
F1002E
0
DICTIONARY
5
F10005
330
F10004
100
AcDbDictionary
280
1
281
1
3
ACAD_MTEXT_2008_RT
360
F10006
0
DICTIONARY
5
F1000F
330
F1000E
100
AcDbDictionary
280
1
281
1
3
ACAD_MTEXT_2008_RT
360
F10010
0
DICTIONARY
5
F1000A
330
F10009
100
AcDbDictionary
280
1
281
1
3
ACAD_MTEXT_2008_RT
360
F1000B
0
DICTIONARY
5
F10014
330
F10013
100
AcDbDictionary
280
1
281
1
3
ACAD_MTEXT_2008_RT
360
F10015
0
DICTIONARY
5
F10023
330
F10022
100
AcDbDictionary
280
1
281
1
3
ACAD_MTEXT_2008_RT
360
F10024
0
DICTIONARY
5
FA7
102
{ACAD_REACTORS
330
13
102
}
330
13
100
AcDbDictionary
281
1
0
DICTIONARY
5
14
330
13
100
AcDbDictionary
281
1
0
DICTIONARY
5
FCF
102
{ACAD_REACTORS
330
13
102
}
330
13
100
AcDbDictionary
281
1
3
Layout1
350
FD1
3
Model
350
FD0
0
DICTIONARY
5
F7A
102
{ACAD_REACTORS
330
13
102
}
330
13
100
AcDbDictionary
281
1
3
ByBlock
350
F83
3
ByLayer
350
F7B
3
Global
350
F8B
0
DICTIONARY
5
FCD
102
{ACAD_REACTORS
330
13
102
}
330
13
100
AcDbDictionary
281
1
3
Standard
350
FCE
0
DICTIONARY
5
16
330
13
100
AcDbDictionary
281
1
3
Standard
350
FAA
0
DICTIONARY
5
17
102
{ACAD_REACTORS
330
13
102
}
330
13
100
AcDbDictionary
281
1
0
ACDBDICTIONARYWDFLT
5
18
102
{ACAD_REACTORS
330
13
102
}
330
13
100
AcDbDictionary
281
1
3
Normal
350
19
100
AcDbDictionaryWithDefault
340
19
0
DICTIONARY
5
FAB
102
{ACAD_REACTORS
330
13
102
}
330
13
100
AcDbDictionary
281
1
3
A0
350
FAC
3
A1
350
FAD
3
A2
350
FAE
3
A3
350
FAF
3
A4
350
FB0
3
A5
350
FB1
3
A6
350
FB2
3
A7
350
FB3
3
A8
350
FB4
3
A9
350
FB5
3
B0
350
FB6
3
B1
350
FB7
3
B2
350
FB8
3
B3
350
FB9
3
B4
350
FBA
3
B5
350
FBB
3
B6
350
FBC
3
B7
350
FBD
3
B8
350
FBE
3
B9
350
FBF
3
C0
350
FC0
3
C1
350
FC1
3
C2
350
FC2
3
C3
350
FC3
3
C4
350
FC4
3
C5
350
FC5
3
C6
350
FC6
3
C7
350
FC7
3
C8
350
FC8
3
C9
350
FC9
3
D0
350
FCA
3
D1
350
FCB
3
D2
350
FCC
0
DICTIONARY
5
FA8
102
{ACAD_REACTORS
330
13
102
}
330
13
100
AcDbDictionary
281
1
3
Standard
350
FA9
0
DICTIONARY
5
F93
102
{ACAD_REACTORS
330
13
102
}
330
13
100
AcDbDictionary
281
1
3
2dWireframe
350
F99
3
3D Hidden
350
F9B
3
3dWireframe
350
F9A
3
Basic
350
F98
3
Brighten
350
F9F
3
ColorChange
350
FA3
3
Conceptual
350
F9C
3
Dim
350
F9E
3
EdgeColorOff
350
FA6
3
Facepattern
350
FA2
3
Flat
350
F94
3
FlatWithEdges
350
F95
3
Gouraud
350
F96
3
GouraudWithEdges
350
F97
3
JitterOff
350
FA4
3
Linepattern
350
FA1
3
OverhangOff
350
FA5
3
Realistic
350
F9D
3
Thicken
350
FA0
0
XRECORD
5
107E
102
{ACAD_REACTORS
330
13
102
}
330
13
100
AcDbXrecord
280
1
90
1
330
FA9
330
F10018
330
F1001D
330
F10027
330
F1002C
330
F10004
330
F1000E
330
F10009
330
F10013
330
F10022
0
XRECORD
5
F1001A
102
{ACAD_REACTORS
330
F10019
102
}
330
F10019
100
AcDbXrecord
280
1
40
48458.0
1
30
0
XRECORD
5
F1001F
102
{ACAD_REACTORS
330
F1001E
102
}
330
F1001E
100
AcDbXrecord
280
1
40
48458.0
1
40
0
XRECORD
5
F10029
102
{ACAD_REACTORS
330
F10028
102
}
330
F10028
100
AcDbXrecord
280
1
40
48458.0
1
22
0
XRECORD
5
F1002E
102
{ACAD_REACTORS
330
F1002D
102
}
330
F1002D
100
AcDbXrecord
280
1
40
48458.0
1
70
0
XRECORD
5
F10006
102
{ACAD_REACTORS
330
F10005
102
}
330
F10005
100
AcDbXrecord
280
1
40
48458.0
1
2°
0
XRECORD
5
F10010
102
{ACAD_REACTORS
330
F1000F
102
}
330
F1000F
100
AcDbXrecord
280
1
40
48458.0
1
R0.5
0
XRECORD
5
F1000B
102
{ACAD_REACTORS
330
F1000A
102
}
330
F1000A
100
AcDbXrecord
280
1
40
48458.0
1
10
0
XRECORD
5
F10015
102
{ACAD_REACTORS
330
F10014
102
}
330
F10014
100
AcDbXrecord
280
1
40
48458.0
1
9.4
0
LAYOUT
5
FD1
102
{ACAD_XDICTIONARY
360
10A9
102
}
102
{ACAD_REACTORS
330
FCF
102
}
330
FCF
100
AcDbPlotSettings
1

2
Microsoft XPS Document Writer
4

6

40
0.0
41
0.0
42
0.0
43
0.0
44
0.0
45
0.0
46
0.0
47
0.0
48
0.0
49
0.0
140
0.0
141
0.0
142
1.0
143
1.0
70
688
72
0
73
0
74
5
7

75
16
147
1.0
148
0.0
149
0.0
100
AcDbLayout
1
Layout1
70
1
71
1
10
0.0
20
0.0
11
12.0
21
9.0
12
0.0
22
0.0
32
0.0
14
1.000000000000000E+20
24
1.000000000000000E+20
34
1.000000000000000E+20
15
-1.000000000000000E+20
25
-1.000000000000000E+20
35
-1.000000000000000E+20
146
0.0
13
0.0
23
0.0
33
0.0
16
1.0
26
0.0
36
0.0
17
0.0
27
1.0
37
0.0
76
0
330
25D
0
LAYOUT
5
FD0
102
{ACAD_XDICTIONARY
360
10A7
102
}
102
{ACAD_REACTORS
330
FCF
102
}
330
FCF
100
AcDbPlotSettings
1

2
Microsoft XPS Document Writer
4

6

40
0.0
41
0.0
42
0.0
43
0.0
44
0.0
45
0.0
46
0.0
47
0.0
48
0.0
49
0.0
140
0.0
141
0.0
142
1.0
143
1.0
70
1712
72
0
73
0
74
0
7

75
0
147
1.0
148
0.0
149
0.0
100
AcDbLayout
1
Model
70
1
71
0
10
0.0
20
0.0
11
12.0
21
9.0
12
0.0
22
0.0
32
0.0
14
0.0
24
0.0
34
0.0
15
0.0
25
0.0
35
0.0
146
0.0
13
0.0
23
0.0
33
0.0
16
1.0
26
0.0
36
0.0
17
0.0
27
1.0
37
0.0
76
0
330
261
331
26B
0
MATERIAL
5
F83
102
{ACAD_XDICTIONARY
360
F84
102
}
102
{ACAD_REACTORS
330
F7A
102
}
330
F7A
100
AcDbMaterial
1
ByBlock
72
0
43
0.0208333333333333
43
0.0
43
0.0
43
0.0
43
0.0
43
0.0208333333333333
43
0.0
43
0.0
43
0.0
43
0.0
43
1.0
43
0.0
43
0.0
43
0.0
43
0.0
43
1.0
77
0
47
0.0208333333333333
47
0.0
47
0.0
47
0.0
47
0.0
47
0.0208333333333333
47
0.0
47
0.0
47
0.0
47
0.0
47
1.0
47
0.0
47
0.0
47
0.0
47
0.0
47
1.0
171
0
49
0.0208333333333333
49
0.0
49
0.0
49
0.0
49
0.0
49
0.0208333333333333
49
0.0
49
0.0
49
0.0
49
0.0
49
1.0
49
0.0
49
0.0
49
0.0
49
0.0
49
1.0
175
0
142
0.0208333333333333
142
0.0
142
0.0
142
0.0
142
0.0
142
0.0208333333333333
142
0.0
142
0.0
142
0.0
142
0.0
142
1.0
142
0.0
142
0.0
142
0.0
142
0.0
142
1.0
179
0
144
0.0208333333333333
144
0.0
144
0.0
144
0.0
144
0.0
144
0.0208333333333333
144
0.0
144
0.0
144
0.0
144
0.0
144
1.0
144
0.0
144
0.0
144
0.0
144
0.0
144
1.0
147
0.0208333333333333
147
0.0
147
0.0
147
0.0
147
0.0
147
0.0208333333333333
147
0.0
147
0.0
147
0.0
147
0.0
147
1.0
147
0.0
147
0.0
147
0.0
147
0.0
147
1.0
0
MATERIAL
5
F7B
102
{ACAD_XDICTIONARY
360
F7C
102
}
102
{ACAD_REACTORS
330
F7A
102
}
330
F7A
100
AcDbMaterial
1
ByLayer
72
0
43
0.0208333333333333
43
0.0
43
0.0
43
0.0
43
0.0
43
0.0208333333333333
43
0.0
43
0.0
43
0.0
43
0.0
43
1.0
43
0.0
43
0.0
43
0.0
43
0.0
43
1.0
77
0
47
0.0208333333333333
47
0.0
47
0.0
47
0.0
47
0.0
47
0.0208333333333333
47
0.0
47
0.0
47
0.0
47
0.0
47
1.0
47
0.0
47
0.0
47
0.0
47
0.0
47
1.0
171
0
49
0.0208333333333333
49
0.0
49
0.0
49
0.0
49
0.0
49
0.0208333333333333
49
0.0
49
0.0
49
0.0
49
0.0
49
1.0
49
0.0
49
0.0
49
0.0
49
0.0
49
1.0
175
0
142
0.0208333333333333
142
0.0
142
0.0
142
0.0
142
0.0
142
0.0208333333333333
142
0.0
142
0.0
142
0.0
142
0.0
142
1.0
142
0.0
142
0.0
142
0.0
142
0.0
142
1.0
179
0
144
0.0208333333333333
144
0.0
144
0.0
144
0.0
144
0.0
144
0.0208333333333333
144
0.0
144
0.0
144
0.0
144
0.0
144
1.0
144
0.0
144
0.0
144
0.0
144
0.0
144
1.0
147
0.0208333333333333
147
0.0
147
0.0
147
0.0
147
0.0
147
0.0208333333333333
147
0.0
147
0.0
147
0.0
147
0.0
147
1.0
147
0.0
147
0.0
147
0.0
147
0.0
147
1.0
0
MATERIAL
5
F8B
102
{ACAD_XDICTIONARY
360
F8C
102
}
102
{ACAD_REACTORS
330
F7A
102
}
330
F7A
100
AcDbMaterial
1
Global
72
0
43
0.0208333333333333
43
0.0
43
0.0
43
0.0
43
0.0
43
0.0208333333333333
43
0.0
43
0.0
43
0.0
43
0.0
43
1.0
43
0.0
43
0.0
43
0.0
43
0.0
43
1.0
77
0
47
0.0208333333333333
47
0.0
47
0.0
47
0.0
47
0.0
47
0.0208333333333333
47
0.0
47
0.0
47
0.0
47
0.0
47
1.0
47
0.0
47
0.0
47
0.0
47
0.0
47
1.0
171
0
49
0.0208333333333333
49
0.0
49
0.0
49
0.0
49
0.0
49
0.0208333333333333
49
0.0
49
0.0
49
0.0
49
0.0
49
1.0
49
0.0
49
0.0
49
0.0
49
0.0
49
1.0
175
0
142
0.0208333333333333
142
0.0
142
0.0
142
0.0
142
0.0
142
0.0208333333333333
142
0.0
142
0.0
142
0.0
142
0.0
142
1.0
142
0.0
142
0.0
142
0.0
142
0.0
142
1.0
179
0
144
0.0208333333333333
144
0.0
144
0.0
144
0.0
144
0.0
144
0.0208333333333333
144
0.0
144
0.0
144
0.0
144
0.0
144
1.0
144
0.0
144
0.0
144
0.0
144
0.0
144
1.0
147
0.0208333333333333
147
0.0
147
0.0
147
0.0
147
0.0
147
0.0208333333333333
147
0.0
147
0.0
147
0.0
147
0.0
147
1.0
147
0.0
147
0.0
147
0.0
147
0.0
147
1.0
0
MLEADERSTYLE
5
FCE
102
{ACAD_REACTORS
330
FCD
102
}
330
FCD
100
AcDbMLeaderStyle
170
2
171
1
172
0
90
2
40
0.0
41
0.0
173
1
91
-1056964608
340
256
92
-2
290
1
42
0.09
291
1
43
0.36
3
Standard
44
0.18
300

342
253
174
1
178
6
175
1
176
0
93
-1056964608
45
0.18
292
0
297
0
46
0.18
94
-1056964608
47
1.0
49
1.0
140
1.0
293
1
141
0.0
294
1
177
0
142
1.0
295
0
296
0
143
0.125
1001
ACAD_MLEADERVER
1070
2
0
MLINESTYLE
5
FAA
102
{ACAD_REACTORS
330
16
102
}
330
16
100
AcDbMlineStyle
2
STANDARD
70
0
3

62
256
51
90.0
52
90.0
71
2
49
0.5
62
256
6
BYLAYER
49
-0.5
62
256
6
BYLAYER
0
ACDBPLACEHOLDER
5
19
102
{ACAD_REACTORS
330
18
102
}
330
18
0
SCALE
5
FAC
102
{ACAD_REACTORS
330
FAB
102
}
330
FAB
100
AcDbScale
70
0
300
1:1
140
1.0
141
1.0
290
1
0
SCALE
5
FAD
102
{ACAD_REACTORS
330
FAB
102
}
330
FAB
100
AcDbScale
70
0
300
1:2
140
1.0
141
2.0
290
0
0
SCALE
5
FAE
102
{ACAD_REACTORS
330
FAB
102
}
330
FAB
100
AcDbScale
70
0
300
1:4
140
1.0
141
4.0
290
0
0
SCALE
5
FAF
102
{ACAD_REACTORS
330
FAB
102
}
330
FAB
100
AcDbScale
70
0
300
1:5
140
1.0
141
5.0
290
0
0
SCALE
5
FB0
102
{ACAD_REACTORS
330
FAB
102
}
330
FAB
100
AcDbScale
70
0
300
1:8
140
1.0
141
8.0
290
0
0
SCALE
5
FB1
102
{ACAD_REACTORS
330
FAB
102
}
330
FAB
100
AcDbScale
70
0
300
1:10
140
1.0
141
10.0
290
0
0
SCALE
5
FB2
102
{ACAD_REACTORS
330
FAB
102
}
330
FAB
100
AcDbScale
70
0
300
1:16
140
1.0
141
16.0
290
0
0
SCALE
5
FB3
102
{ACAD_REACTORS
330
FAB
102
}
330
FAB
100
AcDbScale
70
0
300
1:20
140
1.0
141
20.0
290
0
0
SCALE
5
FB4
102
{ACAD_REACTORS
330
FAB
102
}
330
FAB
100
AcDbScale
70
0
300
1:30
140
1.0
141
30.0
290
0
0
SCALE
5
FB5
102
{ACAD_REACTORS
330
FAB
102
}
330
FAB
100
AcDbScale
70
0
300
1:40
140
1.0
141
40.0
290
0
0
SCALE
5
FB6
102
{ACAD_REACTORS
330
FAB
102
}
330
FAB
100
AcDbScale
70
0
300
1:50
140
1.0
141
50.0
290
0
0
SCALE
5
FB7
102
{ACAD_REACTORS
330
FAB
102
}
330
FAB
100
AcDbScale
70
0
300
1:100
140
1.0
141
100.0
290
0
0
SCALE
5
FB8
102
{ACAD_REACTORS
330
FAB
102
}
330
FAB
100
AcDbScale
70
0
300
2:1
140
2.0
141
1.0
290
0
0
SCALE
5
FB9
102
{ACAD_REACTORS
330
FAB
102
}
330
FAB
100
AcDbScale
70
0
300
4:1
140
4.0
141
1.0
290
0
0
SCALE
5
FBA
102
{ACAD_REACTORS
330
FAB
102
}
330
FAB
100
AcDbScale
70
0
300
8:1
140
8.0
141
1.0
290
0
0
SCALE
5
FBB
102
{ACAD_REACTORS
330
FAB
102
}
330
FAB
100
AcDbScale
70
0
300
10:1
140
10.0
141
1.0
290
0
0
SCALE
5
FBC
102
{ACAD_REACTORS
330
FAB
102
}
330
FAB
100
AcDbScale
70
0
300
100:1
140
100.0
141
1.0
290
0
0
SCALE
5
FBD
102
{ACAD_REACTORS
330
FAB
102
}
330
FAB
100
AcDbScale
70
0
300
1/128" = 1'-0"
140
0.0078125
141
12.0
290
0
0
SCALE
5
FBE
102
{ACAD_REACTORS
330
FAB
102
}
330
FAB
100
AcDbScale
70
0
300
1/64" = 1'-0"
140
0.015625
141
12.0
290
0
0
SCALE
5
FBF
102
{ACAD_REACTORS
330
FAB
102
}
330
FAB
100
AcDbScale
70
0
300
1/32" = 1'-0"
140
0.03125
141
12.0
290
0
0
SCALE
5
FC0
102
{ACAD_REACTORS
330
FAB
102
}
330
FAB
100
AcDbScale
70
0
300
1/16" = 1'-0"
140
0.0625
141
12.0
290
0
0
SCALE
5
FC1
102
{ACAD_REACTORS
330
FAB
102
}
330
FAB
100
AcDbScale
70
0
300
3/32" = 1'-0"
140
0.09375
141
12.0
290
0
0
SCALE
5
FC2
102
{ACAD_REACTORS
330
FAB
102
}
330
FAB
100
AcDbScale
70
0
300
1/8" = 1'-0"
140
0.125
141
12.0
290
0
0
SCALE
5
FC3
102
{ACAD_REACTORS
330
FAB
102
}
330
FAB
100
AcDbScale
70
0
300
3/16" = 1'-0"
140
0.1875
141
12.0
290
0
0
SCALE
5
FC4
102
{ACAD_REACTORS
330
FAB
102
}
330
FAB
100
AcDbScale
70
0
300
1/4" = 1'-0"
140
0.25
141
12.0
290
0
0
SCALE
5
FC5
102
{ACAD_REACTORS
330
FAB
102
}
330
FAB
100
AcDbScale
70
0
300
3/8" = 1'-0"
140
0.375
141
12.0
290
0
0
SCALE
5
FC6
102
{ACAD_REACTORS
330
FAB
102
}
330
FAB
100
AcDbScale
70
0
300
1/2" = 1'-0"
140
0.5
141
12.0
290
0
0
SCALE
5
FC7
102
{ACAD_REACTORS
330
FAB
102
}
330
FAB
100
AcDbScale
70
0
300
3/4" = 1'-0"
140
0.75
141
12.0
290
0
0
SCALE
5
FC8
102
{ACAD_REACTORS
330
FAB
102
}
330
FAB
100
AcDbScale
70
0
300
1" = 1'-0"
140
1.0
141
12.0
290
0
0
SCALE
5
FC9
102
{ACAD_REACTORS
330
FAB
102
}
330
FAB
100
AcDbScale
70
0
300
1-1/2" = 1'-0"
140
1.5
141
12.0
290
0
0
SCALE
5
FCA
102
{ACAD_REACTORS
330
FAB
102
}
330
FAB
100
AcDbScale
70
0
300
3" = 1'-0"
140
3.0
141
12.0
290
0
0
SCALE
5
FCB
102
{ACAD_REACTORS
330
FAB
102
}
330
FAB
100
AcDbScale
70
0
300
6" = 1'-0"
140
6.0
141
12.0
290
0
0
SCALE
5
FCC
102
{ACAD_REACTORS
330
FAB
102
}
330
FAB
100
AcDbScale
70
0
300
1'-0" = 1'-0"
140
12.0
141
12.0
290
0
0
TABLESTYLE
5
FA9
102
{ACAD_XDICTIONARY
360
FF8
102
}
102
{ACAD_REACTORS
330
FA8
102
}
330
FA8
100
AcDbTableStyle
3
Standard
70
0
71
0
40
0.06
41
0.06
280
0
281
0
7
Standard
140
0.18
170
2
62
0
63
7
283
0
274
-2
284
1
64
0
275
-2
285
1
65
0
276
-2
286
1
66
0
277
-2
287
1
67
0
278
-2
288
1
68
0
279
-2
289
1
69
0
7
Standard
140
0.25
170
5
62
0
63
7
283
0
274
-2
284
1
64
0
275
-2
285
1
65
0
276
-2
286
1
66
0
277
-2
287
1
67
0
278
-2
288
1
68
0
279
-2
289
1
69
0
7
Standard
140
0.18
170
5
62
0
63
7
283
0
274
-2
284
1
64
0
275
-2
285
1
65
0
276
-2
286
1
66
0
277
-2
287
1
67
0
278
-2
288
1
68
0
279
-2
289
1
69
0
0
VISUALSTYLE
5
F99
102
{ACAD_XDICTIONARY
360
108A
102
}
102
{ACAD_REACTORS
330
F93
102
}
330
F93
100
AcDbVisualStyle
2

70
4
71
0
72
2
73
0
90
0
40
-0.6
41
-30.0
62
5
63
7
74
1
91
4
64
7
65
257
75
1
175
1
42
1.0
92
0
66
257
43
1.0
76
1
77
6
78
2
67
7
79
5
170
0
171
0
290
0
174
0
93
1
44
0.0
173
0
291
0
45
0.0
1001
ACAD
1000
AcDbSavedByObjectVersion
1070
0
0
VISUALSTYLE
5
F9B
102
{ACAD_XDICTIONARY
360
108E
102
}
102
{ACAD_REACTORS
330
F93
102
}
330
F93
100
AcDbVisualStyle
2

70
6
71
1
72
2
73
2
90
0
40
-0.6
41
-30.0
62
5
63
7
74
2
91
2
64
7
65
257
75
2
175
1
42
179.0
92
0
66
257
43
1.0
76
1
77
6
78
2
67
7
79
3
170
0
171
0
290
0
174
0
93
1
44
0.0
173
0
291
0
45
0.0
1001
ACAD
1000
AcDbSavedByObjectVersion
1070
0
0
VISUALSTYLE
5
F9A
102
{ACAD_XDICTIONARY
360
108C
102
}
102
{ACAD_REACTORS
330
F93
102
}
330
F93
100
AcDbVisualStyle
2

70
5
71
0
72
2
73
0
90
0
40
-0.6
41
-30.0
62
5
63
7
74
1
91
4
64
7
65
257
75
1
175
1
42
1.0
92
0
66
257
43
1.0
76
1
77
6
78
2
67
7
79
5
170
0
171
0
290
0
174
0
93
1
44
0.0
173
0
291
0
45
0.0
1001
ACAD
1000
AcDbSavedByObjectVersion
1070
0
0
VISUALSTYLE
5
F98
102
{ACAD_XDICTIONARY
360
1088
102
}
102
{ACAD_REACTORS
330
F93
102
}
330
F93
100
AcDbVisualStyle
2

70
7
71
1
72
0
73
1
90
0
40
-0.6
41
-30.0
62
5
63
7
74
0
91
4
64
7
65
257
75
1
175
1
42
1.0
92
8
66
7
43
1.0
76
1
77
6
78
2
67
7
79
5
170
0
171
0
290
0
174
0
93
1
44
0.0
173
0
291
1
45
0.0
1001
ACAD
1000
AcDbSavedByObjectVersion
1070
0
0
VISUALSTYLE
5
F9F
102
{ACAD_XDICTIONARY
360
1096
102
}
102
{ACAD_REACTORS
330
F93
102
}
330
F93
100
AcDbVisualStyle
2

70
12
71
2
72
2
73
0
90
0
40
-0.6
41
-30.0
62
5
63
7
74
1
91
4
64
7
65
257
75
1
175
1
42
1.0
92
8
66
7
43
1.0
76
1
77
6
78
2
67
7
79
5
170
0
171
0
290
0
174
0
93
1
44
50.0
173
0
291
1
45
0.0
1001
ACAD
1000
AcDbSavedByObjectVersion
1070
0
0
VISUALSTYLE
5
FA3
102
{ACAD_XDICTIONARY
360
109E
102
}
102
{ACAD_REACTORS
330
F93
102
}
330
F93
100
AcDbVisualStyle
2

70
16
71
2
72
2
73
3
90
0
40
-0.6
41
-30.0
62
5
63
8
74
1
91
4
64
7
65
257
75
1
175
1
42
1.0
92
8
66
8
43
1.0
76
1
77
6
78
2
67
7
79
5
170
0
171
0
290
0
174
0
93
1
44
0.0
173
0
291
1
45
0.0
1001
ACAD
1000
AcDbSavedByObjectVersion
1070
0
0
VISUALSTYLE
5
F9C
102
{ACAD_XDICTIONARY
360
1090
102
}
102
{ACAD_REACTORS
330
F93
102
}
330
F93
100
AcDbVisualStyle
2

70
9
71
3
72
2
73
0
90
0
40
-0.6
41
-30.0
62
5
63
7
74
2
91
2
64
7
65
257
75
1
175
1
42
179.0
92
8
66
7
43
1.0
76
1
77
6
78
2
67
7
79
3
170
0
171
0
290
0
174
0
93
1
44
0.0
173
0
291
0
45
0.0
1001
ACAD
1000
AcDbSavedByObjectVersion
1070
0
0
VISUALSTYLE
5
F9E
102
{ACAD_XDICTIONARY
360
1094
102
}
102
{ACAD_REACTORS
330
F93
102
}
330
F93
100
AcDbVisualStyle
2

70
11
71
2
72
2
73
0
90
0
40
-0.6
41
-30.0
62
5
63
7
74
1
91
4
64
7
65
257
75
1
175
1
42
1.0
92
8
66
7
43
1.0
76
1
77
6
78
2
67
7
79
5
170
0
171
0
290
0
174
0
93
1
44
-50.0
173
0
291
1
45
0.0
1001
ACAD
1000
AcDbSavedByObjectVersion
1070
0
0
VISUALSTYLE
5
FA6
102
{ACAD_XDICTIONARY
360
10A4
102
}
102
{ACAD_REACTORS
330
F93
102
}
330
F93
100
AcDbVisualStyle
2

70
22
71
2
72
2
73
0
90
0
40
-0.6
41
-30.0
62
5
63
7
74
1
91
4
64
7
65
257
75
1
175
1
42
1.0
92
8
66
7
43
1.0
76
1
77
6
78
2
67
7
79
5
170
0
171
0
290
0
174
0
93
1
44
0.0
173
0
291
1
45
0.0
1001
ACAD
1000
AcDbSavedByObjectVersion
1070
0
0
VISUALSTYLE
5
FA2
102
{ACAD_XDICTIONARY
360
109C
102
}
102
{ACAD_REACTORS
330
F93
102
}
330
F93
100
AcDbVisualStyle
2

70
15
71
2
72
2
73
0
90
0
40
-0.6
41
-30.0
62
5
63
7
74
1
91
4
64
7
65
257
75
1
175
1
42
1.0
92
8
66
7
43
1.0
76
1
77
6
78
2
67
7
79
5
170
0
171
0
290
0
174
0
93
1
44
0.0
173
0
291
1
45
0.0
1001
ACAD
1000
AcDbSavedByObjectVersion
1070
0
0
VISUALSTYLE
5
F94
102
{ACAD_XDICTIONARY
360
1080
102
}
102
{ACAD_REACTORS
330
F93
102
}
330
F93
100
AcDbVisualStyle
2

70
0
71
2
72
1
73
1
90
2
40
-0.6
41
30.0
62
5
63
7
74
0
91
4
64
7
65
257
75
1
175
1
42
1.0
92
8
66
7
43
1.0
76
1
77
6
78
2
67
7
79
5
170
0
171
0
290
0
174
0
93
13
44
0.0
173
0
291
1
45
0.0
1001
ACAD
1000
AcDbSavedByObjectVersion
1070
0
0
VISUALSTYLE
5
F95
102
{ACAD_XDICTIONARY
360
1082
102
}
102
{ACAD_REACTORS
330
F93
102
}
330
F93
100
AcDbVisualStyle
2

70
1
71
2
72
1
73
1
90
2
40
-0.6
41
30.0
62
5
63
7
74
1
91
4
64
7
65
257
75
1
175
1
42
1.0
92
0
66
257
43
1.0
76
1
77
6
78
2
67
7
79
5
170
0
171
0
290
0
174
0
93
13
44
0.0
173
0
291
1
45
0.0
1001
ACAD
1000
AcDbSavedByObjectVersion
1070
0
0
VISUALSTYLE
5
F96
102
{ACAD_XDICTIONARY
360
1084
102
}
102
{ACAD_REACTORS
330
F93
102
}
330
F93
100
AcDbVisualStyle
2

70
2
71
2
72
2
73
1
90
2
40
-0.6
41
30.0
62
5
63
7
74
0
91
4
64
7
65
257
75
1
175
1
42
1.0
92
0
66
7
43
1.0
76
1
77
6
78
2
67
7
79
5
170
0
171
0
290
0
174
0
93
13
44
0.0
173
0
291
1
45
0.0
1001
ACAD
1000
AcDbSavedByObjectVersion
1070
0
0
VISUALSTYLE
5
F97
102
{ACAD_XDICTIONARY
360
1086
102
}
102
{ACAD_REACTORS
330
F93
102
}
330
F93
100
AcDbVisualStyle
2

70
3
71
2
72
2
73
1
90
2
40
-0.6
41
30.0
62
5
63
7
74
1
91
4
64
7
65
257
75
1
175
1
42
1.0
92
0
66
257
43
1.0
76
1
77
6
78
2
67
7
79
5
170
0
171
0
290
0
174
0
93
13
44
0.0
173
0
291
1
45
0.0
1001
ACAD
1000
AcDbSavedByObjectVersion
1070
0
0
VISUALSTYLE
5
FA4
102
{ACAD_XDICTIONARY
360
10A0
102
}
102
{ACAD_REACTORS
330
F93
102
}
330
F93
100
AcDbVisualStyle
2

70
20
71
2
72
2
73
0
90
0
40
-0.6
41
-30.0
62
5
63
7
74
1
91
4
64
7
65
257
75
1
175
1
42
1.0
92
10
66
7
43
1.0
76
1
77
6
78
2
67
7
79
5
170
0
171
0
290
0
174
0
93
1
44
0.0
173
0
291
1
45
0.0
1001
ACAD
1000
AcDbSavedByObjectVersion
1070
0
0
VISUALSTYLE
5
FA1
102
{ACAD_XDICTIONARY
360
109A
102
}
102
{ACAD_REACTORS
330
F93
102
}
330
F93
100
AcDbVisualStyle
2

70
14
71
2
72
2
73
0
90
0
40
-0.6
41
-30.0
62
5
63
7
74
1
91
4
64
7
65
257
75
7
175
7
42
1.0
92
8
66
7
43
1.0
76
1
77
6
78
2
67
7
79
5
170
0
171
0
290
0
174
0
93
1
44
0.0
173
0
291
1
45
0.0
1001
ACAD
1000
AcDbSavedByObjectVersion
1070
0
0
VISUALSTYLE
5
FA5
102
{ACAD_XDICTIONARY
360
10A2
102
}
102
{ACAD_REACTORS
330
F93
102
}
330
F93
100
AcDbVisualStyle
2

70
21
71
2
72
2
73
0
90
0
40
-0.6
41
-30.0
62
5
63
7
74
1
91
4
64
7
65
257
75
1
175
1
42
1.0
92
9
66
7
43
1.0
76
1
77
6
78
2
67
7
79
5
170
0
171
0
290
0
174
0
93
1
44
0.0
173
0
291
1
45
0.0
1001
ACAD
1000
AcDbSavedByObjectVersion
1070
0
0
VISUALSTYLE
5
F9D
102
{ACAD_XDICTIONARY
360
1092
102
}
102
{ACAD_REACTORS
330
F93
102
}
330
F93
100
AcDbVisualStyle
2

70
8
71
2
72
2
73
0
90
0
40
-0.6
41
-30.0
62
5
63
7
74
1
91
0
64
7
65
257
75
1
175
1
42
1.0
92
8
66
8
43
1.0
76
1
77
6
78
2
67
7
79
5
170
0
171
0
290
0
174
0
93
13
44
0.0
173
0
291
0
45
0.0
1001
ACAD
1000
AcDbSavedByObjectVersion
1070
0
0
VISUALSTYLE
5
FA0
102
{ACAD_XDICTIONARY
360
1098
102
}
102
{ACAD_REACTORS
330
F93
102
}
330
F93
100
AcDbVisualStyle
2

70
13
71
2
72
2
73
0
90
0
40
-0.6
41
-30.0
62
5
63
7
74
1
91
4
64
7
65
257
75
1
175
1
42
1.0
92
12
66
7
43
1.0
76
1
77
6
78
2
67
7
79
5
170
0
171
0
290
0
174
0
93
1
44
0.0
173
0
291
1
45
0.0
1001
ACAD
1000
AcDbSavedByObjectVersion
1070
0
0
DICTIONARYVAR
5
FF3
102
{ACAD_REACTORS
330
FF0
102
}
330
FF0
100
DictionaryVariables
280
0
1
1:1
0
DICTIONARYVAR
5
FF2
102
{ACAD_REACTORS
330
FF0
102
}
330
FF0
100
DictionaryVariables
280
0
1
STANDARD
0
DICTIONARYVAR
5
FF1
102
{ACAD_REACTORS
330
FF0
102
}
330
FF0
100
DictionaryVariables
280
0
1
STANDARD
0
DICTIONARYVAR
5
FF6
102
{ACAD_REACTORS
330
FF0
102
}
330
FF0
100
DictionaryVariables
280
0
1
1
0
DICTIONARYVAR
5
FF5
102
{ACAD_REACTORS
330
FF0
102
}
330
FF0
100
DictionaryVariables
280
0
1
0
0
DICTIONARYVAR
5
FF4
102
{ACAD_REACTORS
330
FF0
102
}
330
FF0
100
DictionaryVariables
280
0
1
127
0
DICTIONARYVAR
5
1078
102
{ACAD_REACTORS
330
FF0
102
}
330
FF0
100
DictionaryVariables
280
0
1
2
0
DICTIONARY
5
10A9
330
FD1
100
AcDbDictionary
280
1
281
1
3
ACAD_XREC_ROUNDTRIP
360
10AA
0
DICTIONARY
5
10A7
330
FD0
100
AcDbDictionary
280
1
281
1
3
ACAD_XREC_ROUNDTRIP
360
10A8
0
DICTIONARY
5
F84
330
F83
100
AcDbDictionary
280
1
281
1
3
ACAD_XREC_ROUNDTRIP
360
FFF
3
BUMPTILE
360
F86
3
DIFFUSETILE
360
F85
3
OPACITYTILE
360
F89
3
REFLECTIONTILE
360
F88
3
REFRACTIONTILE
360
F8A
3
SPECULARTILE
360
F87
0
DICTIONARY
5
F7C
330
F7B
100
AcDbDictionary
280
1
281
1
3
ACAD_XREC_ROUNDTRIP
360
FFE
3
BUMPTILE
360
F7E
3
DIFFUSETILE
360
F7D
3
OPACITYTILE
360
F81
3
REFLECTIONTILE
360
F80
3
REFRACTIONTILE
360
F82
3
SPECULARTILE
360
F7F
0
DICTIONARY
5
F8C
330
F8B
100
AcDbDictionary
280
1
281
1
3
ACAD_XREC_ROUNDTRIP
360
1000
3
BUMPTILE
360
F8E
3
DIFFUSETILE
360
F8D
3
OPACITYTILE
360
F91
3
REFLECTIONTILE
360
F90
3
REFRACTIONTILE
360
F92
3
SPECULARTILE
360
F8F
0
DICTIONARY
5
FF8
330
FA9
100
AcDbDictionary
280
1
281
1
3
ACAD_ROUNDTRIP_2008_TABLESTYLE_CELLSTYLEMAP
360
1079
3
ACAD_XREC_ROUNDTRIP
360
10A6
0
DICTIONARY
5
108A
330
F99
100
AcDbDictionary
280
1
281
1
3
ACAD_XREC_ROUNDTRIP
360
108B
0
DICTIONARY
5
108E
330
F9B
100
AcDbDictionary
280
1
281
1
3
ACAD_XREC_ROUNDTRIP
360
108F
0
DICTIONARY
5
108C
330
F9A
100
AcDbDictionary
280
1
281
1
3
ACAD_XREC_ROUNDTRIP
360
108D
0
DICTIONARY
5
1088
330
F98
100
AcDbDictionary
280
1
281
1
3
ACAD_XREC_ROUNDTRIP
360
1089
0
DICTIONARY
5
1096
330
F9F
100
AcDbDictionary
280
1
281
1
3
ACAD_XREC_ROUNDTRIP
360
1097
0
DICTIONARY
5
109E
330
FA3
100
AcDbDictionary
280
1
281
1
3
ACAD_XREC_ROUNDTRIP
360
109F
0
DICTIONARY
5
1090
330
F9C
100
AcDbDictionary
280
1
281
1
3
ACAD_XREC_ROUNDTRIP
360
1091
0
DICTIONARY
5
1094
330
F9E
100
AcDbDictionary
280
1
281
1
3
ACAD_XREC_ROUNDTRIP
360
1095
0
DICTIONARY
5
10A4
330
FA6
100
AcDbDictionary
280
1
281
1
3
ACAD_XREC_ROUNDTRIP
360
10A5
0
DICTIONARY
5
109C
330
FA2
100
AcDbDictionary
280
1
281
1
3
ACAD_XREC_ROUNDTRIP
360
109D
0
DICTIONARY
5
1080
330
F94
100
AcDbDictionary
280
1
281
1
3
ACAD_XREC_ROUNDTRIP
360
1081
0
DICTIONARY
5
1082
330
F95
100
AcDbDictionary
280
1
281
1
3
ACAD_XREC_ROUNDTRIP
360
1083
0
DICTIONARY
5
1084
330
F96
100
AcDbDictionary
280
1
281
1
3
ACAD_XREC_ROUNDTRIP
360
1085
0
DICTIONARY
5
1086
330
F97
100
AcDbDictionary
280
1
281
1
3
ACAD_XREC_ROUNDTRIP
360
1087
0
DICTIONARY
5
10A0
330
FA4
100
AcDbDictionary
280
1
281
1
3
ACAD_XREC_ROUNDTRIP
360
10A1
0
DICTIONARY
5
109A
330
FA1
100
AcDbDictionary
280
1
281
1
3
ACAD_XREC_ROUNDTRIP
360
109B
0
DICTIONARY
5
10A2
330
FA5
100
AcDbDictionary
280
1
281
1
3
ACAD_XREC_ROUNDTRIP
360
10A3
0
DICTIONARY
5
1092
330
F9D
100
AcDbDictionary
280
1
281
1
3
ACAD_XREC_ROUNDTRIP
360
1093
0
DICTIONARY
5
1098
330
FA0
100
AcDbDictionary
280
1
281
1
3
ACAD_XREC_ROUNDTRIP
360
1099
0
XRECORD
5
10AA
102
{ACAD_REACTORS
330
10A9
102
}
330
10A9
100
AcDbXrecord
280
1
102
SHADEPLOT
70
0
102
SHADEPLOTRESLEVEL
70
2
102
SHADEPLOTCUSTOMDPI
70
300
0
XRECORD
5
10A8
102
{ACAD_REACTORS
330
10A7
102
}
330
10A7
100
AcDbXrecord
280
1
102
SHADEPLOT
70
0
102
SHADEPLOTRESLEVEL
70
2
102
SHADEPLOTCUSTOMDPI
70
300
0
XRECORD
5
FFF
102
{ACAD_REACTORS
330
F84
102
}
330
F84
100
AcDbXrecord
280
1
102
MATERIAL
148
0.0
149
0.0
149
0.0
93
0
94
127
282
0
72
0
77
0
171
0
175
0
179
0
273
0
0
XRECORD
5
F86
102
{ACAD_REACTORS
330
F84
102
}
330
F84
100
AcDbXrecord
280
1
270
1
271
1
0
XRECORD
5
F85
102
{ACAD_REACTORS
330
F84
102
}
330
F84
100
AcDbXrecord
280
1
270
1
271
1
0
XRECORD
5
F89
102
{ACAD_REACTORS
330
F84
102
}
330
F84
100
AcDbXrecord
280
1
270
1
271
1
0
XRECORD
5
F88
102
{ACAD_REACTORS
330
F84
102
}
330
F84
100
AcDbXrecord
280
1
270
1
271
1
0
XRECORD
5
F8A
102
{ACAD_REACTORS
330
F84
102
}
330
F84
100
AcDbXrecord
280
1
270
1
271
1
0
XRECORD
5
F87
102
{ACAD_REACTORS
330
F84
102
}
330
F84
100
AcDbXrecord
280
1
270
1
271
1
0
XRECORD
5
FFE
102
{ACAD_REACTORS
330
F7C
102
}
330
F7C
100
AcDbXrecord
280
1
102
MATERIAL
148
0.0
149
0.0
149
0.0
93
0
94
127
282
0
72
0
77
0
171
0
175
0
179
0
273
0
0
XRECORD
5
F7E
102
{ACAD_REACTORS
330
F7C
102
}
330
F7C
100
AcDbXrecord
280
1
270
1
271
1
0
XRECORD
5
F7D
102
{ACAD_REACTORS
330
F7C
102
}
330
F7C
100
AcDbXrecord
280
1
270
1
271
1
0
XRECORD
5
F81
102
{ACAD_REACTORS
330
F7C
102
}
330
F7C
100
AcDbXrecord
280
1
270
1
271
1
0
XRECORD
5
F80
102
{ACAD_REACTORS
330
F7C
102
}
330
F7C
100
AcDbXrecord
280
1
270
1
271
1
0
XRECORD
5
F82
102
{ACAD_REACTORS
330
F7C
102
}
330
F7C
100
AcDbXrecord
280
1
270
1
271
1
0
XRECORD
5
F7F
102
{ACAD_REACTORS
330
F7C
102
}
330
F7C
100
AcDbXrecord
280
1
270
1
271
1
0
XRECORD
5
1000
102
{ACAD_REACTORS
330
F8C
102
}
330
F8C
100
AcDbXrecord
280
1
102
MATERIAL
148
0.0
149
0.0
149
0.0
93
0
94
127
282
0
72
0
77
0
171
0
175
0
179
0
273
0
0
XRECORD
5
F8E
102
{ACAD_REACTORS
330
F8C
102
}
330
F8C
100
AcDbXrecord
280
1
270
1
271
1
0
XRECORD
5
F8D
102
{ACAD_REACTORS
330
F8C
102
}
330
F8C
100
AcDbXrecord
280
1
270
1
271
1
0
XRECORD
5
F91
102
{ACAD_REACTORS
330
F8C
102
}
330
F8C
100
AcDbXrecord
280
1
270
1
271
1
0
XRECORD
5
F90
102
{ACAD_REACTORS
330
F8C
102
}
330
F8C
100
AcDbXrecord
280
1
270
1
271
1
0
XRECORD
5
F92
102
{ACAD_REACTORS
330
F8C
102
}
330
F8C
100
AcDbXrecord
280
1
270
1
271
1
0
XRECORD
5
F8F
102
{ACAD_REACTORS
330
F8C
102
}
330
F8C
100
AcDbXrecord
280
1
270
1
271
1
0
CELLSTYLEMAP
5
1079
102
{ACAD_REACTORS
330
FF8
102
}
330
FF8
100
AcDbCellStyleMap
90
3
300
CELLSTYLE
1
TABLEFORMAT_BEGIN
90
5
170
1
91
0
92
32768
62
257
93
1
300
CONTENTFORMAT
1
CONTENTFORMAT_BEGIN
90
0
91
0
92
512
93
0
300

40
0.0
140
1.0
94
5
62
0
340
253
144
0.25
309
CONTENTFORMAT_END
171
1
301
MARGIN
1
CELLMARGIN_BEGIN
40
0.06
40
0.06
40
0.06
40
0.06
40
0.18
40
0.18
309
CELLMARGIN_END
94
6
95
1
302
GRIDFORMAT
1
GRIDFORMAT_BEGIN
90
0
91
1
62
0
92
-2
340
0
93
0
40
0.045
309
GRIDFORMAT_END
95
2
302
GRIDFORMAT
1
GRIDFORMAT_BEGIN
90
0
91
1
62
0
92
-2
340
0
93
0
40
0.045
309
GRIDFORMAT_END
95
4
302
GRIDFORMAT
1
GRIDFORMAT_BEGIN
90
0
91
1
62
0
92
-2
340
0
93
0
40
0.045
309
GRIDFORMAT_END
95
8
302
GRIDFORMAT
1
GRIDFORMAT_BEGIN
90
0
91
1
62
0
92
-2
340
0
93
0
40
0.045
309
GRIDFORMAT_END
95
16
302
GRIDFORMAT
1
GRIDFORMAT_BEGIN
90
0
91
1
62
0
92
-2
340
0
93
0
40
0.045
309
GRIDFORMAT_END
95
32
302
GRIDFORMAT
1
GRIDFORMAT_BEGIN
90
0
91
1
62
0
92
-2
340
0
93
0
40
0.045
309
GRIDFORMAT_END
309
TABLEFORMAT_END
1
CELLSTYLE_BEGIN
90
1
91
1
300
_TITLE
309
CELLSTYLE_END
300
CELLSTYLE
1
TABLEFORMAT_BEGIN
90
5
170
1
91
0
92
0
62
257
93
1
300
CONTENTFORMAT
1
CONTENTFORMAT_BEGIN
90
0
91
0
92
512
93
0
300

40
0.0
140
1.0
94
5
62
0
340
253
144
0.18
309
CONTENTFORMAT_END
171
1
301
MARGIN
1
CELLMARGIN_BEGIN
40
0.06
40
0.06
40
0.06
40
0.06
40
0.18
40
0.18
309
CELLMARGIN_END
94
6
95
1
302
GRIDFORMAT
1
GRIDFORMAT_BEGIN
90
0
91
1
62
0
92
-2
340
0
93
0
40
0.045
309
GRIDFORMAT_END
95
2
302
GRIDFORMAT
1
GRIDFORMAT_BEGIN
90
0
91
1
62
0
92
-2
340
0
93
0
40
0.045
309
GRIDFORMAT_END
95
4
302
GRIDFORMAT
1
GRIDFORMAT_BEGIN
90
0
91
1
62
0
92
-2
340
0
93
0
40
0.045
309
GRIDFORMAT_END
95
8
302
GRIDFORMAT
1
GRIDFORMAT_BEGIN
90
0
91
1
62
0
92
-2
340
0
93
0
40
0.045
309
GRIDFORMAT_END
95
16
302
GRIDFORMAT
1
GRIDFORMAT_BEGIN
90
0
91
1
62
0
92
-2
340
0
93
0
40
0.045
309
GRIDFORMAT_END
95
32
302
GRIDFORMAT
1
GRIDFORMAT_BEGIN
90
0
91
1
62
0
92
-2
340
0
93
0
40
0.045
309
GRIDFORMAT_END
309
TABLEFORMAT_END
1
CELLSTYLE_BEGIN
90
2
91
1
300
_HEADER
309
CELLSTYLE_END
300
CELLSTYLE
1
TABLEFORMAT_BEGIN
90
5
170
1
91
0
92
0
62
257
93
1
300
CONTENTFORMAT
1
CONTENTFORMAT_BEGIN
90
0
91
0
92
512
93
0
300

40
0.0
140
1.0
94
2
62
0
340
253
144
0.18
309
CONTENTFORMAT_END
171
1
301
MARGIN
1
CELLMARGIN_BEGIN
40
0.06
40
0.06
40
0.06
40
0.06
40
0.18
40
0.18
309
CELLMARGIN_END
94
6
95
1
302
GRIDFORMAT
1
GRIDFORMAT_BEGIN
90
0
91
1
62
0
92
-2
340
0
93
0
40
0.045
309
GRIDFORMAT_END
95
2
302
GRIDFORMAT
1
GRIDFORMAT_BEGIN
90
0
91
1
62
0
92
-2
340
0
93
0
40
0.045
309
GRIDFORMAT_END
95
4
302
GRIDFORMAT
1
GRIDFORMAT_BEGIN
90
0
91
1
62
0
92
-2
340
0
93
0
40
0.045
309
GRIDFORMAT_END
95
8
302
GRIDFORMAT
1
GRIDFORMAT_BEGIN
90
0
91
1
62
0
92
-2
340
0
93
0
40
0.045
309
GRIDFORMAT_END
95
16
302
GRIDFORMAT
1
GRIDFORMAT_BEGIN
90
0
91
1
62
0
92
-2
340
0
93
0
40
0.045
309
GRIDFORMAT_END
95
32
302
GRIDFORMAT
1
GRIDFORMAT_BEGIN
90
0
91
1
62
0
92
-2
340
0
93
0
40
0.045
309
GRIDFORMAT_END
309
TABLEFORMAT_END
1
CELLSTYLE_BEGIN
90
3
91
2
300
_DATA
309
CELLSTYLE_END
0
XRECORD
5
10A6
102
{ACAD_REACTORS
330
FF8
102
}
330
FF8
100
AcDbXrecord
280
1
102
ACAD_ROUNDTRIP_PRE2007_TABLESTYLE
90
512
91
0
1

92
512
93
0
2

94
512
95
0
3

0
XRECORD
5
108B
102
{ACAD_REACTORS
330
108A
102
}
330
108A
100
AcDbXrecord
280
1
102
RTVSPropertyOp0
70
1
102
RTVSPropertyOp1
70
1
102
RTVSPropertyOp2
70
1
102
RTVSPropertyOp3
70
1
102
RTVSPropertyOp4
70
1
102
RTVSPropertyOp5
70
1
102
RTVSPropertyOp6
70
1
102
RTVSPropertyOp7
70
1
102
RTVSPropertyOp8
70
1
102
RTVSPropertyOp9
70
1
102
RTVSPropertyOp10
70
1
102
RTVSPropertyOp11
70
1
102
RTVSPropertyOp12
70
1
102
RTVSPropertyOp13
70
1
102
RTVSPropertyOp14
70
1
102
RTVSPropertyOp15
70
1
102
RTVSPropertyOp16
70
1
102
RTVSPropertyOp17
70
1
102
RTVSPropertyOp18
70
1
102
RTVSPropertyOp19
70
1
102
RTVSPropertyOp20
70
1
102
RTVSPropertyOp21
70
1
102
RTVSPropertyOp22
70
1
102
RTVSPropertyOp23
70
1
102
RTVSPropertyOp24
70
1
102
RTVSPropertyOp25
70
1
102
RTVSPropertyOp26
70
1
102
RTVSPropertyOp27
70
1
0
XRECORD
5
108F
102
{ACAD_REACTORS
330
108E
102
}
330
108E
100
AcDbXrecord
280
1
102
RTVSPropertyOp0
70
1
102
RTVSPropertyOp1
70
1
102
RTVSPropertyOp2
70
1
102
RTVSPropertyOp3
70
1
102
RTVSPropertyOp4
70
1
102
RTVSPropertyOp5
70
1
102
RTVSPropertyOp6
70
1
102
RTVSPropertyOp7
70
1
102
RTVSPropertyOp8
70
1
102
RTVSPropertyOp9
70
1
102
RTVSPropertyOp10
70
1
102
RTVSPropertyOp11
70
1
102
RTVSPropertyOp12
70
1
102
RTVSPropertyOp13
70
1
102
RTVSPropertyOp14
70
1
102
RTVSPropertyOp15
70
1
102
RTVSPropertyOp16
70
1
102
RTVSPropertyOp17
70
1
102
RTVSPropertyOp18
70
1
102
RTVSPropertyOp19
70
1
102
RTVSPropertyOp20
70
1
102
RTVSPropertyOp21
70
1
102
RTVSPropertyOp22
70
1
102
RTVSPropertyOp23
70
1
102
RTVSPropertyOp24
70
1
102
RTVSPropertyOp25
70
1
102
RTVSPropertyOp26
70
1
102
RTVSPropertyOp27
70
1
0
XRECORD
5
108D
102
{ACAD_REACTORS
330
108C
102
}
330
108C
100
AcDbXrecord
280
1
102
RTVSPropertyOp0
70
1
102
RTVSPropertyOp1
70
1
102
RTVSPropertyOp2
70
1
102
RTVSPropertyOp3
70
1
102
RTVSPropertyOp4
70
1
102
RTVSPropertyOp5
70
1
102
RTVSPropertyOp6
70
1
102
RTVSPropertyOp7
70
1
102
RTVSPropertyOp8
70
1
102
RTVSPropertyOp9
70
1
102
RTVSPropertyOp10
70
1
102
RTVSPropertyOp11
70
1
102
RTVSPropertyOp12
70
1
102
RTVSPropertyOp13
70
1
102
RTVSPropertyOp14
70
1
102
RTVSPropertyOp15
70
1
102
RTVSPropertyOp16
70
1
102
RTVSPropertyOp17
70
1
102
RTVSPropertyOp18
70
1
102
RTVSPropertyOp19
70
1
102
RTVSPropertyOp20
70
1
102
RTVSPropertyOp21
70
1
102
RTVSPropertyOp22
70
1
102
RTVSPropertyOp23
70
1
102
RTVSPropertyOp24
70
1
102
RTVSPropertyOp25
70
1
102
RTVSPropertyOp26
70
1
102
RTVSPropertyOp27
70
1
0
XRECORD
5
1089
102
{ACAD_REACTORS
330
1088
102
}
330
1088
100
AcDbXrecord
280
1
102
RTVSPropertyOp0
70
1
102
RTVSPropertyOp1
70
1
102
RTVSPropertyOp2
70
1
102
RTVSPropertyOp3
70
1
102
RTVSPropertyOp4
70
1
102
RTVSPropertyOp5
70
1
102
RTVSPropertyOp6
70
1
102
RTVSPropertyOp7
70
1
102
RTVSPropertyOp8
70
1
102
RTVSPropertyOp9
70
1
102
RTVSPropertyOp10
70
1
102
RTVSPropertyOp11
70
1
102
RTVSPropertyOp12
70
1
102
RTVSPropertyOp13
70
1
102
RTVSPropertyOp14
70
1
102
RTVSPropertyOp15
70
1
102
RTVSPropertyOp16
70
1
102
RTVSPropertyOp17
70
1
102
RTVSPropertyOp18
70
1
102
RTVSPropertyOp19
70
1
102
RTVSPropertyOp20
70
1
102
RTVSPropertyOp21
70
1
102
RTVSPropertyOp22
70
1
102
RTVSPropertyOp23
70
1
102
RTVSPropertyOp24
70
1
102
RTVSPropertyOp25
70
1
102
RTVSPropertyOp26
70
1
102
RTVSPropertyOp27
70
1
0
XRECORD
5
1097
102
{ACAD_REACTORS
330
1096
102
}
330
1096
100
AcDbXrecord
280
1
102
RTVSPropertyOp0
70
1
102
RTVSPropertyOp1
70
1
102
RTVSPropertyOp2
70
1
102
RTVSPropertyOp3
70
1
102
RTVSPropertyOp4
70
1
102
RTVSPropertyOp5
70
1
102
RTVSPropertyOp6
70
1
102
RTVSPropertyOp7
70
1
102
RTVSPropertyOp8
70
1
102
RTVSPropertyOp9
70
1
102
RTVSPropertyOp10
70
1
102
RTVSPropertyOp11
70
1
102
RTVSPropertyOp12
70
1
102
RTVSPropertyOp13
70
1
102
RTVSPropertyOp14
70
1
102
RTVSPropertyOp15
70
1
102
RTVSPropertyOp16
70
1
102
RTVSPropertyOp17
70
1
102
RTVSPropertyOp18
70
1
102
RTVSPropertyOp19
70
1
102
RTVSPropertyOp20
70
1
102
RTVSPropertyOp21
70
1
102
RTVSPropertyOp22
70
1
102
RTVSPropertyOp23
70
1
102
RTVSPropertyOp24
70
1
102
RTVSPropertyOp25
70
1
102
RTVSPropertyOp26
70
1
102
RTVSPropertyOp27
70
1
0
XRECORD
5
109F
102
{ACAD_REACTORS
330
109E
102
}
330
109E
100
AcDbXrecord
280
1
102
RTVSPropertyOp0
70
1
102
RTVSPropertyOp1
70
1
102
RTVSPropertyOp2
70
1
102
RTVSPropertyOp3
70
1
102
RTVSPropertyOp4
70
1
102
RTVSPropertyOp5
70
1
102
RTVSPropertyOp6
70
1
102
RTVSPropertyOp7
70
1
102
RTVSPropertyOp8
70
1
102
RTVSPropertyOp9
70
1
102
RTVSPropertyOp10
70
1
102
RTVSPropertyOp11
70
1
102
RTVSPropertyOp12
70
1
102
RTVSPropertyOp13
70
1
102
RTVSPropertyOp14
70
1
102
RTVSPropertyOp15
70
1
102
RTVSPropertyOp16
70
1
102
RTVSPropertyOp17
70
1
102
RTVSPropertyOp18
70
1
102
RTVSPropertyOp19
70
1
102
RTVSPropertyOp20
70
1
102
RTVSPropertyOp21
70
1
102
RTVSPropertyOp22
70
1
102
RTVSPropertyOp23
70
1
102
RTVSPropertyOp24
70
1
102
RTVSPropertyOp25
70
1
102
RTVSPropertyOp26
70
1
102
RTVSPropertyOp27
70
1
0
XRECORD
5
1091
102
{ACAD_REACTORS
330
1090
102
}
330
1090
100
AcDbXrecord
280
1
102
RTVSPropertyOp0
70
1
102
RTVSPropertyOp1
70
1
102
RTVSPropertyOp2
70
1
102
RTVSPropertyOp3
70
1
102
RTVSPropertyOp4
70
1
102
RTVSPropertyOp5
70
1
102
RTVSPropertyOp6
70
1
102
RTVSPropertyOp7
70
1
102
RTVSPropertyOp8
70
1
102
RTVSPropertyOp9
70
1
102
RTVSPropertyOp10
70
1
102
RTVSPropertyOp11
70
1
102
RTVSPropertyOp12
70
1
102
RTVSPropertyOp13
70
1
102
RTVSPropertyOp14
70
1
102
RTVSPropertyOp15
70
1
102
RTVSPropertyOp16
70
1
102
RTVSPropertyOp17
70
1
102
RTVSPropertyOp18
70
1
102
RTVSPropertyOp19
70
1
102
RTVSPropertyOp20
70
1
102
RTVSPropertyOp21
70
1
102
RTVSPropertyOp22
70
1
102
RTVSPropertyOp23
70
1
102
RTVSPropertyOp24
70
1
102
RTVSPropertyOp25
70
1
102
RTVSPropertyOp26
70
1
102
RTVSPropertyOp27
70
1
0
XRECORD
5
1095
102
{ACAD_REACTORS
330
1094
102
}
330
1094
100
AcDbXrecord
280
1
102
RTVSPropertyOp0
70
1
102
RTVSPropertyOp1
70
1
102
RTVSPropertyOp2
70
1
102
RTVSPropertyOp3
70
1
102
RTVSPropertyOp4
70
1
102
RTVSPropertyOp5
70
1
102
RTVSPropertyOp6
70
1
102
RTVSPropertyOp7
70
1
102
RTVSPropertyOp8
70
1
102
RTVSPropertyOp9
70
1
102
RTVSPropertyOp10
70
1
102
RTVSPropertyOp11
70
1
102
RTVSPropertyOp12
70
1
102
RTVSPropertyOp13
70
1
102
RTVSPropertyOp14
70
1
102
RTVSPropertyOp15
70
1
102
RTVSPropertyOp16
70
1
102
RTVSPropertyOp17
70
1
102
RTVSPropertyOp18
70
1
102
RTVSPropertyOp19
70
1
102
RTVSPropertyOp20
70
1
102
RTVSPropertyOp21
70
1
102
RTVSPropertyOp22
70
1
102
RTVSPropertyOp23
70
1
102
RTVSPropertyOp24
70
1
102
RTVSPropertyOp25
70
1
102
RTVSPropertyOp26
70
1
102
RTVSPropertyOp27
70
1
0
XRECORD
5
10A5
102
{ACAD_REACTORS
330
10A4
102
}
330
10A4
100
AcDbXrecord
280
1
102
RTVSPropertyOp0
70
0
102
RTVSPropertyOp1
70
0
102
RTVSPropertyOp2
70
0
102
RTVSPropertyOp3
70
0
102
RTVSPropertyOp4
70
0
102
RTVSPropertyOp5
70
0
102
RTVSPropertyOp6
70
0
102
RTVSPropertyOp7
70
0
102
RTVSPropertyOp8
70
0
102
RTVSPropertyOp9
70
0
102
RTVSPropertyOp10
70
0
102
RTVSPropertyOp11
70
0
102
RTVSPropertyOp12
70
0
102
RTVSPropertyOp13
70
0
102
RTVSPropertyOp14
70
2
102
RTVSPropertyOp15
70
0
102
RTVSPropertyOp16
70
0
102
RTVSPropertyOp17
70
0
102
RTVSPropertyOp18
70
0
102
RTVSPropertyOp19
70
0
102
RTVSPropertyOp20
70
0
102
RTVSPropertyOp21
70
0
102
RTVSPropertyOp22
70
0
102
RTVSPropertyOp23
70
0
102
RTVSPropertyOp24
70
0
102
RTVSPropertyOp25
70
0
102
RTVSPropertyOp26
70
0
102
RTVSPropertyOp27
70
0
0
XRECORD
5
109D
102
{ACAD_REACTORS
330
109C
102
}
330
109C
100
AcDbXrecord
280
1
102
RTVSPropertyOp0
70
1
102
RTVSPropertyOp1
70
1
102
RTVSPropertyOp2
70
1
102
RTVSPropertyOp3
70
1
102
RTVSPropertyOp4
70
1
102
RTVSPropertyOp5
70
1
102
RTVSPropertyOp6
70
1
102
RTVSPropertyOp7
70
1
102
RTVSPropertyOp8
70
1
102
RTVSPropertyOp9
70
1
102
RTVSPropertyOp10
70
1
102
RTVSPropertyOp11
70
1
102
RTVSPropertyOp12
70
1
102
RTVSPropertyOp13
70
1
102
RTVSPropertyOp14
70
1
102
RTVSPropertyOp15
70
1
102
RTVSPropertyOp16
70
1
102
RTVSPropertyOp17
70
1
102
RTVSPropertyOp18
70
1
102
RTVSPropertyOp19
70
1
102
RTVSPropertyOp20
70
1
102
RTVSPropertyOp21
70
1
102
RTVSPropertyOp22
70
1
102
RTVSPropertyOp23
70
1
102
RTVSPropertyOp24
70
1
102
RTVSPropertyOp25
70
1
102
RTVSPropertyOp26
70
1
102
RTVSPropertyOp27
70
1
0
XRECORD
5
1081
102
{ACAD_REACTORS
330
1080
102
}
330
1080
100
AcDbXrecord
280
1
102
RTVSPropertyOp0
70
1
102
RTVSPropertyOp1
70
1
102
RTVSPropertyOp2
70
1
102
RTVSPropertyOp3
70
1
102
RTVSPropertyOp4
70
1
102
RTVSPropertyOp5
70
1
102
RTVSPropertyOp6
70
1
102
RTVSPropertyOp7
70
1
102
RTVSPropertyOp8
70
1
102
RTVSPropertyOp9
70
1
102
RTVSPropertyOp10
70
1
102
RTVSPropertyOp11
70
1
102
RTVSPropertyOp12
70
1
102
RTVSPropertyOp13
70
1
102
RTVSPropertyOp14
70
1
102
RTVSPropertyOp15
70
1
102
RTVSPropertyOp16
70
1
102
RTVSPropertyOp17
70
1
102
RTVSPropertyOp18
70
1
102
RTVSPropertyOp19
70
1
102
RTVSPropertyOp20
70
1
102
RTVSPropertyOp21
70
1
102
RTVSPropertyOp22
70
1
102
RTVSPropertyOp23
70
1
102
RTVSPropertyOp24
70
1
102
RTVSPropertyOp25
70
1
102
RTVSPropertyOp26
70
1
102
RTVSPropertyOp27
70
1
0
XRECORD
5
1083
102
{ACAD_REACTORS
330
1082
102
}
330
1082
100
AcDbXrecord
280
1
102
RTVSPropertyOp0
70
1
102
RTVSPropertyOp1
70
1
102
RTVSPropertyOp2
70
1
102
RTVSPropertyOp3
70
1
102
RTVSPropertyOp4
70
1
102
RTVSPropertyOp5
70
1
102
RTVSPropertyOp6
70
1
102
RTVSPropertyOp7
70
1
102
RTVSPropertyOp8
70
1
102
RTVSPropertyOp9
70
1
102
RTVSPropertyOp10
70
1
102
RTVSPropertyOp11
70
1
102
RTVSPropertyOp12
70
1
102
RTVSPropertyOp13
70
1
102
RTVSPropertyOp14
70
1
102
RTVSPropertyOp15
70
1
102
RTVSPropertyOp16
70
1
102
RTVSPropertyOp17
70
1
102
RTVSPropertyOp18
70
1
102
RTVSPropertyOp19
70
1
102
RTVSPropertyOp20
70
1
102
RTVSPropertyOp21
70
1
102
RTVSPropertyOp22
70
1
102
RTVSPropertyOp23
70
1
102
RTVSPropertyOp24
70
1
102
RTVSPropertyOp25
70
1
102
RTVSPropertyOp26
70
1
102
RTVSPropertyOp27
70
1
0
XRECORD
5
1085
102
{ACAD_REACTORS
330
1084
102
}
330
1084
100
AcDbXrecord
280
1
102
RTVSPropertyOp0
70
1
102
RTVSPropertyOp1
70
1
102
RTVSPropertyOp2
70
1
102
RTVSPropertyOp3
70
1
102
RTVSPropertyOp4
70
1
102
RTVSPropertyOp5
70
1
102
RTVSPropertyOp6
70
1
102
RTVSPropertyOp7
70
1
102
RTVSPropertyOp8
70
1
102
RTVSPropertyOp9
70
1
102
RTVSPropertyOp10
70
1
102
RTVSPropertyOp11
70
1
102
RTVSPropertyOp12
70
1
102
RTVSPropertyOp13
70
1
102
RTVSPropertyOp14
70
1
102
RTVSPropertyOp15
70
1
102
RTVSPropertyOp16
70
1
102
RTVSPropertyOp17
70
1
102
RTVSPropertyOp18
70
1
102
RTVSPropertyOp19
70
1
102
RTVSPropertyOp20
70
1
102
RTVSPropertyOp21
70
1
102
RTVSPropertyOp22
70
1
102
RTVSPropertyOp23
70
1
102
RTVSPropertyOp24
70
1
102
RTVSPropertyOp25
70
1
102
RTVSPropertyOp26
70
1
102
RTVSPropertyOp27
70
1
0
XRECORD
5
1087
102
{ACAD_REACTORS
330
1086
102
}
330
1086
100
AcDbXrecord
280
1
102
RTVSPropertyOp0
70
1
102
RTVSPropertyOp1
70
1
102
RTVSPropertyOp2
70
1
102
RTVSPropertyOp3
70
1
102
RTVSPropertyOp4
70
1
102
RTVSPropertyOp5
70
1
102
RTVSPropertyOp6
70
1
102
RTVSPropertyOp7
70
1
102
RTVSPropertyOp8
70
1
102
RTVSPropertyOp9
70
1
102
RTVSPropertyOp10
70
1
102
RTVSPropertyOp11
70
1
102
RTVSPropertyOp12
70
1
102
RTVSPropertyOp13
70
1
102
RTVSPropertyOp14
70
1
102
RTVSPropertyOp15
70
1
102
RTVSPropertyOp16
70
1
102
RTVSPropertyOp17
70
1
102
RTVSPropertyOp18
70
1
102
RTVSPropertyOp19
70
1
102
RTVSPropertyOp20
70
1
102
RTVSPropertyOp21
70
1
102
RTVSPropertyOp22
70
1
102
RTVSPropertyOp23
70
1
102
RTVSPropertyOp24
70
1
102
RTVSPropertyOp25
70
1
102
RTVSPropertyOp26
70
1
102
RTVSPropertyOp27
70
1
0
XRECORD
5
10A1
102
{ACAD_REACTORS
330
10A0
102
}
330
10A0
100
AcDbXrecord
280
1
102
RTVSPropertyOp0
70
0
102
RTVSPropertyOp1
70
0
102
RTVSPropertyOp2
70
0
102
RTVSPropertyOp3
70
0
102
RTVSPropertyOp4
70
0
102
RTVSPropertyOp5
70
0
102
RTVSPropertyOp6
70
0
102
RTVSPropertyOp7
70
0
102
RTVSPropertyOp8
70
0
102
RTVSPropertyOp9
70
0
102
RTVSPropertyOp10
70
0
102
RTVSPropertyOp11
70
0
102
RTVSPropertyOp12
70
0
102
RTVSPropertyOp13
70
0
102
RTVSPropertyOp14
70
2
102
RTVSPropertyOp15
70
0
102
RTVSPropertyOp16
70
0
102
RTVSPropertyOp17
70
0
102
RTVSPropertyOp18
70
0
102
RTVSPropertyOp19
70
0
102
RTVSPropertyOp20
70
0
102
RTVSPropertyOp21
70
0
102
RTVSPropertyOp22
70
0
102
RTVSPropertyOp23
70
0
102
RTVSPropertyOp24
70
0
102
RTVSPropertyOp25
70
0
102
RTVSPropertyOp26
70
0
102
RTVSPropertyOp27
70
0
0
XRECORD
5
109B
102
{ACAD_REACTORS
330
109A
102
}
330
109A
100
AcDbXrecord
280
1
102
RTVSPropertyOp0
70
1
102
RTVSPropertyOp1
70
1
102
RTVSPropertyOp2
70
1
102
RTVSPropertyOp3
70
1
102
RTVSPropertyOp4
70
1
102
RTVSPropertyOp5
70
1
102
RTVSPropertyOp6
70
1
102
RTVSPropertyOp7
70
1
102
RTVSPropertyOp8
70
1
102
RTVSPropertyOp9
70
1
102
RTVSPropertyOp10
70
1
102
RTVSPropertyOp11
70
1
102
RTVSPropertyOp12
70
1
102
RTVSPropertyOp13
70
1
102
RTVSPropertyOp14
70
1
102
RTVSPropertyOp15
70
1
102
RTVSPropertyOp16
70
1
102
RTVSPropertyOp17
70
1
102
RTVSPropertyOp18
70
1
102
RTVSPropertyOp19
70
1
102
RTVSPropertyOp20
70
1
102
RTVSPropertyOp21
70
1
102
RTVSPropertyOp22
70
1
102
RTVSPropertyOp23
70
1
102
RTVSPropertyOp24
70
1
102
RTVSPropertyOp25
70
1
102
RTVSPropertyOp26
70
1
102
RTVSPropertyOp27
70
1
0
XRECORD
5
10A3
102
{ACAD_REACTORS
330
10A2
102
}
330
10A2
100
AcDbXrecord
280
1
102
RTVSPropertyOp0
70
0
102
RTVSPropertyOp1
70
0
102
RTVSPropertyOp2
70
0
102
RTVSPropertyOp3
70
0
102
RTVSPropertyOp4
70
0
102
RTVSPropertyOp5
70
0
102
RTVSPropertyOp6
70
0
102
RTVSPropertyOp7
70
0
102
RTVSPropertyOp8
70
0
102
RTVSPropertyOp9
70
0
102
RTVSPropertyOp10
70
0
102
RTVSPropertyOp11
70
0
102
RTVSPropertyOp12
70
0
102
RTVSPropertyOp13
70
0
102
RTVSPropertyOp14
70
2
102
RTVSPropertyOp15
70
0
102
RTVSPropertyOp16
70
0
102
RTVSPropertyOp17
70
0
102
RTVSPropertyOp18
70
0
102
RTVSPropertyOp19
70
0
102
RTVSPropertyOp20
70
0
102
RTVSPropertyOp21
70
0
102
RTVSPropertyOp22
70
0
102
RTVSPropertyOp23
70
0
102
RTVSPropertyOp24
70
0
102
RTVSPropertyOp25
70
0
102
RTVSPropertyOp26
70
0
102
RTVSPropertyOp27
70
0
0
XRECORD
5
1093
102
{ACAD_REACTORS
330
1092
102
}
330
1092
100
AcDbXrecord
280
1
102
RTVSPropertyOp0
70
1
102
RTVSPropertyOp1
70
1
102
RTVSPropertyOp2
70
1
102
RTVSPropertyOp3
70
1
102
RTVSPropertyOp4
70
1
102
RTVSPropertyOp5
70
1
102
RTVSPropertyOp6
70
1
102
RTVSPropertyOp7
70
1
102
RTVSPropertyOp8
70
1
102
RTVSPropertyOp9
70
1
102
RTVSPropertyOp10
70
1
102
RTVSPropertyOp11
70
1
102
RTVSPropertyOp12
70
1
102
RTVSPropertyOp13
70
1
102
RTVSPropertyOp14
70
1
102
RTVSPropertyOp15
70
1
102
RTVSPropertyOp16
70
1
102
RTVSPropertyOp17
70
1
102
RTVSPropertyOp18
70
1
102
RTVSPropertyOp19
70
1
102
RTVSPropertyOp20
70
1
102
RTVSPropertyOp21
70
1
102
RTVSPropertyOp22
70
1
102
RTVSPropertyOp23
70
1
102
RTVSPropertyOp24
70
1
102
RTVSPropertyOp25
70
1
102
RTVSPropertyOp26
70
1
102
RTVSPropertyOp27
70
1
0
XRECORD
5
1099
102
{ACAD_REACTORS
330
1098
102
}
330
1098
100
AcDbXrecord
280
1
102
RTVSPropertyOp0
70
1
102
RTVSPropertyOp1
70
1
102
RTVSPropertyOp2
70
1
102
RTVSPropertyOp3
70
1
102
RTVSPropertyOp4
70
1
102
RTVSPropertyOp5
70
1
102
RTVSPropertyOp6
70
1
102
RTVSPropertyOp7
70
1
102
RTVSPropertyOp8
70
1
102
RTVSPropertyOp9
70
1
102
RTVSPropertyOp10
70
1
102
RTVSPropertyOp11
70
1
102
RTVSPropertyOp12
70
1
102
RTVSPropertyOp13
70
1
102
RTVSPropertyOp14
70
1
102
RTVSPropertyOp15
70
1
102
RTVSPropertyOp16
70
1
102
RTVSPropertyOp17
70
1
102
RTVSPropertyOp18
70
1
102
RTVSPropertyOp19
70
1
102
RTVSPropertyOp20
70
1
102
RTVSPropertyOp21
70
1
102
RTVSPropertyOp22
70
1
102
RTVSPropertyOp23
70
1
102
RTVSPropertyOp24
70
1
102
RTVSPropertyOp25
70
1
102
RTVSPropertyOp26
70
1
102
RTVSPropertyOp27
70
1
0
ENDSEC
0
EOF
